osu file format v14

[General]
AudioFilename: audio.mp3
AudioLeadIn: 0
PreviewTime: 48329
Countdown: 0
SampleSet: Soft
StackLeniency: 0.7
Mode: 0
LetterboxInBreaks: 0
WidescreenStoryboard: 0

[Editor]
Bookmarks: 12978,23356,33735,49302,59681,70059,80437,90816,106383,116762,127140,137518,147897,158275,168654,179032,189410,199789,210167,215194
DistanceSpacing: 1
BeatDivisor: 8
GridSize: 4
TimelineZoom: 2.500004

[Metadata]
Title:brilliant
TitleUnicode:brilliant
Artist:Tokoyami Towa
ArtistUnicode:常闇トワ
Creator:Hinsvar
Version:Transience
Source:
Tags:hololive ホロライブ Vocaloid cover Virtual YouTuber VTuber Rock Japanese niki Lily
BeatmapID:2486019
BeatmapSetID:1193076

[Difficulty]
HPDrainRate:6
CircleSize:3.7
OverallDifficulty:8
ApproachRate:9.1
SliderMultiplier:3.2
SliderTickRate:1

[Events]
//Background and Video events
0,0,"konyappi.jpg",0,0
Video,0,"brilliant.mp4"
//Break Periods
2,137718,147313
//Storyboard Layer 0 (Background)
//Storyboard Layer 1 (Fail)
//Storyboard Layer 2 (Pass)
//Storyboard Layer 3 (Foreground)
//Storyboard Sound Samples

[TimingPoints]
2600,648.648648648649,4,2,1,75,1,0
18248,-100,4,2,1,5,0,0
18329,-100,4,2,1,75,0,0
20843,-100,4,2,1,5,0,0
20924,-100,4,2,1,75,0,0
22302,-100,4,2,1,5,0,0
22383,-100,4,2,1,75,0,0
23356,-200,4,2,1,60,0,0
33735,-133.333333333333,4,2,1,70,0,0
43383,-133.333333333333,4,2,1,5,0,0
43464,-133.333333333333,4,2,1,70,0,0
44113,-114.942528735632,4,2,1,75,0,0
44599,-158.730158730159,4,2,1,75,0,0
45005,-158.730158730159,4,2,1,5,0,0
45086,-158.730158730159,4,2,1,75,0,0
45410,-114.942528735632,4,2,1,75,0,0
46059,-158.730158730159,4,2,1,75,0,0
46708,-114.942528735632,4,2,1,75,0,0
47681,-158.730158730159,4,2,1,75,0,0
48005,-200,4,2,1,75,0,0
49221,-200,4,2,1,5,0,0
49302,-88.4955752212389,4,2,1,85,0,1
50437,-133.333333333333,4,2,1,85,0,1
50924,-66.6666666666667,4,2,1,85,0,1
51248,-200,4,2,1,85,0,1
51491,-200,4,2,1,5,0,1
51572,-200,4,2,1,85,0,1
51897,-88.4955752212389,4,2,1,85,0,1
53032,-100,4,2,1,85,0,1
53518,-133.333333333333,4,2,1,85,0,1
53843,-66.6666666666667,4,2,1,85,0,1
54491,-88.4955752212389,4,2,1,85,0,1
54978,-200,4,2,1,85,0,1
55627,-133.333333333333,4,2,1,85,0,1
56437,-88.4955752212389,4,2,1,85,0,1
56681,-88.4955752212389,4,2,1,5,0,1
56762,-88.4955752212389,4,2,1,85,0,1
57086,-133.333333333333,4,2,1,85,0,1
57572,-88.4955752212389,4,2,1,85,0,1
58221,-66.6666666666667,4,2,1,85,0,1
58464,-66.6666666666667,4,2,1,5,0,1
58545,-200,4,2,1,85,0,1
58789,-200,4,2,1,5,0,1
58870,-200,4,2,1,85,0,1
59681,-133.333333333333,4,2,1,85,0,1
60167,-88.4955752212389,4,2,1,85,0,1
60816,-200,4,2,1,85,0,1
61302,-66.6666666666667,4,2,1,85,0,1
61627,-88.4955752212389,4,2,1,85,0,1
61870,-88.4955752212389,4,2,1,5,0,1
61951,-88.4955752212389,4,2,1,85,0,1
62275,-133.333333333333,4,2,1,85,0,1
62762,-88.4955752212389,4,2,1,85,0,1
63410,-200,4,2,1,85,0,1
63897,-88.4955752212389,4,2,1,85,0,1
64221,-66.6666666666667,4,2,1,85,0,1
64464,-66.6666666666667,4,2,1,5,0,1
64545,-66.6666666666667,4,2,1,85,0,1
64870,-88.4955752212389,4,2,1,85,0,1
65356,-200,4,2,1,85,0,1
66005,-88.4955752212389,4,2,1,85,0,1
66897,-88.4955752212389,4,2,1,5,0,1
66978,-88.4955752212389,4,2,1,85,0,1
67059,-88.4955752212389,4,2,1,5,0,1
67140,-88.4955752212389,4,2,1,85,0,1
67464,-133.333333333333,4,2,1,85,0,1
67951,-88.4955752212389,4,2,1,85,0,1
68599,-66.6666666666667,4,2,1,85,0,1
69086,-200,4,2,1,85,0,1
69329,-200,4,2,1,5,0,1
69410,-88.4955752212389,4,2,1,85,0,1
69654,-88.4955752212389,4,2,1,5,0,1
69735,-88.4955752212389,4,2,1,85,0,1
70059,-100,4,2,1,75,0,0
72735,-100,4,2,1,5,0,0
72816,-100,4,2,1,75,0,0
73059,-100,4,2,1,5,0,0
73140,-100,4,2,1,75,0,0
74032,-100,4,2,1,5,0,0
74113,-100,4,2,1,75,0,0
75329,-100,4,2,1,5,0,0
75410,-100,4,2,1,75,0,0
75654,-100,4,2,1,5,0,0
75735,-100,4,2,1,75,0,0
77924,-100,4,2,1,5,0,0
78005,-100,4,2,1,75,0,0
78248,-100,4,2,1,5,0,0
78329,-100,4,2,1,75,0,0
78897,-100,4,2,1,5,0,0
78978,-100,4,2,1,75,0,0
80437,-158.730158730159,4,2,1,65,0,0
90410,-158.730158730159,4,2,1,5,0,0
90491,-158.730158730159,4,2,1,65,0,0
90816,-133.333333333333,4,2,1,70,0,0
100464,-133.333333333333,4,2,1,5,0,0
100545,-133.333333333333,4,2,1,70,0,0
101194,-114.942528735632,4,2,1,75,0,0
101681,-158.730158730159,4,2,1,75,0,0
102086,-158.730158730159,4,2,1,5,0,0
102167,-158.730158730159,4,2,1,75,0,0
102491,-114.942528735632,4,2,1,75,0,0
103140,-158.730158730159,4,2,1,75,0,0
103789,-114.942528735632,4,2,1,75,0,0
104762,-158.730158730159,4,2,1,75,0,0
105005,-158.730158730159,4,2,1,5,0,0
105086,-114.942528735632,4,2,1,75,0,0
106059,-100,4,2,1,75,0,0
106383,-88.4955752212389,4,2,1,85,0,1
107518,-133.333333333333,4,2,1,85,0,1
108005,-66.6666666666667,4,2,1,85,0,1
108329,-88.4955752212389,4,2,1,85,0,1
109059,-88.4955752212389,4,2,1,5,0,1
109140,-88.4955752212389,4,2,1,85,0,1
110113,-200,4,2,1,85,0,1
110599,-100,4,2,1,85,0,1
110924,-66.6666666666667,4,2,1,85,0,1
111572,-88.4955752212389,4,2,1,85,0,1
112059,-200,4,2,1,85,0,1
112708,-133.333333333333,4,2,1,85,0,1
113518,-88.4955752212389,4,2,1,85,0,1
113762,-88.4955752212389,4,2,1,5,0,1
113843,-88.4955752212389,4,2,1,85,0,1
114654,-133.333333333333,4,2,1,85,0,1
115302,-66.6666666666667,4,2,1,85,0,1
115545,-66.6666666666667,4,2,1,5,0,1
115627,-200,4,2,1,85,0,1
115870,-200,4,2,1,5,0,1
115951,-200,4,2,1,85,0,1
116356,-200,4,2,1,5,0,1
116437,-200,4,2,1,85,0,1
116762,-133.333333333333,4,2,1,85,0,1
117248,-88.4955752212389,4,2,1,85,0,1
117897,-200,4,2,1,85,0,1
118383,-66.6666666666667,4,2,1,85,0,1
118708,-88.4955752212389,4,2,1,85,0,1
118951,-88.4955752212389,4,2,1,5,0,1
119032,-88.4955752212389,4,2,1,85,0,1
120491,-200,4,2,1,85,0,1
120978,-88.4955752212389,4,2,1,85,0,1
121302,-66.6666666666667,4,2,1,85,0,1
121545,-66.6666666666667,4,2,1,5,0,1
121627,-66.6666666666667,4,2,1,85,0,1
121951,-88.4955752212389,4,2,1,85,0,1
122437,-200,4,2,1,85,0,1
123086,-88.4955752212389,4,2,1,85,0,1
123978,-88.4955752212389,4,2,1,5,0,1
124059,-88.4955752212389,4,2,1,85,0,1
124140,-88.4955752212389,4,2,1,5,0,1
124221,-88.4955752212389,4,2,1,85,0,1
124545,-133.333333333333,4,2,1,85,0,1
125032,-88.4955752212389,4,2,1,85,0,1
125681,-66.6666666666667,4,2,1,85,0,1
126167,-133.333333333333,4,2,1,85,0,1
126410,-133.333333333333,4,2,1,5,0,1
126491,-133.333333333333,4,2,1,85,0,1
126816,-88.4955752212389,4,2,1,85,0,1
127140,-100,4,2,1,75,0,0
130789,-100,4,2,1,5,0,0
130870,-100,4,2,1,75,0,0
132410,-100,4,2,1,5,0,0
132491,-100,4,2,1,75,0,0
132735,-100,4,2,1,5,0,0
132816,-100,4,2,1,75,0,0
135005,-100,4,2,1,5,0,0
135086,-100,4,2,1,75,0,0
135329,-100,4,2,1,5,0,0
135410,-100,4,2,1,75,0,0
135978,-100,4,2,1,5,0,0
136059,-100,4,2,1,75,0,0
137518,-133.333333333333,4,2,1,60,0,0
152437,-100,4,2,1,60,0,0
153086,-200,4,2,1,70,0,0
154383,-133.333333333333,4,2,1,70,0,0
156978,-133.333333333333,4,2,1,50,0,0
157627,-200,4,2,1,75,0,0
158194,-200,4,2,1,5,0,0
158275,-88.4955752212389,4,2,1,85,0,1
159410,-133.333333333333,4,2,1,85,0,1
159897,-66.6666666666667,4,2,1,85,0,1
160221,-200,4,2,1,85,0,1
160464,-200,4,2,1,5,0,1
160545,-200,4,2,1,85,0,1
160870,-88.4955752212389,4,2,1,85,0,1
161356,-133.333333333333,4,2,1,85,0,1
162005,-200,4,2,1,85,0,1
162491,-100,4,2,1,85,0,1
162816,-66.6666666666667,4,2,1,85,0,1
163464,-88.4955752212389,4,2,1,85,0,1
163951,-200,4,2,1,85,0,1
164599,-133.333333333333,4,2,1,85,0,1
165410,-88.4955752212389,4,2,1,85,0,1
165654,-88.4955752212389,4,2,1,5,0,1
165735,-88.4955752212389,4,2,1,85,0,1
166059,-133.333333333333,4,2,1,85,0,1
166545,-88.4955752212389,4,2,1,85,0,1
167194,-66.6666666666667,4,2,1,85,0,1
167437,-66.6666666666667,4,2,1,5,0,1
167518,-200,4,2,1,85,0,1
167762,-200,4,2,1,5,0,1
167843,-200,4,2,1,85,0,1
168248,-200,4,2,1,5,0,1
168329,-200,4,2,1,85,0,1
168654,-133.333333333333,4,2,1,85,0,1
169140,-88.4955752212389,4,2,1,85,0,1
169789,-200,4,2,1,85,0,1
170275,-66.6666666666667,4,2,1,85,0,1
170599,-88.4955752212389,4,2,1,85,0,1
170843,-88.4955752212389,4,2,1,5,0,1
170924,-88.4955752212389,4,2,1,85,0,1
171248,-133.333333333333,4,2,1,85,0,1
171735,-88.4955752212389,4,2,1,85,0,1
172383,-200,4,2,1,85,0,1
172870,-88.4955752212389,4,2,1,85,0,1
173194,-66.6666666666667,4,2,1,85,0,1
173437,-66.6666666666667,4,2,1,5,0,1
173518,-66.6666666666667,4,2,1,85,0,1
173843,-88.4955752212389,4,2,1,85,0,1
174329,-200,4,2,1,85,0,1
174978,-88.4955752212389,4,2,1,85,0,1
175870,-88.4955752212389,4,2,1,5,0,1
175951,-88.4955752212389,4,2,1,85,0,1
176032,-88.4955752212389,4,2,1,5,0,1
176113,-88.4955752212389,4,2,1,85,0,1
176437,-133.333333333333,4,2,1,85,0,1
176924,-88.4955752212389,4,2,1,85,0,1
178383,-133.333333333333,4,2,1,85,0,0
178627,-133.333333333333,4,2,1,5,0,0
178708,-133.333333333333,4,2,1,85,0,0
179032,-88.4955752212389,4,2,1,85,0,1
180167,-133.333333333333,4,2,1,85,0,1
180654,-66.6666666666667,4,2,1,85,0,1
180978,-88.4955752212389,4,2,1,85,0,1
181708,-88.4955752212389,4,2,1,5,0,1
181789,-88.4955752212389,4,2,1,85,0,1
182762,-200,4,2,1,85,0,1
183248,-100,4,2,1,85,0,1
183572,-66.6666666666667,4,2,1,85,0,1
184221,-88.4955752212389,4,2,1,85,0,1
184708,-200,4,2,1,85,0,1
185356,-133.333333333333,4,2,1,85,0,1
186167,-88.4955752212389,4,2,1,85,0,1
186410,-88.4955752212389,4,2,1,5,0,1
186491,-88.4955752212389,4,2,1,85,0,1
187302,-133.333333333333,4,2,1,85,0,1
187951,-66.6666666666667,4,2,1,85,0,1
188194,-66.6666666666667,4,2,1,5,0,1
188275,-200,4,2,1,85,0,1
188518,-200,4,2,1,5,0,1
188599,-200,4,2,1,85,0,1
189005,-200,4,2,1,5,0,1
189086,-200,4,2,1,85,0,1
189410,-133.333333333333,4,2,1,85,0,1
189897,-88.4955752212389,4,2,1,85,0,1
190545,-200,4,2,1,85,0,1
191032,-66.6666666666667,4,2,1,85,0,1
191356,-88.4955752212389,4,2,1,85,0,1
191599,-88.4955752212389,4,2,1,5,0,1
191681,-88.4955752212389,4,2,1,85,0,1
193140,-200,4,2,1,85,0,1
193627,-88.4955752212389,4,2,1,85,0,1
193951,-66.6666666666667,4,2,1,85,0,1
194194,-66.6666666666667,4,2,1,5,0,1
194275,-66.6666666666667,4,2,1,85,0,1
194599,-88.4955752212389,4,2,1,85,0,1
195086,-133.333333333333,4,2,1,85,0,1
195735,-88.4955752212389,4,2,1,85,0,1
196627,-88.4955752212389,4,2,1,5,0,1
196708,-88.4955752212389,4,2,1,85,0,1
196789,-88.4955752212389,4,2,1,5,0,1
196870,-88.4955752212389,4,2,1,85,0,1
197194,-133.333333333333,4,2,1,85,0,1
197681,-88.4955752212389,4,2,1,85,0,1
198329,-66.6666666666667,4,2,1,85,0,1
198816,-100,4,2,1,85,0,1
199059,-133.333333333333,4,2,1,5,0,1
199140,-88.4955752212389,4,2,1,85,0,1
199221,-88.4955752212389,4,2,1,5,0,1
199302,-88.4955752212389,4,2,1,85,0,1
199789,-100,4,2,1,75,0,0
199870,-100,4,2,1,5,0,0
199951,-100,4,2,1,75,0,0
200194,-100,4,2,1,5,0,0
200275,-100,4,2,1,75,0,0
203437,-100,4,2,1,5,0,0
203518,-100,4,2,1,75,0,0
204572,-100,4,2,1,5,0,0
204654,-100,4,2,1,75,0,0
205059,-100,4,2,1,5,0,0
205140,-100,4,2,1,75,0,0
205383,-100,4,2,1,5,0,0
205464,-100,4,2,1,75,0,0
207654,-100,4,2,1,5,0,0
207735,-100,4,2,1,75,0,0
210167,-100,4,2,1,60,0,0
215194,-100,4,2,1,20,0,0

[Colours]
Combo1 : 167,9,206
Combo2 : 255,157,206
Combo3 : 32,183,255
Combo4 : 131,245,252

[HitObjects]
297,268,12654,5,8,0:0:0:0:
307,274,12735,1,8,0:0:0:0:
317,280,12816,1,8,0:0:0:0:
327,286,12897,1,8,0:0:0:0:
337,292,12978,6,0,P|346:245|371:216,1,80,6|0,0:0|3:0,0:0:0:0:
311,78,13302,1,0,0:0:0:0:
128,186,13464,2,0,B|169:175|200:148|200:148|231:146|278:174,1,160,2|0,3:2|3:0,0:0:0:0:
422,306,13951,1,10,0:0:0:0:
285,360,14113,6,0,B|237:380|202:352|206:342|177:313|118:337,2,160,2|2|0,3:2|3:2|3:0,0:0:0:0:
204,157,14924,1,10,0:0:0:0:
50,273,15086,1,0,3:0:0:0:
35,159,15248,2,0,B|65:187|65:187|111:178,1,80,0|0,3:0|0:0,0:0:0:0:
258,30,15572,5,6,0:0:0:0:
369,147,15735,2,0,P|367:108|339:64,1,80,0|0,3:0|0:0,0:0:0:0:
311,241,16059,2,0,P|259:212|234:102,1,160,2|0,3:2|3:0,0:0:0:0:
76,8,16545,1,10,0:0:0:0:
3,134,16708,6,0,P|86:95|172:78,2,160,2|2|0,3:2|3:2|3:0,0:0:0:0:
114,259,17518,2,0,B|108:299|108:299|80:347,1,80,10|0,0:0|0:0,0:0:0:0:
262,203,17843,1,8,0:0:0:0:
257,238,17924,1,8,0:0:0:0:
267,272,18005,1,8,0:0:0:0:
287,301,18086,1,8,0:0:0:0:
318,318,18167,6,0,P|337:310|367:309,1,40,6|0,0:0|0:0,0:0:0:0:
466,315,18329,2,0,P|425:308|393:278,1,80,0|0,3:0|0:0,0:0:0:0:
507,135,18654,2,0,B|465:118|430:153|439:159|401:193|353:172,1,160,2|0,3:2|3:0,0:0:0:0:
256,23,19140,1,10,0:0:0:0:
131,75,19302,6,0,P|172:116|267:108,2,160,0|0|0,3:0|3:0|3:0,0:0:0:0:
295,268,20113,1,10,0:0:0:0:
340,175,20275,1,0,0:0:0:0:
200,321,20437,2,0,P|185:282|159:248,1,80,2|2,3:2|0:0,0:0:0:0:
97,195,20681,1,2,0:0:0:0:
74,224,20762,6,0,P|47:231|32:233,1,40,6|0,0:0|0:0,0:0:0:0:
0,310,20924,2,0,P|44:314|79:334,1,80,0|0,3:0|0:0,0:0:0:0:
259,382,21248,2,0,P|240:309|243:221,1,160,2|0,3:2|0:0,0:0:0:0:
332,50,21735,2,0,B|357:82|357:82|343:129,1,80,10|0,0:0|3:0,0:0:0:0:
505,246,22059,6,0,P|467:295|407:280,1,120,10|0,0:0|0:0,0:0:0:0:
327,264,22383,2,0,B|346:249|362:245|362:245|377:257|405:263,1,80,10|0,0:0|0:0,0:0:0:0:
263,129,22708,1,10,0:0:0:0:
246,140,23356,6,0,P|241:115|234:92,1,40,4|0,3:2|0:0,0:0:0:0:
152,11,23681,2,0,P|134:64|140:99,1,80,2|8,0:0|0:0,0:0:0:0:
50,147,24167,1,2,0:0:0:0:
64,168,24491,6,0,P|111:179|141:203,1,80,2|0,0:0|0:0,0:0:0:0:
277,290,25140,2,0,P|303:260|308:209,2,80,2|2|0,0:0|0:0|0:0,0:0:0:0:
156,352,25951,5,10,0:0:0:0:
137,335,26275,2,0,P|129:311|130:290,2,40,2|0|0,0:0|0:0|0:0,0:0:0:0:
254,132,26924,5,10,0:0:0:0:
353,241,27086,2,0,P|314:225|266:215,1,80,2|0,0:0|0:0,0:0:0:0:
150,280,27572,1,10,0:0:0:0:
164,298,27897,2,0,P|176:262|186:203,1,80,2|0,0:0|0:0,0:0:0:0:
56,76,28545,6,0,P|81:66|105:66,1,40,4|0,3:2|0:0,0:0:0:0:
260,46,28870,2,0,P|216:46|189:8,1,80,2|8,0:0|0:0,0:0:0:0:
164,130,29356,1,2,0:0:0:0:
177,152,29681,6,0,P|188:185|194:242,1,80,2|0,0:0|0:0,0:0:0:0:
325,368,30329,2,0,P|310:339|333:289,1,80,2|2,0:0|0:0,0:0:0:0:
508,214,30978,1,10,0:0:0:0:
508,214,31059,1,10,0:0:0:0:
508,214,31140,6,0,P|466:206|434:183,1,80,10|0,0:0|0:0,0:0:0:0:
376,111,31627,1,0,0:0:0:0:
217,201,31789,1,10,0:0:0:0:
211,178,32113,5,10,0:0:0:0:
266,277,32275,2,0,P|304:256|306:210,1,80,2|0,0:0|0:0,0:0:0:0:
453,347,32762,1,10,0:0:0:0:
392,167,33086,5,2,0:0:0:0:
392,167,33735,6,0,P|387:132|387:94,1,60.0000022888184,6|0,3:2|0:0,0:0:0:0:
240,26,34059,2,0,P|288:49|262:114,1,120.000004577637,2|8,3:2|0:0,0:0:0:0:
180,202,34545,2,0,P|162:182|124:165,1,60.0000022888184,2|0,0:0|3:0,0:0:0:0:
28,95,34870,6,0,P|84:90|149:68,1,120.000004577637,2|0,0:0|0:0,0:0:0:0:
368,20,35518,2,0,P|419:40|445:109,1,120.000004577637,2|0,0:0|0:0,0:0:0:0:
372,166,36005,1,0,3:0:0:0:
469,311,36167,1,8,0:0:0:0:
469,311,36248,1,8,0:0:0:0:
469,311,36329,6,0,B|438:293|419:272|419:272|392:265|343:289,1,120.000004577637,10|0,0:0|3:0,0:0:0:0:
285,354,36816,1,2,0:0:0:0:
133,266,36978,2,0,B|162:283|162:283|198:271,1,60.0000022888184,8|0,0:0|0:0,0:0:0:0:
297,155,37302,2,0,B|264:146|264:146|232:166,1,60.0000022888184,10|0,0:0|0:0,0:0:0:0:
351,304,37627,5,0,3:0:0:0:
433,336,37789,1,0,3:0:0:0:
512,169,37951,1,10,0:0:0:0:
483,185,38275,2,0,B|476:152|449:135|449:135|448:98|465:71,1,120.000004577637,10|8,0:0|0:0,0:0:0:0:
307,28,38762,1,8,0:0:0:0:
307,28,38843,1,8,0:0:0:0:
307,28,38924,6,0,P|336:23|357:-4,1,60.0000022888184,6|0,3:2|0:0,0:0:0:0:
259,126,39248,2,0,B|218:125|202:105|209:100|191:82|149:91,1,120.000004577637,2|8,3:2|0:0,0:0:0:0:
14,22,39735,2,0,P|31:54|24:86,1,60.0000022888184,2|0,0:0|3:0,0:0:0:0:
50,219,40059,6,0,P|99:173|155:181,1,120.000004577637,2|0,0:0|0:0,0:0:0:0:
261,326,40708,2,0,P|310:356|385:359,1,120.000004577637,2|0,0:0|0:0,0:0:0:0:
498,307,41194,2,0,P|469:294|438:301,1,60.0000022888184,0|8,3:0|0:0,0:0:0:0:
394,240,41437,1,8,0:0:0:0:
394,240,41518,6,0,B|405:195|389:184|381:189|363:174|372:122,1,120.000004577637,10|0,0:0|3:0,0:0:0:0:
432,11,42005,1,0,0:0:0:0:
297,77,42167,2,0,P|284:51|283:13,1,60.0000022888184,2|0,3:2|0:0,0:0:0:0:
163,154,42491,6,0,P|150:172|148:210,1,60.0000022888184,2|0,3:2|0:0,0:0:0:0:
107,59,42816,1,0,3:0:0:0:
271,159,42978,1,0,3:0:0:0:
191,313,43140,2,0,B|171:302|153:284|153:284|123:288|108:302,1,90.0000034332277,8|0,0:0|0:0,0:0:0:0:
52,344,43464,2,0,B|38:318|21:304|21:304|17:272|41:223,1,120.000004577637,2|8,3:2|0:0,0:0:0:0:
126,74,43951,1,8,0:0:0:0:
126,74,44032,1,8,0:0:0:0:
126,74,44113,6,0,P|157:124|177:221,1,139.200001168213,6|0,3:2|0:0,0:0:0:0:
297,327,44600,6,0,B|334:302|345:281|345:281|382:288|404:302,1,125.999996154785,10|0,0:0|0:0,0:0:0:0:
470,344,45086,2,0,B|484:324|484:324|479:282,1,50.3999984619141,8|2,0:0|0:0,0:0:0:0:
454,227,45329,1,2,3:2:0:0:
454,227,45410,5,6,3:2:0:0:
406,62,45572,2,0,P|391:89|387:135,1,69.6000005841065
254,171,45897,1,8,0:0:0:0:
176,60,46059,6,0,P|227:69|279:97,1,100.799996923828,2|8,0:0|0:0,0:0:0:0:
492,276,46708,6,0,B|441:251|389:288|407:301|346:351|299:320,1,208.800001752319,14|8,0:0|0:0,0:0:0:0:
311,215,47356,2,0,P|276:213|242:236,1,69.6000005841065,2|0,0:0|0:0,0:0:0:0:
105,332,47681,6,0,B|124:351|124:351|160:337,1,50.3999984619141,0|2,3:0|0:0,0:0:0:0:
143,262,47924,1,2,0:0:0:0:
143,262,48005,6,0,B|78:230|66:149|112:96|169:81|230:122|171:193,1,300,4|0,3:2|0:0,0:0:0:0:
232,254,49302,6,0,B|284:283|319:242|309:229|350:193|401:215,1,180.800000551758,6|0,3:2|0:0,0:0:0:0:
291,106,49789,2,0,P|275:55|310:19,1,90.4000002758789,2|0,3:2|0:0,0:0:0:0:
182,196,50113,1,0,3:0:0:0:
26,29,50275,1,8,0:0:0:0:
185,88,50437,6,0,P|120:130|59:137,1,120.000004577637,2|0,0:0|3:0,0:0:0:0:
164,361,50924,6,0,P|152:302|121:249,1,120.000004577637,2|0,0:0|0:0,0:0:0:0:
257,148,51248,6,0,P|290:171|310:175,1,60,8|0,0:0|0:0,0:0:0:0:
425,144,51572,5,8,0:0:0:0:
456,162,51654,1,8,0:0:0:0:
473,193,51735,1,8,0:0:0:0:
462,227,51816,1,8,0:0:0:0:
441,262,51897,6,0,P|348:275|295:380,1,180.800000551758,6|0,0:0|0:0,0:0:0:0:
170,195,52383,2,0,P|156:264|236:245,1,180.800000551758,2|0,0:0|0:0,0:0:0:0:
382,367,52870,1,8,0:0:0:0:
465,151,53032,6,0,B|439:118|400:131|400:131|377:171|316:159,1,160,2|0,3:2|3:0,0:0:0:0:
138,56,53518,6,0,P|152:90|148:128,1,60.0000022888184,2|0,0:0|0:0,0:0:0:0:
25,304,53843,6,0,B|98:308|139:277|139:277|201:283|218:364,1,240.000009155274,10|2,0:0|3:2,0:0:0:0:
430,238,54329,1,0,3:0:0:0:
457,191,54410,1,0,3:0:0:0:
436,140,54491,6,0,P|348:122|316:195,1,180.800000551758,6|0,3:2|0:0,0:0:0:0:
103,98,54978,6,0,P|114:126|168:119,1,80,2|0,3:2|0:0,0:0:0:0:
306,21,55464,1,8,0:0:0:0:
235,166,55627,6,0,P|200:123|222:42,1,120.000004577637,2|0,3:2|3:0,0:0:0:0:
334,215,56113,1,2,0:0:0:0:
489,77,56275,1,0,3:0:0:0:
489,77,56356,1,0,3:0:0:0:
489,77,56437,6,0,B|456:68|430:79|430:79|413:104|421:153,1,135.600000413818,8|0,0:0|0:0,0:0:0:0:
456,279,56762,5,8,0:0:0:0:
433,313,56843,1,8,0:0:0:0:
399,336,56924,1,8,0:0:0:0:
358,330,57005,1,8,0:0:0:0:
328,302,57086,6,0,P|278:267|224:282,1,120.000004577637,6|0,0:0|0:0,0:0:0:0:
37,168,57572,6,0,P|110:217|202:193,1,180.800000551758,2|0,3:2|0:0,0:0:0:0:
130,28,58059,1,10,0:0:0:0:
386,87,58221,6,0,P|305:69|274:156,1,180.000006866455,2|0,3:2|0:0,0:0:0:0:
333,234,58545,6,0,P|347:245|361:290,1,60,0|0,3:0|0:0,0:0:0:0:
426,333,58870,1,8,0:0:0:0:
433,339,58951,1,8,0:0:0:0:
442,345,59032,2,0,P|475:310|479:288,1,60,10|0,0:0|0:0,0:0:0:0:
440,177,59356,5,8,0:0:0:0:
412,153,59437,1,8,0:0:0:0:
403,118,59518,1,8,0:0:0:0:
417,84,59600,1,8,0:0:0:0:
443,63,59681,6,0,B|424:26|392:24|392:24|359:46|316:41,1,120.000004577637,6|0,0:0|0:0,0:0:0:0:
124,123,60167,6,0,P|212:130|289:186,1,180.800000551758,2|0,3:2|3:0,0:0:0:0:
361,344,60654,1,8,0:0:0:0:
475,297,60816,6,0,P|467:265|433:281,1,80,2|0,3:2|3:0,0:0:0:0:
259,195,61302,6,0,P|326:190|349:147,1,120.000004577637,2|0,0:0|0:0,0:0:0:0:
128,46,61627,6,0,B|133:71|163:117|163:117|141:113|106:156,1,135.600000413818,8|0,0:0|0:0,0:0:0:0:
36,247,61951,5,8,0:0:0:0:
41,287,62032,1,8,0:0:0:0:
67,318,62113,1,8,0:0:0:0:
106,329,62194,1,8,0:0:0:0:
145,318,62275,6,0,P|176:303|211:304,1,60.0000022888184,6|0,0:0|0:0,0:0:0:0:
351,347,62600,1,2,0:0:0:0:
160,172,62762,6,0,P|245:216|353:211,1,180.800000551758,2|0,0:0|0:0,0:0:0:0:
412,42,63248,1,8,0:0:0:0:
486,214,63410,6,0,P|444:216|417:176,1,80,2|0,3:2|3:0,0:0:0:0:
301,88,63897,6,0,P|265:101|237:145,1,90.4000002758789,2|0,0:0|3:0,0:0:0:0:
30,290,64221,6,0,B|85:313|104:294|104:294|118:250|95:183,1,180.000006866455,10|0,0:0|0:0,0:0:0:0:
9,92,64545,5,8,0:0:0:0:
32,42,64627,1,8,0:0:0:0:
78,14,64708,1,8,0:0:0:0:
130,26,64789,1,8,0:0:0:0:
168,63,64870,6,0,P|240:87|366:88,1,180.800000551758,6|0,0:0|0:0,0:0:0:0:
497,234,65356,6,0,P|455:226|424:242,1,80,2|0,3:2|0:0,0:0:0:0:
380,332,65843,1,8,0:0:0:0:
132,191,66005,6,0,B|209:216|209:216|217:231|217:231|299:255,1,180.800000551758,2|0,3:2|0:0,0:0:0:0:
447,150,66491,2,0,B|420:185|420:185|373:169,1,90.4000002758789,2|0,0:0|3:0,0:0:0:0:
227,48,66816,2,0,P|220:25|207:7,1,45.2000001379395,8|0,0:0|0:0,0:0:0:0:
248,125,66978,2,0,P|255:96|267:79,1,45.2000001379395,0|0,3:0|0:0,0:0:0:0:
126,177,67140,5,8,0:0:0:0:
144,213,67221,1,8,0:0:0:0:
133,252,67302,1,8,0:0:0:0:
100,277,67383,1,8,0:0:0:0:
62,267,67464,6,0,P|25:218|46:156,1,120.000004577637,6|0,0:0|0:0,0:0:0:0:
139,55,67951,6,0,B|186:42|223:74|215:84|258:120|306:98,1,180.800000551758,2|0,3:2|3:0,0:0:0:0:
476,23,68437,1,8,0:0:0:0:
431,266,68600,6,0,P|412:162|375:209,1,240.000009155274,2|0,0:0|3:0,0:0:0:0:
253,355,69086,6,0,P|229:360|195:331,1,60,2|0,0:0|0:0,0:0:0:0:
167,269,69410,6,0,B|207:256|207:256|253:276|253:276|308:260,1,135.600000413818,2|0,3:2|0:0,0:0:0:0:
439,208,69735,5,8,0:0:0:0:
465,176,69816,1,8,0:0:0:0:
470,135,69897,2,0,P|464:110|445:97,1,45.2000001379395,8|8,0:0|0:0,0:0:0:0:
359,18,70059,6,0,B|316:-10|282:24|289:31|259:66|201:48,1,160,6|0,0:0|0:0,0:0:0:0:
101,159,70545,2,0,P|124:98|41:51,1,160,2|0,3:2|3:0,0:0:0:0:
11,213,71032,1,10,0:0:0:0:
146,263,71194,5,2,3:2:0:0:
154,291,71518,1,0,3:0:0:0:
235,376,71681,6,0,P|248:345|257:284,1,80,2|0,0:0|0:0,0:0:0:0:
184,117,72005,2,0,B|172:155|172:155|197:197,1,80,10|0,0:0|0:0,0:0:0:0:
363,270,72329,1,2,3:2:0:0:
471,230,72491,1,0,3:0:0:0:
375,43,72654,6,0,P|360:59|329:63,1,40,6|0,0:0|0:0,0:0:0:0:
271,93,72816,2,0,P|344:109|379:157,1,120,0|0,3:0|0:0,0:0:0:0:
272,175,73140,2,0,P|237:237|252:336,1,160,2|0,3:2|3:0,0:0:0:0:
445,196,73627,5,14,0:0:0:0:
499,319,73789,2,0,P|438:283|375:289,1,120,0|0,3:0|0:0,0:0:0:0:
351,213,74113,2,0,P|366:281|315:364,1,160,2|0,3:2|3:0,0:0:0:0:
173,381,74600,2,0,P|151:347|98:335,1,80,2|0,0:0|0:0,0:0:0:0:
38,194,74924,1,8,0:0:0:0:
65,170,75005,1,8,0:0:0:0:
99,160,75086,1,8,0:0:0:0:
134,166,75167,1,8,0:0:0:0:
164,185,75248,6,0,P|172:204|176:233,1,40,6|0,0:0|0:0,0:0:0:0:
248,318,75410,2,0,P|256:243|273:196,1,120,0|0,3:0|0:0,0:0:0:0:
360,174,75735,2,0,P|281:165|211:110,1,160,2|0,3:2|3:0,0:0:0:0:
89,26,76221,5,10,0:0:0:0:
10,94,76383,2,0,P|75:134|98:215,1,160,0|2,3:0|3:2,0:0:0:0:
226,338,76870,2,0,P|238:299|238:252,1,80,0|2,3:0|0:0,0:0:0:0:
160,117,77194,1,8,0:0:0:0:
39,162,77356,1,0,0:0:0:0:
149,95,77518,1,8,0:0:0:0:
244,147,77681,1,0,0:0:0:0:
377,30,77843,6,0,P|384:44|389:72,1,40,4|0,0:0|0:0,0:0:0:0:
470,99,78005,2,0,P|439:170|444:228,1,120,0|0,3:0|0:0,0:0:0:0:
463,318,78329,2,0,P|433:245|346:212,1,160,2|0,3:2|3:0,0:0:0:0:
263,362,78816,6,0,P|252:344|253:322,1,40,10|0,0:0|0:0,0:0:0:0:
199,256,78978,2,0,P|273:298|345:290,1,160,0|2,3:0|3:2,0:0:0:0:
456,365,79464,1,0,0:0:0:0:
505,226,79627,1,0,3:0:0:0:
372,51,79789,6,0,B|336:76|294:77|294:77|279:36|228:28,1,160,8|8,0:0|0:0,0:0:0:0:
127,143,80275,1,8,0:0:0:0:
151,169,80356,1,8,0:0:0:0:
166,201,80437,6,0,P|166:234|156:272,1,50.3999984619141,4|0,0:0|0:0,0:0:0:0:
282,367,80762,2,0,P|259:333|278:270,1,100.799996923828,2|8,0:0|0:0,0:0:0:0:
401,190,81248,1,2,0:0:0:0:
420,171,81572,6,0,P|408:112|376:80,1,100.799996923828,2|0,0:0|0:0,0:0:0:0:
213,216,82221,2,0,P|153:225|101:185,2,100.799996923828,2|2|2,0:0|0:0|0:0,0:0:0:0:
263,149,82951,1,2,0:0:0:0:
257,123,83032,6,0,P|211:87|157:85,1,100.799996923828,2|0,0:0|0:0,0:0:0:0:
58,36,83518,1,0,0:0:0:0:
134,164,83681,2,0,B|146:193|146:193|143:224,1,50.3999984619141,10|0,0:0|0:0,0:0:0:0:
29,298,84005,2,0,B|23:269|23:269|36:237,1,50.3999984619141,2|0,0:0|0:0,0:0:0:0:
126,374,84329,5,0,3:0:0:0:
231,235,84491,1,10,0:0:0:0:
328,327,84654,2,0,P|304:307|277:309,1,50.3999984619141,2|0,0:0|0:0,0:0:0:0:
446,278,84978,1,2,3:2:0:0:
451,300,85627,6,0,B|436:325|436:325|441:359,1,50.3999984619141,14|0,0:0|0:0,0:0:0:0:
499,192,85951,2,0,P|495:135|460:84,1,100.799996923828,2|8,0:0|0:0,0:0:0:0:
308,158,86437,1,2,0:0:0:0:
298,133,86762,6,0,P|352:150|410:159,1,100.799996923828,2|0,0:0|0:0,0:0:0:0:
254,267,87410,2,0,P|216:308|205:362,1,100.799996923828,2|2,0:0|0:0,0:0:0:0:
136,275,87897,2,0,B|145:242|145:242|134:214,1,50.3999984619141,8|0,0:0|0:0,0:0:0:0:
25,95,88221,6,0,P|82:86|130:112,1,100.799996923828,2|2,3:2|0:0,0:0:0:0:
196,23,88708,1,0,0:0:0:0:
324,118,88870,2,0,B|300:151|300:151|324:226,1,100.799996923828,8|2,0:0|0:0,0:0:0:0:
416,356,89356,1,0,3:0:0:0:
448,253,89518,5,2,3:2:0:0:
309,332,89681,2,0,B|278:330|263:304|263:304|233:303|192:321,1,100.799996923828,8|0,0:0|0:0,0:0:0:0:
152,131,90167,2,0,B|171:152|171:152|159:174|154:204,1,75.5999976928712,8|0,0:0|0:0,0:0:0:0:
51,237,90491,5,8,0:0:0:0:
21,217,90572,1,8,0:0:0:0:
3,185,90654,1,8,0:0:0:0:
2,149,90735,1,8,0:0:0:0:
14,116,90816,6,0,P|67:112|86:98,1,60.0000022888184,6|0,3:2|0:0,0:0:0:0:
169,14,91140,2,0,P|213:47|231:121,1,120.000004577637,2|0,3:2|3:0,0:0:0:0:
325,207,91627,2,0,P|325:169|346:131,1,60.0000022888184,2|0,0:0|3:0,0:0:0:0:
460,33,91951,6,0,P|405:61|348:46,1,120.000004577637,2|0,0:0|0:0,0:0:0:0:
167,144,92600,2,0,P|123:107|52:85,1,120.000004577637,2|0,0:0|0:0,0:0:0:0:
6,181,93086,1,0,3:0:0:0:
86,315,93248,1,8,0:0:0:0:
86,315,93329,1,8,0:0:0:0:
86,315,93410,6,0,P|79:260|112:199,1,120.000004577637,10|0,0:0|3:0,0:0:0:0:
214,360,93897,1,0,0:0:0:0:
316,254,94059,2,0,P|295:272|253:283,1,60.0000022888184,8|0,0:0|0:0,0:0:0:0:
375,165,94383,2,0,B|364:140|364:140|319:126,1,60.0000022888184,10|0,0:0|0:0,0:0:0:0:
187,221,94708,6,0,P|126:222|53:188,1,120.000004577637,0|8,3:0|0:0,0:0:0:0:
15,48,95194,2,0,P|32:57|58:56,1,30.0000011444092,2|0,0:0|0:0,0:0:0:0:
63,33,95356,2,0,B|117:21|117:21|129:28|129:28|181:12,1,120.000004577637,0|0,3:0|0:0,0:0:0:0:
263,93,95843,1,8,0:0:0:0:
263,93,95924,1,8,0:0:0:0:
263,93,96005,6,0,P|251:125|247:164,1,60.0000022888184,6|0,3:2|0:0,0:0:0:0:
347,248,96329,2,0,P|381:287|408:376,1,120.000004577637,2|8,3:2|0:0,0:0:0:0:
453,219,96816,2,0,P|439:190|445:154,1,60.0000022888184,2|0,0:0|3:0,0:0:0:0:
441,25,97140,6,0,P|413:76|349:70,1,120.000004577637,2|0,0:0|0:0,0:0:0:0:
158,200,97789,2,0,P|222:216|265:253,1,120.000004577637,2|0,0:0|0:0,0:0:0:0:
342,363,98275,1,2,3:2:0:0:
436,307,98437,1,8,0:0:0:0:
436,307,98518,1,8,0:0:0:0:
436,307,98600,6,0,B|399:283|355:270|355:270|361:250|384:241,1,120.000004577637,10|0,0:0|3:0,0:0:0:0:
453,171,99086,1,0,0:0:0:0:
319,84,99248,2,0,B|299:108|299:108|313:143,1,60.0000022888184,10|0,0:0|0:0,0:0:0:0:
240,296,99572,2,0,B|257:271|257:271|249:240,1,60.0000022888184,10|0,0:0|0:0,0:0:0:0:
77,109,99897,5,2,3:2:0:0:
175,148,100059,1,0,3:0:0:0:
17,269,100221,2,0,B|60:258|60:258|64:252|64:252|118:242,1,90.0000034332277,8|0,0:0|0:0,0:0:0:0:
149,308,100545,6,0,P|205:345|274:334,1,120.000004577637,2|0,3:2|3:0,0:0:0:0:
412,206,101032,1,8,0:0:0:0:
412,206,101113,1,8,0:0:0:0:
412,206,101194,6,0,B|469:236|469:236|453:314,1,139.200001168213,6|0,3:2|0:0,0:0:0:0:
334,332,101681,6,0,P|296:289|220:285,1,125.999996154785,8|0,0:0|0:0,0:0:0:0:
150,285,102167,2,0,B|168:305|168:305|199:296,1,50.3999984619141,8|2,0:0|0:0,0:0:0:0:
254,370,102410,1,2,0:0:0:0:
253,370,102491,5,6,3:2:0:0:
190,207,102654,2,0,P|180:170|184:131,1,69.6000005841065
337,25,102978,1,8,0:0:0:0:
456,133,103140,6,0,P|417:136|358:103,1,100.799996923828,2|8,0:0|0:0,0:0:0:0:
201,282,103789,6,0,B|219:220|286:200|286:200|320:234|375:234,1,208.800001752319,14|8,0:0|0:0,0:0:0:0:
463,348,104437,2,0,P|482:319|487:278,1,69.6000005841065,2|0,0:0|0:0,0:0:0:0:
399,154,104762,6,0,P|381:118|382:78,1,75.5999976928712,0|0,3:0|0:0,0:0:0:0:
309,33,105086,6,0,B|341:67|349:94|349:94|318:99|289:143,1,139.200001168213,10|8,0:0|0:0,0:0:0:0:
410,281,105572,1,0,3:0:0:0:
410,281,105654,1,0,3:0:0:0:
410,281,105735,2,0,P|379:254|337:244,1,69.6000005841065,2|0,3:2|0:0,0:0:0:0:
214,333,106059,6,0,P|180:355|125:354,1,80,2|2,0:0|0:0,0:0:0:0:
15,307,106302,1,2,0:0:0:0:
31,269,106383,6,0,B|79:216|142:216|142:216|132:236|126:277,1,180.800000551758,6|0,3:2|0:0,0:0:0:0:
260,367,106870,2,0,P|283:331|285:273,1,90.4000002758789,2|0,3:2|0:0,0:0:0:0:
192,99,107194,1,0,3:0:0:0:
350,223,107356,1,8,0:0:0:0:
449,79,107518,6,0,P|408:136|359:128,1,120.000004577637,2|0,0:0|3:0,0:0:0:0:
115,36,108005,6,0,B|155:42|175:52|175:52|181:35|213:8,1,120.000004577637,0|0,0:0|3:0,0:0:0:0:
270,184,108329,6,0,B|256:167|256:167|243:155|243:155|220:171|220:171|197:175,1,90.4000002758789,10|0,0:0|3:0,0:0:0:0:
346,39,108654,1,2,0:0:0:0:
431,160,108816,1,8,0:0:0:0:
431,160,108897,1,8,0:0:0:0:
431,160,108978,6,0,P|454:168|482:168,1,45.2000001379395,6|0,0:0|0:0,0:0:0:0:
452,251,109140,2,0,P|413:229|405:175,1,90.4000002758789,0|0,3:0|0:0,0:0:0:0:
322,28,109464,2,0,B|283:25|269:58|269:58|314:111|274:162,1,180.800000551758,2|0,3:2|3:0,0:0:0:0:
118,39,109951,1,8,0:0:0:0:
6,106,110113,6,0,P|47:103|72:138,1,80,2|0,3:2|0:0,0:0:0:0:
158,260,110600,6,0,P|196:267|241:243,1,80,2|0,0:0|3:0,0:0:0:0:
433,341,110924,6,0,B|408:286|366:249|366:249|401:195|392:117,1,240.000009155274,10|2,0:0|3:2,0:0:0:0:
143,28,111410,1,0,3:0:0:0:
104,65,111491,1,0,3:0:0:0:
123,115,111572,6,0,B|193:137|193:137|204:165|204:165|289:183,1,180.800000551758,6|0,3:2|0:0,0:0:0:0:
152,240,112059,6,0,P|108:246|67:264,1,80,2|0,3:2|3:0,0:0:0:0:
31,373,112545,1,8,0:0:0:0:
226,307,112708,6,0,B|272:304|272:304|297:320|297:320|353:333,1,120.000004577637,2|0,3:2|0:0,0:0:0:0:
456,373,113194,1,2,0:0:0:0:
503,192,113356,1,0,3:0:0:0:
339,246,113518,6,0,B|318:210|317:180|317:180|348:167|362:128,1,135.600000413818,10|0,0:0|0:0,0:0:0:0:
289,38,113843,5,8,0:0:0:0:
265,71,113924,1,8,0:0:0:0:
230,92,114005,1,8,0:0:0:0:
190,82,114086,1,8,0:0:0:0:
164,50,114167,6,0,B|120:26|81:29|81:29|59:84|-11:106,1,180.800000551758,6|0,0:0|0:0,0:0:0:0:
102,254,114654,6,0,P|122:189|124:120,1,120.000004577637,2|0,3:2|0:0,0:0:0:0:
196,341,115140,1,10,0:0:0:0:
306,177,115302,6,0,B|360:172|419:196|419:196|385:209|361:244,1,180.000006866455,2|0,3:2|0:0,0:0:0:0:
440,352,115627,6,0,P|421:322|426:289,1,60,0|0,3:0|0:0,0:0:0:0:
487,142,115951,1,8,0:0:0:0:
487,142,116032,1,8,0:0:0:0:
487,142,116113,2,0,P|460:156|418:162,1,60,10|0,0:0|0:0,0:0:0:0:
321,72,116437,5,8,0:0:0:0:
289,54,116518,1,8,0:0:0:0:
253,52,116600,1,8,0:0:0:0:
221,70,116681,1,8,0:0:0:0:
192,92,116762,6,0,P|123:98|69:60,1,120.000004577637,6|0,0:0|0:0,0:0:0:0:
81,286,117248,6,0,P|104:214|219:207,1,180.800000551758,2|0,3:2|3:0,0:0:0:0:
341,310,117735,1,8,0:0:0:0:
450,210,117897,6,0,P|417:230|364:221,1,80,2|0,3:2|3:0,0:0:0:0:
207,361,118383,6,0,B|204:323|182:304|182:304|162:322|109:317,1,120.000004577637,2|0,0:0|3:0,0:0:0:0:
20,156,118708,6,0,B|62:149|62:149|97:178|97:178|164:190,1,135.600000413818,8|0,0:0|0:0,0:0:0:0:
252,253,119032,5,8,0:0:0:0:
239,214,119113,1,8,0:0:0:0:
240,173,119194,1,8,0:0:0:0:
258,136,119275,1,8,0:0:0:0:
291,112,119356,5,6,0:0:0:0:
479,226,119518,2,0,B|455:232|437:210|437:210|417:229|384:234,1,90.4000002758789,0|0,3:0|0:0,0:0:0:0:
239,361,119843,2,0,P|299:294|272:211,1,180.800000551758,2|0,3:2|3:0,0:0:0:0:
120,310,120329,1,8,0:0:0:0:
144,221,120491,6,0,P|106:219|57:244,1,80,2|0,3:2|3:0,0:0:0:0:
221,147,120978,6,0,P|179:125|149:87,1,90.4000002758789,2|0,0:0|3:0,0:0:0:0:
441,230,121302,6,0,B|404:162|404:162|431:119|431:119|426:47,1,180.000006866455,10|0,0:0|0:0,0:0:0:0:
293,10,121627,5,8,0:0:0:0:
248,39,121708,1,8,0:0:0:0:
223,86,121789,1,8,0:0:0:0:
240,137,121870,1,8,0:0:0:0:
281,171,121951,6,0,P|314:261|334:360,1,180.800000551758,6|0,3:2|0:0,0:0:0:0:
417,190,122437,6,0,P|432:215|401:247,1,80,2|0,0:0|3:0,0:0:0:0:
305,363,122924,1,8,0:0:0:0:
165,194,123086,6,0,B|114:163|83:166|83:166|66:209|24:249,1,180.800000551758,2|0,0:0|3:0,0:0:0:0:
137,367,123572,2,0,P|123:336|138:276,1,90.4000002758789,2|0,0:0|0:0,0:0:0:0:
196,105,123897,2,0,P|224:109|251:118,1,45.2000001379395,10|0,0:0|0:0,0:0:0:0:
118,77,124059,2,0,P|146:73|173:64,1,45.2000001379395,0|0,3:0|0:0,0:0:0:0:
313,18,124221,5,8,0:0:0:0:
344,43,124302,1,8,0:0:0:0:
368,75,124383,1,8,0:0:0:0:
373,115,124464,1,8,0:0:0:0:
361,153,124545,6,0,P|334:217|325:275,1,120.000004577637,4|0,0:0|0:0,0:0:0:0:
205,356,125032,6,0,P|152:290|179:196,1,180.800000551758,2|0,3:2|3:0,0:0:0:0:
285,107,125518,1,10,0:0:0:0:
367,323,125681,6,0,B|418:361|474:364|529:331|524:267|436:271,1,240.000009155274,2|0,0:0|3:0,0:0:0:0:
315,144,126167,6,0,P|293:185|297:247,1,90.0000034332277,2|0,0:0|0:0,0:0:0:0:
239,289,126491,1,8,0:0:0:0:
152,139,126654,1,0,3:0:0:0:
5,278,126816,5,8,0:0:0:0:
44,288,126897,1,8,0:0:0:0:
79,267,126978,2,0,P|88:246|85:214,1,45.2000001379395,8|8,0:0|0:0,0:0:0:0:
40,69,127140,5,6,0:0:0:0:
0,160,127302,2,0,P|57:96|142:97,1,160,0|0,3:0|3:0,0:0:0:0:
234,186,127789,2,0,P|268:203|320:195,1,80,2|0,0:0|3:0,0:0:0:0:
382,18,128113,5,10,0:0:0:0:
269,83,128276,2,0,B|229:81|200:91|200:91|188:75|188:75|155:79|120:61,1,160,0|0,3:0|3:0,0:0:0:0:
170,261,128762,2,0,P|190:225|192:178,1,80
54,128,129086,2,0,B|29:164|29:164|44:207,1,80,10|0,0:0|0:0,0:0:0:0:
215,335,129410,1,2,3:2:0:0:
107,363,129572,1,0,3:0:0:0:
291,195,129735,6,0,P|385:192|446:232,1,160,4|0,0:0|0:0,0:0:0:0:
353,339,130221,2,0,P|316:292|379:306,1,160,2|0,3:2|0:0,0:0:0:0:
426,77,130708,6,0,P|405:88|383:94,1,40,14|0,0:0|0:0,0:0:0:0:
448,177,130870,2,0,B|415:138|383:120|383:120|363:146|300:140,1,160,0|0,3:0|3:0,0:0:0:0:
136,18,131356,2,0,B|125:63|125:63|151:107,1,80,2|0,0:0|3:0,0:0:0:0:
85,220,131681,1,10,0:0:0:0:
245,174,131843,1,0,3:0:0:0:
188,347,132005,1,8,0:0:0:0:
162,321,132086,1,8,0:0:0:0:
131,302,132167,1,8,0:0:0:0:
96,311,132248,1,8,0:0:0:0:
64,327,132329,6,0,P|39:323|21:306,1,40,6|0,0:0|0:0,0:0:0:0:
164,366,132491,2,0,P|230:357|276:316,1,120,0|0,3:0|0:0,0:0:0:0:
367,254,132816,2,0,B|417:250|441:287|436:291|457:323|512:318,1,160,2|0,3:2|3:0,0:0:0:0:
415,108,133302,5,10,0:0:0:0:
283,233,133464,2,0,P|295:146|253:72,2,160,0|2|2,3:0|3:2|3:2,0:0:0:0:
102,173,134275,1,8,0:0:0:0:
177,294,134437,1,0,3:0:0:0:
20,366,134600,2,0,B|47:337|47:337|92:351,1,80,8|0,0:0|3:0,0:0:0:0:
259,331,134924,6,0,P|268:310|266:284,1,40,6|0,0:0|0:0,0:0:0:0:
376,368,135086,2,0,P|357:313|348:247,1,120,0|0,3:0|0:0,0:0:0:0:
349,118,135410,2,0,P|407:182|370:232,1,160,2|0,3:2|3:0,0:0:0:0:
228,117,135897,6,0,P|206:97|177:91,1,40,10|0,0:0|0:0,0:0:0:0:
122,60,136059,2,0,B|168:78|202:49|189:39|226:17|283:33,2,160,0|2|0,3:0|3:2|3:0,0:0:0:0:
34,151,136870,5,10,0:0:0:0:
24,134,136951,1,8,0:0:0:0:
31,115,137032,1,8,0:0:0:0:
65,266,137194,5,10,0:0:0:0:
114,282,137275,1,8,0:0:0:0:
161,259,137356,1,8,0:0:0:0:
177,209,137437,1,8,0:0:0:0:
155,160,137518,5,4,0:0:0:0:
135,356,147897,6,0,P|117:291|126:215,1,120.000004577637,6|0,0:0|3:0,0:0:0:0:
197,127,148383,1,0,0:0:0:0:
275,180,148545,2,0,P|304:174|334:161,2,60.0000022888184,2|0|0,0:0|0:0|3:0,0:0:0:0:
411,202,149032,1,0,0:0:0:0:
411,202,149194,6,0,P|375:151|389:75,1,120.000004577637,2|0,0:0|3:0,0:0:0:0:
250,27,149681,1,2,0:0:0:0:
243,50,150005,1,0,0:0:0:0:
168,105,150167,2,0,P|154:72|150:38,1,60.0000022888184,0|0,3:0|0:0,0:0:0:0:
19,34,150491,6,0,P|64:82|41:138,1,120.000004577637,2|0,0:0|3:0,0:0:0:0:
114,229,150978,1,0,0:0:0:0:
194,205,151140,2,0,P|167:209|133:191,1,60.0000022888184,2|0,0:0|0:0,0:0:0:0:
29,328,151464,2,0,B|60:308|60:308|89:315,1,60.0000022888184,0|0,3:0|0:0,0:0:0:0:
248,364,151789,6,0,P|281:320|270:257,1,120.000004577637,2|0,0:0|3:0,0:0:0:0:
356,149,152275,1,0,0:0:0:0:
500,277,152437,6,0,B|482:303|463:313|463:313|436:293|388:310,1,120,2|0,0:0|0:0,0:0:0:0:
363,239,152762,2,0,B|360:270|373:291|373:291|395:269,1,80,8|0,0:0|0:0,0:0:0:0:
231,361,153086,6,0,B|190:351|177:321|177:321|150:317|131:357,2,120,14|8|8,0:0|0:0|0:0,0:0:0:0:
202,118,154383,5,12,0:0:0:0:
145,236,154545,2,0,P|127:206|136:171,1,60.0000022888184,2|0,0:0|0:0,0:0:0:0:
20,286,154870,1,8,0:0:0:0:
132,357,155032,2,0,P|193:373|253:347,1,120.000004577637,2|8,0:0|0:0,0:0:0:0:
421,184,155681,6,0,B|460:133|492:154|501:185|462:219|456:257|493:277,2,180.000006866455,14|8|8,0:0|0:0|0:0,0:0:0:0:
235,145,156978,1,4,0:0:0:0:
235,145,157627,6,0,B|287:163|303:133|296:128|309:95|369:115,1,140,2|0,0:0|0:0,0:0:0:0:
395,223,158275,6,0,P|437:152|434:34,1,180.800000551758,6|0,3:2|0:0,0:0:0:0:
269,7,158762,2,0,P|267:57|295:114,1,90.4000002758789,2|0,3:2|0:0,0:0:0:0:
373,237,159086,1,0,0:0:0:0:
177,174,159248,1,8,0:0:0:0:
268,337,159410,6,0,P|211:322|193:381,1,120.000004577637,2|0,0:0|0:0,0:0:0:0:
464,307,159897,6,0,P|404:306|343:271,1,120.000004577637,2|0,0:0|0:0,0:0:0:0:
246,222,160221,6,0,B|271:206|271:206|264:168,1,60,8|0,0:0|0:0,0:0:0:0:
206,52,160545,5,8,0:0:0:0:
180,26,160627,1,8,0:0:0:0:
145,15,160708,1,8,0:0:0:0:
110,25,160789,1,8,0:0:0:0:
76,48,160870,6,0,P|42:127|26:233,1,180.800000551758,6|0,0:0|0:0,0:0:0:0:
201,252,161356,6,0,P|185:206|123:211,1,120.000004577637,2|0,3:2|3:0,0:0:0:0:
128,312,161843,1,8,0:0:0:0:
265,380,162005,6,0,P|264:338|280:296,1,80,2|0,3:2|3:0,0:0:0:0:
394,174,162491,6,0,B|380:212|380:212|406:242,1,80,2|0,0:0|0:0,0:0:0:0:
511,71,162816,6,0,B|486:37|429:19|429:19|391:95|309:106,1,240.000009155274,10|2,0:0|3:2,0:0:0:0:
139,48,163302,1,0,3:0:0:0:
87,29,163383,1,0,3:0:0:0:
37,35,163464,6,0,B|7:54|4:88|4:88|48:119|137:129,1,180.800000551758,6|0,3:2|0:0,0:0:0:0:
223,358,163951,6,0,P|225:315|213:276,1,80,2|0,3:2|3:0,0:0:0:0:
100,210,164437,1,8,0:0:0:0:
319,230,164600,6,0,P|255:204|238:159,1,120.000004577637,2|0,3:2|3:0,0:0:0:0:
326,30,165086,1,2,0:0:0:0:
487,107,165248,1,0,3:0:0:0:
487,107,165329,1,0,3:0:0:0:
487,107,165410,6,0,B|441:114|419:102|419:102|410:126|354:138,1,135.600000413818,10|0,0:0|0:0,0:0:0:0:
477,208,165735,5,8,0:0:0:0:
495,243,165816,1,8,0:0:0:0:
498,283,165897,1,8,0:0:0:0:
479,319,165978,1,8,0:0:0:0:
447,344,166059,6,0,P|391:296|409:265,1,120.000004577637,6|0,0:0|0:0,0:0:0:0:
242,368,166545,6,0,B|274:306|229:275|229:275|220:236|263:190,1,180.800000551758,2|0,3:2|3:0,0:0:0:0:
76,318,167032,1,10,0:0:0:0:
17,131,167194,6,0,B|86:143|86:143|111:169|111:169|188:136,1,180.000006866455,2|0,3:2|0:0,0:0:0:0:
198,64,167518,6,0,P|166:59|136:71,1,60,0|0,3:0|0:0,0:0:0:0:
270,14,167843,1,8,0:0:0:0:
278,19,167924,1,8,0:0:0:0:
285,26,168005,2,0,P|301:50|309:95,1,60,10|10,0:0|0:0,0:0:0:0:
364,182,168329,5,8,0:0:0:0:
396,198,168410,1,8,0:0:0:0:
431,194,168491,1,8,0:0:0:0:
454,166,168572,1,8,0:0:0:0:
447,136,168654,6,0,P|402:96|337:105,1,120.000004577637,6|0,0:0|0:0,0:0:0:0:
172,295,169140,6,0,B|231:271|234:213|234:213|275:244|321:249,1,180.800000551758,2|0,3:2|3:0,0:0:0:0:
121,121,169627,1,8,0:0:0:0:
23,225,169789,6,0,P|9:199|32:159,1,80,2|0,3:2|3:0,0:0:0:0:
215,93,170275,6,0,P|274:96|321:54,1,120.000004577637,2|0,0:0|0:0,0:0:0:0:
487,242,170600,6,0,B|470:198|448:184|448:184|420:205|388:202,1,135.600000413818,10|0,0:0|0:0,0:0:0:0:
340,303,170924,5,8,0:0:0:0:
304,281,171005,1,8,0:0:0:0:
284,245,171086,1,8,0:0:0:0:
289,204,171167,1,8,0:0:0:0:
314,170,171248,6,0,P|323:142|320:101,1,60.0000022888184,6|0,0:0|0:0,0:0:0:0:
167,24,171572,1,2,0:0:0:0:
198,201,171735,6,0,P|143:149|27:131,1,180.800000551758,2|0,3:2|3:0,0:0:0:0:
126,342,172221,1,10,0:0:0:0:
2,231,172383,6,0,P|35:254|90:254,1,80,0|0,3:0|3:0,0:0:0:0:
231,362,172870,6,0,P|228:320|250:274,1,90.4000002758789,2|0,0:0|3:0,0:0:0:0:
430,148,173194,6,0,B|395:94|347:80|347:80|368:42|422:22,1,180.000006866455,10|0,0:0|0:0,0:0:0:0:
305,167,173518,5,8,0:0:0:0:
260,197,173600,1,8,0:0:0:0:
207,181,173681,1,8,0:0:0:0:
190,129,173762,1,8,0:0:0:0:
201,76,173843,6,0,P|108:46|33:89,1,180.800000551758,6|0,0:0|0:0,0:0:0:0:
95,243,174329,6,0,P|117:202|110:161,1,80,2|0,3:2|3:0,0:0:0:0:
146,320,174816,1,8,0:0:0:0:
293,178,174978,6,0,P|264:72|195:48,1,180.800000551758,2|0,3:2|3:0,0:0:0:0:
474,61,175464,2,0,P|447:90|395:97,1,90.4000002758789,2|0,0:0|3:0,0:0:0:0:
254,213,175789,2,0,P|276:225|315:227,1,45.2000001379395,10|0,0:0|0:0,0:0:0:0:
375,260,175951,2,0,P|347:262|327:279,1,45.2000001379395,0|0,3:0|0:0,0:0:0:0:
210,365,176113,5,8,0:0:0:0:
169,365,176194,1,8,0:0:0:0:
137,339,176275,1,8,0:0:0:0:
129,298,176356,1,8,0:0:0:0:
143,259,176437,6,0,P|84:201|47:209,1,120.000004577637,6|0,0:0|0:0,0:0:0:0:
9,36,176924,6,0,B|67:21|99:59|91:68|119:96|175:85,1,180.800000551758,2|0,3:2|0:0,0:0:0:0:
245,252,177410,2,0,B|236:205|236:205|258:155,1,90.4000002758789,10|0,0:0|0:0,0:0:0:0:
439,28,177735,5,10,0:0:0:0:
279,82,177897,1,0,0:0:0:0:
421,45,178059,1,10,0:0:0:0:
506,232,178221,1,8,0:0:0:0:
506,232,178302,1,8,0:0:0:0:
506,232,178383,2,0,P|457:246|425:273,1,90.0000034332277,10|0,0:0|0:0,0:0:0:0:
303,352,178708,5,8,0:0:0:0:
276,358,178789,1,8,0:0:0:0:
249,354,178870,1,8,0:0:0:0:
226,338,178951,1,8,0:0:0:0:
208,316,179032,6,0,P|214:254|270:134,1,180.800000551758,6|0,0:0|0:0,0:0:0:0:
76,227,179518,2,0,P|77:180|48:146,1,90.4000002758789,2|0,3:2|0:0,0:0:0:0:
135,9,179843,1,0,0:0:0:0:
312,117,180005,1,8,0:0:0:0:
460,32,180167,6,0,P|401:15|381:64,1,120.000004577637,2|0,3:2|0:0,0:0:0:0:
101,143,180654,6,0,B|140:121|147:88|147:88|176:89|198:104,1,120.000004577637,2|0,0:0|3:0,0:0:0:0:
261,262,180978,6,0,B|297:268|297:268|312:264|312:264|352:269,1,90.4000002758789,10|0,0:0|3:0,0:0:0:0:
456,358,181302,1,8,0:0:0:0:
503,175,181464,1,8,0:0:0:0:
503,175,181545,1,8,0:0:0:0:
503,175,181627,6,0,P|489:157|487:121,1,45.2000001379395,6|0,0:0|0:0,0:0:0:0:
425,23,181789,2,0,P|421:67|402:118,1,90.4000002758789,0|0,3:0|0:0,0:0:0:0:
266,208,182113,2,0,B|279:139|252:103|252:103|201:97|174:73,1,180.800000551758,2|0,3:2|3:0,0:0:0:0:
71,256,182600,1,8,0:0:0:0:
13,171,182762,6,0,P|51:173|83:142,1,80,2|0,3:2|0:0,0:0:0:0:
193,45,183248,6,0,B|229:35|229:35|273:60,1,80,2|0,0:0|3:0,0:0:0:0:
460,191,183572,6,0,B|406:168|355:228|362:238|304:299|244:279,1,240.000009155274,10|2,0:0|3:2,0:0:0:0:
420,360,184059,1,0,3:0:0:0:
462,326,184140,1,0,3:0:0:0:
437,275,184221,6,0,P|435:188|462:90,1,180.800000551758,6|0,3:2|0:0,0:0:0:0:
321,218,184708,6,0,P|338:182|314:143,1,80,2|0,0:2|0:0,0:0:0:0:
176,36,185194,1,8,0:0:0:0:
27,109,185356,6,0,B|52:122|80:143|80:143|103:126|143:117,1,120.000004577637,2|0,3:2|0:0,0:0:0:0:
248,186,185843,1,2,0:0:0:0:
103,286,186005,1,0,3:0:0:0:
310,365,186167,6,0,B|326:335|315:305|315:305|316:270|368:254,1,135.600000413818,10|0,0:0|0:0,0:0:0:0:
501,334,186491,5,8,0:0:0:0:
488,372,186572,1,8,0:0:0:0:
447,383,186654,1,8,0:0:0:0:
425,348,186735,1,8,0:0:0:0:
426,307,186816,6,0,P|399:221|362:136,1,180.800000551758,6|0,0:0|0:0,0:0:0:0:
209,209,187302,6,0,P|177:257|210:317,1,120.000004577637,2|0,3:2|0:0,0:0:0:0:
315,359,187789,1,8,0:0:0:0:
106,321,187951,6,0,P|56:269|78:154,1,180.000006866455,2|0,3:2|0:0,0:0:0:0:
115,63,188275,6,0,P|132:88|129:123,1,60,0|0,3:0|0:0,0:0:0:0:
251,210,188600,1,8,0:0:0:0:
251,210,188681,1,8,0:0:0:0:
251,210,188762,2,0,P|275:206|295:172,1,60,10|0,0:0|0:0,0:0:0:0:
387,308,189086,5,8,0:0:0:0:
363,279,189167,1,8,0:0:0:0:
327,273,189248,1,8,0:0:0:0:
297,292,189329,1,8,0:0:0:0:
278,323,189410,6,0,P|219:363|145:359,1,120.000004577637,6|0,0:0|0:0,0:0:0:0:
11,185,189897,6,0,P|97:185|148:268,1,180.800000551758,2|0,3:2|3:0,0:0:0:0:
225,63,190383,1,8,0:0:0:0:
284,132,190545,6,0,P|278:171|253:203,1,80,2|0,0:0|3:0,0:0:0:0:
462,314,191032,6,0,P|433:272|439:195,1,120.000004577637,2|0,0:0|0:0,0:0:0:0:
276,358,191356,6,0,B|307:328|337:323|337:323|312:314|286:274,1,135.600000413818,8|0,0:0|0:0,0:0:0:0:
163,172,191681,5,8,0:0:0:0:
189,202,191762,1,8,0:0:0:0:
204,239,191843,1,8,0:0:0:0:
196,278,191924,1,8,0:0:0:0:
172,311,192005,5,6,0:0:0:0:
6,271,192167,2,0,P|45:272|95:245,1,90.4000002758789,0|0,3:0|0:0,0:0:0:0:
43,98,192491,2,0,P|123:84|194:160,1,180.800000551758,2|0,3:2|3:0,0:0:0:0:
357,216,192978,1,8,0:0:0:0:
295,355,193140,6,0,P|279:325|288:275,1,80,2|0,3:2|3:0,0:0:0:0:
122,200,193627,6,0,P|165:203|221:177,1,90.4000002758789,2|0,0:0|3:0,0:0:0:0:
441,95,193951,6,0,B|400:82|379:93|379:93|365:63|342:49|342:49|318:50|264:32,1,180.000006866455,10|0,0:0|0:0,0:0:0:0:
140,120,194275,5,8,0:0:0:0:
92,94,194356,1,8,0:0:0:0:
89,40,194437,1,8,0:0:0:0:
133,10,194518,1,8,0:0:0:0:
181,34,194600,6,0,P|218:95|241:201,1,180.800000551758,6|0,0:0|0:0,0:0:0:0:
353,353,195086,6,0,P|332:297|378:263,1,120.000004577637,2|0,0:0|0:0,0:0:0:0:
241,298,195572,1,8,0:0:0:0:
82,157,195735,6,0,B|90:207|133:240|133:240|128:277|90:324,1,180.800000551758,2|0,0:0|3:0,0:0:0:0:
298,179,196221,2,0,B|278:188|262:207|262:207|236:207|211:189,1,90.4000002758789,10|0,0:0|0:0,0:0:0:0:
98,9,196545,2,0,B|113:25|113:25|120:66,1,45.2000001379395,10|0,0:0|0:0,0:0:0:0:
19,115,196708,2,0,B|18:91|18:91|30:73,1,45.2000001379395,0|0,3:0|0:0,0:0:0:0:
146,138,196870,5,8,0:0:0:0:
169,171,196951,1,8,0:0:0:0:
175,211,197032,1,8,0:0:0:0:
157,247,197113,1,8,0:0:0:0:
123,268,197194,6,0,P|71:239|3:226,1,120.000004577637,6|0,0:0|0:0,0:0:0:0:
137,364,197681,6,0,B|194:375|233:339|216:334|256:297|309:321,1,180.800000551758,2|0,3:2|3:0,0:0:0:0:
335,176,198167,1,8,0:0:0:0:
165,259,198329,6,0,B|88:268|46:225|46:225|47:167|77:150|121:180,1,240.000009155274,2|0,0:0|3:0,0:0:0:0:
257,12,198816,6,0,P|256:45|295:89,1,80,2|0,0:0|3:0,0:0:0:0:
218,192,199140,6,0,P|241:180|273:180,1,45.2000001379395,0|0,3:0|0:0,0:0:0:0:
370,218,199302,1,0,3:0:0:0:
354,223,199383,1,0,3:0:0:0:
343,211,199464,5,8,0:0:0:0:
351,171,199545,1,8,0:0:0:0:
382,144,199627,1,8,0:0:0:0:
421,134,199708,1,0,0:0:0:0:
457,150,199789,6,0,P|463:129|481:107,1,40,6|0,0:0|0:0,0:0:0:0:
384,52,199951,2,0,P|347:105|288:83,1,120,0|0,3:0|0:0,0:0:0:0:
208,22,200275,2,0,P|136:19|68:78,1,160,2|0,3:2|3:0,0:0:0:0:
39,242,200762,5,10,0:0:0:0:
94,318,200924,2,0,B|134:275|134:275|110:162,1,160,0|0,3:0|3:0,0:0:0:0:
267,214,201410,2,0,P|270:251|244:300,1,80,2|0,0:0|0:0,0:0:0:0:
373,382,201735,2,0,B|345:381|345:381|326:371|326:371|289:366,1,80,8|0,0:0|0:0,0:0:0:0:
100,332,202059,2,0,B|134:308|134:308|179:321,1,80,8|0,0:0|0:0,0:0:0:0:
324,183,202383,5,6,0:0:0:0:
212,240,202545,2,0,B|185:205|180:178|180:178|215:146|219:85,1,160,0|2,3:0|3:2,0:0:0:0:
170,2,203032,1,0,0:0:0:0:
310,78,203194,1,0,3:0:0:0:
473,17,203356,6,0,P|456:35|422:45,1,40,14|0,0:0|0:0,0:0:0:0:
502,99,203518,2,0,P|421:103|376:167,1,160,0|0,3:0|3:0,0:0:0:0:
256,306,204005,2,0,P|235:267|239:218,1,80,2|0,0:0|3:0,0:0:0:0:
283,36,204329,2,0,B|311:64|314:90|314:90|286:94|263:129,1,120,10|0,0:0|0:0,0:0:0:0:
148,162,204654,5,8,0:0:0:0:
121,137,204735,1,8,0:0:0:0:
115,101,204816,1,8,0:0:0:0:
137,72,204897,1,8,0:0:0:0:
169,56,204978,6,0,P|189:59|215:69,1,40,6|0,0:0|0:0,0:0:0:0:
291,153,205140,2,0,P|358:154|425:127,1,120,0|0,3:0|0:0,0:0:0:0:
480,53,205464,2,0,P|450:117|468:211,1,160,2|0,3:2|3:0,0:0:0:0:
340,352,205951,5,10,0:0:0:0:
257,257,206113,2,0,B|192:264|192:264|170:279|170:279|91:290,1,160,0|0,3:0|3:0,0:0:0:0:
49,185,206600,2,0,B|90:174|90:174|137:202,1,80,2|0,0:0|3:0,0:0:0:0:
245,356,206924,1,8,0:0:0:0:
318,188,207086,1,0,0:0:0:0:
231,337,207248,1,8,0:0:0:0:
406,298,207410,1,0,0:0:0:0:
235,223,207572,6,0,P|226:198|229:175,1,40,6|0,0:0|0:0,0:0:0:0:
160,83,207735,2,0,P|154:146|112:235,1,160,0|0,3:0|3:0,0:0:0:0:
40,74,208221,2,0,P|38:31|77:11,1,80,2|0,0:0|3:0,0:0:0:0:
234,149,208545,5,2,0:0:0:0:
304,81,208708,2,0,P|226:106|143:121,1,160,0|0,3:0|3:0,0:0:0:0:
223,293,209194,2,0,P|258:274|269:226,1,80,2|0,0:0|0:0,0:0:0:0:
407,293,209518,5,10,0:0:0:0:
425,324,209600,1,8,0:0:0:0:
414,358,209681,1,8,0:0:0:0:
340,182,209843,5,10,0:0:0:0:
391,202,209924,1,8,0:0:0:0:
445,190,210005,1,8,0:0:0:0:
475,144,210086,1,8,0:0:0:0:
478,89,210167,5,4,0:0:0:0:
256,192,210329,12,2,215194,0:0:0:0:
