osu file format v14

[General]
AudioFilename: audio.mp3
AudioLeadIn: 0
PreviewTime: 48329
Countdown: 0
SampleSet: Soft
StackLeniency: 0.7
Mode: 0
LetterboxInBreaks: 0
WidescreenStoryboard: 1

[Editor]
Bookmarks: 12978,23356,33735,49302,59681,70059,80437,90816,106383,116762,127140,137518,147897,158275,168654,179032,189410,199789,210167,215194
DistanceSpacing: 1
BeatDivisor: 8
GridSize: 4
TimelineZoom: 0.9000039

[Metadata]
Title:brilliant
TitleUnicode:brilliant
Artist:Tokoyami Towa
ArtistUnicode:常闇トワ
Creator:Hinsvar
Version:Normal
Source:
Tags:hololive ホロライブ Vocaloid cover Virtual YouTuber VTuber Rock Japanese niki Lily
BeatmapID:2491736
BeatmapSetID:1193076

[Difficulty]
HPDrainRate:4
CircleSize:3
OverallDifficulty:4
ApproachRate:5.5
SliderMultiplier:2.24
SliderTickRate:1

[Events]
//Background and Video events
0,0,"konyappi.jpg",0,0
Video,0,"brilliant.mp4"
//Break Periods
2,137718,146772
//Storyboard Layer 0 (Background)
//Storyboard Layer 1 (Fail)
//Storyboard Layer 2 (Pass)
//Storyboard Layer 3 (Foreground)
//Storyboard Layer 4 (Overlay)
//Storyboard Sound Samples

[TimingPoints]
2600,648.648648648649,4,2,1,75,1,0
23356,-111.111111111111,4,2,1,60,0,0
33735,-100,4,2,1,70,0,0
44113,-100,4,2,1,75,0,0
49302,-90.9090909090909,4,2,1,85,0,1
70059,-100,4,2,1,75,0,0
80437,-111.111111111111,4,2,1,65,0,0
90816,-100,4,2,1,70,0,0
101194,-100,4,2,1,75,0,0
106383,-90.9090909090909,4,2,1,85,0,1
127140,-100,4,2,1,75,0,0
137518,-100,4,2,1,60,0,0
153086,-100,4,2,1,70,0,0
156978,-100,4,2,1,50,0,0
158275,-90.9090909090909,4,2,1,85,0,1
178383,-100,4,2,1,85,0,0
179032,-90.9090909090909,4,2,1,85,0,1
199789,-100,4,2,1,75,0,0
210167,-100,4,2,1,60,0,0
215194,-100,4,2,1,20,0,0

[Colours]
Combo1 : 167,9,206
Combo2 : 255,157,206
Combo3 : 32,183,255
Combo4 : 131,245,252

[HitObjects]
350,358,12978,5,6,0:0:0:0:
350,358,13140,2,0,P|376:312|386:240,1,112,0|2,3:0|3:2,0:0:0:0:
309,197,13789,1,0,3:0:0:0:
309,197,13951,2,0,B|298:162|298:162|315:137,1,56,10|2,0:0|3:2,0:0:0:0:
403,87,14437,2,0,P|369:49|294:50,1,112,2|0,3:2|3:0,0:0:0:0:
255,52,14924,2,0,B|242:26|242:26|248:-1,2,56,10|0|0,0:0|3:0|3:0,0:0:0:0:
183,138,15572,5,6,0:0:0:0:
183,138,15735,2,0,P|129:137|62:119,1,112,0|2,3:0|3:2,0:0:0:0:
7,219,16383,1,0,3:0:0:0:
7,219,16545,2,0,B|30:239|30:239|44:270,1,56,10|2,0:0|3:2,0:0:0:0:
123,337,17032,2,0,P|160:300|178:236,1,112,2|0,3:2|3:0,0:0:0:0:
161,190,17518,1,10,0:0:0:0:
254,126,17843,2,0,B|284:123|284:123|314:137,1,56,8|8,0:0|0:0,0:0:0:0:
353,175,18167,5,6,0:0:0:0:
353,175,18329,2,0,B|417:179|417:179|432:123,2,112,0|2|0,3:0|3:2|3:0,0:0:0:0:
322,222,19140,2,0,B|323:255|323:255|336:291,1,56,10|0,0:0|3:0,0:0:0:0:
410,356,19627,2,0,P|452:311|444:243,1,112,0|0,3:0|3:0,0:0:0:0:
487,218,20113,1,10,0:0:0:0:
410,136,20437,1,2,3:2:0:0:
312,191,20762,5,6,0:0:0:0:
312,191,20924,2,0,P|261:211|200:214,2,112,0|2|0,3:0|3:2|0:0,0:0:0:0:
336,241,21735,2,0,B|320:261|320:261|308:305,1,56,10|0,0:0|3:0,0:0:0:0:
300,346,22059,1,10,0:0:0:0:
188,372,22383,2,0,B|171:345|171:345|166:309,1,56,10|0,0:0|0:0,0:0:0:0:
181,267,22708,1,10,0:0:0:0:
125,51,23356,6,0,P|73:43|26:68,2,100.799996923828,4|2|8,3:2|0:0|0:0,0:0:0:0:
159,95,24167,1,2,0:0:0:0:
251,154,24491,2,0,P|273:114|289:57,1,100.799996923828,2|0,0:0|0:0,0:0:0:0:
390,19,25140,2,0,P|433:43|458:99,1,100.799996923828,2|2,0:0|0:0,0:0:0:0:
419,192,25789,1,0,0:0:0:0:
419,192,25951,6,0,B|365:193|365:193|328:234,1,100.799996923828,10|2,0:0|0:0,0:0:0:0:
263,314,26600,1,0,0:0:0:0:
172,260,26924,1,10,0:0:0:0:
172,260,27086,2,0,P|160:187|101:125,1,151.199995385742,2|10,0:0|0:0,0:0:0:0:
38,214,27897,1,2,0:0:0:0:
38,214,28545,5,4,3:2:0:0:
110,297,28870,1,2,0:0:0:0:
199,230,29194,1,8,0:0:0:0:
199,230,29356,2,0,B|193:190|193:190|186:175|186:175|197:128,2,100.799996923828,2|2|0,0:0|0:0|0:0,0:0:0:0:
304,265,30329,2,0,P|336:228|323:174,1,100.799996923828,2|2,0:0|0:0,0:0:0:0:
349,74,30978,1,10,0:0:0:0:
349,74,31140,6,0,B|389:74|408:64|408:64|430:69|446:98,1,100.799996923828,10|0,0:0|0:0,0:0:0:0:
493,184,31789,1,10,0:0:0:0:
436,282,32113,1,10,0:0:0:0:
436,282,32275,2,0,B|413:293|386:285|386:285|362:293|353:337,1,100.799996923828,2|0,0:0|0:0,0:0:0:0:
328,371,32762,1,10,0:0:0:0:
225,328,33086,1,2,0:0:0:0:
136,146,33735,6,0,P|146:118|149:77,2,56,6|0|2,3:2|0:0|3:2,0:0:0:0:
33,211,34383,1,8,0:0:0:0:
33,211,34545,2,0,P|44:232|57:279,1,56,2|0,0:0|3:0,0:0:0:0:
84,309,34870,2,0,P|131:322|190:290,1,112,2|0,0:0|0:0,0:0:0:0:
223,190,35518,2,0,P|277:182|339:229,1,112,2|0,0:0|0:0,0:0:0:0:
388,308,36167,1,8,0:0:0:0:
388,308,36329,6,0,B|423:307|443:285|443:285|474:289|504:313,2,112,10|0|8,0:0|3:0|0:0,0:0:0:0:
298,374,37302,1,10,0:0:0:0:
298,374,37464,2,0,P|286:328|245:264,1,112,0|0,0:0|3:0,0:0:0:0:
203,298,37951,1,10,0:0:0:0:
141,204,38275,1,10,0:0:0:0:
218,123,38600,2,0,P|241:111|271:106,1,56,8|8,0:0|0:0,0:0:0:0:
311,68,38924,6,0,P|328:80|375:92,2,56,6|0|2,3:2|0:0|3:2,0:0:0:0:
219,14,39572,1,8,0:0:0:0:
219,14,39735,2,0,P|175:41|112:43,1,112,2|2,0:0|0:0,0:0:0:0:
38,124,40383,1,0,0:0:0:0:
127,191,40708,2,0,P|141:235|132:309,1,112,2|0,0:0|0:0,0:0:0:0:
181,331,41194,2,0,P|204:314|242:307,1,56,0|8,3:0|0:0,0:0:0:0:
282,325,41518,5,10,0:0:0:0:
346,233,41843,2,0,B|351:195|351:195|332:163,2,56,0|0|2,3:0|0:0|3:2,0:0:0:0:
458,263,42491,1,2,3:2:0:0:
458,263,42654,2,0,B|470:287|475:310|475:310|444:322|416:362,1,112,0|0,0:0|3:0,0:0:0:0:
375,369,43140,1,8,0:0:0:0:
278,312,43464,2,0,P|227:310|189:356,1,112,2|8,3:2|0:0,0:0:0:0:
89,301,44113,6,0,B|71:253|71:253|70:192|70:192|51:136,2,168,6|10|8,3:2|0:0|0:0,0:0:0:0:
199,269,45410,1,6,3:2:0:0:
199,269,45572,2,0,P|232:222|221:158,1,112,0|8,0:0|0:0,0:0:0:0:
203,119,46059,1,2,0:0:0:0:
94,145,46383,1,8,0:0:0:0:
106,256,46708,6,0,B|84:302|56:314|56:314|43:270|-6:239,2,168,14|8|0,0:0|0:0|3:0,0:0:0:0:
204,202,48005,1,4,3:2:0:0:
204,202,49302,6,0,P|279:187|323:219,1,123.200003759766,6|0,3:2|0:0,0:0:0:0:
375,223,49789,2,0,P|423:174|416:111,1,123.200003759766,2|0,3:2|3:0,0:0:0:0:
469,83,50275,1,8,0:0:0:0:
469,83,50437,2,0,B|399:70|399:70|361:45|361:45|267:37,1,184.800005639649,2|2,0:0|0:0,0:0:0:0:
212,132,51248,1,8,0:0:0:0:
106,68,51572,2,0,P|95:97|93:128,1,61.6000018798829,8|8,0:0|0:0,0:0:0:0:
44,165,51897,6,0,B|27:217|27:217|66:273,1,123.200003759766,6|0,0:0|0:0,0:0:0:0:
76,333,52383,2,0,P|103:309|135:301,1,61.6000018798829,2|0,0:0|0:0,0:0:0:0:
181,190,52870,1,8,0:0:0:0:
181,190,53032,2,0,B|231:203|248:241|248:241|293:248|345:213,1,184.800005639649,2|2,3:2|0:0,0:0:0:0:
285,103,53843,1,10,0:0:0:0:
384,30,54167,2,0,P|414:35|448:51,1,61.6000018798829,2|0,3:2|3:0,0:0:0:0:
487,89,54491,5,6,3:2:0:0:
390,164,54816,1,0,0:0:0:0:
390,164,54978,2,0,P|377:226|375:293,1,123.200003759766,2|0,3:2|0:0,0:0:0:0:
393,349,55464,1,8,0:0:0:0:
393,349,55627,2,0,B|375:310|338:300|338:300|276:341|217:310,1,184.800005639649,2|2,3:2|0:0,0:0:0:0:
170,212,56437,1,8,0:0:0:0:
81,298,56762,2,0,P|62:279|54:242,1,61.6000018798829,8|8,0:0|0:0,0:0:0:0:
73,187,57086,6,0,P|90:129|80:59,1,123.200003759766,6|0,0:0|0:0,0:0:0:0:
137,38,57572,2,0,P|236:79|224:154,1,184.800005639649,2|10,3:2|0:0,0:0:0:0:
194,191,58221,1,2,3:2:0:0:
278,280,58545,1,0,3:0:0:0:
396,246,58870,1,8,0:0:0:0:
396,246,59032,2,0,P|415:187|419:121,1,123.200003759766,10|8,0:0|0:0,0:0:0:0:
389,72,59518,1,8,0:0:0:0:
389,72,59681,5,6,0:0:0:0:
283,132,60005,1,0,0:0:0:0:
283,132,60167,2,0,P|233:104|154:107,1,123.200003759766,2|0,3:2|3:0,0:0:0:0:
136,157,60654,1,8,0:0:0:0:
136,157,60816,2,0,B|99:182|109:216|109:216|171:221|208:277,1,184.800005639649,2|2,3:2|0:0,0:0:0:0:
286,364,61627,1,8,0:0:0:0:
365,273,61951,2,0,B|357:243|357:243|376:207,1,61.6000018798829,8|8,0:0|0:0,0:0:0:0:
426,187,62275,6,0,P|491:217|507:270,1,123.200003759766,6|2,0:0|0:0,0:0:0:0:
506,324,62762,2,0,P|478:333|441:359,1,61.6000018798829,2|0,0:0|0:0,0:0:0:0:
334,377,63248,1,8,0:0:0:0:
334,377,63410,2,0,B|314:349|287:342|287:342|256:353|213:340,1,123.200003759766,2|0,3:2|3:0,0:0:0:0:
182,297,63897,1,2,0:0:0:0:
255,198,64221,1,10,0:0:0:0:
169,108,64545,2,0,P|158:80|159:41,1,61.6000018798829,8|8,0:0|0:0,0:0:0:0:
211,17,64870,5,6,0:0:0:0:
325,70,65194,1,0,0:0:0:0:
325,70,65356,2,0,P|381:86|455:84,1,123.200003759766,2|0,3:2|0:0,0:0:0:0:
490,128,65843,1,8,0:0:0:0:
490,128,66005,2,0,P|432:197|340:187,1,184.800005639649,2|2,3:2|0:0,0:0:0:0:
241,121,66816,1,8,0:0:0:0:
144,197,67140,2,0,B|110:205|110:205|82:186,1,61.6000018798829,8|8,0:0|0:0,0:0:0:0:
38,226,67464,6,0,P|32:281|73:340,1,123.200003759766,6|0,0:0|0:0,0:0:0:0:
125,371,67951,1,2,3:2:0:0:
207,279,68275,1,0,3:0:0:0:
207,279,68437,2,0,P|206:243|213:216,2,61.6000018798829,8|2|0,0:0|0:0|0:0,0:0:0:0:
312,342,69086,1,2,0:0:0:0:
391,246,69410,2,0,B|405:225|430:211|430:211|457:247|496:254,1,123.200003759766,2|8,3:2|0:0,0:0:0:0:
497,317,69897,1,8,0:0:0:0:
497,317,70059,6,0,P|463:355|382:359,1,112,6|0,0:0|0:0,0:0:0:0:
359,333,70545,1,2,3:2:0:0:
272,261,70870,1,0,3:0:0:0:
272,261,71032,2,0,B|237:251|237:251|201:255,1,56,10|2,0:0|3:2,0:0:0:0:
136,329,71518,1,0,3:0:0:0:
136,329,71681,2,0,P|103:283|109:220,1,112,2|10,0:0|0:0,0:0:0:0:
185,151,72329,1,2,3:2:0:0:
116,69,72654,5,6,0:0:0:0:
116,69,72816,2,0,B|88:52|62:43|62:43|39:61|0:62,2,112,0|2|0,3:0|3:2|3:0,0:0:0:0:
159,33,73627,2,0,B|188:19|188:19|225:22,1,56,14|0,0:0|3:0,0:0:0:0:
288,102,74113,2,0,P|290:161|326:217,1,112,2|0,3:2|3:0,0:0:0:0:
360,240,74600,1,2,0:0:0:0:
464,201,74924,2,0,B|483:174|483:174|475:141,1,56,8|8,0:0|0:0,0:0:0:0:
456,105,75248,5,6,0:0:0:0:
456,105,75410,1,0,3:0:0:0:
370,32,75735,2,0,P|315:55|242:68,1,112,2|0,3:2|3:0,0:0:0:0:
217,96,76221,2,0,B|208:123|208:123|218:151,1,56,10|0,0:0|3:0,0:0:0:0:
298,226,76708,2,0,P|321:280|318:346,1,112,2|2,3:2|0:0,0:0:0:0:
267,348,77194,2,0,P|240:335|205:331,1,56,8|0,0:0|0:0,0:0:0:0:
167,361,77518,1,8,0:0:0:0:
65,327,77843,5,4,0:0:0:0:
65,327,78005,2,0,P|60:272|44:208,1,112,0|2,3:0|3:2,0:0:0:0:
140,153,78654,1,0,3:0:0:0:
140,153,78816,2,0,B|169:168|169:168|200:167,1,56,10|0,0:0|3:0,0:0:0:0:
299,136,79302,2,0,B|335:98|337:64|337:64|325:31,1,112,2|0,3:2|3:0,0:0:0:0:
275,14,79789,1,8,0:0:0:0:
168,47,80113,2,0,B|141:50|141:50|111:36,1,56,8|8,0:0|0:0,0:0:0:0:
65,47,80437,6,0,P|37:86|36:154,1,100.799996923828,4|2,0:0|0:0,0:0:0:0:
99,232,81086,1,8,0:0:0:0:
99,232,81248,1,2,0:0:0:0:
196,178,81572,2,0,P|247:175|289:219,1,100.799996923828,2|0,0:0|0:0,0:0:0:0:
352,292,82221,2,0,P|388:265|413:207,2,100.799996923828,2|2|2,0:0|0:0|0:0,0:0:0:0:
325,341,83032,5,2,0:0:0:0:
234,277,83356,2,0,P|188:259|129:252,1,100.799996923828,0|10,0:0|0:0,0:0:0:0:
46,187,84005,1,2,0:0:0:0:
46,187,84167,2,0,B|31:139|31:139|56:82,2,100.799996923828,0|10|0,0:0|0:0|0:0,0:0:0:0:
19,236,84978,1,2,3:2:0:0:
19,236,85627,6,0,P|61:217|124:203,1,100.799996923828,14|2,0:0|0:0,0:0:0:0:
220,250,86275,1,8,0:0:0:0:
220,250,86437,1,2,0:0:0:0:
316,194,86762,2,0,P|340:238|345:299,1,100.799996923828,2|0,0:0|0:0,0:0:0:0:
261,359,87410,1,2,0:0:0:0:
163,304,87735,2,0,P|152:252|205:229,1,100.799996923828,2|0,0:0|0:0,0:0:0:0:
213,179,88221,6,0,P|165:170|105:143,1,100.799996923828,2|2,3:2|0:0,0:0:0:0:
78,45,88870,1,8,0:0:0:0:
187,14,89194,1,2,0:0:0:0:
187,14,89356,2,0,B|230:20|230:20|242:29|242:29|297:39,1,100.799996923828,0|8,3:0|0:0,0:0:0:0:
381,101,90005,1,0,0:0:0:0:
381,101,90167,1,8,0:0:0:0:
319,193,90491,2,0,P|296:195|259:179,1,50.3999984619141,8|8,0:0|0:0,0:0:0:0:
224,229,90816,6,0,B|207:255|207:255|214:294,2,56,6|0|2,3:2|0:0|3:2,0:0:0:0:
128,181,91464,1,0,3:0:0:0:
128,181,91627,2,0,P|117:147|102:126,1,56,2|0,0:0|3:0,0:0:0:0:
98,74,91951,2,0,P|142:47|215:52,1,112,2|0,0:0|0:0,0:0:0:0:
281,124,92600,2,0,P|330:150|396:142,1,112,2|0,0:0|0:0,0:0:0:0:
430,179,93086,2,0,B|442:203|442:203|441:243,1,56,0|8,3:0|0:0,0:0:0:0:
424,285,93410,5,10,0:0:0:0:
316,256,93735,2,0,P|289:261|262:275,1,56,0|0,3:0|0:0,0:0:0:0:
220,309,94059,2,0,P|174:283|170:215,1,112,8|10,0:0|0:0,0:0:0:0:
206,191,94545,1,0,0:0:0:0:
206,191,94708,1,0,3:0:0:0:
155,91,95032,1,8,0:0:0:0:
58,147,95356,2,0,B|23:186|23:186|53:243,1,112,0|0,3:0|0:0,0:0:0:0:
90,287,95843,1,8,0:0:0:0:
90,287,96005,6,0,P|90:313|71:355,2,56,6|0|2,3:2|0:0|3:2,0:0:0:0:
162,202,96654,1,8,0:0:0:0:
162,202,96816,1,2,0:0:0:0:
232,288,97140,2,0,P|286:305|356:301,1,112,2|0,0:0|0:0,0:0:0:0:
397,288,97627,1,0,0:0:0:0:
397,288,97789,2,0,B|410:227|410:227|378:185,1,112,2|0,0:0|0:0,0:0:0:0:
283,144,98437,1,8,0:0:0:0:
283,144,98600,6,0,B|264:106|265:83|265:83|288:66|297:41,1,112,10|0,0:0|3:0,0:0:0:0:
405,39,99248,2,0,P|435:37|457:18,2,56,10|0|10,0:0|0:0|0:0,0:0:0:0:
392,93,99735,2,0,P|448:103|484:150,1,112,0|0,0:0|3:0,0:0:0:0:
488,199,100221,1,8,0:0:0:0:
425,291,100545,2,0,P|373:314|318:313,1,112,2|0,3:2|3:0,0:0:0:0:
275,208,101194,6,0,B|306:161|349:152|349:152|379:177|442:179,2,168,6|8|8,3:2|0:0|0:0,0:0:0:0:
212,302,102491,1,6,3:2:0:0:
212,302,102654,2,0,P|185:285|157:201,1,112,0|8,0:0|0:0,0:0:0:0:
181,163,103140,1,2,0:0:0:0:
103,82,103464,1,8,0:0:0:0:
197,22,103789,6,0,B|265:36|265:36|282:57|282:57|358:71,2,168,14|8|0,0:0|0:0|3:0,0:0:0:0:
93,64,105086,1,10,0:0:0:0:
44,165,105410,2,0,P|46:193|63:232,1,56,8|0,0:0|3:0,0:0:0:0:
86,266,105735,2,0,P|127:220|188:213,1,112,2|2,3:2|0:0,0:0:0:0:
226,244,106221,1,2,0:0:0:0:
226,244,106383,5,6,3:2:0:0:
330,174,106708,1,0,0:0:0:0:
330,174,106870,2,0,P|350:222|348:302,1,123.200003759766,2|0,3:2|3:0,0:0:0:0:
393,336,107356,1,8,0:0:0:0:
393,336,107518,2,0,P|470:278|460:179,1,184.800005639649,2|0,0:0|0:0,0:0:0:0:
421,89,108329,1,10,0:0:0:0:
312,30,108654,2,0,B|276:29|276:29|247:53,1,61.6000018798829,2|8,0:0|0:0,0:0:0:0:
223,97,108978,6,0,P|180:65|107:77,1,123.200003759766,6|0,0:0|0:0,0:0:0:0:
64,109,109464,2,0,P|80:135|79:169,1,61.6000018798829,2|0,3:2|0:0,0:0:0:0:
8,266,109951,1,8,0:0:0:0:
8,266,110113,2,0,B|25:317|57:346|57:346|84:312|161:320,1,184.800005639649,2|2,3:2|0:0,0:0:0:0:
252,366,110924,1,10,0:0:0:0:
370,342,111248,2,0,P|403:327|416:290,1,61.6000018798829,2|0,3:2|3:0,0:0:0:0:
401,245,111572,6,0,P|430:176|483:171,1,123.200003759766,6|0,3:2|0:0,0:0:0:0:
481,107,112059,2,0,P|447:85|430:57,1,61.6000018798829,2|0,3:2|0:0,0:0:0:0:
320,23,112545,1,8,0:0:0:0:
320,23,112708,2,0,B|274:48|246:37|246:37|226:51|226:51|219:82|252:132,1,184.800005639649,2|2,3:2|0:0,0:0:0:0:
333,218,113518,1,10,0:0:0:0:
262,319,113843,2,0,P|231:306|194:312,1,61.6000018798829,8|8,0:0|0:0,0:0:0:0:
149,338,114167,6,0,P|93:303|88:242,1,123.200003759766,6|0,0:0|0:0,0:0:0:0:
113,195,114654,2,0,P|148:193|180:170,1,61.6000018798829,2|0,3:2|0:0,0:0:0:0:
262,98,115140,1,10,0:0:0:0:
262,98,115302,2,0,B|318:108|335:133|335:133|337:155|348:186,2,123.200003759766,2|0|8,3:2|3:0|0:0,0:0:0:0:
225,48,116113,1,10,0:0:0:0:
125,119,116437,2,0,B|114:147|114:147|126:180,1,61.6000018798829,8|8,0:0|0:0,0:0:0:0:
158,228,116762,5,6,0:0:0:0:
244,315,117086,1,0,0:0:0:0:
244,315,117248,2,0,B|278:267|313:267|313:267|368:300|427:299,1,184.800005639649,2|8,3:2|0:0,0:0:0:0:
461,274,117897,2,0,B|471:235|471:235|462:202,1,61.6000018798829,2|0,3:2|0:0,0:0:0:0:
432,95,118383,1,2,0:0:0:0:
331,23,118708,2,0,B|305:40|288:58|288:58|266:45|200:53,1,123.200003759766,8|8,0:0|0:0,0:0:0:0:
177,93,119194,1,8,0:0:0:0:
177,93,119356,5,6,0:0:0:0:
269,174,119681,1,0,0:0:0:0:
269,174,119843,2,0,B|293:228|293:228|275:301,1,123.200003759766,2|0,3:2|3:0,0:0:0:0:
248,344,120329,1,8,0:0:0:0:
248,344,120491,2,0,P|175:299|79:321,1,184.800005639649,2|2,3:2|0:0,0:0:0:0:
6,221,121302,1,10,0:0:0:0:
80,122,121627,2,0,P|116:126|146:141,1,61.6000018798829,8|8,0:0|0:0,0:0:0:0:
172,185,121951,6,0,B|248:213|327:167|327:167|310:137|320:75,1,246.400007519531,6|2,3:2|0:0,0:0:0:0:
371,52,122762,2,0,B|409:48|409:48|448:69,1,61.6000018798829,0|8,3:0|0:0,0:0:0:0:
465,109,123086,2,0,P|443:167|429:238,1,123.200003759766,2|0,0:0|3:0,0:0:0:0:
393,276,123572,2,0,B|373:250|373:250|341:252,2,61.6000018798829,2|0|10,0:0|0:0|0:0,0:0:0:0:
313,371,124221,1,8,0:0:0:0:
222,288,124545,6,0,P|160:301|104:327,1,123.200003759766,4|0,0:0|0:0,0:0:0:0:
58,286,125032,2,0,P|143:211|134:149,1,184.800005639649,2|10,3:2|0:0,0:0:0:0:
81,117,125681,2,0,P|70:66|128:11,1,123.200003759766,2|0,0:0|3:0,0:0:0:0:
174,16,126167,1,2,0:0:0:0:
288,65,126491,2,0,B|322:116|322:116|302:186,1,123.200003759766,8|8,0:0|0:0,0:0:0:0:
312,236,126978,1,8,0:0:0:0:
312,236,127140,6,0,P|332:249|388:244,1,56,6|0,0:0|3:0,0:0:0:0:
462,200,127627,2,0,B|481:144|481:144|446:100,1,112,0|0,3:0|3:0,0:0:0:0:
437,53,128113,1,10,0:0:0:0:
437,53,128275,2,0,P|383:87|271:93,1,168,0|0,3:0|0:0,0:0:0:0:
173,63,129086,1,10,0:0:0:0:
107,153,129410,1,2,3:2:0:0:
196,232,129735,5,4,0:0:0:0:
196,232,129897,2,0,P|214:283|225:345,2,112,0|2|0,0:0|3:2|0:0,0:0:0:0:
227,185,130708,2,0,B|248:171|248:171|282:171,1,56,14|0,0:0|3:0,0:0:0:0:
345,260,131194,2,0,P|390:290|458:286,1,112,0|0,3:0|3:0,0:0:0:0:
479,244,131681,2,0,P|480:213|491:181,1,56,10|0,0:0|3:0,0:0:0:0:
450,147,132005,2,0,P|435:119|428:86,1,56,8|8,0:0|0:0,0:0:0:0:
457,46,132329,5,6,0:0:0:0:
457,46,132491,1,0,3:0:0:0:
351,8,132816,2,0,B|298:13|298:13|293:20|293:20|230:28,1,112,2|0,3:2|3:0,0:0:0:0:
217,76,133302,2,0,B|250:78|250:78|286:93,1,56,10|0,0:0|3:0,0:0:0:0:
350,165,133789,2,0,P|367:215|377:288,1,112,2|2,3:2|3:2,0:0:0:0:
359,326,134275,1,8,0:0:0:0:
254,286,134600,1,8,0:0:0:0:
163,349,134924,5,6,0:0:0:0:
163,349,135086,2,0,P|115:327|103:261,2,112,0|2|0,3:0|3:2|3:0,0:0:0:0:
213,323,135897,1,10,0:0:0:0:
213,323,136059,1,0,3:0:0:0:
246,216,136383,2,0,P|297:197|361:202,1,112,2|0,3:2|3:0,0:0:0:0:
393,239,136870,1,10,0:0:0:0:
376,349,137194,2,0,B|354:352|354:352|320:345,1,56,10|8,0:0|0:0,0:0:0:0:
275,313,137518,5,4,0:0:0:0:
413,198,147897,6,0,P|445:126|449:76,2,112,6|0|2,0:0|3:0|0:0,0:0:0:0:
318,258,148870,1,0,3:0:0:0:
220,199,149194,2,0,B|163:192|163:192|94:233,1,112,2|0,0:0|3:0,0:0:0:0:
88,268,149681,1,2,0:0:0:0:
17,181,150005,1,0,0:0:0:0:
17,181,150167,1,0,3:0:0:0:
62,78,150491,6,0,P|117:75|164:104,1,112,2|0,0:0|3:0,0:0:0:0:
233,191,151140,2,0,P|278:156|301:96,1,112,2|0,0:0|3:0,0:0:0:0:
398,54,151789,1,2,0:0:0:0:
483,126,152113,1,0,3:0:0:0:
420,219,152437,2,0,P|384:235|326:225,2,84,2|0|0,0:0|0:0|0:0,0:0:0:0:
448,267,153086,6,0,B|435:325|435:325|314:356,2,168,14|8|8,0:0|0:0|0:0,0:0:0:0:
425,161,154383,1,12,0:0:0:0:
425,161,154545,2,0,B|375:139|375:139|317:152,1,112,2|8,0:0|0:0,0:0:0:0:
280,193,155032,1,2,0:0:0:0:
173,159,155356,1,8,0:0:0:0:
218,56,155681,6,0,B|195:32|153:21|153:21|141:34|141:34|113:56|54:52,2,168,14|8|8,0:0|0:0|0:0,0:0:0:0:
173,159,156978,1,4,0:0:0:0:
173,159,158275,6,0,P|151:218|190:276,1,123.200003759766,6|0,3:2|0:0,0:0:0:0:
211,319,158762,2,0,B|243:314|267:286|267:286|298:285|342:301,1,123.200003759766,2|0,3:2|0:0,0:0:0:0:
369,342,159248,1,8,0:0:0:0:
369,342,159410,2,0,P|371:258|422:164,1,184.800005639649,2|2,0:0|0:0,0:0:0:0:
506,86,160221,1,8,0:0:0:0:
401,21,160545,2,0,P|374:10|343:16,1,61.6000018798829,8|8,0:0|0:0,0:0:0:0:
316,71,160870,6,0,P|269:103|195:93,1,123.200003759766,6|0,0:0|0:0,0:0:0:0:
157,68,161356,1,2,3:2:0:0:
157,68,161518,1,0,0:0:0:0:
54,133,161843,1,8,0:0:0:0:
54,133,162005,2,0,B|30:159|24:178|24:178|42:197|61:249,1,123.200003759766,2|0,3:2|3:0,0:0:0:0:
94,286,162491,2,0,P|113:257|148:234,2,61.6000018798829,2|0|10,0:0|0:0|0:0,0:0:0:0:
201,346,163140,1,2,3:2:0:0:
300,274,163464,5,6,3:2:0:0:
421,317,163789,1,0,0:0:0:0:
421,317,163951,2,0,P|443:256|363:167,1,184.800005639649,2|8,3:2|0:0,0:0:0:0:
319,191,164600,1,2,3:2:0:0:
214,255,164924,1,0,3:0:0:0:
214,255,165086,2,0,P|184:258|147:245,2,61.6000018798829,2|0|10,0:0|3:0|0:0,0:0:0:0:
290,350,165735,1,8,0:0:0:0:
392,282,166059,6,0,B|444:271|488:283|488:283|489:269|512:250,1,123.200003759766,6|0,0:0|0:0,0:0:0:0:
502,199,166545,2,0,P|484:128|381:112,1,184.800005639649,2|10,3:2|0:0,0:0:0:0:
340,152,167194,1,2,3:2:0:0:
255,62,167518,1,0,3:0:0:0:
184,164,167843,1,8,0:0:0:0:
184,164,168005,2,0,P|125:185|74:141,1,123.200003759766,10|8,0:0|0:0,0:0:0:0:
61,99,168491,1,8,0:0:0:0:
61,99,168654,5,6,0:0:0:0:
162,27,168978,1,0,0:0:0:0:
162,27,169140,2,0,B|241:33|241:33|261:76,1,123.200003759766,2|0,3:2|3:0,0:0:0:0:
309,108,169627,2,0,P|335:88|366:74,2,61.6000018798829,8|2|0,0:0|3:2|0:0,0:0:0:0:
245,215,170275,1,2,0:0:0:0:
245,215,170437,2,0,P|192:194|150:116,1,123.200003759766
130,84,170924,1,8,0:0:0:0:
38,166,171248,5,6,0:0:0:0:
94,281,171572,1,2,0:0:0:0:
94,281,171735,2,0,P|143:311|216:324,1,123.200003759766,2|0,3:2|3:0,0:0:0:0:
263,296,172221,1,10,0:0:0:0:
263,296,172383,2,0,B|322:258|387:259|387:259|377:222|401:186,1,184.800005639649,0|2,3:0|0:0,0:0:0:0:
331,97,173194,1,10,0:0:0:0:
223,153,173518,2,0,P|194:153|158:132,1,61.6000018798829,8|8,0:0|0:0,0:0:0:0:
112,106,173843,6,0,P|62:126|69:193,1,123.200003759766,6|0,0:0|0:0,0:0:0:0:
97,239,174329,2,0,B|64:273|35:292|35:292|37:352|108:377,1,184.800005639649,2|8,3:2|0:0,0:0:0:0:
148,344,174978,1,2,3:2:0:0:
230,253,175302,1,0,3:0:0:0:
230,253,175464,2,0,P|263:262|292:282,1,61.6000018798829,2|0,0:0|3:0,0:0:0:0:
329,320,175789,1,10,0:0:0:0:
437,261,176113,1,8,0:0:0:0:
483,146,176437,6,0,P|432:148|367:90,1,123.200003759766,6|0,0:0|0:0,0:0:0:0:
323,73,176924,2,0,B|301:65|257:91|257:91|242:139|275:213,1,184.800005639649,2|10,3:2|0:0,0:0:0:0:
215,223,177572,1,0,0:0:0:0:
215,223,177735,2,0,B|141:175|141:175|157:115,1,123.200003759766,10|10,0:0|0:0,0:0:0:0:
184,34,178383,1,10,0:0:0:0:
275,99,178708,2,0,P|303:102|338:83,1,56,8|8,0:0|0:0,0:0:0:0:
382,62,179032,5,6,0:0:0:0:
469,149,179356,1,0,0:0:0:0:
469,149,179518,2,0,P|440:199|439:281,1,123.200003759766,2|0,3:2|0:0,0:0:0:0:
387,303,180005,1,8,0:0:0:0:
387,303,180167,2,0,B|317:298|263:278|263:278|283:300|296:357,1,184.800005639649,2|2,3:2|0:0,0:0:0:0:
174,376,180978,1,10,0:0:0:0:
132,260,181302,2,0,P|100:246|65:258,1,61.6000018798829,8|8,0:0|0:0,0:0:0:0:
20,285,181627,6,0,P|2:239|18:161,1,123.200003759766,6|0,0:0|0:0,0:0:0:0:
31,108,182113,1,2,3:2:0:0:
119,22,182437,1,0,3:0:0:0:
119,22,182600,2,0,P|151:21|194:39,1,61.6000018798829,8|2,0:0|3:2,0:0:0:0:
214,79,182924,2,0,P|269:84|342:62,1,123.200003759766,0|2,0:0|0:0,0:0:0:0:
447,20,183572,1,10,0:0:0:0:
483,138,183897,2,0,P|471:168|446:193,1,61.6000018798829,2|0,3:2|3:0,0:0:0:0:
397,219,184221,5,6,3:2:0:0:
316,306,184545,1,0,0:0:0:0:
316,306,184708,2,0,B|329:340|360:369|360:369|397:336|480:336,1,184.800005639649,2|8,0:2|0:0,0:0:0:0:
464,275,185356,2,0,P|395:217|417:123,1,184.800005639649,2|2,3:2|0:0,0:0:0:0:
496,43,186167,1,10,0:0:0:0:
378,5,186491,2,0,P|352:-1|311:17,1,61.6000018798829,8|8,0:0|0:0,0:0:0:0:
288,63,186816,6,0,B|273:120|273:120|277:130|277:130|262:191,1,123.200003759766,6|0,0:0|0:0,0:0:0:0:
214,218,187302,2,0,P|173:121|88:109,1,184.800005639649,2|8,3:2|0:0,0:0:0:0:
51,139,187951,1,2,3:2:0:0:
15,258,188275,1,0,3:0:0:0:
106,348,188600,1,8,0:0:0:0:
106,348,188762,2,0,B|147:339|163:315|163:315|190:302|239:327,1,123.200003759766,10|8,0:0|0:0,0:0:0:0:
266,353,189248,1,8,0:0:0:0:
266,353,189410,5,6,0:0:0:0:
332,250,189735,1,0,0:0:0:0:
332,250,189897,2,0,P|352:196|320:128,1,123.200003759766,2|0,3:2|3:0,0:0:0:0:
302,88,190383,1,8,0:0:0:0:
302,88,190545,2,0,B|366:104|418:69|418:69|451:72|484:98,1,184.800005639649,2|2,0:0|0:0,0:0:0:0:
503,212,191356,1,8,0:0:0:0:
397,276,191681,2,0,P|366:270|338:256,1,61.6000018798829,8|8,0:0|0:0,0:0:0:0:
292,215,192005,5,6,0:0:0:0:
259,101,192329,1,0,0:0:0:0:
259,101,192491,2,0,P|324:76|384:72,1,123.200003759766,2|0,3:2|3:0,0:0:0:0:
436,102,192978,1,8,0:0:0:0:
436,102,193140,2,0,B|425:137|433:163|433:163|418:191|395:200|395:200|375:226|389:270,1,184.800005639649,2|2,3:2|0:0,0:0:0:0:
283,331,193951,1,10,0:0:0:0:
217,227,194275,2,0,P|185:224|157:206,1,61.6000018798829,8|8,0:0|0:0,0:0:0:0:
124,158,194600,6,0,P|216:132|201:57,2,184.800005639649,6|2|8,0:0|0:0|0:0,0:0:0:0:
62,165,195735,2,0,B|32:219|32:219|99:246|109:331,1,184.800005639649,2|10,0:0|0:0,0:0:0:0:
161,348,196383,1,0,0:0:0:0:
161,348,196545,1,10,0:0:0:0:
277,313,196870,2,0,P|287:284|282:244,1,61.6000018798829,8|8,0:0|0:0,0:0:0:0:
245,206,197194,6,0,P|222:148|238:89,1,123.200003759766,6|0,0:0|0:0,0:0:0:0:
275,42,197681,2,0,B|336:34|368:61|355:67|397:90|458:66,1,184.800005639649,2|8,3:2|0:0,0:0:0:0:
474,125,198329,2,0,P|437:173|366:187,1,123.200003759766,2|0,0:0|3:0,0:0:0:0:
351,244,198816,1,2,0:0:0:0:
444,324,199140,2,0,B|476:323|476:323|503:350,2,61.6000018798829,0|0|8,3:0|3:0|0:0,0:0:0:0:
393,355,199627,1,8,0:0:0:0:
393,355,199789,6,0,P|364:368|319:370,1,56,6|0,0:0|3:0,0:0:0:0:
250,305,200275,2,0,P|203:279|129:275,1,112,2|0,3:2|3:0,0:0:0:0:
96,295,200762,1,10,0:0:0:0:
96,295,200924,2,0,B|87:256|56:240|56:240|94:213|111:144,1,168,0|2,3:0|0:0,0:0:0:0:
35,72,201735,1,8,0:0:0:0:
125,6,202059,1,8,0:0:0:0:
225,71,202383,5,6,0:0:0:0:
225,71,202545,2,0,P|238:119|247:202,2,112,0|2|0,3:0|3:2|3:0,0:0:0:0:
265,32,203356,2,0,B|296:34|296:34|326:17,1,56,14|0,0:0|3:0,0:0:0:0:
377,116,203843,2,0,P|433:114|489:149,1,112,0|0,3:0|3:0,0:0:0:0:
505,190,204329,1,10,0:0:0:0:
402,235,204654,2,0,B|389:261|389:261|386:292,1,56,8|8,0:0|0:0,0:0:0:0:
351,331,204978,5,6,0:0:0:0:
351,331,205140,2,0,P|334:277|282:226,2,112,0|2|0,3:0|3:2|3:0,0:0:0:0:
401,369,205951,1,10,0:0:0:0:
401,369,206113,2,0,B|468:351|495:314|495:314|490:277|462:245,1,168,0|2,3:0|0:0,0:0:0:0:
409,169,206924,1,8,0:0:0:0:
460,69,207248,2,0,P|432:57|404:56,1,56,8|0,0:0|0:0,0:0:0:0:
363,29,207572,5,6,0:0:0:0:
363,29,207735,1,0,3:0:0:0:
263,79,208059,2,0,P|214:103|146:94,1,112,0|0,3:0|3:0,0:0:0:0:
116,135,208545,1,2,0:0:0:0:
116,135,208708,2,0,B|91:67|91:67|46:48,2,112,0|0|0,3:0|3:0|0:0,0:0:0:0:
91,185,209518,1,10,0:0:0:0:
40,285,209843,2,0,B|40:311|40:311|61:342,1,56,10|8,0:0|0:0,0:0:0:0:
109,355,210167,5,4,0:0:0:0:
256,192,210329,12,2,215194,0:0:0:0:
