osu file format v14

[General]
AudioFilename: audio.mp3
AudioLeadIn: 0
PreviewTime: 48329
Countdown: 0
SampleSet: Soft
StackLeniency: 0.7
Mode: 0
LetterboxInBreaks: 0
WidescreenStoryboard: 1

[Editor]
Bookmarks: 12978,23356,33735,49302,59681,70059,80437,90816,106383,116762,127140,137518,147897,158275,168654,179032,189410,199789,210167,215194
DistanceSpacing: 1
BeatDivisor: 8
GridSize: 4
TimelineZoom: 1.7

[Metadata]
Title:brilliant
TitleUnicode:brilliant
Artist:Tokoyami Towa
ArtistUnicode:常闇トワ
Creator:Hinsvar
Version:Hard
Source:
Tags:hololive ホロライブ Vocaloid cover Virtual YouTuber VTuber Rock Japanese niki Lily
BeatmapID:2487301
BeatmapSetID:1193076

[Difficulty]
HPDrainRate:5
CircleSize:4
OverallDifficulty:6.5
ApproachRate:8
SliderMultiplier:2.72
SliderTickRate:1

[Events]
//Background and Video events
0,0,"konyappi.jpg",0,0
Video,0,"brilliant.mp4"
//Break Periods
2,137718,147147
//Storyboard Layer 0 (Background)
//Storyboard Layer 1 (Fail)
//Storyboard Layer 2 (Pass)
//Storyboard Layer 3 (Foreground)
//Storyboard Layer 4 (Overlay)
//Storyboard Sound Samples

[TimingPoints]
2600,648.648648648649,4,2,1,75,1,0
23356,-133.333333333333,4,2,1,60,0,0
33735,-114.942528735632,4,2,1,70,0,0
44113,-100,4,2,1,75,0,0
49302,-88.4955752212389,4,2,1,85,0,1
70059,-100,4,2,1,75,0,0
80437,-133.333333333333,4,2,1,65,0,0
90816,-114.942528735632,4,2,1,70,0,0
101194,-100,4,2,1,75,0,0
106383,-88.4955752212389,4,2,1,85,0,1
127140,-100,4,2,1,75,0,0
137518,-133.333333333333,4,2,1,60,0,0
152437,-100,4,2,1,60,0,0
153086,-100,4,2,1,70,0,0
156978,-100,4,2,1,50,0,0
158275,-88.4955752212389,4,2,1,85,0,1
178383,-133.333333333333,4,2,1,85,0,0
179032,-88.4955752212389,4,2,1,85,0,1
199789,-100,4,2,1,75,0,0
210167,-100,4,2,1,60,0,0
215194,-100,4,2,1,20,0,0

[Colours]
Combo1 : 167,9,206
Combo2 : 255,157,206
Combo3 : 32,183,255
Combo4 : 131,245,252

[HitObjects]
85,301,12654,6,0,L|79:255,3,34,8|8|8|8,0:0|0:0|0:0|0:0,0:0:0:0:
62,240,12978,5,6,0:0:0:0:
62,240,13140,2,0,P|130:241|173:184,1,136,0|2,3:0|3:2,0:0:0:0:
211,113,13627,2,0,P|237:130|255:176,1,68,0|0,0:0|3:0,0:0:0:0:
301,267,13951,1,10,0:0:0:0:
340,188,14113,2,0,P|391:139|453:117,2,136,2|2|0,3:2|3:2|3:0,0:0:0:0:
341,71,14924,1,10,0:0:0:0:
260,107,15086,1,0,3:0:0:0:
178,25,15248,2,0,P|177:59|160:104,1,68,0|0,3:0|0:0,0:0:0:0:
90,186,15572,5,6,0:0:0:0:
89,186,15735,2,0,P|88:134|7:128,2,136,0|2|0,3:0|3:2|3:0,0:0:0:0:
176,250,16545,1,10,0:0:0:0:
176,250,16708,2,0,P|147:263|106:297,1,68,2|0,3:2|0:0,0:0:0:0:
175,352,17032,2,0,B|223:332|279:333|279:333|267:309|278:293,1,136,2|0,3:2|3:0,0:0:0:0:
367,249,17518,1,10,0:0:0:0:
385,335,17681,1,0,0:0:0:0:
496,305,17843,2,0,L|461:288,3,34,8|8|8|8,0:0|0:0|0:0|0:0,0:0:0:0:
481,260,18167,5,6,0:0:0:0:
481,260,18329,2,0,P|464:193|400:159,1,136,0|2,3:0|3:2,0:0:0:0:
337,108,18816,2,0,P|316:133|273:149,1,68,0|0,0:0|3:0,0:0:0:0:
192,217,19140,1,10,0:0:0:0:
192,217,19302,2,0,P|258:229|334:253,1,136,0|0,3:0|3:0,0:0:0:0:
193,368,19951,1,0,3:0:0:0:
123,313,20113,2,0,B|91:305|91:305|56:334,1,68,10|0,0:0|0:0,0:0:0:0:
5,261,20437,2,0,P|5:224|14:190,1,68,2|2,3:2|0:0,0:0:0:0:
88,104,20762,5,6,0:0:0:0:
88,104,20924,2,0,P|120:155|90:233,2,136,0|2|0,3:0|3:2|0:0,0:0:0:0:
167,28,21735,1,10,0:0:0:0:
226,93,21897,1,0,3:0:0:0:
340,50,22059,2,0,B|341:91|327:110|327:110|325:139|374:169,1,136,10|10,0:0|0:0,0:0:0:0:
474,252,22545,2,0,B|455:252|435:245|435:245|424:246|395:267,1,68,0|10,0:0|0:0,0:0:0:0:
387,272,23356,6,0,P|397:299|396:330,1,51.0000019454957,4|0,3:2|0:0,0:0:0:0:
321,363,23681,2,0,P|287:319|293:263,1,102.000003890991,2|8,0:0|0:0,0:0:0:0:
316,192,24167,1,2,0:0:0:0:
194,68,24491,2,0,P|146:63|93:90,1,102.000003890991,2|0,0:0|0:0,0:0:0:0:
51,252,25140,2,0,P|82:292|90:346,2,102.000003890991,2|2|0,0:0|0:0|0:0,0:0:0:0:
102,181,25951,6,0,B|154:173|154:173|210:208,1,102.000003890991,10|2,0:0|0:0,0:0:0:0:
259,257,26437,2,0,P|289:256|312:244,1,51.0000019454957
421,77,26924,1,10,0:0:0:0:
353,23,27086,2,0,P|334:54|329:123,1,102.000003890991,2|0,0:0|0:0,0:0:0:0:
261,173,27572,1,10,0:0:0:0:
127,61,27897,2,0,P|80:59|17:90,1,102.000003890991,2|0,0:0|0:0,0:0:0:0:
102,269,28545,6,0,P|107:240|121:220,2,51.0000019454957,4|0|2,3:2|0:0|0:0,0:0:0:0:
243,369,29194,1,8,0:0:0:0:
243,369,29356,2,0,P|249:319|230:248,2,102.000003890991,2|2|0,0:0|0:0|0:0,0:0:0:0:
362,243,30329,2,0,P|364:190|397:148,1,102.000003890991,2|2,0:0|0:0,0:0:0:0:
506,20,30978,1,10,0:0:0:0:
506,20,31140,6,0,P|456:39|397:34,1,102.000003890991,10|0,0:0|0:0,0:0:0:0:
313,87,31627,2,0,B|342:96|342:96|361:117,1,51.0000019454957,0|10,0:0|0:0,0:0:0:0:
476,251,32113,1,10,0:0:0:0:
476,251,32275,2,0,B|426:246|426:246|366:284,1,102.000003890991,2|0,0:0|0:0,0:0:0:0:
323,209,32762,1,10,0:0:0:0:
231,356,33086,5,2,0:0:0:0:
231,356,33735,6,0,P|221:332|218:291,1,59.1600004964905,6|0,3:2|0:0,0:0:0:0:
174,221,34059,2,0,P|144:262|79:293,1,118.320000992981,2|8,3:2|0:0,0:0:0:0:
20,230,34545,1,2,0:0:0:0:
107,61,34870,2,0,P|157:68|212:111,1,118.320000992981,2|0,0:0|0:0,0:0:0:0:
256,183,35356,1,0,0:0:0:0:
330,241,35518,2,0,P|353:198|349:128,2,118.320000992981,2|0|8,0:0|0:0|0:0,0:0:0:0:
353,351,36329,6,0,B|316:341|296:320|296:320|277:318|239:333,1,118.320000992981,10|0,0:0|3:0,0:0:0:0:
100,226,36978,2,0,P|132:226|174:198,1,59.1600004964905,8|0,0:0|0:0,0:0:0:0:
163,130,37302,1,10,0:0:0:0:
163,130,37464,2,0,B|183:94|210:91|210:91|237:118|277:104,1,118.320000992981,0|0,0:0|3:0,0:0:0:0:
307,32,37951,2,0,B|357:43|357:43|368:51|368:51|426:60,1,118.320000992981,10|10,0:0|0:0,0:0:0:0:
497,219,38600,1,8,0:0:0:0:
441,288,38762,1,8,0:0:0:0:
441,288,38843,1,8,0:0:0:0:
441,288,38924,6,0,P|422:266|408:222,1,59.1600004964905,6|0,3:2|0:0,0:0:0:0:
363,142,39248,2,0,P|335:181|321:251,1,118.320000992981,2|8,3:2|0:0,0:0:0:0:
238,283,39735,2,0,P|216:282|175:260,1,59.1600004964905,2|0,0:0|3:0,0:0:0:0:
126,346,40059,2,0,P|179:359|260:386,1,118.320000992981,2|0,0:0|0:0,0:0:0:0:
368,255,40708,1,2,0:0:0:0:
202,165,41032,2,0,P|184:121|197:52,1,118.320000992981,0|8,0:0|0:0,0:0:0:0:
222,33,41437,1,8,0:0:0:0:
222,33,41518,6,0,B|168:13|168:13|111:34,1,118.320000992981,10|0,0:0|3:0,0:0:0:0:
50,99,42005,1,0,0:0:0:0:
104,169,42167,2,0,B|87:214|53:224|53:224|63:250|57:268,1,118.320000992981,2|2,3:2|3:2,0:0:0:0:
57,370,42654,2,0,P|105:333|184:322,1,118.320000992981,0|0,0:0|3:0,0:0:0:0:
215,251,43140,1,8,0:0:0:0:
355,359,43464,2,0,B|396:346|388:307|388:307|366:299|343:263,1,118.320000992981,2|8,3:2|0:0,0:0:0:0:
383,197,43951,1,8,0:0:0:0:
383,197,44032,1,8,0:0:0:0:
383,197,44113,6,0,B|386:135|362:94|362:94|408:118|457:98,2,204,6|10|8,3:2|0:0|0:0,0:0:0:0:
263,325,45410,1,6,3:2:0:0:
197,265,45572,2,0,P|163:266|127:281,1,68
56,349,45897,1,8,0:0:0:0:
56,349,46059,2,0,B|93:322|87:287|87:287|64:265|58:227,1,136,2|8,0:0|0:0,0:0:0:0:
151,81,46708,6,0,B|183:78|223:62|223:62|246:73|265:89|265:89|296:90|361:100,2,204,14|8|0,0:0|0:0|3:0,0:0:0:0:
251,259,48005,1,4,3:2:0:0:
251,259,49302,6,0,P|224:188|235:95,1,153.680000468994,6|0,3:2|0:0,0:0:0:0:
297,38,49789,2,0,B|363:19|403:45|403:45|383:77|394:110,1,153.680000468994,2|0,3:2|3:0,0:0:0:0:
470,171,50275,2,0,P|466:129|487:77,1,76.8400002344971,8|2,0:0|0:0,0:0:0:0:
376,190,50600,2,0,P|296:146|221:166,1,153.680000468994,0|2,0:0|0:0,0:0:0:0:
131,139,51086,2,0,P|152:167|152:219,1,76.8400002344971,0|8,0:0|0:0,0:0:0:0:
306,338,51572,2,0,P|264:343|240:372,1,76.8400002344971,8|8,0:0|0:0,0:0:0:0:
217,344,51816,1,8,0:0:0:0:
217,344,51897,6,0,P|131:329|90:269,1,153.680000468994,6|0,0:0|0:0,0:0:0:0:
4,218,52383,2,0,B|44:169|72:159|72:159|47:132|66:88,1,153.680000468994,2|0,0:0|0:0,0:0:0:0:
131,28,52870,1,8,0:0:0:0:
213,84,53032,2,0,B|260:81|287:47|287:47|332:56|368:74,1,153.680000468994,2|0,3:2|3:0,0:0:0:0:
467,62,53518,2,0,P|448:93|451:143,1,76.8400002344971,2|0,0:0|0:0,0:0:0:0:
508,231,53843,2,0,B|458:242|427:233|427:233|395:243|358:278,1,153.680000468994,10|2,0:0|3:2,0:0:0:0:
273,238,54329,1,0,3:0:0:0:
273,238,54410,1,0,3:0:0:0:
273,238,54491,6,0,P|252:157|258:77,1,153.680000468994,6|0,3:2|0:0,0:0:0:0:
158,40,54978,2,0,B|147:77|113:91|113:91|66:76|10:99,1,153.680000468994,2|0,3:2|0:0,0:0:0:0:
70,183,55464,1,8,0:0:0:0:
8,295,55627,2,0,P|82:323|120:265,1,153.680000468994,2|0,3:2|3:0,0:0:0:0:
189,199,56113,2,0,B|230:201|230:201|267:232,1,76.8400002344971,2|0,0:0|3:0,0:0:0:0:
285,320,56437,1,8,0:0:0:0:
365,136,56762,2,0,B|385:136|385:136|416:116,3,38.4200001172485,8|8|8|8,0:0|0:0|0:0|0:0,0:0:0:0:
431,103,57086,6,0,P|470:149|454:238,1,153.680000468994,6|0,0:0|0:0,0:0:0:0:
419,329,57572,2,0,P|353:269|262:256,1,153.680000468994,2|0,3:2|0:0,0:0:0:0:
236,142,58059,1,10,0:0:0:0:
298,64,58221,2,0,B|360:47|360:47|387:50|387:50|456:29,2,153.680000468994,2|0|8,3:2|3:0|0:0,0:0:0:0:
214,8,59032,1,10,0:0:0:0:
31,87,59356,2,0,P|23:109|25:133,3,38.4200001172485,8|8|8|8,0:0|0:0|0:0|0:0,0:0:0:0:
45,155,59681,6,0,B|92:161|118:192|118:192|91:220|77:265,1,153.680000468994,6|0,0:0|0:0,0:0:0:0:
157,303,60167,2,0,B|208:279|261:290|261:290|282:261|246:235,1,153.680000468994,2|0,3:2|3:0,0:0:0:0:
306,141,60654,1,8,0:0:0:0:
383,205,60816,2,0,P|406:129|407:40,1,153.680000468994,2|0,3:2|3:0,0:0:0:0:
317,13,61302,2,0,P|280:16|234:33,1,76.8400002344971,2|0,0:0|0:0,0:0:0:0:
151,71,61627,1,8,0:0:0:0:
270,230,61951,1,8,0:0:0:0:
345,164,62113,1,8,0:0:0:0:
345,164,62194,1,8,0:0:0:0:
345,164,62275,6,0,P|381:183|423:175,1,76.8400002344971,6|0,0:0|0:0,0:0:0:0:
493,241,62600,1,2,0:0:0:0:
433,321,62762,2,0,B|391:359|354:346|362:336|330:320|288:355,1,153.680000468994,2|0,0:0|0:0,0:0:0:0:
178,365,63248,1,8,0:0:0:0:
117,255,63410,2,0,P|181:275|254:214,1,153.680000468994,2|0,3:2|3:0,0:0:0:0:
302,144,63897,2,0,B|292:107|292:107|322:60,1,76.8400002344971,2|0,0:0|3:0,0:0:0:0:
225,25,64221,1,10,0:0:0:0:
9,125,64545,2,0,B|46:116|46:116|90:143,1,76.8400002344971,8|8,0:0|0:0,0:0:0:0:
100,176,64789,1,8,0:0:0:0:
100,176,64870,6,0,B|157:190|179:162|173:157|198:125|259:146,1,153.680000468994,6|0,0:0|0:0,0:0:0:0:
308,43,65356,2,0,P|335:90|354:196,1,153.680000468994,2|0,3:2|0:0,0:0:0:0:
298,270,65843,1,8,0:0:0:0:
404,331,66005,2,0,B|449:309|460:283|460:283|443:248|440:196,1,153.680000468994,2|0,3:2|0:0,0:0:0:0:
495,114,66491,2,0,P|456:110|423:92,1,76.8400002344971,2|0,0:0|3:0,0:0:0:0:
323,18,66816,2,0,B|264:22|248:9|248:9|216:12|168:61,1,153.680000468994,8|8,0:0|0:0,0:0:0:0:
83,129,67302,1,8,0:0:0:0:
83,129,67383,1,8,0:0:0:0:
83,129,67464,6,0,P|39:83|102:27,1,153.680000468994,6|0,0:0|0:0,0:0:0:0:
170,128,67951,2,0,P|195:183|203:275,1,153.680000468994,2|0,3:2|3:0,0:0:0:0:
312,346,68437,1,8,0:0:0:0:
303,245,68600,2,0,P|370:226|392:294,1,153.680000468994,2|0,0:0|3:0,0:0:0:0:
502,348,69086,2,0,P|464:357|429:378,1,76.8400002344971,2|0,0:0|0:0,0:0:0:0:
492,260,69410,1,2,3:2:0:0:
496,263,69572,1,0,0:0:0:0:
434,183,69735,2,0,B|436:159|436:159|447:140,3,38.4200001172485,8|8|8|8,0:0|0:0|0:0|0:0,0:0:0:0:
472,129,70059,6,0,P|399:129|386:66,1,136,6|0,0:0|0:0,0:0:0:0:
302,33,70545,2,0,B|284:58|260:61|260:61|251:99|279:157,1,136,2|0,3:2|3:0,0:0:0:0:
343,203,71032,1,10,0:0:0:0:
343,203,71194,2,0,B|379:232|379:267|379:267|350:282|326:317,1,136,2|0,3:2|3:0,0:0:0:0:
245,303,71681,2,0,P|221:316|183:360,1,68,2|0,0:0|0:0,0:0:0:0:
106,365,72005,2,0,P|89:340|84:297,1,68,10|0,0:0|0:0,0:0:0:0:
21,240,72329,2,0,B|48:218|48:218|89:211,1,68,2|0,3:2|3:0,0:0:0:0:
139,113,72654,5,6,0:0:0:0:
139,113,72816,1,0,3:0:0:0:
268,252,73140,2,0,P|287:202|306:105,1,136,2|0,3:2|3:0,0:0:0:0:
401,35,73627,1,14,0:0:0:0:
401,35,73789,2,0,B|430:60|439:93|439:93|405:113|402:143,2,136,0|2|0,3:0|3:2|3:0,0:0:0:0:
316,7,74600,2,0,P|284:16|243:46,1,68,2|0,0:0|0:0,0:0:0:0:
200,104,74924,1,8,0:0:0:0:
89,76,75086,1,8,0:0:0:0:
89,76,75167,1,8,0:0:0:0:
89,76,75248,6,0,P|119:138|132:217,1,136,6|0,0:0|0:0,0:0:0:0:
181,283,75735,1,2,3:2:0:0:
181,283,76059,2,0,P|217:270|273:271,1,68,0|10,3:0|0:0,0:0:0:0:
209,376,76383,2,0,P|158:361|77:350,1,136,0|2,3:0|3:2,0:0:0:0:
31,242,76870,2,0,B|57:263|57:263|93:248,1,68,0|2,3:0|0:0,0:0:0:0:
165,206,77194,2,0,B|154:168|154:168|179:138,2,68,8|0|8,0:0|0:0|0:0,0:0:0:0:
205,285,77681,1,0,0:0:0:0:
271,342,77843,6,0,P|303:358|342:357,1,68,4|0,0:0|3:0,0:0:0:0:
482,220,78329,2,0,P|455:151|458:75,1,136,2|0,3:2|3:0,0:0:0:0:
354,19,78816,1,10,0:0:0:0:
272,80,78978,2,0,B|261:104|263:125|263:125|305:106|353:104,1,136,0|2,3:0|3:2,0:0:0:0:
390,182,79464,2,0,P|381:217|348:238,1,68,0|0,0:0|3:0,0:0:0:0:
287,329,79789,2,0,B|285:287|272:264|272:264|238:247|218:212,1,136,8|8,0:0|0:0,0:0:0:0:
232,123,80275,1,8,0:0:0:0:
232,123,80356,1,8,0:0:0:0:
232,123,80437,6,0,P|203:126|168:140,1,51.0000019454957,4|0,0:0|0:0,0:0:0:0:
87,89,80762,2,0,P|126:65|143:13,1,102.000003890991,2|8,0:0|0:0,0:0:0:0:
56,6,81248,1,2,0:0:0:0:
2,170,81572,2,0,P|38:205|87:241,1,102.000003890991,2|0,0:0|0:0,0:0:0:0:
212,348,82221,2,0,P|236:304|304:280,2,102.000003890991,2|2|2,0:0|0:0|0:0,0:0:0:0:
115,361,83032,6,0,B|72:342|72:342|64:334|64:334|10:309,1,102.000003890991,2|0,0:0|0:0,0:0:0:0:
13,229,83518,1,0,0:0:0:0:
107,267,83681,2,0,B|114:215|114:215|90:160,1,102.000003890991,10|2,0:0|0:0,0:0:0:0:
159,112,84167,2,0,P|162:78|173:55,1,51.0000019454957,0|0,0:0|3:0,0:0:0:0:
244,21,84491,1,10,0:0:0:0:
431,88,84816,1,0,0:0:0:0:
431,88,84978,2,0,B|407:95|385:114|385:114|363:112|336:83,1,102.000003890991,2|0,3:2|0:0,0:0:0:0:
211,232,85627,6,0,P|238:215|264:214,1,51.0000019454957,14|0,0:0|0:0,0:0:0:0:
322,269,85951,2,0,B|340:288|363:296|363:296|384:268|411:255,1,102.000003890991,2|8,0:0|0:0,0:0:0:0:
477,301,86437,1,2,0:0:0:0:
371,162,86762,2,0,P|348:119|348:57,1,102.000003890991,2|0,0:0|0:0,0:0:0:0:
180,15,87410,2,0,B|149:9|130:24|136:32|117:51|76:49,1,102.000003890991,2|2,0:0|0:0,0:0:0:0:
20,119,87897,2,0,B|49:122|49:122|68:151,1,51.0000019454957,8|0,0:0|0:0,0:0:0:0:
82,245,88221,6,0,P|121:217|143:151,1,102.000003890991,2|2,3:2|0:0,0:0:0:0:
207,110,88708,1,0,0:0:0:0:
250,184,88870,2,0,B|270:200|293:203|293:203|311:180|342:177,1,102.000003890991,8|2,0:0|0:0,0:0:0:0:
384,250,89356,2,0,B|408:260|408:260|432:241,1,51.0000019454957,0|2,3:0|3:2,0:0:0:0:
493,301,89681,1,8,0:0:0:0:
317,369,90005,1,0,0:0:0:0:
317,369,90167,2,0,B|287:337|288:312|288:312|268:307|241:328,1,102.000003890991,8|8,0:0|0:0,0:0:0:0:
177,363,90654,1,8,0:0:0:0:
177,363,90735,1,8,0:0:0:0:
177,363,90816,6,0,P|160:344|149:306,1,59.1600004964905,6|0,3:2|0:0,0:0:0:0:
44,297,91140,2,0,P|75:265|82:188,1,118.320000992981,2|0,3:2|3:0,0:0:0:0:
137,122,91627,2,0,B|163:125|163:125|168:131|168:131|199:134,1,59.1600004964905,2|0,0:0|3:0,0:0:0:0:
239,58,91951,2,0,P|284:53|344:100,1,118.320000992981,2|0,0:0|0:0,0:0:0:0:
430,262,92600,2,0,P|413:218|453:159,1,118.320000992981,2|0,0:0|0:0,0:0:0:0:
503,92,93086,1,0,3:0:0:0:
462,24,93248,1,8,0:0:0:0:
462,24,93329,1,8,0:0:0:0:
462,24,93410,6,0,B|402:47|402:47|350:24,1,118.320000992981,10|0,0:0|3:0,0:0:0:0:
296,94,93897,1,0,0:0:0:0:
234,7,94059,2,0,B|217:26|217:26|211:64,1,59.1600004964905,8|0,0:0|0:0,0:0:0:0:
127,110,94383,1,10,0:0:0:0:
127,110,94545,2,0,P|170:144|153:211,1,118.320000992981
238,247,95032,1,8,0:0:0:0:
92,362,95356,2,0,B|58:364|28:358|28:358|49:331|47:294,1,118.320000992981,0|0,3:0|0:0,0:0:0:0:
18,227,95843,1,8,0:0:0:0:
18,227,95924,1,8,0:0:0:0:
18,227,96005,6,0,P|23:199|39:170,1,59.1600004964905,6|0,3:2|0:0,0:0:0:0:
8,82,96329,2,0,P|74:76|96:30,1,118.320000992981,2|8,3:2|0:0,0:0:0:0:
167,87,96816,1,2,0:0:0:0:
329,15,97140,2,0,B|358:49|358:49|372:125,1,118.320000992981,2|0,0:0|0:0,0:0:0:0:
481,274,97789,2,0,B|482:315|463:334|463:334|437:325|405:355,1,118.320000992981,2|0,0:0|0:0,0:0:0:0:
339,298,98275,1,2,3:2:0:0:
270,351,98437,1,8,0:0:0:0:
270,351,98518,1,8,0:0:0:0:
270,351,98600,6,0,P|226:318|151:318,1,118.320000992981,10|0,0:0|3:0,0:0:0:0:
116,239,99086,1,0,0:0:0:0:
174,172,99248,2,0,B|182:147|182:147|172:114,1,59.1600004964905,10|0,0:0|0:0,0:0:0:0:
115,49,99572,2,0,B|93:73|93:73|89:99,1,59.1600004964905,10|0,0:0|0:0,0:0:0:0:
41,175,99897,1,2,3:2:0:0:
41,175,100059,1,0,3:0:0:0:
112,251,100221,1,8,0:0:0:0:
112,251,100545,2,0,P|56:257|20:311,1,118.320000992981,2|0,3:2|3:0,0:0:0:0:
103,362,101032,1,8,0:0:0:0:
103,362,101113,1,8,0:0:0:0:
103,362,101194,6,0,B|147:325|185:340|185:340|201:354|201:354|242:368|294:337,2,204,6|8|8,3:2|0:0|0:0,0:0:0:0:
35,183,102491,1,6,3:2:0:0:
106,235,102654,2,0,P|139:231|160:190,1,68
134,98,102978,1,8,0:0:0:0:
216,129,103140,2,0,P|167:80|162:8,1,136,2|8,0:0|0:0,0:0:0:0:
372,63,103789,6,0,B|344:101|352:142|352:142|333:168|333:168|332:214|314:264,2,204,14|8|0,0:0|0:0|3:0,0:0:0:0:
500,222,105086,1,10,0:0:0:0:
395,364,105410,2,0,B|366:341|366:341|324:342,1,68,8|0,0:0|3:0,0:0:0:0:
248,320,105735,2,0,P|302:320|351:260,1,136,2|2,3:2|0:0,0:0:0:0:
316,179,106221,1,2,0:0:0:0:
316,179,106302,1,2,0:0:0:0:
316,179,106383,6,0,P|293:110|293:24,1,153.680000468994,6|0,3:2|0:0,0:0:0:0:
205,106,106870,2,0,P|151:47|53:30,1,153.680000468994,2|0,3:2|3:0,0:0:0:0:
9,96,107356,1,8,0:0:0:0:
39,190,107518,2,0,B|58:182|80:168|80:168|124:205|99:274,1,153.680000468994,2|0,0:0|3:0,0:0:0:0:
159,366,108005,2,0,P|176:328|217:309,1,76.8400002344971,0|0,0:0|3:0,0:0:0:0:
295,353,108329,1,10,0:0:0:0:
295,353,108491,2,0,P|330:368|386:366,1,76.8400002344971,0|2,3:0|0:0,0:0:0:0:
468,297,108816,1,8,0:0:0:0:
468,297,108897,1,8,0:0:0:0:
468,297,108978,6,0,B|439:249|394:247|394:247|385:270|333:285,1,153.680000468994,6|0,0:0|0:0,0:0:0:0:
271,214,109464,2,0,P|249:139|308:96,1,153.680000468994,2|0,3:2|3:0,0:0:0:0:
381,11,109951,1,8,0:0:0:0:
469,57,110113,2,0,B|499:76|498:94|498:94|446:108|407:154,1,153.680000468994,2|0,3:2|0:0,0:0:0:0:
390,247,110600,2,0,P|431:249|472:224,1,76.8400002344971,2|0,0:0|3:0,0:0:0:0:
450,340,110924,1,10,0:0:0:0:
264,265,111248,2,0,B|238:293|238:293|228:346,1,76.8400002344971,2|0,3:2|3:0,0:0:0:0:
200,356,111491,1,0,3:0:0:0:
200,356,111572,6,0,P|175:276|105:251,1,153.680000468994,6|0,3:2|0:0,0:0:0:0:
37,326,112059,2,0,B|17:235|17:235|75:170,1,153.680000468994,2|0,3:2|3:0,0:0:0:0:
157,132,112545,1,8,0:0:0:0:
125,36,112708,2,0,B|195:51|195:51|204:57|204:57|287:71,1,153.680000468994,2|0,3:2|0:0,0:0:0:0:
345,142,113194,2,0,P|307:150|268:173,1,76.8400002344971,2|0,0:0|3:0,0:0:0:0:
220,252,113518,1,10,0:0:0:0:
383,367,113843,2,0,P|388:347|390:321,3,38.4200001172485,8|8|8|8,0:0|0:0|0:0|0:0,0:0:0:0:
427,337,114167,6,0,P|370:280|369:202,1,153.680000468994,6|0,0:0|0:0,0:0:0:0:
272,141,114654,2,0,P|350:121|409:56,1,153.680000468994,2|0,3:2|0:0,0:0:0:0:
326,4,115140,1,10,0:0:0:0:
239,54,115302,2,0,P|204:39|160:29,1,76.8400002344971,2|0,3:2|0:0,0:0:0:0:
53,53,115627,2,0,P|102:107|192:135,1,153.680000468994,0|8,3:0|0:0,0:0:0:0:
239,211,116113,1,10,0:0:0:0:
389,79,116437,2,0,B|389:51|389:51|381:34,3,38.4200001172485,8|8|8|8,0:0|0:0|0:0|0:0,0:0:0:0:
350,23,116762,6,0,P|285:50|197:55,1,153.680000468994,6|0,0:0|0:0,0:0:0:0:
89,121,117248,2,0,P|158:141|156:214,1,153.680000468994,2|0,3:2|3:0,0:0:0:0:
57,285,117735,1,8,0:0:0:0:
125,357,117897,2,0,B|178:369|203:336|196:327|226:301|283:314,1,153.680000468994,2|0,3:2|3:0,0:0:0:0:
348,365,118383,2,0,P|391:357|404:314,1,76.8400002344971,2|0,0:0|3:0,0:0:0:0:
350,245,118708,1,8,0:0:0:0:
475,89,119032,1,8,0:0:0:0:
404,17,119194,1,8,0:0:0:0:
404,17,119275,1,8,0:0:0:0:
404,17,119356,6,0,P|370:79|400:158,1,153.680000468994,6|0,0:0|0:0,0:0:0:0:
469,221,119843,2,0,P|484:257|487:301,1,76.8400002344971,2|0,3:2|0:0,0:0:0:0:
385,362,120167,1,0,3:0:0:0:
327,280,120329,1,8,0:0:0:0:
239,327,120491,2,0,P|170:302|80:297,1,153.680000468994,2|0,3:2|3:0,0:0:0:0:
6,227,120978,2,0,P|48:207|68:175,1,76.8400002344971,2|0,0:0|3:0,0:0:0:0:
35,87,121302,1,10,0:0:0:0:
237,19,121627,2,0,P|229:36|224:65,3,38.4200001172485,8|8|8|8,0:0|0:0|0:0|0:0,0:0:0:0:
197,81,121951,6,0,P|230:135|260:223,1,153.680000468994,6|0,3:2|0:0,0:0:0:0:
220,312,122437,2,0,P|270:257|352:276,1,153.680000468994,2|0,0:0|3:0,0:0:0:0:
464,287,122924,1,8,0:0:0:0:
378,339,123086,2,0,P|361:272|364:165,1,153.680000468994,2|0,0:0|3:0,0:0:0:0:
435,122,123572,2,0,P|435:82|411:53,1,76.8400002344971,2|0,0:0|0:0,0:0:0:0:
320,15,123897,1,10,0:0:0:0:
157,131,124221,1,8,0:0:0:0:
77,70,124383,1,8,0:0:0:0:
77,70,124464,1,8,0:0:0:0:
77,70,124545,6,0,B|117:47|135:28|135:28|178:25|220:49,1,153.680000468994,4|0,0:0|0:0,0:0:0:0:
271,128,125032,2,0,P|251:160|263:199,1,76.8400002344971,2|0,3:2|0:0,0:0:0:0:
335,262,125356,1,0,3:0:0:0:
296,354,125518,1,10,0:0:0:0:
197,374,125681,2,0,B|137:361|137:361|110:344|110:344|40:332,1,153.680000468994,2|0,0:0|3:0,0:0:0:0:
2,245,126167,2,0,P|44:235|77:205,1,76.8400002344971,2|0,0:0|0:0,0:0:0:0:
21,127,126491,1,8,0:0:0:0:
21,127,126654,1,0,3:0:0:0:
91,56,126816,2,0,B|117:54|117:54|133:65,3,38.4200001172485,8|8|8|8,0:0|0:0|0:0|0:0,0:0:0:0:
150,93,127140,5,6,0:0:0:0:
150,93,127302,2,0,B|202:97|215:72|213:68|229:45|287:53,2,136,0|0|0,3:0|3:0|3:0,0:0:0:0:
60,176,128113,2,0,B|99:168|99:168|137:196,1,68,10|0,0:0|3:0,0:0:0:0:
217,330,128600,1,0,3:0:0:0:
217,330,128762,2,0,P|235:298|235:261,1,68
309,206,129086,2,0,B|284:178|284:178|280:144,1,68,10|0,0:0|0:0,0:0:0:0:
332,68,129410,1,2,3:2:0:0:
332,68,129572,1,0,3:0:0:0:
255,10,129735,5,4,0:0:0:0:
258,14,129897,2,0,B|205:2|191:24|195:29|177:50|127:39,2,136,0|2|0,0:0|3:2|0:0,0:0:0:0:
333,109,130708,1,14,0:0:0:0:
395,46,130870,2,0,P|382:98|417:178,1,136,0|0,3:0|3:0,0:0:0:0:
488,331,131518,1,0,3:0:0:0:
488,331,131681,2,0,B|460:316|460:316|417:323,1,68,10|0,0:0|3:0,0:0:0:0:
342,272,132005,2,0,L|335:235,3,34,8|8|8|8,0:0|0:0|0:0|0:0,0:0:0:0:
307,219,132329,5,6,0:0:0:0:
307,219,132491,2,0,P|343:165|338:80,1,136,0|2,3:0|3:2,0:0:0:0:
177,35,133140,1,0,3:0:0:0:
118,100,133302,1,10,0:0:0:0:
34,71,133464,2,0,P|80:117|88:196,2,136,0|2|2,3:0|3:2|3:2,0:0:0:0:
95,6,134275,1,8,0:0:0:0:
244,100,134600,2,0,B|274:82|274:82|315:85,1,68,8|0,0:0|3:0,0:0:0:0:
343,191,134924,5,6,0:0:0:0:
343,191,135086,2,0,P|381:149|386:62,2,136,0|2|0,3:0|3:2|3:0,0:0:0:0:
239,226,135897,1,10,0:0:0:0:
170,170,136059,2,0,P|194:230|193:318,1,136,0|2,3:0|3:2,0:0:0:0:
376,363,136708,1,0,3:0:0:0:
432,295,136870,2,0,L|472:283,2,34,10|8|8,0:0|0:0|0:0,0:0:0:0:
354,253,137194,2,0,L|318:246,3,34,10|8|8|8,0:0|0:0|0:0|0:0,0:0:0:0:
291,264,137518,5,4,0:0:0:0:
56,315,147897,6,0,P|33:271|41:206,1,102.000003890991,6|0,0:0|3:0,0:0:0:0:
168,108,148545,2,0,P|191:152|183:217,1,102.000003890991,2|0,0:0|3:0,0:0:0:0:
240,281,149032,1,0,0:0:0:0:
240,281,149194,2,0,P|253:259|289:247,2,51.0000019454957,2|0|0,0:0|0:0|3:0,0:0:0:0:
277,359,149681,1,2,0:0:0:0:
390,228,150005,2,0,P|383:197|366:172,2,51.0000019454957,0|0|0,0:0|3:0|0:0,0:0:0:0:
444,295,150491,6,0,P|481:265|503:205,1,102.000003890991,2|0,0:0|3:0,0:0:0:0:
442,52,151140,2,0,P|404:20|338:19,1,102.000003890991,2|0,0:0|3:0,0:0:0:0:
279,56,151627,1,0,0:0:0:0:
279,56,151789,2,0,P|253:40|239:4,2,51.0000019454957,2|0|0,0:0|0:0|3:0,0:0:0:0:
332,123,152275,1,0,0:0:0:0:
271,175,152437,6,0,B|259:192|256:215|256:215|281:234|297:283,2,102,2|0|0,0:0|0:0|0:0,0:0:0:0:
190,100,153086,6,0,B|120:87|120:87|66:128|66:128|-14:138,2,204,14|8|8,0:0|0:0|0:0,0:0:0:0:
384,36,154383,1,12,0:0:0:0:
450,93,154545,2,0,P|464:128|469:176,1,68,2|0,0:0|0:0,0:0:0:0:
384,227,154870,1,8,0:0:0:0:
439,295,155032,2,0,P|375:268|277:267,1,136,2|8,0:0|0:0,0:0:0:0:
114,324,155681,6,0,B|158:304|179:265|179:265|136:205|162:130,2,204,14|8|8,0:0|0:0|0:0,0:0:0:0:
286,365,156978,1,4,0:0:0:0:
286,365,158275,6,0,P|336:291|414:310,1,153.680000468994,6|0,3:2|0:0,0:0:0:0:
479,244,158762,2,0,P|482:166|456:75,1,153.680000468994,2|0,3:2|0:0,0:0:0:0:
363,21,159248,1,8,0:0:0:0:
281,78,159410,2,0,B|318:109|371:120|371:120|340:121|295:149,1,153.680000468994,2|0,0:0|0:0,0:0:0:0:
243,199,159897,2,0,P|240:239|257:272,1,76.8400002344971,2|0,0:0|0:0,0:0:0:0:
350,304,160221,1,8,0:0:0:0:
144,365,160545,2,0,P|126:352|104:349,3,38.4200001172485,8|8|8|8,0:0|0:0|0:0|0:0,0:0:0:0:
72,358,160870,6,0,P|48:299|48:199,1,153.680000468994,6|0,0:0|0:0,0:0:0:0:
113,136,161356,2,0,P|126:158|139:213,1,76.8400002344971,2|0,3:2|0:0,0:0:0:0:
194,326,161681,1,0,3:0:0:0:
233,234,161843,1,8,0:0:0:0:
325,271,162005,2,0,P|392:254|481:250,1,153.680000468994,2|0,3:2|3:0,0:0:0:0:
437,366,162491,2,0,P|399:362|357:349,1,76.8400002344971,2|0,0:0|0:0,0:0:0:0:
251,315,162816,2,0,B|214:324|214:324|195:365,1,76.8400002344971,10|0,0:0|0:0,0:0:0:0:
111,283,163140,1,2,3:2:0:0:
193,225,163302,1,0,3:0:0:0:
193,225,163383,1,0,3:0:0:0:
193,225,163464,6,0,P|203:146|200:51,1,153.680000468994,6|0,3:2|0:0,0:0:0:0:
111,28,163951,2,0,P|43:55|40:133,1,153.680000468994,2|0,3:2|3:0,0:0:0:0:
108,227,164437,1,8,0:0:0:0:
33,294,164600,2,0,P|117:273|212:282,1,153.680000468994,2|0,3:2|3:0,0:0:0:0:
252,368,165086,2,0,P|271:338|271:291,1,76.8400002344971,2|0,0:0|3:0,0:0:0:0:
206,185,165410,1,10,0:0:0:0:
358,55,165735,2,0,B|375:52|375:52|400:64,3,38.4200001172485,8|8|8|8,0:0|0:0|0:0|0:0,0:0:0:0:
425,39,166059,6,0,P|447:121|503:183,1,153.680000468994,6|0,0:0|0:0,0:0:0:0:
435,256,166545,2,0,B|363:242|363:242|358:235|358:235|285:218,1,153.680000468994,2|0,3:2|3:0,0:0:0:0:
207,125,167032,1,10,0:0:0:0:
121,177,167194,2,0,P|111:98|80:25,2,153.680000468994,2|0|8,3:2|3:0|0:0,0:0:0:0:
39,235,168005,1,10,0:0:0:0:
192,362,168329,2,0,B|192:334|192:334|201:319,3,38.4200001172485,8|8|8|8,0:0|0:0|0:0|0:0,0:0:0:0:
223,295,168654,6,0,P|143:324|79:296,1,153.680000468994,6|0,0:0|0:0,0:0:0:0:
16,374,169140,2,0,B|25:310|25:310|37:292|37:292|46:215,1,153.680000468994,2|0,3:2|3:0,0:0:0:0:
18,103,169627,1,8,0:0:0:0:
83,28,169789,2,0,B|117:22|151:38|151:38|159:73|108:112,1,153.680000468994,2|0,3:2|3:0,0:0:0:0:
198,158,170275,2,0,B|212:174|216:192|216:192|207:204|170:213,1,76.8400002344971,2|0,0:0|0:0,0:0:0:0:
142,301,170600,2,0,B|173:342|217:339|217:339|236:311|285:295,1,153.680000468994,10|8,0:0|0:0,0:0:0:0:
370,352,171086,1,8,0:0:0:0:
370,352,171167,1,8,0:0:0:0:
370,352,171248,6,0,B|387:307|419:281|419:281|400:280|352:251,1,153.680000468994,6|2,0:0|0:0,0:0:0:0:
322,156,171735,2,0,P|394:144|364:76,1,153.680000468994,2|0,3:2|3:0,0:0:0:0:
266,31,172221,1,10,0:0:0:0:
191,96,172383,2,0,B|125:86|125:86|107:73|107:73|32:60,1,153.680000468994,0|0,3:0|3:0,0:0:0:0:
1,169,172870,2,0,P|39:178|82:155,1,76.8400002344971,2|0,0:0|3:0,0:0:0:0:
175,231,173194,1,10,0:0:0:0:
339,117,173518,2,0,B|358:115|358:115|386:128,3,38.4200001172485,8|8|8|8,0:0|0:0|0:0|0:0,0:0:0:0:
404,97,173843,6,0,P|406:183|449:256,1,153.680000468994,6|0,0:0|0:0,0:0:0:0:
466,353,174329,2,0,B|416:345|390:314|390:314|355:303|310:325,1,153.680000468994,2|0,3:2|3:0,0:0:0:0:
213,372,174816,1,8,0:0:0:0:
123,327,174978,2,0,P|190:337|237:259,1,153.680000468994,2|0,3:2|3:0,0:0:0:0:
185,190,175464,2,0,B|169:151|169:151|179:112,1,76.8400002344971,2|0,0:0|3:0,0:0:0:0:
230,32,175789,1,10,0:0:0:0:
41,96,176113,2,0,P|56:81|58:60,3,38.4200001172485,8|8|8|8,0:0|0:0|0:0|0:0,0:0:0:0:
53,26,176437,6,0,B|86:40|118:37|118:37|144:73|135:128,1,153.680000468994,6|0,0:0|0:0,0:0:0:0:
68,193,176924,2,0,P|147:159|221:166,1,153.680000468994,2|0,3:2|0:0,0:0:0:0:
229,262,177410,2,0,B|255:292|255:292|301:283,1,76.8400002344971,10|0,0:0|0:0,0:0:0:0:
379,235,177735,2,0,B|359:153|359:153|295:101,1,153.680000468994,10|10,0:0|0:0,0:0:0:0:
226,48,178221,1,8,0:0:0:0:
226,48,178302,1,8,0:0:0:0:
226,48,178383,6,0,P|272:18|324:25,1,102.000003890991,10|8,0:0|0:0,0:0:0:0:
400,72,178870,1,8,0:0:0:0:
383,91,178951,1,8,0:0:0:0:
391,116,179032,6,0,B|437:138|480:133|480:133|458:147|434:194,1,153.680000468994,6|0,0:0|0:0,0:0:0:0:
493,265,179518,2,0,P|433:216|345:226,1,153.680000468994,2|0,3:2|0:0,0:0:0:0:
280,313,180005,1,8,0:0:0:0:
223,230,180167,2,0,B|228:163|228:163|236:145|236:145|242:68,1,153.680000468994,2|0,3:2|0:0,0:0:0:0:
162,15,180654,2,0,P|136:41|144:94,1,76.8400002344971,2|0,0:0|3:0,0:0:0:0:
33,148,180978,1,10,0:0:0:0:
201,254,181302,2,0,B|216:243|216:243|246:237,3,38.4200001172485,8|0|8|8,0:0|0:0|0:0|0:0,0:0:0:0:
269,254,181627,6,0,P|245:336|169:355,1,153.680000468994,6|0,0:0|0:0,0:0:0:0:
93,322,182113,2,0,P|90:293|58:259,1,76.8400002344971,2|0,3:2|0:0,0:0:0:0:
26,164,182437,1,0,3:0:0:0:
128,110,182600,1,8,0:0:0:0:
50,46,182762,2,0,P|112:72|208:57,1,153.680000468994,2|0,3:2|0:0,0:0:0:0:
306,28,183248,2,0,P|287:65|285:117,1,76.8400002344971,2|0,0:0|3:0,0:0:0:0:
329,187,183572,2,0,B|349:220|392:219|392:219|415:189|412:131,1,153.680000468994,10|2,0:0|3:2,0:0:0:0:
503,83,184059,1,0,3:0:0:0:
503,83,184140,1,0,3:0:0:0:
503,83,184221,6,0,B|461:78|431:55|437:46|405:31|356:41,1,153.680000468994,6|0,3:2|0:0,0:0:0:0:
286,108,184708,2,0,P|219:78|258:28,1,153.680000468994,2|0,0:2|0:0,0:0:0:0:
135,71,185194,1,8,0:0:0:0:
54,12,185356,2,0,B|43:65|50:110|50:110|24:92|-1:69,1,153.680000468994,2|0,3:2|0:0,0:0:0:0:
9,184,185843,2,0,P|46:196|92:197,1,76.8400002344971,2|0,0:0|3:0,0:0:0:0:
38,286,186167,1,10,0:0:0:0:
218,370,186491,2,0,B|216:347|216:347|229:324,3,38.4200001172485,8|8|8|8,0:0|0:0|0:0|0:0,0:0:0:0:
212,296,186816,6,0,P|291:294|292:224,1,153.680000468994,6|0,0:0|0:0,0:0:0:0:
371,165,187302,2,0,P|401:216|411:326,1,153.680000468994,2|0,3:2|0:0,0:0:0:0:
499,219,187789,1,8,0:0:0:0:
499,219,187951,2,0,P|501:133|521:44,2,153.680000468994,2|0|8,3:2|3:0|0:0,0:0:0:0:
414,140,188762,1,10,0:0:0:0:
250,254,189086,2,0,B|244:233|244:233|230:214,3,38.4200001172485,8|8|8|8,0:0|0:0|0:0|0:0,0:0:0:0:
202,198,189410,6,0,P|168:120|213:62,1,153.680000468994,6|0,0:0|0:0,0:0:0:0:
291,20,189897,2,0,B|356:35|356:35|373:47|373:47|443:61,1,153.680000468994,2|0,3:2|3:0,0:0:0:0:
363,137,190383,1,8,0:0:0:0:
436,204,190545,2,0,P|465:248|453:349,1,153.680000468994,2|0,0:0|3:0,0:0:0:0:
357,365,191032,2,0,B|329:335|329:335|290:354,1,76.8400002344971,2|0,0:0|0:0,0:0:0:0:
252,263,191356,1,8,0:0:0:0:
60,319,191681,2,0,P|74:297|75:281,3,38.4200001172485,8|8|8|8,0:0|0:0|0:0|0:0,0:0:0:0:
50,255,192005,6,0,P|32:224|37:171,1,76.8400002344971,6|0,0:0|3:0,0:0:0:0:
74,95,192329,1,0,0:0:0:0:
74,95,192491,2,0,B|117:75|143:85|143:85|126:120|121:183,1,153.680000468994,2|0,3:2|3:0,0:0:0:0:
217,254,192978,1,8,0:0:0:0:
270,170,193140,2,0,P|346:149|432:158,1,153.680000468994,2|0,3:2|3:0,0:0:0:0:
488,227,193627,2,0,P|460:246|401:244,1,76.8400002344971,2|0,0:0|3:0,0:0:0:0:
361,332,193951,1,10,0:0:0:0:
174,261,194275,2,0,B|150:260|150:260|131:272,3,38.4200001172485,8|8|8|8,0:0|0:0|0:0|0:0,0:0:0:0:
111,296,194600,6,0,P|149:350|236:344,1,153.680000468994,6|0,0:0|0:0,0:0:0:0:
285,265,195086,2,0,B|259:201|259:201|262:185|262:185|244:117,1,153.680000468994,2|0,0:0|0:0,0:0:0:0:
154,46,195572,1,8,0:0:0:0:
262,5,195735,2,0,P|332:19|415:48,1,153.680000468994,2|0,0:0|3:0,0:0:0:0:
490,116,196221,2,0,P|453:131|441:165,1,76.8400002344971,10|0,0:0|0:0,0:0:0:0:
407,265,196545,2,0,B|379:258|358:223|358:223|357:175|329:136,1,153.680000468994,10|8,0:0|0:0,0:0:0:0:
255,93,197032,1,8,0:0:0:0:
255,93,197113,1,8,0:0:0:0:
255,93,197194,6,0,B|210:84|179:109|182:117|157:143|97:126,1,153.680000468994,6|0,0:0|0:0,0:0:0:0:
36,197,197681,2,0,P|108:174|143:240,1,153.680000468994,2|0,3:2|3:0,0:0:0:0:
69,327,198167,1,8,0:0:0:0:
156,375,198329,2,0,B|182:344|227:341|227:341|246:312|235:258,1,153.680000468994,2|0,0:0|3:0,0:0:0:0:
282,181,198816,2,0,P|252:147|255:113,1,76.8400002344971,2|0,0:0|3:0,0:0:0:0:
306,33,199140,1,0,3:0:0:0:
401,87,199302,1,0,3:0:0:0:
401,87,199383,1,0,3:0:0:0:
401,87,199464,2,0,B|419:75|419:75|441:75,3,38.4200001172485,8|8|8|0,0:0|0:0|0:0|0:0,0:0:0:0:
468,93,199789,5,6,0:0:0:0:
502,174,199951,2,0,P|495:241|436:311,1,136,0|2,3:0|3:2,0:0:0:0:
295,370,200600,1,0,3:0:0:0:
252,292,200762,1,10,0:0:0:0:
333,255,200924,2,0,P|353:194|284:154,1,136,0|0,3:0|3:0,0:0:0:0:
222,186,201410,2,0,P|187:198|141:202,1,68,2|0,0:0|0:0,0:0:0:0:
55,260,201735,2,0,B|90:260|90:260|115:287,1,68,8|0,0:0|0:0,0:0:0:0:
164,355,202059,2,0,B|199:355|199:355|224:328,1,68,8|0,0:0|0:0,0:0:0:0:
260,251,202383,5,6,0:0:0:0:
260,251,202545,1,0,3:0:0:0:
112,152,202870,2,0,P|98:86|155:44,1,136,2|0,3:2|3:0,0:0:0:0:
246,101,203356,1,14,0:0:0:0:
312,159,203518,2,0,B|339:115|339:115|312:28,2,136,0|0|0,3:0|3:0|3:0,0:0:0:0:
256,228,204329,1,10,0:0:0:0:
418,352,204654,2,0,P|416:326|424:310,3,34,8|8|8|8,0:0|0:0|0:0|0:0,0:0:0:0:
444,296,204978,5,6,0:0:0:0:
444,296,205140,2,0,P|402:237|339:239,1,136,0|2,3:0|3:2,0:0:0:0:
153,311,205789,1,0,3:0:0:0:
230,352,205951,1,10,0:0:0:0:
230,352,206113,2,0,P|245:292|245:207,1,136,0|0,3:0|3:0,0:0:0:0:
176,163,206600,2,0,P|145:157|123:121,1,68,2|0,0:0|3:0,0:0:0:0:
64,64,206924,2,0,B|83:35|83:35|115:29,2,68,8|0|8,0:0|0:0|0:0,0:0:0:0:
8,260,207572,5,6,0:0:0:0:
8,260,207735,2,0,B|51:258|74:280|68:288|94:312|140:301,1,136,0|0,3:0|3:0,0:0:0:0:
202,249,208221,2,0,P|202:210|213:182,1,68,2|0,0:0|3:0,0:0:0:0:
280,127,208545,1,2,0:0:0:0:
344,188,208708,2,0,B|394:192|412:163|405:157|424:128|476:142,2,136,0|0|0,3:0|3:0|0:0,0:0:0:0:
260,255,209518,5,10,0:0:0:0:
260,255,209600,1,8,0:0:0:0:
260,255,209681,1,8,0:0:0:0:
195,193,209843,2,0,P|175:186|153:185,3,34,10|8|8|8,0:0|0:0|0:0|0:0,0:0:0:0:
133,204,210167,5,4,0:0:0:0:
256,192,210329,12,2,215194,0:0:0:0:
