osu file format v14

[General]
AudioFilename: audio.mp3
AudioLeadIn: 0
PreviewTime: 2972
Countdown: 0
SampleSet: Soft
StackLeniency: 0.5
Mode: 0
LetterboxInBreaks: 0
WidescreenStoryboard: 1

[Editor]
Bookmarks: 4443,44198,103094,156100,192910
DistanceSpacing: 0.7
BeatDivisor: 4
GridSize: 32
TimelineZoom: 1

[Metadata]
Title:Palette
TitleUnicode:Palette
Artist:Tokoyami Towa
ArtistUnicode:常闇トワ
Creator:Restart Button
Version:Collab Light Insane
Source:
Tags:japanese rock pop hololive ホロライブ vtuber virtual youtuber niki generation four tmt cover corp bibi undeadcapulet uc nao tomori naotoshi
BeatmapID:2948735
BeatmapSetID:1425822

[Difficulty]
HPDrainRate:5
CircleSize:5
OverallDifficulty:6
ApproachRate:8
SliderMultiplier:0.5
SliderTickRate:1

[Events]
//Background and Video events
0,0,"3157a694d4.jpg",0,0
Video,1950,"Palette_720p.mp4"
//Break Periods
2,69429,80258
2,128325,139154
//Storyboard Layer 0 (Background)
//Storyboard Layer 1 (Fail)
//Storyboard Layer 2 (Pass)
//Storyboard Layer 3 (Foreground)
//Storyboard Layer 4 (Overlay)
//Storyboard Sound Samples

[TimingPoints]
-1445,368.098159509202,4,2,1,31,1,0
2972,-100,4,2,1,31,0,0
6652,-100,4,2,1,5,0,0
6836,-100,4,2,1,31,0,0
16223,-100,4,2,1,36,0,0
29659,-100,4,2,1,31,0,0
39781,-57.1428571428571,4,2,1,41,0,0
42726,-57.1428571428571,4,2,1,56,0,0
45671,-133.333333333333,4,2,1,31,0,0
46315,-133.333333333333,4,2,1,5,0,0
46407,-133.333333333333,4,2,1,31,0,0
48524,-133.333333333333,4,2,1,5,0,0
48616,-133.333333333333,4,2,1,31,0,0
50732,-133.333333333333,4,2,1,5,0,0
50824,-100,4,2,1,16,0,0
51561,-50,4,2,1,66,0,1
51745,-50,4,2,1,66,0,0
81008,-66.6666666666667,4,2,1,41,0,0
93156,-66.6666666666667,4,2,1,36,0,0
101622,-66.6666666666667,4,2,1,46,0,0
103094,-100,4,2,1,46,0,0
103462,-100,4,2,1,5,0,0
103830,-100,4,2,1,31,0,0
104567,-50,4,2,1,66,0,1
104751,-50,4,2,1,66,0,0
111652,-50,4,2,1,5,0,0
111745,-50,4,2,1,66,0,0
112205,-50,4,2,1,5,0,0
112297,-50,4,2,1,66,0,0
116346,-50,4,2,1,66,0,1
116530,-50,4,2,1,66,0,0
128125,-100,4,2,1,31,0,0
139904,-100,4,2,1,36,0,0
149106,-100,4,2,1,41,0,0
149475,-100,4,2,1,46,0,0
149843,-100,4,2,1,51,0,0
150211,-100,4,2,1,56,0,0
150579,-100,4,2,1,5,0,0
151683,-100,4,2,1,31,0,0
152051,-100,4,2,1,5,0,0
153156,-100,4,2,1,31,0,0
153524,-100,4,2,1,5,0,0
154628,-100,4,2,1,31,0,0
154996,-100,4,2,1,5,0,0
156469,-100,4,2,1,31,0,0
156837,-133.333333333333,4,2,1,41,0,0
157573,-50,4,2,1,66,0,1
158769,-50,4,2,1,5,0,1
158861,-50,4,2,1,66,0,1
159321,-50,4,2,1,5,0,1
159413,-50,4,2,1,66,0,1
164198,-40,4,2,2,86,0,1
164383,-40,4,2,1,66,0,1
165671,-50,4,2,1,66,0,1
192910,-50,4,2,1,66,0,0
193002,-50,4,2,1,5,0,0
198984,-50,4,2,1,56,0,0
204781,-50,4,2,1,5,0,0

[Colours]
Combo1 : 172,255,196
Combo2 : 182,182,182
Combo3 : 90,90,90
Combo4 : 253,224,124
Combo5 : 255,139,206
Combo6 : 145,226,255

[HitObjects]
49,148,4444,6,0,L|26:73,2,75,2|2|2,0:2|0:2|0:2,0:0:0:0:
15,304,7389,2,0,L|33:221,2,75,2|2|2,0:2|0:2|0:2,0:0:0:0:
21,315,9597,2,0,L|52:319,1,25,2|2,0:2|0:2,0:0:0:0:
114,359,9965,2,0,L|150:353,1,25,2|2,0:2|0:2,0:0:0:0:
203,265,10333,6,0,L|281:267,1,75,2|2,0:2|0:2,0:0:0:0:
388,272,11438,1,2,0:2:0:0:
388,272,12542,1,0,0:2:0:0:
471,363,13278,70,0,L|487:283,2,75,2|2|2,0:2|0:2|0:2,0:0:0:0:
456,378,15487,1,2,0:2:0:0:
479,194,16223,6,0,P|436:191|400:198,1,75,0|2,3:2|0:2,0:0:0:0:
275,205,17327,2,0,P|241:173|221:144,1,75,2|0,0:2|3:2,0:0:0:0:
189,78,18064,1,0,3:2:0:0:
46,146,18432,1,8,0:2:0:0:
65,0,19168,70,0,P|68:27|81:49,1,50,2|0,3:2|0:2,0:0:0:0:
118,119,19720,2,0,L|87:137,2,25,2|8|0,3:2|0:2|0:2,0:0:0:0:
191,81,20272,2,0,P|221:69|297:71,1,100,2|0,3:2|3:2,0:0:0:0:
419,88,21376,6,0,L|391:107,1,25,10|2,0:2|0:2,0:0:0:0:
338,164,21745,2,0,L|308:158,1,25,2|2,0:2|0:2,0:0:0:0:
227,222,22113,69,2,3:2:0:0:
285,280,22665,1,2,3:2:0:0:
403,257,23217,1,2,3:2:0:0:
457,357,23953,1,0,3:2:0:0:
446,366,24321,1,8,0:2:0:0:
487,368,25057,6,0,P|483:341|484:314,1,50,2|0,3:2|3:2,0:0:0:0:
407,274,25610,2,0,P|396:259|387:252,1,25,2|8,3:2|0:2,0:0:0:0:
447,188,26162,1,2,3:2:0:0:
487,103,27266,1,10,3:2:0:0:
332,34,28002,69,2,3:2:0:0:
332,34,28186,2,0,L|298:38,1,25,2|2,3:2|0:2,0:0:0:0:
232,22,28554,2,0,L|149:34,1,75,0|0,0:0|3:2,0:0:0:0:
86,48,29291,1,0,3:2:0:0:
23,155,29659,5,0,3:2:0:0:
23,155,29843,2,0,L|79:145,1,50,0|8,3:2|0:2,0:0:0:0:
319,88,30947,70,0,P|317:120|312:138,1,50,2|0,3:2|0:2,0:0:0:0:
326,216,31499,1,2,3:2:0:0:
326,216,31683,2,0,P|351:207|376:202,1,50,0|0,0:0|3:2,0:0:0:0:
427,266,32235,5,0,3:2:0:0:
427,266,32419,2,0,L|475:254,2,50,0|2|8,0:0|0:2|0:2,0:0:0:0:
354,346,33524,2,0,L|364:332,3,12.5,2|0|2|2,2:2|0:2|2:2|0:2,0:0:0:0:
336,343,33892,70,0,P|308:346|282:343,1,50,6|0,3:2|0:2,0:0:0:0:
215,322,34444,1,2,0:2:0:0:
77,384,34996,1,2,3:2:0:0:
77,384,35180,1,0,3:2:0:0:
81,246,35548,5,0,3:2:0:0:
81,246,35732,2,0,L|36:255,1,37.5,0|0,3:2|0:0,0:0:0:0:
0,266,36100,1,8,0:2:0:0:
244,200,36837,70,0,L|292:189,1,50,2|2,3:2|0:2,0:0:0:0:
368,172,37389,1,2,3:2:0:0:
368,172,37573,2,0,L|378:148,1,25,0|0,0:2|0:0,0:0:0:0:
445,55,37941,1,2,3:2:0:0:
445,55,38125,2,0,P|439:83|440:110,1,50,2|0,3:2|0:2,0:0:0:0:
497,153,38677,1,0,0:0:0:0:
324,97,39045,1,8,0:2:0:0:
230,27,39413,5,10,3:2:0:0:
202,89,39597,1,10,3:2:0:0:
147,129,39781,70,0,P|121:74|113:35,1,87.500000834465,6|2,0:2|3:2,0:0:0:0:
28,19,40333,1,10,0:2:0:0:
28,19,40518,1,2,0:2:0:0:
28,19,40702,2,0,P|32:53|23:81,1,43.7500004172325,0|2,3:2|3:2,0:0:0:0:
24,184,41070,1,0,0:2:0:0:
98,206,41254,6,0,P|97:227|93:249,2,43.7500004172325,10|0|2,0:2|3:2|3:2,0:0:0:0:
34,164,41806,1,0,3:2:0:0:
25,282,41990,69,8,2:2:0:0:
99,279,42174,1,0,0:2:0:0:
156,333,42358,2,0,P|179:335|209:332,1,43.7500004172325
286,235,42726,6,0,L|275:277,1,43.7500004172325,12|0,0:0|3:0,0:0:0:0:
308,353,43094,2,0,L|343:321,1,43.7500004172325,2|0,3:2|3:0,0:0:0:0:
379,252,43462,1,2,3:2:0:0:
465,292,43647,1,0,3:0:0:0:
465,292,43739,1,0,0:0:0:0:
465,292,43831,1,2,3:2:0:0:
473,384,44016,1,0,0:0:0:0:
473,384,44108,1,0,0:0:0:0:
473,384,44200,1,6,3:2:0:0:
473,384,45671,70,0,P|466:358|459:343,1,37.5000014305115,2|2,0:2|0:2,0:0:0:0:
497,286,46407,2,0,P|490:272|472:255,1,37.5000014305115,0|2,0:2|0:2,0:0:0:0:
485,181,47143,2,0,P|470:175|445:167,1,37.5000014305115,2|2,0:2|0:2,0:0:0:0:
449,61,47879,1,0,0:2:0:0:
450,82,48248,2,0,L|405:89,1,37.5000014305115,2|2,0:2|0:2,0:0:0:0:
316,109,48984,6,0,P|335:115|350:124,2,37.5000014305115,2|2|2,0:2|0:2|0:2,0:0:0:0:
305,128,50088,1,2,0:2:0:0:
301,147,50456,1,0,0:2:0:0:
305,157,50824,70,0,L|223:146,1,75,0|0,0:2|0:2,0:0:0:0:
40,150,51561,21,6,3:2:0:0:
176,208,51745,70,0,P|212:190|231:172,1,50,2|2,3:2|3:2,0:0:0:0:
254,278,52113,2,0,P|235:324|227:373,1,100,8|0,0:2|0:0,0:0:0:0:
428,349,52665,1,10,0:2:0:0:
477,298,52849,2,0,L|464:242,1,50,2|0,0:2|3:2,0:0:0:0:
393,30,53401,2,0,L|421:74,1,50,2|0,3:2|3:0,0:0:0:0:
481,174,53769,2,0,L|474:125,1,50,8|0,0:2|3:2,0:0:0:0:
319,114,54137,69,2,3:2:0:0:
365,186,54321,1,0,3:2:0:0:
297,121,54505,6,0,P|298:71|292:22,1,100,6|0,3:2|3:2,0:0:0:0:
136,108,55057,2,0,P|180:132|221:161,1,100,8|0,0:2|3:2,0:0:0:0:
107,238,55610,2,0,P|93:217|89:193,1,50,10|2,0:2|3:2,0:0:0:0:
139,97,55978,1,2,2:2:0:0:
217,236,56162,69,2,3:2:0:0:
214,250,56254,1,2,0:2:0:0:
204,261,56346,1,2,3:2:0:0:
192,270,56438,1,2,0:2:0:0:
178,276,56530,1,10,3:2:0:0:
237,334,56714,2,0,L|305:323,1,50,2|10,3:2|0:2,0:0:0:0:
359,234,57082,1,2,3:2:0:0:
437,303,57266,5,10,0:2:0:0:
433,317,57358,1,10,0:2:0:0:
426,330,57450,70,0,B|448:319|448:319|473:224,1,100,6|2,3:2|3:2,0:0:0:0:
399,14,58002,1,2,3:2:0:0:
448,75,58186,2,0,L|447:143,1,50,8|0,0:0|0:2,0:0:0:0:
461,312,58554,1,2,3:2:0:0:
485,240,58738,1,10,3:2:0:0:
234,246,59106,1,10,3:2:0:0:
485,240,59475,1,0,3:2:0:0:
410,264,59659,6,0,P|381:267|359:273,1,50,10|0,0:0|0:2,0:0:0:0:
243,225,60027,2,0,P|281:235|308:243,1,50,2|2,3:2|3:2,0:0:0:0:
121,231,60395,69,6,3:2:0:0:
44,197,60579,2,0,P|55:171|67:91,1,100,0|2,3:2|3:2,0:0:0:0:
78,292,61131,2,0,P|104:328|130:381,1,100,8|2,0:2|0:2,0:0:0:0:
131,237,61683,1,2,3:2:0:0:
217,40,62051,2,0,B|229:52|229:52|324:74,1,100,14|2,0:2|3:2,0:0:0:0:
366,20,62603,5,14,0:2:0:0:
244,127,62971,1,2,3:2:0:0:
371,117,63156,69,10,0:2:0:0:
371,117,63248,1,10,0:2:0:0:
371,117,63340,6,0,P|351:138|311:211,1,100,6|2,3:2|0:2,0:0:0:0:
378,313,63892,2,0,P|392:285|394:266,1,50,2|10,3:2|3:2,0:0:0:0:
204,108,64444,1,2,3:2:0:0:
155,164,64628,2,0,P|123:155|53:143,2,100,10|0|0,0:2|3:2|3:2,0:0:0:0:
28,237,65548,69,10,0:2:0:0:
18,253,65916,1,2,3:2:0:0:
304,275,66284,5,6,3:2:0:0:
378,262,66468,2,0,L|422:214,1,50,2|2,0:2|0:2,0:0:0:0:
464,107,66837,2,0,L|436:158,1,50,2|8,3:2|0:0,0:0:0:0:
464,298,67389,1,14,0:2:0:0:
500,222,67573,2,0,L|387:237,1,100,6|0,3:2|3:2,0:0:0:0:
343,71,68125,1,8,3:2:0:0:
406,118,68309,2,0,L|440:70,1,50,0|2,3:2|3:2,0:0:0:0:
280,117,68677,69,0,3:2:0:0:
216,85,68861,1,10,3:2:0:0:
149,111,69045,1,0,3:0:0:0:
83,77,69229,5,6,0:2:0:0:
56,84,81008,70,0,P|74:82|135:89,1,75.0000028610231,4|2,3:2|0:2,0:0:0:0:
174,147,81560,2,0,L|223:151,1,37.5000014305115,2|10,3:2|0:2,0:0:0:0:
38,221,82297,2,0,L|81:217,1,37.5000014305115,2|2,3:2|0:2,0:0:0:0:
100,285,82849,2,0,P|119:288|179:285,1,75.0000028610231,2|8,3:2|0:2,0:0:0:0:
250,235,83769,1,0,0:0:0:0:
250,235,83953,6,0,L|254:160,1,75.0000028610231,4|2,3:2|0:2,0:0:0:0:
310,296,84505,2,0,L|316:342,1,37.5000014305115,2|10,3:2|0:2,0:0:0:0:
350,204,85057,1,0,0:2:0:0:
392,265,85241,2,0,L|386:309,1,37.5000014305115,2|2,3:2|0:2,0:0:0:0:
463,359,85794,2,0,L|454:300,1,56.2500021457673,2|0,3:2|0:2,0:0:0:0:
466,310,86162,2,0,L|474:235,1,75.0000028610231,10|2,0:2|3:2,0:0:0:0:
492,103,86714,1,0,3:2:0:0:
507,169,86898,70,0,P|487:167|424:180,1,75.0000028610231,4|2,3:2|0:2,0:0:0:0:
388,109,87450,2,0,L|338:98,1,37.5000014305115,2|10,3:2|0:2,0:0:0:0:
424,259,88186,2,0,L|378:265,1,37.5000014305115,2|2,3:2|0:2,0:0:0:0:
351,180,88738,2,0,P|325:177|280:161,1,75.0000028610231,2|8,3:2|0:2,0:0:0:0:
206,69,89659,1,0,3:2:0:0:
206,69,89843,6,0,L|207:161,1,75.0000028610231,4|2,3:2|0:2,0:0:0:0:
132,58,90395,2,0,L|149:10,1,37.5000014305115,2|10,3:2|0:2,0:0:0:0:
76,94,91131,2,0,L|87:132,1,37.5000014305115,0|2,3:2|0:2,0:0:0:0:
15,50,91683,1,2,3:2:0:0:
7,133,92051,70,0,L|21:159,2,25.0000009536744,10|2|2,0:2|0:2|0:2,0:0:0:0:
3,228,92419,1,2,3:2:0:0:
3,228,92542,1,2,3:2:0:0:
3,228,92665,1,2,3:2:0:0:
3,228,92787,6,0,P|43:228|58:276,1,75.0000028610231,6|2,3:2|0:2,0:0:0:0:
52,323,93248,2,0,L|34:337,2,18.7500007152558,0|0|0,0:0|0:0|0:2,0:0:0:0:
75,334,93524,2,0,L|157:313,2,75.0000028610231,10|2|0,0:2|3:2|0:0,0:0:0:0:
221,361,94628,69,2,3:2:0:0:
221,361,94751,1,2,0:2:0:0:
221,361,94873,1,2,0:2:0:0:
221,361,94996,1,10,0:2:0:0:
289,383,95364,2,0,L|297:298,1,75.0000028610231,2|4,3:2|3:2,0:0:0:0:
391,348,96100,5,2,0:2:0:0:
391,348,96223,1,2,0:2:0:0:
391,348,96346,1,2,0:2:0:0:
391,348,96468,1,10,0:2:0:0:
488,372,96837,2,0,P|483:334|458:297,1,75.0000028610231,2|0,3:2|0:0,0:0:0:0:
413,223,97573,69,2,3:2:0:0:
413,223,97695,1,2,0:2:0:0:
413,223,97818,1,2,3:2:0:0:
413,223,97941,2,0,B|442:222|442:222|504:210,2,75.0000028610231,10|0|4,3:2|0:2|3:2,0:0:0:0:
351,160,99045,5,0,3:2:0:0:
351,160,99168,1,0,3:2:0:0:
351,160,99291,1,0,3:2:0:0:
351,160,99413,1,10,3:2:0:0:
271,195,99781,69,2,3:2:0:0:
271,195,99904,1,0,3:2:0:0:
271,195,100027,1,0,3:2:0:0:
271,195,100149,1,2,3:2:0:0:
199,151,100518,5,2,0:2:0:0:
199,151,100640,1,0,3:2:0:0:
199,151,100763,1,0,3:2:0:0:
199,151,100886,1,10,3:2:0:0:
130,205,101254,70,0,L|68:215,1,56.2500021457673,2|0,3:2|0:0,0:0:0:0:
61,195,101622,6,0,L|22:160,1,37.5000014305115,14|0,0:2|3:2,0:0:0:0:
148,286,101990,2,0,L|114:318,1,37.5000014305115,0|2,3:2|0:2,0:0:0:0:
258,232,102358,69,0,3:2:0:0:
282,230,102480,1,0,3:2:0:0:
307,236,102603,1,0,3:2:0:0:
328,249,102726,1,2,3:2:0:0:
344,267,102848,1,0,3:2:0:0:
355,290,102971,1,0,3:2:0:0:
358,317,103094,5,14,3:2:0:0:
352,332,103830,22,0,L|359:276,1,50,8|0,0:1|0:2,0:0:0:0:
451,35,104567,6,0,L|411:77,1,50,4|0,3:2|0:0,0:0:0:0:
439,201,104935,2,0,P|389:193|341:206,1,100,2|2,0:2|3:2,0:0:0:0:
272,246,105487,1,2,3:2:0:0:
180,142,105671,2,0,L|232:125,1,50,10|0,0:2|0:2,0:0:0:0:
103,21,106039,22,0,P|65:44|27:102,1,100,6|2,3:2|0:2,0:0:0:0:
47,306,106775,2,0,L|35:355,2,50,2|0|10,3:2|3:2|0:2,0:0:0:0:
9,232,107327,1,2,0:2:0:0:
152,295,107511,70,0,B|176:295|176:295|212:283,1,50,4|0,3:2|0:2,0:0:0:0:
273,249,107879,2,0,L|382:266,1,100,2|2,0:2|3:2,0:0:0:0:
488,276,108432,1,2,3:2:0:0:
478,377,108616,2,0,P|449:353|435:326,1,50,10|0,0:2|0:2,0:0:0:0:
413,156,108984,22,0,B|443:147|443:147|512:152,1,100,4|2,3:2|0:2,0:0:0:0:
478,30,109536,1,8,0:2:0:0:
478,30,109720,2,0,P|429:49|381:90,1,100,2|0,3:2|3:2,0:0:0:0:
339,141,110272,1,2,3:2:0:0:
243,10,110456,5,6,3:2:0:0:
151,75,110640,1,10,3:2:0:0:
151,75,110824,2,0,P|183:83|221:77,1,50,2|0,3:2|0:2,0:0:0:0:
346,33,111192,2,0,P|406:35|441:55,1,100,8|10,3:2|0:2,0:0:0:0:
510,142,111745,54,0,P|485:143|462:133,1,50,2|0,0:2|3:2,0:0:0:0:
323,130,112113,1,2,0:2:0:0:
323,130,112297,2,0,L|332:180,2,50,2|0|8,3:2|0:2|0:2,0:0:0:0:
150,49,113033,38,0,P|174:42|199:43,1,50,2|0,3:2|3:2,0:0:0:0:
9,111,113401,2,0,P|49:70|76:25,1,100,6|8,3:2|2:2,0:0:0:0:
72,34,113953,1,0,3:2:0:0:
60,173,114137,2,0,P|109:151|159:144,1,100,10|2,0:2|3:2,0:0:0:0:
236,142,114689,1,2,3:2:0:0:
265,276,114873,54,0,P|295:307|331:325,1,75,2|2,3:2|0:2,0:0:0:0:
353,313,115241,2,0,L|335:251,1,50,2|2,3:2|3:2,0:0:0:0:
430,324,115610,2,0,L|425:348,2,25,10|0|2,3:2|0:0|0:2,0:0:0:0:
496,196,115978,1,2,3:2:0:0:
496,196,116070,1,0,0:0:0:0:
496,196,116162,1,10,0:2:0:0:
496,196,116254,1,10,0:2:0:0:
496,196,116346,38,0,P|459:212|414:254,1,100,14|2,3:2|0:2,0:0:0:0:
365,316,116898,1,2,3:2:0:0:
285,231,117082,2,0,P|240:207|191:200,1,100,8|2,0:0|3:2,0:0:0:0:
89,264,117634,2,0,P|83:240|80:216,1,50,2|0,3:2|0:0,0:0:0:0:
23,153,118002,5,8,0:0:0:0:
56,355,118370,1,2,3:2:0:0:
56,355,118554,2,0,L|116:370,1,50,10|0,0:0|3:2,0:0:0:0:
207,311,118922,2,0,L|261:326,1,50,2|2,3:2|3:2,0:0:0:0:
450,368,119291,38,0,L|391:372,1,50,14|0,3:2|3:2,0:0:0:0:
319,374,119659,1,2,3:2:0:0:
468,367,119843,2,0,P|494:321|495:260,1,100,10|0,3:2|0:2,0:0:0:0:
485,124,120395,2,0,L|458:181,1,50,2|2,3:2|3:2,0:0:0:0:
261,186,120947,5,14,0:2:0:0:
217,101,121131,1,2,0:2:0:0:
264,45,121315,1,2,3:2:0:0:
160,7,121499,2,0,L|107:15,2,50,14|2|2,0:2|3:2|3:2,0:0:0:0:
370,43,122051,1,10,0:2:0:0:
370,43,122143,1,10,0:2:0:0:
370,43,122235,6,0,P|399:33|434:37,1,50,6|0,3:2|2:2,0:0:0:0:
512,139,122603,1,2,0:2:0:0:
451,192,122787,2,0,P|404:176|363:149,1,100,10|0,3:2|0:2,0:0:0:0:
198,120,123340,1,2,3:2:0:0:
198,120,123524,2,0,P|226:69|222:8,1,100,2|0,3:2|3:2,0:0:0:0:
154,0,124076,1,8,3:2:0:0:
94,128,124444,6,0,P|44:115|20:95,1,75,2|0,0:2|0:0,0:0:0:0:
7,99,124812,2,0,L|17:169,1,50,10|0,3:2|0:2,0:0:0:0:
15,305,125180,37,14,3:2:0:0:
0,311,125548,1,2,0:2:0:0:
117,239,125732,1,2,3:2:0:0:
117,239,125916,6,0,P|163:221|213:213,1,100,8|6,0:2|0:0,0:0:0:0:
274,259,126468,1,6,3:2:0:0:
338,177,126652,5,2,0:2:0:0:
338,177,126837,2,0,P|341:145|351:113,2,50,2|2|2,3:2|3:2|3:2,0:0:0:0:
396,260,127389,2,0,P|426:254|447:242,1,50,2|0,0:0|0:0,0:0:0:0:
453,108,127757,1,2,3:2:0:0:
448,120,127849,1,2,3:2:0:0:
443,132,127941,1,2,3:2:0:0:
438,144,128033,1,2,3:2:0:0:
433,156,128125,21,2,0:2:0:0:
46,138,139904,5,2,3:2:0:0:
46,138,140088,1,0,3:2:0:0:
88,75,140456,2,0,L|52:0,1,75,2|2,0:2|0:2,0:0:0:0:
306,37,142849,70,0,P|342:34|391:40,1,75,0|2,3:2|0:2,0:0:0:0:
452,54,143953,1,2,0:2:0:0:
424,182,145057,6,0,L|431:207,3,25,2|0|0|0,0:2|0:2|0:2|0:2,0:0:0:0:
407,276,145794,1,2,3:2:0:0:
296,174,146346,1,2,0:2:0:0:
224,157,146898,2,0,P|169:167|130:192,1,100,2|2,0:2|0:2,0:0:0:0:
47,263,148002,69,2,0:2:0:0:
122,196,148370,1,2,0:2:0:0:
106,79,148738,2,0,L|113:106,1,25,2|0,3:2|0:2,0:0:0:0:
192,147,149106,2,0,L|210:171,1,25,2|0,0:2|0:2,0:0:0:0:
295,189,149475,2,0,L|326:206,1,25,2|0,0:2|0:2,0:0:0:0:
408,191,149843,2,0,L|436:193,1,25,2|0,0:2|0:2,0:0:0:0:
512,145,150211,1,2,0:2:0:0:
512,145,151683,5,2,0:2:0:0:
409,273,153156,69,2,0:2:0:0:
323,283,154628,5,2,0:2:0:0:
304,280,156468,69,0,0:2:0:0:
289,278,156837,6,0,L|306:221,1,56.2500021457673,0|0,0:2|0:2,0:0:0:0:
236,328,157573,53,6,3:2:0:0:
98,366,157757,2,0,P|63:355|36:352,1,50,0|2,0:2|3:2,0:0:0:0:
54,263,158125,2,0,P|87:269|149:237,1,100,8|0,0:2|3:2,0:0:0:0:
157,15,158677,1,10,0:2:0:0:
137,92,158861,2,0,L|160:155,1,50,2|2,0:2|3:2,0:0:0:0:
340,259,159413,2,0,L|286:225,1,50,2|0,3:2|0:2,0:0:0:0:
353,142,159781,2,0,L|376:188,1,50,8|0,0:2|3:2,0:0:0:0:
448,196,160149,1,2,3:2:0:0:
479,124,160333,1,0,3:2:0:0:
471,207,160518,38,0,P|438:235|404:288,1,100,6|0,3:2|3:2,0:0:0:0:
463,105,161070,2,0,P|474:61|501:10,1,100,8|0,0:2|3:2,0:0:0:0:
389,12,161622,1,10,0:2:0:0:
394,91,161806,1,0,3:2:0:0:
260,62,161990,1,2,3:2:0:0:
318,117,162174,1,2,0:2:0:0:
330,129,162266,1,2,0:2:0:0:
342,141,162358,1,10,0:2:0:0:
354,153,162450,1,2,0:2:0:0:
366,165,162542,1,2,0:2:0:0:
284,208,162726,2,0,L|213:190,1,50,10|10,3:2|0:2,0:0:0:0:
84,113,163094,1,0,3:2:0:0:
42,189,163278,5,10,0:2:0:0:
58,195,163370,1,10,0:2:0:0:
73,203,163462,6,0,B|52:224|52:224|13:235|13:235|-1:269,1,100,14|2,3:2|3:2,0:0:0:0:
1,262,164014,1,2,3:2:0:0:
220,333,164198,6,0,L|353:324,1,125,12|2,0:2|3:2,0:0:0:0:
433,341,164751,37,2,3:2:0:0:
375,140,165119,1,10,0:2:0:0:
433,341,165487,1,2,3:2:0:0:
465,269,165671,2,0,P|474:232|481:217,1,50,10|0,0:2|0:2,0:0:0:0:
443,95,166039,2,0,P|449:123|452:152,1,50,2|2,3:2|3:2,0:0:0:0:
484,22,166407,5,14,3:2:0:0:
428,91,166591,2,0,P|416:118|368:169,1,100,0|2,3:2|3:2,0:0:0:0:
308,270,167143,2,0,P|361:246|410:238,1,100,8|2,0:2|3:2,0:0:0:0:
234,239,167695,1,2,3:2:0:0:
59,255,168064,2,0,L|160:282,1,100,12|2,0:2|3:2,0:0:0:0:
8,191,168616,1,12,3:2:0:0:
227,305,168984,5,2,3:2:0:0:
245,301,169076,1,0,3:2:0:0:
263,297,169168,1,10,0:2:0:0:
281,294,169260,1,10,0:2:0:0:
298,289,169352,6,0,P|276:348|266:397,1,100,6|2,3:2|0:2,0:0:0:0:
378,266,169904,2,0,P|380:241|379:211,1,50,2|8,3:2|0:2,0:0:0:0:
318,25,170456,1,2,3:2:0:0:
302,95,170640,2,0,L|413:108,2,100,2|0|0,3:2|3:2|3:2,0:0:0:0:
406,27,171560,37,10,0:2:0:0:
281,177,171929,1,10,3:2:0:0:
176,23,172297,5,6,3:2:0:0:
101,62,172481,2,0,P|100:106|84:166,1,100,0|2,3:0|3:2,0:0:0:0:
22,41,173033,1,8,3:0:0:0:
57,238,173401,1,2,3:2:0:0:
101,166,173585,1,2,3:2:0:0:
64,262,173769,6,0,L|78:292,2,25,6|0|2,0:2|0:2|3:2,0:0:0:0:
126,179,174137,2,0,L|143:151,2,25,6|0|2,0:2|0:2|3:2,0:0:0:0:
146,312,174505,1,14,3:2:0:0:
216,157,174873,5,10,3:2:0:0:
216,157,174996,1,0,3:2:0:0:
216,157,175119,1,0,3:2:0:0:
216,157,175241,38,0,B|250:163|250:163|277:146|301:93,1,100,6|2,3:2|3:2,0:0:0:0:
387,32,175794,2,0,P|367:56|352:82,1,50,2|8,0:2|0:2,0:0:0:0:
405,245,176346,2,0,P|429:232|449:211,1,50,2|2,3:2|0:2,0:0:0:0:
477,57,176714,2,0,P|448:99|431:146,2,100,0|2|8,3:2|3:2|0:2,0:0:0:0:
457,229,177818,2,0,P|436:249|382:269,1,75,0|0,3:2|0:2,0:0:0:0:
376,278,178186,6,0,L|485:313,2,100,6|2|8,3:2|3:2|0:2,0:0:0:0:
255,320,179291,2,0,L|319:320,1,50,2|2,3:2|0:2,0:0:0:0:
195,362,179659,2,0,L|75:345,2,100,0|2|8,0:2|3:2|0:2,0:0:0:0:
31,296,180763,1,0,3:2:0:0:
254,310,181131,6,0,P|297:288|352:270,1,100,4|0,3:2|3:2,0:0:0:0:
405,165,181683,2,0,P|385:187|364:202,1,50,0|8,0:2|0:2,0:0:0:0:
255,59,182235,2,0,P|260:33|279:2,1,50,0|2,0:2|0:2,0:0:0:0:
359,7,182603,2,0,P|373:43|348:109,1,100,6|2,3:2|3:2,0:0:0:0:
222,34,183156,2,0,P|255:0|277:-4,1,50,2|8,0:2|0:2,0:0:0:0:
239,171,183708,2,0,P|205:148|193:124,1,50,2|2,0:2|0:2,0:0:0:0:
118,118,184076,2,0,P|167:145|177:196,1,100,0|2,3:2|3:2,0:0:0:0:
106,267,184628,2,0,P|63:268|52:264,1,50,2|8,0:2|0:2,0:0:0:0:
31,179,184996,1,2,0:2:0:0:
137,253,185180,2,0,P|119:295|118:325,1,75,2|0,3:2|0:2,0:0:0:0:
137,338,185548,6,0,L|253:357,3,100,12|12|10|2,3:2|3:2|3:2|3:2,0:0:0:0:
327,37,187021,38,0,L|220:57,1,100,12|2,3:2|3:2,0:0:0:0:
392,82,187573,2,0,L|454:70,1,50,2|8,0:2|0:2,0:0:0:0:
293,145,188125,2,0,L|229:128,1,50,2|2,3:2|0:2,0:0:0:0:
348,192,188493,2,0,L|470:179,2,100,12|12|8,3:2|3:2|3:2,0:0:0:0:
458,258,189597,2,0,L|524:258,1,50,0|2,3:2|0:2,0:0:0:0:
507,288,189873,1,2,0:2:0:0:
498,309,189965,6,0,L|447:284,1,50,14|0,3:2|3:2,0:0:0:0:
362,237,190333,2,0,L|383:288,1,50,2|10,0:2|3:2,0:0:0:0:
322,373,190702,2,0,L|319:322,1,50,8|0,0:2|3:2,0:0:0:0:
264,234,191070,2,0,L|252:283,1,50,2|2,0:2|3:2,0:0:0:0:
116,328,191438,5,12,3:2:0:0:
175,282,191622,2,0,L|177:225,1,50,0|12,3:2|3:2,0:0:0:0:
143,129,191990,2,0,L|117:182,1,50,2|10,3:2|0:2,0:0:0:0:
107,60,192358,1,0,0:2:0:0:
161,8,192542,5,10,0:2:0:0:
161,8,192634,1,0,0:2:0:0:
161,8,192726,1,2,3:2:0:0:
161,8,192818,1,2,3:2:0:0:
161,8,192910,1,14,0:2:0:0:
