osu file format v14

[General]
AudioFilename: audio.mp3
AudioLeadIn: 0
PreviewTime: 180969
Countdown: 0
SampleSet: Soft
StackLeniency: 0.7
Mode: 0
LetterboxInBreaks: 0
WidescreenStoryboard: 1

[Editor]
Bookmarks: 23070,177052
DistanceSpacing: 0.2
BeatDivisor: 4
GridSize: 4
TimelineZoom: 1

[Metadata]
Title:Hearts
TitleUnicode:Hearts
Artist:Tokoyami Towa
ArtistUnicode:常闇トワ
Creator:Mocaotic
Version:Resonance
Source:
Tags:amateurre boppin japanese rock hololive ホロライブ virtual youtuber vtuber vocaloid cover niki lily
BeatmapID:3280512
BeatmapSetID:1588756

[Difficulty]
HPDrainRate:6
CircleSize:4
OverallDifficulty:8.5
ApproachRate:9.3
SliderMultiplier:1.65
SliderTickRate:1

[Events]
//Background and Video events
Video,0,"hearts.mp4"
0,0,"towayami toko.png",0,0
//Break Periods
2,154052,159498
//Storyboard Layer 0 (Background)
//Storyboard Layer 1 (Fail)
//Storyboard Layer 2 (Pass)
//Storyboard Layer 3 (Foreground)
//Storyboard Layer 4 (Overlay)
//Storyboard Sound Samples

[TimingPoints]
1219,333.333333333333,3,2,2,5,1,0
2218,-100,3,2,2,15,0,0
3218,-100,3,2,2,25,0,0
4218,-100,3,2,2,35,0,0
5218,-100,3,2,2,45,0,0
6218,-100,3,2,2,55,0,0
7053,333.333333333333,3,2,2,70,1,0
7053,-83.3333333333333,3,2,2,70,0,0
7552,-100,3,2,2,70,0,0
7802,-100,3,2,2,5,0,0
7886,-100,3,2,2,70,0,0
11136,-100,3,2,2,5,0,0
11219,-100,3,2,2,70,0,0
13136,-100,3,2,2,5,0,0
13219,-100,3,2,2,70,0,0
15802,-100,3,2,2,5,0,0
15886,-100,3,2,2,70,0,0
19136,-100,3,2,2,5,0,0
19219,-100,3,2,2,70,0,0
23052,-133.333333333333,3,2,2,40,0,0
28386,-153.846153846153,3,2,2,40,0,0
28719,-181.818181818181,3,2,2,40,0,0
29052,-133.333333333333,3,2,2,40,0,0
39052,-100,3,2,2,55,0,0
44302,-100,3,2,2,5,0,0
44386,-100,3,2,2,55,0,0
45469,-100,3,2,2,5,0,0
45552,-100,3,2,2,55,0,0
52302,-100,3,2,2,5,0,0
52386,-100,3,2,2,55,0,0
54386,-250,3,2,2,55,0,0
54969,-250,3,2,2,5,0,0
55052,-80,3,2,2,75,0,1
55636,-80,3,2,2,5,0,1
55719,-80,3,2,2,75,0,1
56636,-80,3,2,2,5,0,1
56719,-80,3,2,2,75,0,1
57636,-80,3,2,2,5,0,1
57719,-80,3,2,2,75,0,1
59636,-80,3,2,2,5,0,1
59719,-80,3,2,2,75,0,1
59969,-80,3,2,2,5,0,1
60052,-80,3,2,2,75,0,1
61136,-80,3,2,2,5,0,1
61219,-71.4285714285714,3,2,2,75,0,1
61469,-71.4285714285714,3,2,2,5,0,1
61552,-80,3,2,2,75,0,1
63802,-80,3,2,2,5,0,1
63886,-80,3,2,2,75,0,1
65302,-80,3,2,2,5,0,1
65386,-80,3,2,2,75,0,1
69302,-80,3,2,2,5,0,1
69386,-80,3,2,2,75,0,1
69719,-62.5,3,2,2,75,0,1
69969,-62.5,3,2,2,5,0,1
70052,-80,3,2,2,75,0,1
71636,-80,3,2,2,5,0,1
71719,-80,3,2,2,75,0,1
72636,-80,3,2,2,5,0,1
72719,-80,3,2,2,75,0,1
73636,-80,3,2,2,5,0,1
73719,-80,3,2,2,75,0,1
75636,-80,3,2,2,5,0,1
75719,-80,3,2,2,75,0,1
75969,-80,3,2,2,5,0,1
76052,-80,3,2,2,75,0,1
77136,-80,3,2,2,5,0,1
77219,-71.4285714285714,3,2,2,75,0,1
77469,-71.4285714285714,3,2,2,5,0,1
77552,-80,3,2,2,75,0,1
79802,-80,3,2,2,5,0,1
79886,-80,3,2,2,75,0,1
85302,-80,3,2,2,5,0,1
85386,-80,3,2,2,75,0,1
87052,-80,3,2,2,70,0,0
89052,-133.333333333333,3,2,2,45,0,0
94386,-153.846153846153,3,2,2,45,0,0
94719,-181.818181818181,3,2,2,45,0,0
95386,-133.333333333333,3,2,2,45,0,0
105052,-100,3,2,2,55,0,0
110302,-100,3,2,2,5,0,0
110386,-100,3,2,2,55,0,0
111219,-90.9090909090909,3,2,2,55,0,0
111469,-90.9090909090909,3,2,2,5,0,0
111552,-100,3,2,2,55,0,0
118302,-100,3,2,2,5,0,0
118386,-100,3,2,2,55,0,0
121052,-80,3,2,2,75,0,1
121636,-80,3,2,2,5,0,1
121719,-80,3,2,2,75,0,1
122636,-80,3,2,2,5,0,1
122719,-80,3,2,2,75,0,1
123636,-80,3,2,2,5,0,1
123719,-80,3,2,2,75,0,1
125636,-80,3,2,2,5,0,1
125719,-80,3,2,2,75,0,1
125969,-80,3,2,2,5,0,1
126052,-80,3,2,2,75,0,1
127136,-80,3,2,2,5,0,1
127219,-71.4285714285714,3,2,2,75,0,1
127469,-71.4285714285714,3,2,2,5,0,1
127552,-80,3,2,2,75,0,1
129802,-80,3,2,2,5,0,1
129886,-80,3,2,2,75,0,1
131302,-80,3,2,2,5,0,1
131386,-80,3,2,2,75,0,1
133636,-80,3,2,2,5,0,1
133719,-80,3,2,2,75,0,1
135052,-71.4285714285714,3,2,2,75,0,1
135302,-71.4285714285714,3,2,2,5,0,1
135386,-71.4285714285714,3,2,2,75,0,1
135719,-58.8235294117647,3,2,2,75,0,1
135969,-58.8235294117647,3,2,2,5,0,1
136052,-80,3,2,2,75,0,1
137636,-80,3,2,2,5,0,1
137719,-80,3,2,2,75,0,1
138636,-80,3,2,2,5,0,1
138719,-80,3,2,2,75,0,1
139636,-80,3,2,2,5,0,1
139719,-80,3,2,2,75,0,1
141636,-80,3,2,2,5,0,1
141719,-80,3,2,2,75,0,1
141969,-80,3,2,2,5,0,1
142052,-80,3,2,2,75,0,1
143136,-80,3,2,2,5,0,1
143219,-71.4285714285714,3,2,2,75,0,1
143469,-71.4285714285714,3,2,2,5,0,1
143552,-71.4285714285714,3,2,2,75,0,1
143719,-80,3,2,2,75,0,1
145802,-80,3,2,2,5,0,1
145886,-80,3,2,2,75,0,1
147302,-80,3,2,2,5,0,1
147386,-80,3,2,2,75,0,1
151302,-80,3,2,2,5,0,1
151386,-80,3,2,2,75,0,1
153052,-100,3,2,2,70,0,0
160052,-1000,3,2,2,85,0,0
160969,-1000,3,2,2,5,0,0
161052,-100,3,2,2,65,0,0
161469,-100,3,2,2,5,0,0
161552,-100,3,2,2,65,0,0
163469,-100,3,2,2,5,0,0
163552,-100,3,2,2,65,0,0
165469,-100,3,2,2,5,0,0
165552,-100,3,2,2,65,0,0
167136,-100,3,2,2,5,0,0
167219,-100,3,2,2,65,0,0
167469,-100,3,2,2,5,0,0
167552,-100,3,2,2,65,0,0
169469,-100,3,2,2,5,0,0
169552,-100,3,2,2,65,0,0
171469,-100,3,2,2,5,0,0
171552,-100,3,2,2,65,0,0
173469,-100,3,2,2,5,0,0
173552,-100,3,2,2,65,0,0
175469,-100,3,2,2,5,0,0
175552,-100,3,2,2,65,0,0
177052,-100,3,2,2,55,0,0
178302,-100,3,2,2,5,0,0
178386,-100,3,2,2,55,0,0
180386,-250,3,2,2,55,0,0
180969,-250,3,2,2,5,0,0
181052,-80,3,2,2,75,0,1
181636,-80,3,2,2,5,0,1
181719,-80,3,2,2,75,0,1
182636,-80,3,2,2,5,0,1
182719,-80,3,2,2,75,0,1
183636,-80,3,2,2,5,0,1
183719,-80,3,2,2,75,0,1
185636,-80,3,2,2,5,0,1
185719,-80,3,2,2,75,0,1
185969,-80,3,2,2,5,0,1
186052,-80,3,2,2,75,0,1
187136,-80,3,2,2,5,0,1
187219,-66.6666666666667,3,2,2,75,0,1
187469,-66.6666666666667,3,2,2,5,0,1
187552,-80,3,2,2,75,0,1
189802,-80,3,2,2,5,0,1
189886,-80,3,2,2,75,0,1
191302,-80,3,2,2,5,0,1
191386,-80,3,2,2,75,0,1
195052,-71.4285714285714,3,2,2,75,0,1
195302,-71.4285714285714,3,2,2,5,0,1
195386,-71.4285714285714,3,2,2,75,0,1
195719,-58.8235294117647,3,2,2,75,0,1
195969,-58.8235294117647,3,2,2,5,0,1
196052,-80,3,2,2,75,0,1
197636,-80,3,2,2,5,0,1
197719,-80,3,2,2,75,0,1
198636,-80,3,2,2,5,0,1
198719,-80,3,2,2,75,0,1
199636,-80,3,2,2,5,0,1
199719,-80,3,2,2,75,0,1
201636,-80,3,2,2,5,0,1
201719,-80,3,2,2,75,0,1
201969,-80,3,2,2,5,0,1
202052,-80,3,2,2,75,0,1
203136,-80,3,2,2,5,0,1
203219,-71.4285714285714,3,2,2,75,0,1
203469,-71.4285714285714,3,2,2,5,0,1
203552,-80,3,2,2,75,0,1
205802,-80,3,2,2,5,0,1
205886,-80,3,2,2,75,0,1
207302,-80,3,2,2,5,0,1
207386,-80,3,2,2,75,0,1
211302,-80,3,2,2,5,0,1
211386,-80,3,2,2,75,0,1
213052,-80,3,2,2,75,0,0
214052,-80,3,2,2,65,0,0
215052,-80,3,2,2,55,0,0
216052,-80,3,2,2,45,0,0
217052,-80,3,2,2,35,0,0
218052,-80,3,2,2,25,0,0
219052,-80,3,2,2,15,0,0
220052,-80,3,2,2,10,0,0
221052,-80,3,2,2,5,0,0

[Colours]
Combo1 : 249,210,132
Combo2 : 254,231,69
Combo3 : 255,148,40
Combo4 : 106,106,106
Combo5 : 191,191,191
Combo6 : 125,193,255
Combo7 : 117,114,254
Combo8 : 242,242,119

[HitObjects]
256,192,1219,12,0,6552,0:0:0:0:
422,325,7053,102,0,P|336:317|364:197,1,197.99999395752,6|0,3:2|0:0,0:0:0:0:
461,133,7552,2,0,P|429:172|417:257,1,123.75,0|0,3:0|0:0,0:0:0:0:
414,242,7886,1,0,3:0:0:0:
275,115,8052,6,0,P|320:119|367:161,1,82.5,8|0,0:0|0:0,0:0:0:0:
403,74,8386,1,0,3:0:0:0:
403,74,8553,1,0,3:0:0:0:
284,194,8719,102,0,L|305:300,1,82.5,8|0,0:0|0:0,0:0:0:0:
205,156,9052,1,2,3:2:0:0:
347,131,9219,2,0,B|267:104|267:104|193:165,1,165,0|0,3:0|3:0,0:0:0:0:
198,163,9886,1,0,3:0:0:0:
96,59,10052,6,0,L|214:72,1,82.5,8|0,0:0|0:0,0:0:0:0:
259,103,10386,1,0,3:0:0:0:
259,103,10552,1,0,3:0:0:0:
33,0,10719,101,8,0:0:0:0:
155,221,10886,1,8,0:0:0:0:
0,85,11052,6,0,L|59:91,1,41.25,6|0,3:2|0:0,0:0:0:0:
200,136,11219,2,0,B|166:125|166:125|81:157|81:157|60:196,1,165,0|0,3:0|3:0,0:0:0:0:
59,200,11886,1,0,3:0:0:0:
169,298,12052,102,0,B|174:255|174:255|146:206,1,82.5,8|0,0:0|0:0,0:0:0:0:
92,334,12386,1,0,3:0:0:0:
92,334,12552,1,0,3:0:0:0:
259,384,12719,2,0,L|347:368,1,82.5,8|0,0:0|0:0,0:0:0:0:
251,184,13052,6,0,L|241:238,1,41.25,6|0,3:2|0:0,0:0:0:0:
159,384,13219,2,0,B|183:341|183:341|157:202,1,165,0|0,3:0|3:0,0:0:0:0:
157,218,13886,1,0,3:0:0:0:
311,54,14052,101,8,0:0:0:0:
219,279,14219,1,8,0:0:0:0:
131,197,14386,1,0,3:0:0:0:
131,197,14552,1,0,3:0:0:0:
330,164,14719,1,8,0:0:0:0:
355,195,14802,1,8,0:0:0:0:
365,235,14885,1,8,0:0:0:0:
358,275,14969,1,8,0:0:0:0:
335,309,15052,5,6,3:2:0:0:
196,251,15219,2,0,L|281:238,1,82.5,0|0,3:0|0:0,0:0:0:0:
512,361,15552,2,0,B|428:353|428:353|412:379|367:389,1,123.75,0|0,3:0|0:0,0:0:0:0:
398,378,15886,1,0,3:0:0:0:
366,222,16052,102,0,L|357:304,1,82.5,8|0,0:0|0:0,0:0:0:0:
289,356,16386,1,0,3:0:0:0:
289,356,16552,1,0,3:0:0:0:
168,204,16719,6,0,B|202:179|202:179|257:186,1,82.5,8|0,0:0|0:0,0:0:0:0:
224,264,17052,1,2,3:2:0:0:
186,103,17219,2,0,L|230:290,1,165,0|0,3:0|3:0,0:0:0:0:
220,273,17886,1,0,3:0:0:0:
28,368,18052,102,0,P|12:318|29:274,1,82.5,8|0,0:0|0:0,0:0:0:0:
77,221,18386,1,0,3:0:0:0:
77,221,18552,1,0,3:0:0:0:
284,352,18719,5,8,0:0:0:0:
93,322,18886,1,8,0:0:0:0:
311,203,19052,102,0,L|321:270,1,41.25,6|0,3:2|0:0,0:0:0:0:
175,372,19219,2,0,B|240:356|240:356|261:334|261:334|360:317,1,165,0|0,3:0|3:0,0:0:0:0:
336,329,19886,1,0,3:0:0:0:
487,221,20052,6,0,P|498:177|476:133,1,82.5,8|0,0:0|0:0,0:0:0:0:
420,90,20386,1,0,3:0:0:0:
420,90,20552,1,0,3:0:0:0:
330,266,20719,102,0,L|413:257,1,82.5,8|0,0:0|0:0,0:0:0:0:
289,337,21052,1,2,3:2:0:0:
285,198,21219,2,0,P|250:260|307:346,1,165,0|0,3:0|3:0,0:0:0:0:
298,339,21886,1,0,3:0:0:0:
208,149,22052,6,0,L|106:137,1,82.5,8|0,0:0|0:0,0:0:0:0:
56,186,22386,1,0,3:0:0:0:
56,186,22552,1,0,3:0:0:0:
255,229,22720,1,8,0:0:0:0:
283,199,22803,1,8,0:0:0:0:
297,160,22886,1,8,0:0:0:0:
294,120,22969,1,8,0:0:0:0:
274,84,23052,38,0,L|140:70,1,123.75,6|2,3:2|0:0,0:0:0:0:
145,76,23719,2,0,L|154:120,1,30.937501180172,2|0,1:2|1:0,0:0:0:0:
204,162,23886,2,0,L|195:206,1,30.937501180172,2|0,1:2|1:0,0:0:0:0:
82,241,24052,6,0,P|127:247|178:313,1,123.750004720688,2|0,3:2|0:0,0:0:0:0:
188,319,24719,1,2,1:2:0:0:
188,319,24802,1,0,1:0:0:0:
188,319,24886,2,0,L|179:370,1,30.937501180172,0|0,1:2|1:0,0:0:0:0:
258,384,25052,102,0,B|287:367|287:367|334:376,1,61.875002360344,2|0,3:2|0:0,0:0:0:0:
414,326,25386,1,2,0:0:0:0:
420,321,25719,2,0,L|412:270,1,30.937501180172,2|0,1:2|1:0,0:0:0:0:
365,232,25886,2,0,L|373:181,1,30.937501180172,2|0,1:2|1:0,0:0:0:0:
487,160,26052,6,0,P|426:146|384:89,2,123.750004720688,2|0|2,3:2|1:0|1:2,0:0:0:0:
468,77,26886,1,2,0:0:0:0:
308,0,27052,102,0,L|315:85,1,61.875002360344,6|0,3:2|0:0,0:0:0:0:
235,159,27386,1,2,0:0:0:0:
230,165,27719,2,0,L|183:159,1,30.937501180172,2|0,1:2|1:0,0:0:0:0:
143,109,27886,2,0,L|96:115,1,30.937501180172,2|0,1:2|1:0,0:0:0:0:
15,155,28052,6,0,P|53:166|76:196,1,61.875002360344,2|0,3:2|0:0,0:0:0:0:
136,217,28386,2,0,P|142:243|132:277,1,53.6249975452424,2|0,0:0|0:0,0:0:0:0:
160,341,28719,2,0,P|147:352|126:357,3,22.6875006923676,2|0|0|0,1:2|1:0|1:0|1:0,0:0:0:0:
65,384,29052,38,0,L|-9:370,1,61.875002360344,2|2,3:1|0:1,0:0:0:0:
115,283,29386,1,2,0:1:0:0:
115,283,29552,1,2,0:1:0:0:
120,291,30052,6,0,L|186:278,1,61.875002360344,2|2,3:1|0:1,0:0:0:0:
80,200,30386,1,2,0:1:0:0:
80,200,30552,1,2,0:1:0:0:
41,278,30719,1,2,0:1:0:0:
41,278,30886,1,2,0:1:0:0:
0,148,31052,38,0,B|53:140|53:140|70:149|70:149|135:141,1,123.750004720688,4|2,3:2|0:0,0:0:0:0:
125,137,31719,2,0,L|165:143,1,30.937501180172,2|0,1:2|1:0,0:0:0:0:
214,191,31886,2,0,L|254:185,1,30.937501180172,2|0,1:2|1:0,0:0:0:0:
353,144,32052,6,0,P|296:129|273:70,1,123.750004720688,2|0,3:2|0:0,0:0:0:0:
272,73,32719,1,2,1:2:0:0:
272,73,32802,1,0,1:0:0:0:
272,73,32886,2,0,L|278:36,1,30.937501180172,0|0,1:2|1:0,0:0:0:0:
344,0,33052,102,0,B|374:13|374:13|419:0,1,61.875002360344,2|0,3:2|0:0,0:0:0:0:
507,73,33386,1,2,0:0:0:0:
512,79,33719,2,0,L|505:128,1,30.937501180172,2|0,1:2|1:0,0:0:0:0:
453,164,33886,2,0,L|460:213,1,30.937501180172,2|0,1:2|1:0,0:0:0:0:
512,324,34052,6,0,P|478:283|397:280,1,123.750004720688,2|0,3:2|1:0,0:0:0:0:
406,280,34719,1,2,1:2:0:0:
92,356,35052,102,0,L|164:347,1,61.875002360344,6|0,3:2|0:0,0:0:0:0:
274,384,35386,1,2,0:0:0:0:
279,379,35719,2,0,L|272:337,1,30.937501180172,2|0,1:2|1:0,0:0:0:0:
218,297,35886,2,0,L|225:255,1,30.937501180172,2|0,1:2|1:0,0:0:0:0:
329,185,36052,6,0,P|299:201|253:198,1,61.875002360344,2|0,3:2|0:0,0:0:0:0:
234,82,36386,2,0,P|262:99|283:141,1,61.875002360344,2|0,0:0|0:0,0:0:0:0:
194,186,36719,2,0,P|199:169|212:149,3,30.937501180172,2|0|0|0,1:2|1:0|1:0|1:0,0:0:0:0:
98,99,37052,102,0,L|121:245,1,123.750004720688,2|0,3:2|0:0,0:0:0:0:
132,235,37719,1,0,1:0:0:0:
132,235,37802,1,0,1:0:0:0:
132,235,37886,2,0,L|125:279,1,30.937501180172,0|0,1:0|1:0,0:0:0:0:
58,305,38052,2,0,P|26:291|-15:296,1,61.875002360344,0|0,3:2|0:0,0:0:0:0:
130,365,38386,5,0,1:0:0:0:
127,375,38719,1,0,1:0:0:0:
125,384,39052,38,0,L|95:212,1,165,6|2,3:2|0:0,0:0:0:0:
0,102,39552,2,0,P|38:130|104:124,1,82.5,10|0,0:2|0:0,0:0:0:0:
66,51,39886,1,2,0:0:0:0:
147,34,40052,6,0,L|59:53,1,82.5,2|0,3:2|0:0,0:0:0:0:
306,116,40386,2,0,L|394:97,1,82.5,10|0,0:0|0:0,0:0:0:0:
269,0,40719,1,8,1:2:0:0:
241,29,40802,1,0,1:0:0:0:
237,69,40885,1,0,1:0:0:0:
259,103,40969,1,0,1:0:0:0:
298,106,41052,102,0,L|467:71,1,165,2|2,3:2|0:0,0:0:0:0:
291,188,41552,2,0,P|250:175|220:133,1,82.5,10|0,0:0|0:0,0:0:0:0:
298,106,41886,1,2,0:0:0:0:
284,24,42052,6,0,L|299:114,1,82.5,2|0,3:2|0:0,0:0:0:0:
393,222,42386,1,10,0:0:0:0:
227,144,42552,1,8,0:0:0:0:
432,70,42719,101,8,0:0:0:0:
413,146,42886,1,2,0:0:0:0:
512,227,43052,6,0,P|444:222|384:314,1,165,6|2,3:2|0:0,0:0:0:0:
248,169,43552,1,8,0:0:0:0:
342,134,43719,2,0,L|325:235,1,82.5,2|0,0:0|0:0,0:0:0:0:
181,384,44052,102,0,L|153:249,1,123.75,2|0,3:2|0:0,0:0:0:0:
155,262,44386,2,0,P|208:256|246:281,1,82.5,10|0,0:0|0:0,0:0:0:0:
78,376,44719,2,0,P|24:381|-13:356,1,82.5,10|0,0:0|0:0,0:0:0:0:
151,338,45052,5,2,3:2:0:0:
57,173,45219,2,0,L|50:304,1,123.75,0|0,3:0|0:0,0:0:0:0:
50,296,45552,1,10,0:0:0:0:
139,256,45719,1,2,0:0:0:0:
139,256,45886,1,2,0:0:0:0:
22,104,46052,102,0,B|63:86|63:86|119:114,1,82.5,2|0,3:2|0:0,0:0:0:0:
245,229,46385,1,8,0:0:0:0:
102,116,46552,1,8,0:0:0:0:
6,344,46719,5,8,0:0:0:0:
98,327,46886,1,2,0:0:0:0:
316,189,47052,102,0,B|249:180|249:180|222:195|222:195|145:186,1,165,6|2,3:2|0:0,0:0:0:0:
262,343,47552,2,0,P|279:294|268:251,1,82.5,10|0,0:0|0:0,0:0:0:0:
198,292,47886,1,2,0:0:0:0:
116,280,48052,6,0,L|199:292,1,82.5,2|0,3:2|0:0,0:0:0:0:
424,360,48386,2,0,L|341:372,1,82.5,10|0,0:0|0:0,0:0:0:0:
217,188,48719,1,8,1:2:0:0:
249,211,48802,1,0,1:0:0:0:
260,250,48885,1,0,1:0:0:0:
244,287,48969,1,0,1:0:0:0:
209,307,49052,102,0,L|29:281,1,165,2|2,3:2|0:0,0:0:0:0:
233,384,49552,2,0,P|277:356|289:305,1,82.5,10|0,0:0|0:0,0:0:0:0:
209,307,49886,1,2,0:0:0:0:
196,225,50052,6,0,L|211:325,1,82.5,2|0,3:2|0:0,0:0:0:0:
98,138,50386,1,10,0:0:0:0:
313,231,50552,1,8,0:0:0:0:
120,296,50719,101,8,0:0:0:0:
107,208,50886,1,2,0:0:0:0:
281,9,51052,6,0,B|239:30|239:30|213:168,1,165,6|2,3:2|0:0,0:0:0:0:
372,238,51552,1,8,0:0:0:0:
293,296,51719,2,0,L|277:186,1,82.5,2|0,0:0|0:0,0:0:0:0:
490,51,52052,102,0,P|463:104|378:107,1,123.75,2|0,3:2|0:0,0:0:0:0:
404,117,52386,1,10,0:0:0:0:
204,25,52552,1,8,0:0:0:0:
287,207,52719,2,0,L|303:97,1,82.5,10|0,0:0|0:0,0:0:0:0:
508,315,53052,5,2,3:2:0:0:
429,366,53219,1,0,3:0:0:0:
409,192,53386,101,2,0:0:0:0:
357,309,53553,1,8,0:0:0:0:
229,164,53719,5,2,0:0:0:0:
264,325,53886,1,0,0:0:0:0:
498,238,54052,37,10,0:0:0:0:
504,232,54386,2,0,P|464:225|426:286,1,115.5,2|0,0:1|0:0,0:0:0:0:
434,292,55052,85,4,3:2:0:0:
504,44,55219,1,2,0:0:0:0:
258,192,55386,2,0,B|319:180|319:180|344:159|344:159|416:145,1,154.6875,2|0,0:0|0:0,0:0:0:0:
402,147,55719,1,2,0:0:0:0:
311,70,55886,1,0,3:0:0:0:
248,282,56052,5,10,0:0:0:0:
422,147,56219,1,2,0:0:0:0:
159,34,56386,2,0,B|137:111|137:111|193:186,1,154.6875,2|0,3:2|0:0,0:0:0:0:
181,170,56719,1,0,3:0:0:0:
310,17,56886,1,0,3:0:0:0:
310,17,56969,1,0,3:0:0:0:
310,17,57052,101,2,3:2:0:0:
172,194,57219,1,2,3:2:0:0:
386,122,57386,2,0,L|227:100,1,154.6875,2|0,0:0|0:0,0:0:0:0:
232,100,57719,1,2,0:0:0:0:
102,240,57886,1,0,3:0:0:0:
117,22,58052,6,0,L|146:152,1,103.125,10|0,0:0|0:0,0:0:0:0:
23,299,58386,1,2,3:2:0:0:
90,201,58552,1,0,3:0:0:0:
229,351,58719,1,8,0:0:0:0:
0,221,58886,1,8,0:0:0:0:
0,221,58969,1,8,0:0:0:0:
0,221,59052,101,6,3:2:0:0:
218,343,59219,1,2,3:2:0:0:
111,78,59386,2,0,B|122:145|122:145|113:168|113:168|134:264,1,154.6875,2|0,0:0|0:0,0:0:0:0:
126,228,59719,1,2,0:0:0:0:
252,143,59886,6,0,L|184:134,1,51.5625,2|0,3:2|0:0,0:0:0:0:
1,161,60052,101,10,0:0:0:0:
109,309,60218,1,0,0:0:0:0:
154,65,60386,5,10,0:2:0:0:
194,269,60552,1,0,0:0:0:0:
341,68,60719,101,10,0:2:0:0:
287,288,60886,1,0,0:0:0:0:
510,103,61052,6,0,L|448:114,1,51.5625,6|0,3:2|0:0,0:0:0:0:
281,150,61219,2,0,B|409:180|409:180|392:166|385:148,1,173.24999471283,0|0,3:0|0:0,0:0:0:0:
384,146,61552,2,0,L|396:262,1,103.125,0|0,3:0|0:0,0:0:0:0:
459,112,61886,1,0,3:0:0:0:
235,290,62052,102,0,B|287:273|287:273|359:315,1,103.125,10|0,0:0|0:0,0:0:0:0:
512,384,62386,1,2,3:2:0:0:
421,225,62552,1,0,3:0:0:0:
249,370,62719,1,10,3:2:0:0:
198,363,62802,1,8,0:0:0:0:
161,328,62885,1,8,0:0:0:0:
151,279,62969,1,8,0:0:0:0:
173,233,63052,6,0,L|280:245,1,103.125,6|0,3:2|3:0,0:0:0:0:
430,384,63386,1,2,0:0:0:0:
510,328,63552,2,0,P|466:294|359:315,1,154.6875,2|0,3:2|0:0,0:0:0:0:
372,304,63886,1,0,3:0:0:0:
478,116,64052,102,0,P|502:169|472:231,1,103.125,10|0,0:0|0:0,0:0:0:0:
305,68,64386,2,0,B|351:60|351:60|366:68|366:68|427:58,1,103.125,2|0,3:2|0:0,0:0:0:0:
290,276,64719,2,0,L|171:259,1,103.125,0|0,3:0|0:0,0:0:0:0:
300,361,64969,5,2,0:0:0:0:
300,361,65052,2,0,P|355:334|364:234,1,154.6875,2|0,3:2|0:0,0:0:0:0:
371,248,65386,1,2,0:0:0:0:
286,83,65552,2,0,L|304:195,1,103.125,2|0,3:2|0:0,0:0:0:0:
290,276,65886,1,0,3:0:0:0:
122,212,66052,102,0,B|172:200|172:200|223:224,1,103.125,10|0,0:0|0:0,0:0:0:0:
85,300,66386,1,2,3:2:0:0:
39,167,66552,1,0,3:0:0:0:
232,314,66719,5,8,0:0:0:0:
16,375,66885,1,8,0:0:0:0:
16,375,66969,1,8,0:0:0:0:
16,375,67052,101,6,3:2:0:0:
173,248,67219,1,2,3:2:0:0:
21,159,67386,2,0,L|41:271,1,103.125,2|0,0:0|3:0,0:0:0:0:
139,345,67719,1,0,0:0:0:0:
27,272,67886,1,0,3:0:0:0:
224,201,68052,6,0,B|180:218|180:218|170:230|170:230|118:251,1,103.125,10|0,0:0|0:0,0:0:0:0:
0,82,68386,2,0,P|55:85|97:136,1,103.125,2|0,3:2|0:0,0:0:0:0:
221,384,68719,2,0,L|237:268,1,103.125,2|0,3:2|0:0,0:0:0:0:
34,194,69052,102,0,B|114:208|114:208|199:136,1,154.6875,2|0,3:2|0:0,0:0:0:0:
170,160,69386,1,10,0:0:0:0:
85,96,69552,1,0,3:0:0:0:
413,30,69719,6,0,B|386:18|366:2|366:2|394:173,1,198,6|0,3:2|0:0,0:0:0:0:
500,215,70052,1,8,3:2:0:0:
500,215,70136,1,8,0:0:0:0:
500,215,70219,2,0,P|465:201|447:201,1,51.5625,8|8,0:0|0:0,0:0:0:0:
379,149,70386,1,8,3:2:0:0:
379,149,70469,1,8,0:0:0:0:
379,149,70552,102,0,P|349:172|340:187,1,51.5625,8|8,0:0|0:0,0:0:0:0:
277,322,70719,1,10,3:2:0:0:
269,271,70802,1,8,0:0:0:0:
261,220,70885,1,8,0:0:0:0:
253,169,70968,1,8,0:0:0:0:
246,118,71052,5,6,3:2:0:0:
178,360,71219,1,2,0:0:0:0:
419,270,71386,2,0,B|356:278|356:278|330:298|330:298|228:311,1,154.6875,2|0,0:0|0:0,0:0:0:0:
272,305,71719,1,2,0:0:0:0:
368,167,71886,1,0,3:0:0:0:
133,68,72052,102,0,P|111:112|128:171,1,103.125,10|0,0:0|0:0,0:0:0:0:
282,342,72386,2,0,P|209:293|127:325,1,154.6875,2|0,3:2|0:0,0:0:0:0:
148,306,72719,1,0,3:0:0:0:
326,229,72886,1,2,0:0:0:0:
121,66,73052,6,0,P|99:110|116:169,1,103.125,6|0,3:2|3:0,0:0:0:0:
270,340,73386,2,0,P|197:291|115:323,1,154.6875,2|0,0:0|0:0,0:0:0:0:
136,304,73719,1,2,0:0:0:0:
314,227,73886,1,0,3:0:0:0:
228,59,74052,102,0,L|244:198,1,103.125,10|0,0:0|0:0,0:0:0:0:
68,362,74386,2,0,B|43:315|43:315|67:236,1,103.125,2|0,3:2|0:0,0:0:0:0:
299,220,74719,2,0,P|243:242|189:229,1,103.125,0|0,3:0|0:0,0:0:0:0:
111,7,75052,5,6,3:2:0:0:
0,213,75219,1,2,3:2:0:0:
233,156,75386,2,0,B|47:121,1,154.6875,2|0,0:0|0:0,0:0:0:0:
80,127,75719,1,2,0:0:0:0:
226,11,75886,102,0,L|236:79,1,51.5625,2|0,3:2|0:0,0:0:0:0:
184,240,76052,5,10,0:0:0:0:
313,94,76219,1,0,0:0:0:0:
326,341,76386,101,10,0:2:0:0:
386,138,76553,1,0,0:0:0:0:
512,358,76719,5,10,0:2:0:0:
474,126,76886,1,0,0:0:0:0:
259,251,77052,102,0,P|294:256|337:287,1,51.5625,6|0,3:2|0:0,0:0:0:0:
450,279,77219,2,0,P|389:271|309:365,1,173.24999471283,0|0,3:0|0:0,0:0:0:0:
312,342,77552,5,2,3:1:0:0:
249,245,77719,1,2,0:1:0:0:
187,384,77886,1,2,3:1:0:0:
341,258,78052,1,10,0:0:0:0:
178,125,78219,1,2,0:1:0:0:
276,384,78386,102,0,L|255:277,1,103.125,2|0,3:2|3:0,0:0:0:0:
88,147,78719,1,8,3:2:0:0:
112,191,78802,1,8,0:0:0:0:
157,216,78885,1,8,0:0:0:0:
208,214,78968,1,8,0:0:0:0:
250,186,79052,6,0,L|261:70,1,103.125,6|0,3:2|3:0,0:0:0:0:
382,315,79386,1,2,0:0:0:0:
419,226,79552,2,0,P|344:223|289:280,1,154.6875,2|0,3:2|0:0,0:0:0:0:
290,276,79886,1,0,3:0:0:0:
487,169,80052,102,0,P|502:117|479:62,1,103.125,10|0,0:0|0:0,0:0:0:0:
320,200,80386,2,0,B|371:209|371:209|381:218|381:218|456:234,1,103.125,2|0,3:2|0:0,0:0:0:0:
282,2,80719,2,0,B|231:11|231:11|221:20|221:20|146:36,1,103.125,0|0,3:0|0:0,0:0:0:0:
86,76,80969,5,2,0:0:0:0:
86,76,81052,2,0,P|142:56|199:129,1,154.6875,2|0,3:2|0:0,0:0:0:0:
199,119,81386,1,2,0:0:0:0:
96,312,81552,2,0,B|49:290|49:290|-16:309,1,103.125,2|0,3:2|0:0,0:0:0:0:
40,384,81886,1,0,3:0:0:0:
175,216,82052,102,0,L|191:325,1,103.125,10|0,0:0|0:0,0:0:0:0:
239,150,82386,1,2,3:2:0:0:
91,249,82552,1,0,3:0:0:0:
292,344,82719,5,8,0:0:0:0:
129,154,82886,1,8,0:0:0:0:
129,154,82969,1,8,0:0:0:0:
129,154,83052,101,6,3:2:0:0:
314,231,83219,1,2,3:2:0:0:
160,321,83386,2,0,L|174:218,1,103.125,2|0,0:0|3:0,0:0:0:0:
298,129,83719,1,0,0:0:0:0:
171,205,83886,1,0,3:0:0:0:
373,274,84052,6,0,B|329:257|329:257|319:245|319:245|267:224,1,103.125,10|0,0:0|0:0,0:0:0:0:
453,118,84386,1,2,3:2:0:0:
480,224,84552,1,0,3:0:0:0:
267,78,84719,2,0,P|310:49|382:66,1,103.125,8|0,0:0|0:0,0:0:0:0:
334,139,84969,101,2,0:0:0:0:
334,139,85052,2,0,B|229:108|229:108|163:155,1,154.6875,2|0,3:2|0:0,0:0:0:0:
93,75,85386,2,0,P|149:84|180:121,1,103.125,2|0,0:0|3:0,0:0:0:0:
247,199,85719,1,2,0:0:0:0:
348,59,85886,1,0,3:0:0:0:
105,153,86052,6,0,L|126:272,1,103.125,10|0,0:2|0:0,0:0:0:0:
56,370,86386,1,0,3:0:0:0:
226,261,86552,1,2,3:2:0:0:
20,168,86719,1,8,0:0:0:0:
29,218,86802,1,8,0:0:0:0:
38,269,86885,1,8,0:0:0:0:
47,320,86968,1,8,0:0:0:0:
56,370,87052,101,6,3:2:0:0:
168,279,87219,1,2,3:2:0:0:
133,135,87386,1,10,0:2:0:0:
3,76,87552,1,2,3:2:0:0:
3,76,88052,5,2,3:2:0:0:
133,135,88218,1,2,3:2:0:0:
168,279,88385,1,10,0:2:0:0:
56,370,88552,1,2,3:2:0:0:
64,377,89052,6,0,P|118:362|124:290,1,123.750004720688,6|2,3:2|0:0,0:0:0:0:
134,296,89719,2,0,L|124:250,1,30.937501180172,2|0,1:2|1:0,0:0:0:0:
70,215,89886,2,0,L|80:169,1,30.937501180172,2|0,1:2|1:0,0:0:0:0:
205,142,90052,6,0,P|147:136|109:76,1,123.750004720688,2|0,3:2|0:0,0:0:0:0:
110,86,90719,1,2,1:2:0:0:
110,86,90802,1,0,1:0:0:0:
110,86,90886,2,0,L|115:37,1,30.937501180172,0|0,1:2|1:0,0:0:0:0:
13,0,91052,102,0,L|24:71,1,61.875002360344,2|0,3:2|0:0,0:0:0:0:
0,173,91386,1,2,0:0:0:0:
7,179,91719,2,0,L|57:169,1,30.937501180172,2|0,1:2|1:0,0:0:0:0:
95,123,91886,2,0,L|145:133,1,30.937501180172,2|0,1:2|1:0,0:0:0:0:
238,169,92052,6,0,P|187:181|148:249,2,123.750004720688,2|0|2,3:2|1:0|1:2,0:0:0:0:
231,254,92886,1,2,0:0:0:0:
313,136,93052,102,0,B|323:165|323:165|316:195,1,61.875002360344,6|0,3:2|0:0,0:0:0:0:
386,283,93386,1,2,0:0:0:0:
382,289,93719,2,0,L|328:296,1,30.937501180172,2|0,1:2|1:0,0:0:0:0:
294,344,93886,2,0,L|240:337,1,30.937501180172,2|0,1:2|1:0,0:0:0:0:
179,279,94052,6,0,P|221:274|251:239,1,61.875002360344,2|0,3:2|0:0,0:0:0:0:
306,227,94386,2,0,P|319:196|313:159,1,53.6249975452424,2|0,0:0|0:0,0:0:0:0:
354,109,94719,2,0,P|343:95|326:88,3,22.6875006923676,2|0|0|0,1:2|1:0|1:0|1:0,0:0:0:0:
288,33,95052,1,2,3:2:0:0:
284,40,95386,37,2,0:1:0:0:
298,118,95552,1,2,0:1:0:0:
330,72,95719,1,2,0:1:0:0:
252,86,95886,1,2,0:1:0:0:
186,177,96052,5,2,3:1:0:0:
217,155,96219,1,2,0:1:0:0:
191,150,96386,1,2,0:1:0:0:
213,181,96552,1,2,0:1:0:0:
294,202,96719,101,2,0:1:0:0:
304,198,96886,1,2,0:1:0:0:
459,98,97052,54,0,B|409:104|409:104|393:123|393:123|342:131,1,123.750004720688,4|2,3:2|0:0,0:0:0:0:
339,136,97719,2,0,L|306:130,1,30.937501180172,2|0,1:2|1:0,0:0:0:0:
248,84,97886,2,0,L|215:90,1,30.937501180172,2|0,1:2|1:0,0:0:0:0:
120,133,98052,6,0,P|179:159|192:227,1,123.750004720688,2|0,3:2|0:0,0:0:0:0:
210,226,98719,1,2,1:2:0:0:
210,226,98802,1,0,1:0:0:0:
210,226,98886,2,0,L|205:264,1,30.937501180172,0|0,1:2|1:0,0:0:0:0:
156,320,99052,102,0,B|123:315|123:315|82:340,1,61.875002360344,2|0,3:2|0:0,0:0:0:0:
4,384,99386,1,2,0:0:0:0:
0,378,99719,2,0,L|5:340,1,30.937501180172,2|0,1:2|1:0,0:0:0:0:
42,280,99886,2,0,L|37:242,1,30.937501180172,2|0,1:2|1:0,0:0:0:0:
0,135,100052,6,0,P|38:173|115:166,2,123.750004720688,2|0|2,3:2|1:0|1:2,0:0:0:0:
71,97,100886,1,2,0:0:0:0:
0,0,101052,102,0,B|28:5|28:5|39:13|39:13|86:22,1,61.875002360344,6|0,3:2|0:0,0:0:0:0:
151,102,101386,1,2,0:0:0:0:
157,107,101719,2,0,L|206:96,1,30.937501180172,2|0,1:2|1:0,0:0:0:0:
243,49,101886,2,0,L|292:60,1,30.937501180172,2|0,1:2|1:0,0:0:0:0:
357,109,102052,6,0,P|317:120|293:155,1,61.875002360344,2|0,3:2|0:0,0:0:0:0:
418,211,102386,2,0,P|428:170|410:132,1,61.875002360344,2|0,0:0|0:0,0:0:0:0:
319,209,102719,2,0,P|329:222|361:231,3,30.937501180172,2|0|0|0,1:2|1:0|1:0|1:0,0:0:0:0:
461,286,103052,102,0,L|327:319,1,123.750004720688,2|2,3:2|0:0,0:0:0:0:
336,322,103719,1,2,1:2:0:0:
336,322,103802,1,0,1:0:0:0:
336,322,103886,2,0,L|294:335,1,30.937501180172,0|0,1:2|1:0,0:0:0:0:
230,296,104052,1,2,3:2:0:0:
299,245,104219,1,2,0:0:0:0:
394,384,104386,5,2,1:2:0:0:
396,375,104719,1,0,1:0:0:0:
397,366,105052,38,0,L|419:176,1,165,6|2,3:2|0:0,0:0:0:0:
504,86,105552,2,0,P|457:99|425:131,1,82.5,10|0,0:2|0:0,0:0:0:0:
501,169,105886,1,2,0:0:0:0:
512,250,106052,6,0,L|498:153,1,82.5,2|0,3:2|0:0,0:0:0:0:
341,50,106386,2,0,L|327:147,1,82.5,10|0,0:0|0:0,0:0:0:0:
268,320,106719,1,8,1:2:0:0:
285,350,106802,1,0,1:0:0:0:
315,371,106885,1,0,1:0:0:0:
351,376,106968,1,0,1:0:0:0:
388,367,107052,102,0,L|410:177,1,165,2|2,3:2|0:0,0:0:0:0:
495,87,107552,2,0,P|448:100|416:132,1,82.5,10|0,0:0|0:0,0:0:0:0:
492,170,107886,1,2,0:0:0:0:
503,251,108052,6,0,L|489:154,1,82.5,2|0,3:2|0:0,0:0:0:0:
313,40,108386,1,10,0:0:0:0:
498,155,108552,1,8,0:0:0:0:
290,209,108719,101,8,0:0:0:0:
302,125,108886,1,2,0:0:0:0:
128,7,109052,6,0,B|172:27|172:27|190:163,1,165,6|2,3:2|0:0,0:0:0:0:
0,190,109552,1,8,0:0:0:0:
20,105,109719,2,0,P|66:83|119:97,1,82.5,2|0,0:0|0:0,0:0:0:0:
109,303,110052,102,0,L|81:170,1,123.75,2|0,3:2|0:0,0:0:0:0:
89,171,110386,2,0,B|128:157|128:157|184:179,1,82.5,10|0,0:0|0:0,0:0:0:0:
102,314,110719,2,0,B|62:327|62:327|6:305,1,82.5,10|0,0:0|0:0,0:0:0:0:
177,358,111052,5,2,3:2:0:0:
68,245,111219,2,0,L|63:401,1,136.125004154205,0|0,3:0|0:0,0:0:0:0:
63,381,111552,1,10,0:0:0:0:
188,345,111719,2,0,P|199:301|176:254,1,82.5,2|0,0:0|0:0,0:0:0:0:
135,194,112052,1,2,3:2:0:0:
131,202,112386,101,8,0:0:0:0:
309,103,112552,1,8,0:0:0:0:
107,37,112719,5,8,0:0:0:0:
117,118,112886,1,2,0:0:0:0:
367,218,113052,102,0,B|322:185|322:185|191:204,1,165,6|2,3:2|0:0,0:0:0:0:
439,258,113552,2,0,P|448:204|432:168,1,82.5,10|0,0:0|0:0,0:0:0:0:
367,218,113886,1,2,0:0:0:0:
285,229,114052,6,0,L|377:216,1,82.5,2|0,3:2|0:0,0:0:0:0:
156,137,114386,2,0,L|74:148,1,82.5,10|0,0:0|0:0,0:0:0:0:
187,270,114719,1,8,1:2:0:0:
215,241,114802,1,0,1:2:0:0:
221,201,114885,1,0,1:2:0:0:
200,166,114968,1,0,1:2:0:0:
163,150,115052,102,0,L|-21:178,1,165,2|2,3:2|0:0,0:0:0:0:
187,72,115552,2,0,P|231:104|243:133,1,82.5,10|0,0:0|0:0,0:0:0:0:
163,150,115886,1,2,0:0:0:0:
175,231,116052,6,0,L|161:140,1,82.5,2|0,3:2|0:0,0:0:0:0:
273,290,116386,1,10,0:0:0:0:
69,231,116552,1,8,0:0:0:0:
296,122,116719,101,8,0:0:0:0:
285,207,116886,1,2,0:0:0:0:
462,370,117052,6,0,B|491:349|491:349|344:313,1,165,6|2,3:2|0:0,0:0:0:0:
442,124,117552,1,8,0:0:0:0:
512,188,117719,2,0,L|492:289,1,82.5,2|0,0:0|0:0,0:0:0:0:
291,287,118052,102,0,P|319:247|403:246,1,123.75,2|0,3:2|0:0,0:0:0:0:
389,238,118386,1,10,0:0:0:0:
211,315,118552,1,8,0:0:0:0:
413,153,118719,5,10,0:0:0:0:
365,318,118886,1,0,0:0:0:0:
117,207,119052,102,0,L|224:223,1,82.5,2|0,3:2|3:0,0:0:0:0:
369,330,119386,2,0,L|262:346,1,82.5,2|8,0:0|0:0,0:0:0:0:
109,190,119719,2,0,L|216:206,1,82.5,2|0,0:0|0:0,0:0:0:0:
378,339,120052,5,10,0:0:0:0:
247,121,120219,1,8,0:0:0:0:
200,365,120386,1,10,0:0:0:0:
423,255,120552,1,8,0:0:0:0:
169,177,120719,1,0,3:0:0:0:
175,183,121052,5,4,3:2:0:0:
33,384,121219,1,2,0:0:0:0:
291,299,121386,2,0,L|122:275,1,154.6875,2|0,0:0|0:0,0:0:0:0:
137,277,121719,1,2,0:0:0:0:
252,382,121886,1,0,3:0:0:0:
205,158,122052,5,10,0:0:0:0:
62,334,122219,1,2,0:0:0:0:
342,376,122386,2,0,B|377:310|377:310|338:193,1,154.6875,2|0,3:2|0:0,0:0:0:0:
351,234,122719,2,0,L|236:255,1,103.125,0|0,3:0|0:0,0:0:0:0:
130,368,123052,101,2,3:2:0:0:
217,148,123219,1,2,3:2:0:0:
0,267,123386,2,0,L|164:296,1,154.6875,2|0,0:0|0:0,0:0:0:0:
152,293,123719,1,2,0:0:0:0:
59,192,123886,1,0,3:0:0:0:
251,94,124052,6,0,L|238:199,1,103.125,10|0,0:0|0:0,0:0:0:0:
294,321,124386,1,2,3:2:0:0:
356,222,124552,1,0,3:0:0:0:
159,321,124719,1,8,0:0:0:0:
382,384,124886,1,8,0:0:0:0:
382,384,124969,1,8,0:0:0:0:
382,384,125052,101,6,3:2:0:0:
267,153,125219,1,2,3:2:0:0:
512,276,125386,2,0,B|432:258|432:258|348:304,1,154.6875,2|0,0:0|0:0,0:0:0:0:
368,292,125719,1,2,0:0:0:0:
380,125,125886,6,0,L|389:193,1,51.5625,2|0,3:2|0:0,0:0:0:0:
445,369,126052,101,10,0:0:0:0:
273,270,126219,1,0,0:0:0:0:
511,220,126386,5,10,0:2:0:0:
294,187,126553,1,0,0:0:0:0:
510,47,126719,101,10,0:2:0:0:
276,98,126886,1,0,0:0:0:0:
487,228,127052,6,0,L|476:166,1,51.5625,6|0,3:2|0:0,0:0:0:0:
396,0,127219,2,0,B|387:72|387:72|374:96|374:96|365:218,1,173.24999471283,0|0,3:0|0:0,0:0:0:0:
368,169,127552,1,0,3:0:0:0:
303,28,127719,1,2,0:0:0:0:
462,144,127886,1,0,3:0:0:0:
218,267,128052,102,0,B|194:220|194:220|218:148,1,103.125,10|0,0:0|0:0,0:0:0:0:
420,76,128386,1,2,3:2:0:0:
285,214,128552,1,0,3:0:0:0:
168,63,128720,1,10,3:2:0:0:
202,25,128803,1,8,0:0:0:0:
251,8,128886,1,8,0:0:0:0:
301,14,128969,1,8,0:0:0:0:
344,43,129052,6,0,L|334:158,1,103.125,6|0,3:2|3:0,0:0:0:0:
122,236,129386,1,2,0:0:0:0:
113,141,129552,2,0,B|197:141|178:204|260:199,1,154.6875,2|0,3:2|0:0,0:0:0:0:
251,199,129886,1,0,3:0:0:0:
245,14,130052,102,0,B|254:67|254:67|252:74|252:74|261:127,1,103.125,10|0,0:0|0:0,0:0:0:0:
107,337,130386,2,0,B|116:284|116:284|114:277|114:277|123:224,1,103.125,2|0,3:2|0:0,0:0:0:0:
319,178,130719,2,0,P|269:203|201:181,1,103.125,0|0,3:0|0:0,0:0:0:0:
106,151,130969,5,2,0:0:0:0:
106,151,131052,2,0,P|166:162|200:257,1,154.6875,2|0,3:2|0:0,0:0:0:0:
203,240,131386,1,2,0:0:0:0:
358,106,131552,2,0,B|304:97|304:97|222:143,1,103.125,2|0,3:2|0:0,0:0:0:0:
179,59,131886,1,0,3:0:0:0:
123,231,132052,102,0,B|105:109,1,103.125,10|0,0:0|0:0,0:0:0:0:
0,6,132386,1,2,3:2:0:0:
170,72,132552,1,0,3:0:0:0:
0,225,132719,5,8,0:0:0:0:
102,4,132885,1,8,0:0:0:0:
102,4,132969,1,8,0:0:0:0:
102,4,133052,101,6,3:2:0:0:
161,210,133219,1,2,3:2:0:0:
8,83,133386,2,0,L|181:113,1,154.6875,2|0,0:0|0:0,0:0:0:0:
160,109,133719,1,2,0:0:0:0:
89,237,133886,1,0,3:0:0:0:
323,286,134052,6,0,B|340:235|340:235|320:176,1,103.125,10|0,0:0|0:0,0:0:0:0:
138,309,134386,2,0,L|252:326,1,103.125,2|0,3:2|0:0,0:0:0:0:
426,173,134719,2,0,L|312:190,1,103.125,2|0,3:2|0:0,0:0:0:0:
88,58,135052,102,0,B|137:24|180:57|180:57|199:102|254:113,1,173.24999471283,2|0,3:2|0:0,0:0:0:0:
231,106,135386,1,10,0:0:0:0:
270,23,135552,1,0,3:0:0:0:
510,189,135719,6,0,B|494:172|484:153|484:153|389:148|434:215|330:217,1,210.375004012585,6|0,3:2|0:0,0:0:0:0:
232,300,136052,1,8,3:2:0:0:
232,300,136136,1,8,0:0:0:0:
232,300,136219,2,0,P|244:279|250:252,1,51.5625,8|8,0:0|0:0,0:0:0:0:
329,209,136386,1,10,3:2:0:0:
329,209,136469,1,8,0:0:0:0:
329,209,136552,102,0,P|316:188|310:161,1,51.5625,8|8,0:2|0:0,0:0:0:0:
359,32,136719,1,10,3:2:0:0:
409,23,136802,1,8,0:0:0:0:
455,44,136885,1,8,0:0:0:0:
482,87,136969,1,8,0:0:0:0:
480,138,137052,5,6,3:2:0:0:
271,23,137219,1,2,0:0:0:0:
360,245,137386,2,0,B|396:174|396:174|364:93,1,154.6875,2|0,0:0|0:0,0:0:0:0:
368,104,137719,1,2,0:0:0:0:
446,294,137886,1,0,3:0:0:0:
208,377,138052,102,0,B|179:334|179:334|194:268,1,103.125,10|0,0:0|0:0,0:0:0:0:
247,96,138386,2,0,L|284:274,1,154.6875,2|0,3:2|0:0,0:0:0:0:
278,247,138719,1,0,3:0:0:0:
117,194,138886,1,2,0:0:0:0:
200,381,139052,6,0,B|171:338|171:338|186:272,1,103.125,6|0,3:2|3:0,0:0:0:0:
239,100,139386,2,0,L|276:278,1,154.6875,2|0,0:0|0:0,0:0:0:0:
270,251,139719,1,0,0:0:0:0:
109,198,139886,1,0,3:0:0:0:
0,384,140052,102,0,L|139:368,1,103.125,10|0,0:0|0:0,0:0:0:0:
305,167,140386,2,0,P|233:171|195:226,1,103.125,2|0,3:2|0:0,0:0:0:0:
185,354,140719,2,0,B|175:311|175:311|165:302|165:302|155:256,1,103.125,0|0,3:0|0:0,0:0:0:0:
11,47,141052,5,6,3:2:0:0:
226,156,141219,1,2,3:2:0:0:
62,261,141386,2,0,B|74:193|74:193|94:173|94:173|105:95,1,154.6875,2|0,0:0|0:0,0:0:0:0:
102,116,141719,1,2,0:0:0:0:
244,187,141886,102,0,L|165:173,1,51.5625,2|0,3:2|0:0,0:0:0:0:
23,88,142052,5,10,0:0:0:0:
144,241,142219,1,0,0:0:0:0:
169,10,142386,101,10,0:2:0:0:
225,214,142553,1,0,0:0:0:0:
338,0,142719,5,10,0:2:0:0:
310,222,142886,1,0,0:0:0:0:
512,75,143052,102,0,L|428:91,1,51.5625,6|0,3:2|0:0,0:0:0:0:
275,121,143219,2,0,B|304:114|304:114|346:126|346:126|363:179|419:191,1,173.24999471283,0|0,3:0|0:0,0:0:0:0:
415,190,143552,1,0,3:0:0:0:
422,0,143719,2,0,L|433:105,1,103.125,2|0,0:0|3:1,0:0:0:0:
512,340,144052,6,0,P|467:293|418:294,1,103.125,8|0,0:0|0:0,0:0:0:0:
258,384,144386,2,0,P|321:368|344:325,1,103.125,2|0,3:2|3:0,0:0:0:0:
215,170,144719,1,8,3:2:0:0:
166,185,144802,1,8,0:0:0:0:
135,225,144885,1,8,0:0:0:0:
133,276,144969,1,8,0:0:0:0:
161,318,145052,102,0,L|279:304,1,103.125,6|0,3:2|3:0,0:0:0:0:
70,331,145386,1,2,0:0:0:0:
330,368,145552,2,0,P|354:313|312:229,1,154.6875,2|0,3:2|0:0,0:0:0:0:
316,231,145886,1,0,3:0:0:0:
219,120,146052,6,0,L|234:247,1,103.125,10|0,0:0|0:0,0:0:0:0:
57,265,146386,2,0,B|112:249|112:249|194:294,1,103.125,2|0,3:2|0:0,0:0:0:0:
396,79,146719,2,0,B|341:63|341:63|259:108,1,103.125,0|0,3:0|0:0,0:0:0:0:
241,141,146969,101,2,0:0:0:0:
241,141,147052,2,0,P|178:130|196:39,1,154.6875,2|0,3:2|0:0,0:0:0:0:
177,51,147386,1,2,0:0:0:0:
19,0,147552,2,0,L|38:105,1,103.125,2|0,3:2|0:0,0:0:0:0:
0,197,147886,1,0,3:0:0:0:
187,188,148052,6,0,B|140:162|140:162|80:178,1,103.125,10|0,0:0|0:0,0:0:0:0:
158,77,148386,1,2,3:2:0:0:
126,254,148552,1,0,3:0:0:0:
18,64,148719,101,8,0:0:0:0:
223,195,148886,1,8,0:0:0:0:
223,195,148969,1,8,0:0:0:0:
223,195,149052,5,6,3:2:0:0:
54,296,149219,1,2,3:2:0:0:
113,93,149386,2,0,L|127:196,1,103.125,2|0,0:0|3:0,0:0:0:0:
197,311,149719,1,0,0:0:0:0:
46,215,149886,1,0,3:0:0:0:
263,138,150052,102,0,P|271:203|244:248,1,103.125,10|0,0:0|0:0,0:0:0:0:
93,299,150386,1,2,3:2:0:0:
191,183,150552,1,0,3:0:0:0:
301,372,150719,1,8,0:0:0:0:
180,277,150886,1,0,0:0:0:0:
414,153,151052,6,0,B|448:198|448:198|422:332,1,154.6875,6|0,3:2|0:0,0:0:0:0:
481,371,151386,2,0,P|443:332|386:335,1,103.125,2|0,0:0|3:0,0:0:0:0:
260,210,151719,2,0,B|307:236|307:236|372:222,1,103.125,2|0,0:0|3:0,0:0:0:0:
195,381,152052,102,0,L|174:262,1,103.125,10|0,0:2|0:0,0:0:0:0:
225,135,152386,1,0,3:0:0:0:
92,246,152552,1,2,3:2:0:0:
296,380,152719,1,8,0:0:0:0:
351,375,152802,1,8,0:0:0:0:
393,337,152885,1,8,0:0:0:0:
402,282,152969,1,8,0:0:0:0:
374,233,153052,1,4,3:2:0:0:
501,105,160052,22,0,L|494:151,1,45.375,8|0,0:0|0:0,0:0:0:0:
494,149,161052,85,6,3:2:0:0:
339,270,161219,2,0,P|408:247|410:178,1,123.75,0|0,3:0|0:0,0:0:0:0:
418,203,161552,2,0,L|401:107,1,82.5,8|0,0:0|0:0,0:0:0:0:
472,69,161886,1,0,3:0:0:0:
227,21,162052,6,0,B|272:28|272:28|317:3,1,82.5,8|0,0:0|0:0,0:0:0:0:
390,40,162386,1,0,3:0:0:0:
390,40,162552,1,0,3:0:0:0:
252,202,162719,1,8,0:0:0:0:
211,194,162802,1,8,0:0:0:0:
180,168,162885,1,8,0:0:0:0:
166,129,162969,1,8,0:0:0:0:
173,89,163052,101,6,3:2:0:0:
0,232,163219,2,0,B|51:225|51:225|80:235|80:235|153:226,1,123.75,0|0,3:0|0:0,0:0:0:0:
121,229,163552,2,0,P|134:268|123:313,1,82.5,8|0,0:0|0:0,0:0:0:0:
39,315,163886,1,0,3:0:0:0:
176,384,164052,6,0,L|269:367,1,82.5,8|0,0:0|0:0,0:0:0:0:
350,384,164386,1,0,3:0:0:0:
350,384,164552,1,0,3:0:0:0:
396,220,164719,1,8,0:0:0:0:
361,198,164802,1,8,0:0:0:0:
320,194,164885,1,8,0:0:0:0:
282,210,164969,1,8,0:0:0:0:
255,240,165052,101,6,3:2:0:0:
338,290,165219,2,0,L|315:142,1,123.75,0|0,3:0|0:0,0:0:0:0:
318,167,165552,2,0,B|277:159|277:159|240:182,1,82.5,8|0,0:0|0:0,0:0:0:0:
414,331,165886,1,0,3:0:0:0:
270,354,166052,6,0,B|351:380|351:380|428:319,1,165,8|0,0:0|3:0,0:0:0:0:
477,246,166552,1,0,3:0:0:0:
321,205,166719,2,0,L|337:310,1,82.5,8|0,0:0|0:0,0:0:0:0:
411,60,167052,102,0,L|405:108,1,41.25,6|0,3:2|0:0,0:0:0:0:
288,135,167219,2,0,P|348:133|402:189,1,123.75,0|0,3:0|0:0,0:0:0:0:
394,172,167552,2,0,P|433:173|469:136,1,82.5,8|0,0:0|0:0,0:0:0:0:
500,70,167886,1,0,3:0:0:0:
314,210,168052,5,8,0:2:0:0:
434,11,168219,1,8,0:0:0:0:
512,221,168386,1,8,3:2:0:0:
512,221,168469,1,8,0:0:0:0:
512,221,168552,2,0,L|447:209,1,41.25,8|8,0:0|0:0,0:0:0:0:
423,140,168719,1,8,3:2:0:0:
423,140,168802,1,8,0:0:0:0:
423,140,168885,2,0,L|358:152,1,41.25,8|8,0:0|0:0,0:0:0:0:
230,235,169052,101,6,3:2:0:0:
287,68,169219,2,0,L|304:192,1,123.75,0|0,3:0|0:0,0:0:0:0:
303,190,169552,2,0,B|262:201|262:201|218:174,1,82.5,8|0,0:0|0:0,0:0:0:0:
158,122,169886,1,0,3:0:0:0:
0,270,170052,6,0,L|84:278,1,82.5,8|0,0:0|0:0,0:0:0:0:
151,222,170386,1,0,3:0:0:0:
151,222,170552,1,0,3:0:0:0:
76,34,170719,1,8,0:0:0:0:
47,62,170802,1,8,0:0:0:0:
35,101,170885,1,8,0:0:0:0:
45,141,170969,1,8,0:0:0:0:
73,171,171052,101,6,3:2:0:0:
263,123,171219,2,0,B|204:96|204:96|126:120,1,123.75,0|0,3:0|0:0,0:0:0:0:
147,113,171552,2,0,L|165:200,1,82.5,8|0,0:0|0:0,0:0:0:0:
234,254,171886,1,0,3:0:0:0:
85,309,172052,6,0,P|131:297|173:318,1,82.5,8|0,0:0|0:0,0:0:0:0:
237,368,172386,1,0,3:0:0:0:
237,368,172552,1,0,3:0:0:0:
340,301,172719,1,8,0:0:0:0:
364,267,172802,1,8,0:0:0:0:
370,227,172885,1,8,0:0:0:0:
359,188,172969,1,8,0:0:0:0:
331,158,173052,101,6,3:2:0:0:
488,24,173219,2,0,P|516:72|484:142,1,123.75,0|0,3:0|0:0,0:0:0:0:
495,132,173552,2,0,L|408:117,1,82.5,8|0,0:0|0:0,0:0:0:0:
331,158,173886,1,0,3:0:0:0:
173,43,174052,6,0,L|260:28,1,82.5,8|0,0:0|0:0,0:0:0:0:
337,69,174386,1,0,3:0:0:0:
337,69,174552,1,0,3:0:0:0:
205,232,174719,1,8,0:0:0:0:
164,225,174802,1,8,0:0:0:0:
133,198,174885,1,8,0:0:0:0:
122,159,174969,1,8,0:0:0:0:
133,120,175052,101,6,3:2:0:0:
298,151,175219,2,0,B|289:201|289:201|295:225|295:225|281:297,1,123.75,0|0,3:0|0:0,0:0:0:0:
285,272,175552,2,0,P|237:283|199:263,1,82.5,8|0,0:0|0:0,0:0:0:0:
142,203,175886,1,0,3:0:0:0:
55,340,176052,6,0,L|63:254,1,82.5,8|0,0:0|0:0,0:0:0:0:
213,110,176386,1,8,3:2:0:0:
213,110,176469,1,8,0:0:0:0:
213,110,176552,2,0,L|221:171,1,41.25,8|8,0:0|0:0,0:0:0:0:
293,216,176720,1,8,3:2:0:0:
293,216,176803,1,8,0:0:0:0:
293,216,176886,2,0,L|285:277,1,41.25,8|8,0:0|0:0,0:0:0:0:
148,314,177052,38,0,B|210:303|210:303|253:360|335:340,1,165,6|2,3:2|0:0,0:0:0:0:
387,210,177552,1,8,0:0:0:0:
298,179,177719,2,0,P|282:237|303:280,1,82.5,2|0,0:0|0:0,0:0:0:0:
486,353,178052,6,0,P|419:304|369:323,1,123.75,2|0,3:2|0:0,0:0:0:0:
384,312,178386,1,10,0:0:0:0:
483,141,178552,1,8,0:0:0:0:
291,191,178719,2,0,L|378:207,1,82.5,10|0,0:0|0:0,0:0:0:0:
105,330,179052,101,2,3:2:0:0:
144,241,179219,1,0,3:0:0:0:
244,383,179386,5,2,0:0:0:0:
237,257,179553,1,8,0:0:0:0:
398,355,179719,101,2,0:0:0:0:
321,212,179886,1,0,0:0:0:0:
75,330,180052,85,10,0:0:0:0:
69,321,180386,2,0,P|109:314|147:375,1,115.5,2|0,0:1|0:0,0:0:0:0:
137,379,181052,21,4,3:2:0:0:
15,136,181219,1,2,0:0:0:0:
285,282,181386,2,0,B|222:272|222:272|203:247|203:247|129:234,1,154.6875,2|0,0:0|0:0,0:0:0:0:
144,236,181719,1,2,0:0:0:0:
271,175,181886,1,0,3:0:0:0:
336,365,182052,5,10,0:0:0:0:
132,235,182219,1,2,0:0:0:0:
368,111,182386,2,0,B|400:182|400:182|362:267,1,154.6875,2|0,3:2|0:0,0:0:0:0:
368,252,182719,1,0,3:0:0:0:
247,113,182886,1,0,3:0:0:0:
247,113,182969,1,0,3:0:0:0:
247,113,183052,101,2,3:2:0:0:
177,323,183219,1,2,3:2:0:0:
458,222,183386,2,0,L|293:243,1,154.6875,2|0,0:0|0:0,0:0:0:0:
304,241,183719,1,2,0:0:0:0:
471,311,183886,1,0,3:0:0:0:
251,162,184052,6,0,P|216:203|216:274,1,103.125,10|0,0:0|0:0,0:0:0:0:
403,370,184386,1,2,3:2:0:0:
222,266,184552,1,0,3:0:0:0:
451,180,184719,1,8,0:0:0:0:
301,352,184886,1,8,0:0:0:0:
301,352,184969,1,8,0:0:0:0:
301,352,185052,101,6,3:2:0:0:
437,197,185219,1,2,3:2:0:0:
239,42,185386,2,0,B|253:102|253:102|248:134|248:134|263:199,1,154.6875,2|0,0:0|0:0,0:0:0:0:
262,192,185719,1,2,0:0:0:0:
152,354,185886,6,0,L|225:345,1,51.5625,2|0,3:2|0:0,0:0:0:0:
389,362,186052,101,10,0:0:0:0:
221,267,186219,1,0,0:0:0:0:
471,225,186386,5,10,0:2:0:0:
249,184,186553,1,0,0:0:0:0:
472,48,186719,101,10,0:2:0:0:
233,92,186886,1,0,0:0:0:0:
406,234,187052,6,0,L|416:170,1,51.5625,6|0,3:2|0:0,0:0:0:0:
308,17,187219,2,0,B|333:157|333:157|340:126|369:100,1,185.625007081032,0|0,3:0|0:0,0:0:0:0:
351,118,187552,2,0,B|299:106|299:106|233:141,1,103.125,0|0,3:0|0:0,0:0:0:0:
410,175,187886,1,0,3:0:0:0:
199,348,188052,102,0,P|167:298|203:231,1,103.125,10|0,0:0|0:0,0:0:0:0:
255,129,188386,1,2,3:2:0:0:
345,247,188552,1,0,3:0:0:0:
147,131,188719,1,10,3:2:0:0:
106,162,188802,1,8,0:0:0:0:
87,209,188885,1,8,0:0:0:0:
94,260,188969,1,8,0:0:0:0:
126,300,189052,6,0,L|242:283,1,103.125,6|0,3:2|3:0,0:0:0:0:
401,371,189386,1,2,0:0:0:0:
383,279,189552,2,0,B|294:299|343:359|239:376,1,154.6875,2|0,3:2|0:0,0:0:0:0:
264,370,189886,1,0,3:0:0:0:
62,359,190052,102,0,B|39:314|39:314|62:237,1,103.125,10|0,0:0|0:0,0:0:0:0:
234,285,190386,2,0,B|186:293|186:293|183:300|183:300|122:309,1,103.125,2|0,3:2|0:0,0:0:0:0:
0,100,190719,2,0,B|48:108|48:108|51:115|51:115|112:124,1,103.125,0|0,3:0|0:0,0:0:0:0:
236,194,190969,5,2,0:0:0:0:
236,194,191052,2,0,P|167:182|156:88,1,154.6875,2|0,3:2|0:0,0:0:0:0:
145,108,191386,1,2,0:0:0:0:
0,264,191552,2,0,B|46:232|46:232|120:248,1,103.125,2|0,3:2|0:0,0:0:0:0:
177,286,191886,1,0,3:0:0:0:
250,114,192052,102,0,L|240:234,1,103.125,10|0,0:0|0:0,0:0:0:0:
325,54,192386,1,2,3:2:0:0:
159,109,192552,1,0,3:0:0:0:
333,229,192719,5,8,0:0:0:0:
228,35,192886,1,8,0:0:0:0:
228,35,192969,1,8,0:0:0:0:
228,35,193052,101,6,3:2:0:0:
183,236,193219,1,2,3:2:0:0:
351,125,193386,2,0,L|248:141,1,103.125,2|0,0:0|3:0,0:0:0:0:
113,189,193719,1,0,0:0:0:0:
233,55,193886,1,0,3:0:0:0:
215,318,194052,6,0,B|206:273|206:273|209:262|209:262|196:202,1,103.125,10|0,0:0|0:0,0:0:0:0:
50,86,194386,2,0,P|102:75|152:108,1,103.125,2|0,3:2|0:0,0:0:0:0:
298,283,194719,2,0,L|405:257,1,103.125,2|0,3:2|0:0,0:0:0:0:
189,171,195052,102,0,B|207:160|221:138|221:138|195:290,1,173.24999471283,2|0,3:2|0:0,0:0:0:0:
199,263,195386,1,10,0:0:0:0:
93,209,195552,1,0,3:0:0:0:
343,366,195719,6,0,P|448:342|402:232,1,210.375004012585,6|0,3:2|0:0,0:0:0:0:
488,167,196052,1,8,3:2:0:0:
488,167,196136,1,8,0:0:0:0:
488,167,196219,2,0,L|416:177,1,51.5625,8|8,0:0|0:0,0:0:0:0:
361,239,196386,1,10,3:2:0:0:
361,239,196470,1,8,0:0:0:0:
361,239,196553,102,0,L|289:229,1,51.5625,8|8,0:0|0:0,0:0:0:0:
131,103,196719,1,10,3:2:0:0:
183,108,196802,1,8,0:0:0:0:
222,146,196885,1,8,0:0:0:0:
231,197,196969,1,8,0:0:0:0:
208,246,197052,5,6,3:2:0:0:
279,44,197219,1,2,0:0:0:0:
8,145,197386,2,0,B|72:159|72:159|90:183|90:183|175:201,1,154.6875,2|0,0:0|0:0,0:0:0:0:
148,195,197719,1,2,0:0:0:0:
63,70,197886,1,0,3:0:0:0:
324,21,198052,102,0,L|307:127,1,103.125,10|0,0:0|0:0,0:0:0:0:
105,256,198386,2,0,P|153:209|248:230,1,154.6875,2|0,3:2|0:0,0:0:0:0:
234,218,198719,1,0,3:0:0:0:
67,98,198886,1,2,0:0:0:0:
329,35,199052,6,0,L|312:141,1,103.125,6|0,3:2|3:0,0:0:0:0:
110,270,199386,2,0,P|158:223|253:244,1,154.6875,2|0,0:0|0:0,0:0:0:0:
239,232,199719,1,0,0:0:0:0:
72,112,199886,1,0,3:0:0:0:
197,308,200052,102,0,B|250:319|250:319|320:283,1,103.125,10|0,0:0|0:0,0:0:0:0:
446,69,200386,2,0,B|452:117|452:117|448:128|448:128|458:184,1,103.125,2|0,3:2|0:0,0:0:0:0:
335,220,200719,2,0,B|282:209|282:209|212:245,1,103.125,0|0,3:0|0:0,0:0:0:0:
116,85,201052,5,6,3:2:0:0:
224,313,201219,1,2,3:2:0:0:
0,196,201386,2,0,B|65:185|65:185|88:196|88:196|175:180,1,154.6875,2|0,0:0|0:0,0:0:0:0:
150,184,201719,1,0,0:0:0:0:
234,301,201886,102,0,L|225:250,1,51.5625,2|0,3:2|0:0,0:0:0:0:
346,38,202052,5,10,0:0:0:0:
303,215,202219,1,0,0:0:0:0:
187,0,202386,101,10,0:2:0:0:
215,204,202553,1,0,0:0:0:0:
8,48,202719,5,10,0:2:0:0:
132,243,202886,1,0,0:0:0:0:
330,77,203052,102,0,P|286:80|264:97,1,51.5625,6|0,3:2|0:0,0:0:0:0:
166,164,203219,2,0,P|226:132|203:7,1,173.24999471283,0|0,3:0|0:0,0:0:0:0:
231,35,203552,5,2,3:1:0:0:
308,154,203719,1,2,0:1:0:0:
149,76,203886,1,2,3:1:0:0:
371,27,204052,1,10,0:0:0:0:
292,235,204219,1,2,0:1:0:0:
512,94,204386,102,0,L|404:105,1,103.125,2|0,3:2|3:0,0:0:0:0:
240,158,204719,1,8,3:2:0:0:
209,199,204802,1,8,0:0:0:0:
205,249,204885,1,8,0:0:0:0:
226,295,204969,1,8,0:0:0:0:
268,324,205052,6,0,B|315:297|315:297|381:314,1,103.125,6|0,3:2|3:0,0:0:0:0:
288,150,205386,1,2,0:0:0:0:
326,381,205552,2,0,L|302:229,1,154.6875,2|0,3:2|0:0,0:0:0:0:
301,228,205886,1,0,3:0:0:0:
148,359,206052,102,0,B|202:344|202:344|253:378,1,103.125,10|0,0:0|0:0,0:0:0:0:
480,188,206386,2,0,B|437:215|437:215|383:200,1,103.125,2|0,3:2|0:0,0:0:0:0:
239,18,206719,2,0,L|226:140,1,103.125,0|0,3:0|0:0,0:0:0:0:
303,226,206969,5,2,0:0:0:0:
303,226,207052,2,0,P|270:166|182:172,1,154.6875,2|0,3:2|0:0,0:0:0:0:
191,165,207386,1,2,0:0:0:0:
41,336,207552,2,0,L|157:323,1,103.125,2|0,3:2|0:0,0:0:0:0:
230,376,207886,1,0,3:0:0:0:
116,124,208052,102,0,P|105:178|126:220,1,103.125,10|0,0:0|0:0,0:0:0:0:
229,285,208386,1,2,3:2:0:0:
110,374,208552,1,0,3:0:0:0:
191,165,208719,5,8,0:0:0:0:
330,370,208886,1,8,0:0:0:0:
330,370,208969,1,8,0:0:0:0:
330,370,209052,101,6,3:2:0:0:
150,294,209219,1,2,3:2:0:0:
310,172,209386,2,0,L|300:291,1,103.125,2|0,0:0|3:0,0:0:0:0:
204,380,209719,1,0,0:0:0:0:
387,302,209886,1,0,3:0:0:0:
229,131,210052,6,0,P|173:129|128:160,1,103.125,10|0,0:0|0:0,0:0:0:0:
90,257,210386,1,2,3:2:0:0:
200,213,210552,1,0,3:0:0:0:
32,76,210719,1,8,0:0:0:0:
0,221,210886,1,0,0:0:0:0:
318,62,211052,102,0,B|286:95|286:95|151:75,1,154.6875,6|0,3:2|0:0,0:0:0:0:
128,6,211386,2,0,L|145:117,1,103.125,2|0,0:0|3:0,0:0:0:0:
83,256,211719,1,2,0:0:0:0:
215,165,211886,1,0,3:0:0:0:
355,353,212052,6,0,L|245:363,1,103.125,10|0,0:2|0:0,0:0:0:0:
386,203,212386,1,0,3:0:0:0:
457,372,212552,1,2,3:2:0:0:
457,372,212636,1,0,3:0:0:0:
457,372,212719,1,8,0:0:0:0:
500,258,212886,1,8,0:0:0:0:
172,370,213052,1,6,3:2:0:0:
256,192,213219,12,0,221052,0:0:0:0:
