osu file format v14

[General]
AudioFilename: audio.mp3
AudioLeadIn: 0
PreviewTime: 180969
Countdown: 0
SampleSet: Soft
StackLeniency: 0.7
Mode: 0
LetterboxInBreaks: 0
WidescreenStoryboard: 1

[Editor]
Bookmarks: 23070,177052
DistanceSpacing: 1
BeatDivisor: 2
GridSize: 4
TimelineZoom: 1

[Metadata]
Title:Hearts
TitleUnicode:Hearts
Artist:Tokoyami Towa
ArtistUnicode:常闇トワ
Creator:Mocaotic
Version:Normal
Source:
Tags:amateurre boppin japanese rock hololive ホロライブ virtual youtuber vtuber vocaloid cover niki lily
BeatmapID:3278989
BeatmapSetID:1588756

[Difficulty]
HPDrainRate:3
CircleSize:3.5
OverallDifficulty:4
ApproachRate:5.5
SliderMultiplier:0.999999999999999
SliderTickRate:1

[Events]
//Background and Video events
Video,0,"hearts.mp4"
0,0,"towayami toko.png",0,0
//Break Periods
2,154052,158927
//Storyboard Layer 0 (Background)
//Storyboard Layer 1 (Fail)
//Storyboard Layer 2 (Pass)
//Storyboard Layer 3 (Foreground)
//Storyboard Layer 4 (Overlay)
//Storyboard Sound Samples

[TimingPoints]
1219,333.333333333333,3,2,2,60,1,0
7053,333.333333333333,3,2,2,70,1,0
7053,-100,3,2,2,70,0,0
23052,-111.111111111111,3,2,2,40,0,0
39052,-100,3,2,2,55,0,0
55052,-95.2380952380952,3,2,2,75,0,1
87052,-95.2380952380952,3,2,2,70,0,0
89052,-111.111111111111,3,2,2,45,0,0
105052,-100,3,2,2,55,0,0
121052,-95.2380952380952,3,2,2,75,0,1
153052,-100,3,2,2,70,0,0
160052,-100,3,2,2,85,0,0
161052,-100,3,2,2,65,0,0
177052,-100,3,2,2,55,0,0
181052,-95.2380952380952,3,2,2,75,0,1
213052,-100,3,2,2,75,0,0
214052,-100,3,2,2,65,0,0
215052,-100,3,2,2,55,0,0
216052,-100,3,2,2,45,0,0
217052,-100,3,2,2,35,0,0
218052,-100,3,2,2,25,0,0
219052,-100,3,2,2,15,0,0
220052,-100,3,2,2,10,0,0
221052,-100,3,2,2,5,0,0

[Colours]
Combo1 : 249,210,132
Combo2 : 254,231,69
Combo3 : 255,148,40
Combo4 : 106,106,106
Combo5 : 191,191,191
Combo6 : 125,193,255
Combo7 : 117,114,254
Combo8 : 242,242,119

[HitObjects]
32,308,7053,102,0,B|76:280|76:280|129:292,1,99.9999999999999,6|0,3:2|0:0,0:0:0:0:
166,265,7552,2,0,P|178:212|145:155,1,99.9999999999999,0|0,3:0|3:0,0:0:0:0:
131,131,8052,1,8,0:0:0:0:
201,60,8386,2,0,L|274:50,1,50,0|0,3:0|3:0,0:0:0:0:
300,52,8719,1,8,0:0:0:0:
387,110,9052,5,2,3:2:0:0:
387,110,9219,2,0,P|396:165|356:224,1,99.9999999999999,0|0,3:0|3:0,0:0:0:0:
293,253,9886,1,0,3:0:0:0:
293,253,10052,2,0,L|150:233,1,99.9999999999999,8|0,0:0|3:0,0:0:0:0:
109,184,10719,2,0,L|37:194,1,50,8|8,0:0|0:0,0:0:0:0:
23,224,11052,101,6,3:2:0:0:
22,224,11219,2,0,B|46:272|46:272|30:347,1,99.9999999999999,0|0,3:0|3:0,0:0:0:0:
128,367,11886,1,0,3:0:0:0:
128,367,12052,2,0,L|271:347,1,99.9999999999999,8|0,0:0|3:0,0:0:0:0:
275,380,12552,1,0,3:0:0:0:
275,380,12719,1,8,0:0:0:0:
348,312,13052,5,6,3:2:0:0:
348,312,13219,2,0,B|326:261|326:261|347:196,1,99.9999999999999,0|0,3:0|3:0,0:0:0:0:
414,152,13886,1,0,3:0:0:0:
414,152,14052,2,0,L|479:160,1,50,8|8,0:0|0:0,0:0:0:0:
507,133,14386,2,0,P|513:103|502:64,1,50,0|0,3:0|3:0,0:0:0:0:
488,38,14719,1,8,0:0:0:0:
395,0,15052,102,0,B|349:23|349:23|257:8,1,99.9999999999999,6|0,3:2|0:0,0:0:0:0:
258,40,15552,2,0,P|244:86|275:146,1,99.9999999999999,0|0,3:0|3:0,0:0:0:0:
300,164,16052,1,8,0:0:0:0:
239,236,16386,2,0,L|181:243,1,50,0|0,3:0|3:0,0:0:0:0:
139,245,16719,1,8,0:0:0:0:
61,191,17052,5,2,3:2:0:0:
61,191,17219,2,0,P|43:131|88:65,1,99.9999999999999,0|0,3:0|3:0,0:0:0:0:
136,27,17886,1,0,3:0:0:0:
136,27,18052,2,0,L|270:40,1,99.9999999999999,8|0,0:0|3:0,0:0:0:0:
303,103,18719,2,0,L|294:160,1,50,8|8,0:0|0:0,0:0:0:0:
328,196,19052,101,6,3:2:0:0:
328,196,19219,2,0,B|375:188|375:188|390:192|390:192|457:179,1,99.9999999999999,0|0,3:0|3:0,0:0:0:0:
512,246,19886,1,0,3:0:0:0:
512,246,20052,2,0,P|524:296|486:360,1,99.9999999999999,8|0,0:0|3:0,0:0:0:0:
473,376,20552,1,0,3:0:0:0:
473,376,20719,1,8,0:0:0:0:
386,336,21052,5,2,3:2:0:0:
386,336,21219,2,0,L|270:347,1,99.9999999999999,0|0,3:0|3:0,0:0:0:0:
194,377,21886,1,0,3:0:0:0:
194,377,22052,2,0,L|92:365,1,99.9999999999999,8|0,0:0|3:0,0:0:0:0:
21,297,22719,2,0,L|28:233,1,50,8|0,0:0|0:0,0:0:0:0:
56,213,23052,38,0,B|48:175|48:175|41:166|41:166|32:111,1,89.999997253418,6|2,3:2|0:0,0:0:0:0:
73,45,23719,2,0,L|133:51,1,44.999998626709,2|2,1:2|1:2,0:0:0:0:
158,69,24052,2,0,L|285:56,1,89.999997253418,2|0,3:2|0:0,0:0:0:0:
328,20,24719,1,2,1:2:0:0:
403,72,25052,6,0,P|418:119|393:174,1,89.999997253418,2|2,3:2|0:0,0:0:0:0:
334,210,25719,2,0,L|274:204,1,44.999998626709,2|2,1:2|1:2,0:0:0:0:
255,177,26052,2,0,L|128:190,1,89.999997253418,2|0,3:2|1:0,0:0:0:0:
80,155,26719,1,2,1:2:0:0:
25,230,27052,102,0,L|33:298,1,44.999998626709,6|0,3:2|0:0,0:0:0:0:
52,314,27386,2,0,P|97:295|145:300,1,89.999997253418,2|2,0:0|1:2,0:0:0:0:
176,328,27886,1,2,1:2:0:0:
176,328,28052,1,2,3:2:0:0:
232,257,28386,1,2,0:0:0:0:
163,201,28719,1,2,1:2:0:0:
217,129,29052,6,0,P|241:128|271:140,2,44.999998626709,2|2|2,3:1|0:1|0:1,0:0:0:0:
181,101,29552,1,2,0:1:0:0:
64,32,30052,2,0,P|40:31|10:43,2,44.999998626709,2|2|2,3:1|0:1|0:1,0:0:0:0:
101,8,30552,1,2,0:1:0:0:
101,8,30719,1,2,0:1:0:0:
187,32,31052,102,0,B|172:75|172:75|198:151,1,89.999997253418,4|2,3:2|0:0,0:0:0:0:
255,175,31719,2,0,L|315:169,1,44.999998626709,2|2,1:2|1:2,0:0:0:0:
334,142,32052,2,0,L|461:155,1,89.999997253418,2|0,3:2|0:0,0:0:0:0:
496,206,32719,1,2,1:2:0:0:
441,277,33052,6,0,L|351:286,1,89.999997253418,2|2,3:2|0:0,0:0:0:0:
276,236,33719,2,0,L|282:176,1,44.999998626709,2|2,1:2|1:2,0:0:0:0:
309,157,34052,2,0,L|296:30,1,89.999997253418,2|0,3:2|1:0,0:0:0:0:
225,16,34719,1,2,1:2:0:0:
148,63,35052,102,0,L|85:59,1,44.999998626709,6|0,3:2|0:0,0:0:0:0:
61,78,35386,2,0,P|48:131|85:186,1,89.999997253418,2|2,0:0|1:2,0:0:0:0:
96,197,35886,1,2,1:2:0:0:
96,197,36052,1,2,3:2:0:0:
176,155,36386,1,2,0:0:0:0:
241,216,36719,1,2,1:2:0:0:
313,162,37052,6,0,L|295:45,2,89.999997253418,2|0|0,3:2|0:0|1:0,0:0:0:0:
283,247,38052,2,0,P|328:249|369:231,1,89.999997253418,0|0,3:2|1:0,0:0:0:0:
450,267,38719,1,0,1:0:0:0:
505,184,39052,38,0,B|498:141|498:141|488:126|488:126|479:67,1,99.9999999999999,6|2,3:2|0:0,0:0:0:0:
454,46,39552,2,0,B|399:46|412:78|348:77,1,99.9999999999999,10|2,0:2|0:0,0:0:0:0:
318,102,40052,1,2,3:2:0:0:
226,65,40386,1,10,0:0:0:0:
162,143,40719,1,8,0:0:0:0:
217,228,41052,6,0,L|333:205,1,99.9999999999999,2|2,3:2|0:0,0:0:0:0:
358,233,41552,2,0,P|379:278|349:345,1,99.9999999999999,10|2,0:0|0:0,0:0:0:0:
335,363,42052,1,2,3:2:0:0:
237,339,42386,2,0,L|170:349,1,50,10|8,0:0|0:0,0:0:0:0:
142,368,42719,1,8,0:0:0:0:
54,320,43052,102,0,B|66:268|66:268|41:216,1,99.9999999999999,6|2,3:2|0:0,0:0:0:0:
22,188,43552,1,8,0:0:0:0:
22,188,43719,1,2,0:0:0:0:
105,133,44052,1,2,3:2:0:0:
168,210,44386,1,10,0:0:0:0:
254,159,44719,2,0,L|379:184,1,99.9999999999999,10|2,0:0|3:2,0:0:0:0:
396,200,45219,5,0,3:0:0:0:
484,154,45552,2,0,P|495:97|451:32,1,99.9999999999999,10|0,0:0|0:0,0:0:0:0:
446,21,46052,1,2,3:2:0:0:
357,68,46386,2,0,L|281:62,1,50,8|8,0:0|0:0,0:0:0:0:
269,32,46719,1,8,0:0:0:0:
193,95,47052,102,0,B|205:141|205:141|201:154|201:154|213:204,1,99.9999999999999,6|2,3:2|0:0,0:0:0:0:
256,210,47552,2,0,P|304:189|367:205,1,99.9999999999999,10|2,0:0|0:0,0:0:0:0:
395,217,48052,1,2,3:2:0:0:
455,137,48386,1,10,0:0:0:0:
398,55,48719,1,8,0:0:0:0:
302,84,49052,6,0,L|170:67,1,99.9999999999999,2|2,3:2|0:0,0:0:0:0:
157,91,49552,2,0,P|140:151|166:204,1,99.9999999999999,10|2,0:0|0:0,0:0:0:0:
188,218,50052,1,2,3:2:0:0:
286,234,50386,2,0,L|350:222,1,50,10|8,0:0|0:0,0:0:0:0:
375,194,50719,1,8,0:0:0:0:
467,232,51052,102,0,B|489:278|489:278|469:332,1,99.9999999999999,6|2,3:2|0:0,0:0:0:0:
444,367,51552,1,8,0:0:0:0:
444,367,51719,1,2,0:0:0:0:
355,320,52052,1,2,3:2:0:0:
276,384,52386,2,0,L|215:378,1,50,10|8,0:0|0:0,0:0:0:0:
176,382,52719,1,10,0:0:0:0:
116,302,53052,6,0,P|112:241|153:188,1,99.9999999999999,2|2,3:2|0:0,0:0:0:0:
174,183,53552,1,8,0:0:0:0:
174,183,53719,1,2,0:0:0:0:
270,207,54052,1,10,0:0:0:0:
327,124,54386,1,2,0:1:0:0:
121,81,55052,6,0,L|126:133,1,52.4999983978271,4|2,3:2|0:0,0:0:0:0:
159,174,55386,2,0,P|214:184|261:164,1,104.999996795654,2|0,0:0|0:0,0:0:0:0:
289,124,55886,1,0,3:0:0:0:
289,124,56052,2,0,L|283:71,1,52.4999983978271,10|2,0:0|0:0,0:0:0:0:
317,31,56386,2,0,P|365:12|416:23,1,104.999996795654,2|0,3:2|3:0,0:0:0:0:
469,113,57052,6,0,L|463:165,1,52.4999983978271,2|2,3:2|3:2,0:0:0:0:
415,189,57386,2,0,L|438:323,1,104.999996795654,2|0,0:0|0:0,0:0:0:0:
455,345,57886,1,0,3:0:0:0:
455,345,58052,1,10,0:0:0:0:
355,380,58386,2,0,L|302:373,1,52.4999983978271,2|0,3:2|3:0,0:0:0:0:
251,364,58719,1,8,0:0:0:0:
172,294,59052,102,0,L|177:241,1,52.4999983978271,6|2,3:2|3:2,0:0:0:0:
211,201,59386,2,0,L|188:67,1,104.999996795654,2|0,0:0|0:0,0:0:0:0:
168,57,59886,1,2,3:2:0:0:
168,57,60052,1,10,0:0:0:0:
74,8,60386,2,0,L|16:17,1,52.4999983978271,2|0,3:2|0:0,0:0:0:0:
0,64,60719,2,0,L|9:122,1,52.4999983978271,2|0,3:2|0:0,0:0:0:0:
55,149,61052,5,6,3:2:0:0:
55,149,61219,2,0,B|108:135|108:135|157:166,1,104.999996795654,0|0,3:0|3:0,0:0:0:0:
229,238,61886,1,0,3:0:0:0:
229,238,62052,2,0,L|350:220,1,104.999996795654,10|2,0:0|3:2,0:0:0:0:
408,149,62719,2,0,L|490:165,1,52.4999983978271,10|8,3:2|0:0,0:0:0:0:
497,195,63052,102,0,B|480:250|480:250|502:304,1,104.999996795654,6|2,3:2|0:0,0:0:0:0:
471,339,63552,2,0,L|338:355,1,104.999996795654,2|0,3:2|3:0,0:0:0:0:
314,360,64052,1,10,0:0:0:0:
229,297,64386,2,0,P|213:241|238:186,1,104.999996795654,2|0,3:2|3:0,0:0:0:0:
315,141,65052,6,0,L|448:157,1,104.999996795654,2|2,3:2|0:0,0:0:0:0:
468,135,65552,2,0,P|482:85|466:36,1,104.999996795654,2|0,3:2|3:0,0:0:0:0:
422,7,66052,1,10,0:0:0:0:
323,43,66386,2,0,L|257:36,1,52.4999983978271,2|0,3:2|3:0,0:0:0:0:
218,28,66719,1,8,0:0:0:0:
133,90,67052,102,0,L|141:152,1,52.4999983978271,6|2,3:2|3:2,0:0:0:0:
184,170,67386,2,0,L|176:282,1,104.999996795654,2|0,0:0|0:0,0:0:0:0:
174,330,67886,1,0,3:0:0:0:
174,330,68052,1,10,0:0:0:0:
82,384,68386,1,2,3:2:0:0:
3,315,68719,1,2,3:2:0:0:
44,217,69052,1,2,3:2:0:0:
148,225,69386,6,0,L|219:213,1,52.4999983978271,10|0,0:0|3:0,0:0:0:0:
237,179,69719,2,0,B|247:127|247:127|220:83,1,104.999996795654,6|8,3:2|3:2,0:0:0:0:
253,42,70219,1,8,0:0:0:0:
253,42,70386,2,0,L|323:50,1,52.4999983978271,10|8,3:2|0:0,0:0:0:0:
355,33,70719,1,10,3:2:0:0:
428,108,71052,102,0,L|422:168,1,52.4999983978271,6|2,3:2|0:0,0:0:0:0:
385,197,71386,2,0,P|330:205|265:150,1,104.999996795654,2|0,0:0|0:0,0:0:0:0:
257,146,71886,1,0,3:0:0:0:
257,146,72052,1,10,0:0:0:0:
159,184,72386,2,0,L|181:318,1,104.999996795654,2|0,3:2|3:0,0:0:0:0:
159,340,72886,1,0,0:0:0:0:
159,340,73052,5,6,3:2:0:0:
255,382,73386,2,0,L|389:360,1,104.999996795654,2|0,0:0|0:0,0:0:0:0:
412,383,73886,1,0,3:0:0:0:
412,383,74052,1,10,0:0:0:0:
495,318,74386,2,0,P|502:262|466:208,1,104.999996795654,2|0,3:2|3:0,0:0:0:0:
387,170,75052,102,0,L|299:184,1,52.4999983978271,6|2,3:2|3:2,0:0:0:0:
290,207,75386,2,0,L|156:185,1,104.999996795654,2|0,0:0|0:0,0:0:0:0:
137,190,75886,1,2,3:2:0:0:
137,190,76052,1,10,0:0:0:0:
71,272,76386,1,2,3:2:0:0:
130,358,76719,1,2,3:2:0:0:
235,336,77052,5,6,3:2:0:0:
235,336,77219,2,0,B|230:288|230:288|235:275|235:275|230:200,1,104.999996795654,0|2,3:0|3:1,0:0:0:0:
201,189,77719,2,0,L|207:127,1,52.4999983978271,2|2,0:1|3:1,0:0:0:0:
236,93,78052,1,10,0:0:0:0:
179,4,78386,1,2,3:2:0:0:
85,51,78719,2,0,L|23:43,1,52.4999983978271,8|8,3:2|0:0,0:0:0:0:
5,78,79052,102,0,B|23:128|23:128|5:191,1,104.999996795654,6|2,3:2|0:0,0:0:0:0:
46,214,79552,2,0,L|152:200,1,104.999996795654,2|0,3:2|3:0,0:0:0:0:
195,174,80052,1,10,0:0:0:0:
288,221,80386,2,0,P|304:275|286:331,1,104.999996795654,2|0,3:2|3:0,0:0:0:0:
194,359,81052,6,0,L|86:351,1,104.999996795654,2|2,3:2|0:0,0:0:0:0:
44,324,81552,2,0,P|39:274|65:217,1,104.999996795654,2|0,3:2|3:0,0:0:0:0:
100,191,82052,1,10,0:0:0:0:
199,224,82386,2,0,L|266:213,1,52.4999983978271,2|0,3:2|3:0,0:0:0:0:
295,187,82719,1,8,0:0:0:0:
380,248,83052,102,0,L|374:316,1,52.4999983978271,6|2,3:2|3:2,0:0:0:0:
349,346,83386,2,0,P|294:360|233:324,1,104.999996795654,2|0,0:0|0:0,0:0:0:0:
215,311,83886,1,0,3:0:0:0:
215,311,84052,1,10,0:0:0:0:
262,217,84386,2,0,L|257:164,1,52.4999983978271,2|0,3:2|3:0,0:0:0:0:
226,121,84719,1,8,0:0:0:0:
286,35,85052,6,0,P|340:20|407:40,1,104.999996795654,2|2,3:2|0:0,0:0:0:0:
433,63,85552,1,0,3:0:0:0:
433,63,85719,1,2,0:0:0:0:
400,162,86052,2,0,P|346:177|279:157,1,104.999996795654,10|0,0:2|3:0,0:0:0:0:
262,138,86552,1,2,3:2:0:0:
262,138,86719,1,8,0:0:0:0:
177,199,87052,102,0,L|186:277,1,52.4999983978271,6|2,3:2|3:2,0:0:0:0:
174,306,87386,1,10,0:0:0:0:
174,306,87552,1,2,3:2:0:0:
326,345,88052,6,0,L|335:267,1,52.4999983978271,2|2,3:2|3:2,0:0:0:0:
318,246,88386,1,10,0:0:0:0:
318,246,88552,1,2,3:2:0:0:
198,182,89052,6,0,B|206:229|206:229|204:237|204:237|216:295,1,89.999997253418,6|2,3:2|0:0,0:0:0:0:
134,318,89719,2,0,L|74:312,1,44.999998626709,2|2,1:2|1:2,0:0:0:0:
48,293,90052,2,0,P|33:243|66:190,1,89.999997253418,2|0,3:2|0:0,0:0:0:0:
98,135,90719,1,2,1:2:0:0:
176,178,91052,6,0,L|279:163,1,89.999997253418,2|2,3:2|0:0,0:0:0:0:
337,219,91719,2,0,L|346:284,1,44.999998626709,2|2,1:2|1:2,0:0:0:0:
374,295,92052,2,0,L|477:280,1,89.999997253418,2|0,3:2|1:0,0:0:0:0:
500,200,92719,1,2,1:2:0:0:
442,131,93052,102,0,L|374:123,1,44.999998626709,6|0,3:2|0:0,0:0:0:0:
364,94,93386,2,0,L|271:108,1,89.999997253418,2|2,0:0|1:2,0:0:0:0:
234,117,93886,1,2,1:2:0:0:
234,117,94052,1,2,3:2:0:0:
153,159,94386,1,2,0:0:0:0:
90,95,94719,1,2,1:2:0:0:
130,15,95052,1,2,3:2:0:0:
218,28,95386,6,0,L|209:97,1,44.999998626709,2|2,0:1|0:1,0:0:0:0:
188,111,95719,2,0,L|197:180,1,44.999998626709,2|2,0:1|0:1,0:0:0:0:
226,186,96052,1,2,3:1:0:0:
296,242,96386,2,0,L|365:233,1,44.999998626709,2|2,0:1|0:1,0:0:0:0:
379,212,96719,2,0,L|448:221,1,44.999998626709,2|2,0:1|0:1,0:0:0:0:
459,244,97052,102,0,B|444:287|444:287|470:363,1,89.999997253418,4|2,3:2|0:0,0:0:0:0:
384,380,97719,2,0,L|324:374,1,44.999998626709,2|2,1:2|1:2,0:0:0:0:
305,345,98052,2,0,L|178:358,1,89.999997253418,2|0,3:2|0:0,0:0:0:0:
129,380,98719,1,2,1:2:0:0:
56,326,99052,2,0,P|48:269|65:234,1,89.999997253418,2|2,3:2|0:0,0:0:0:0:
132,186,99719,2,0,L|192:192,1,44.999998626709,2|2,1:2|1:2,0:0:0:0:
212,163,100052,2,0,P|220:106|203:71,1,89.999997253418,2|0,3:2|1:0,0:0:0:0:
137,21,100719,1,2,1:2:0:0:
54,57,101052,6,0,L|63:124,1,44.999998626709,6|0,3:2|0:0,0:0:0:0:
83,140,101386,2,0,L|66:262,1,89.999997253418,2|2,0:0|1:2,0:0:0:0:
43,266,101886,1,2,1:2:0:0:
43,266,102052,1,2,3:2:0:0:
103,333,102386,1,2,0:0:0:0:
183,293,102719,1,2,1:2:0:0:
244,358,103052,102,0,L|355:345,1,89.999997253418,2|2,3:2|0:0,0:0:0:0:
417,378,103719,1,2,1:2:0:0:
483,317,104052,2,0,P|493:269|471:224,1,89.999997253418,2|2,3:2|1:2,0:0:0:0:
405,179,104719,1,0,1:0:0:0:
322,227,105052,54,0,B|279:220|279:220|264:210|264:210|205:201,1,99.9999999999999,6|2,3:2|0:0,0:0:0:0:
191,168,105552,2,0,P|187:111|225:58,1,99.9999999999999,10|2,0:2|0:0,0:0:0:0:
242,40,106052,1,2,3:2:0:0:
334,78,106386,1,10,0:0:0:0:
409,12,106719,1,8,0:0:0:0:
495,62,107052,6,0,L|482:179,1,99.9999999999999,2|2,3:2|0:0,0:0:0:0:
455,202,107552,2,0,P|409:215|350:189,1,99.9999999999999,10|2,0:0|0:0,0:0:0:0:
315,177,108052,1,2,3:2:0:0:
238,242,108386,2,0,L|248:309,1,50,10|8,0:0|0:0,0:0:0:0:
273,332,108719,1,8,0:0:0:0:
187,383,109052,102,0,B|143:360|143:360|83:368,1,99.9999999999999,6|2,3:2|0:0,0:0:0:0:
47,376,109552,1,8,0:0:0:0:
47,376,109719,1,2,0:0:0:0:
0,287,110052,2,0,L|16:183,1,99.9999999999999,2|10,3:2|0:0,0:0:0:0:
92,124,110719,2,0,P|158:118|212:170,1,99.9999999999999,10|2,0:0|3:2,0:0:0:0:
221,168,111219,5,0,3:0:0:0:
288,241,111552,2,0,P|354:247|408:195,1,99.9999999999999,10|0,0:0|0:0,0:0:0:0:
420,199,112052,1,2,3:2:0:0:
494,132,112386,2,0,L|488:56,1,50,8|8,0:0|0:0,0:0:0:0:
508,35,112719,1,8,0:0:0:0:
408,2,113052,102,0,B|360:6|360:6|349:14|349:14|298:20,1,99.9999999999999,6|2,3:2|0:0,0:0:0:0:
261,23,113552,2,0,P|249:81|282:134,1,99.9999999999999,10|2,0:0|0:0,0:0:0:0:
289,160,114052,1,2,3:2:0:0:
384,129,114386,1,10,0:0:0:0:
443,209,114719,1,8,0:0:0:0:
385,290,115052,6,0,L|283:279,1,99.9999999999999,2|2,3:2|0:0,0:0:0:0:
244,250,115552,2,0,P|234:194|261:148,1,99.9999999999999,10|2,0:0|0:0,0:0:0:0:
288,122,116052,1,2,3:2:0:0:
232,38,116386,2,0,L|165:46,1,50,10|8,0:0|0:0,0:0:0:0:
136,23,116719,1,8,0:0:0:0:
51,76,117052,102,0,B|76:119|76:119|61:175,1,99.9999999999999,6|2,3:2|0:0,0:0:0:0:
38,212,117552,1,8,0:0:0:0:
38,212,117719,1,2,0:0:0:0:
93,294,118052,1,2,3:2:0:0:
188,262,118386,2,0,L|180:202,1,50,10|8,0:0|0:0,0:0:0:0:
207,169,118719,1,10,0:0:0:0:
290,223,119052,6,0,L|407:211,1,99.9999999999999,2|2,3:2|0:0,0:0:0:0:
443,210,119552,1,8,0:0:0:0:
443,210,119719,1,2,0:0:0:0:
505,287,120052,2,0,P|505:323|492:346,1,50,10|8,0:0|0:0,0:0:0:0:
462,370,120386,2,0,L|393:360,1,50,10|8,0:0|0:0,0:0:0:0:
362,358,120719,1,0,3:0:0:0:
394,258,121052,6,0,L|389:206,1,52.4999983978271,4|2,3:2|0:0,0:0:0:0:
355,164,121386,2,0,P|300:154|253:174,1,104.999996795654,2|0,0:0|0:0,0:0:0:0:
226,216,121886,1,0,3:0:0:0:
226,216,122052,2,0,L|232:269,1,52.4999983978271,10|2,0:0|0:0,0:0:0:0:
201,311,122386,2,0,P|153:330|102:319,1,104.999996795654,2|0,3:2|3:0,0:0:0:0:
18,256,123052,6,0,L|24:204,1,52.4999983978271,2|2,3:2|3:2,0:0:0:0:
53,159,123386,2,0,P|101:140|152:151,1,104.999996795654,2|0,0:0|0:0,0:0:0:0:
194,190,123886,1,0,3:0:0:0:
194,190,124052,1,10,0:0:0:0:
291,151,124386,2,0,L|284:98,1,52.4999983978271,2|0,3:2|3:0,0:0:0:0:
309,53,124719,1,8,0:0:0:0:
216,3,125052,102,0,L|163:8,1,52.4999983978271,6|2,3:2|3:2,0:0:0:0:
115,30,125386,2,0,P|103:96|153:148,1,104.999996795654,2|0,0:0|0:0,0:0:0:0:
163,165,125886,1,2,3:2:0:0:
163,165,126052,1,10,0:0:0:0:
260,124,126386,2,0,L|322:132,1,52.4999983978271,2|0,3:2|0:0,0:0:0:0:
351,165,126719,2,0,L|413:157,1,52.4999983978271,2|0,3:2|0:0,0:0:0:0:
450,132,127052,5,6,3:2:0:0:
450,132,127219,2,0,B|426:85|426:85|440:29,1,104.999996795654,0|0,3:0|3:0,0:0:0:0:
342,5,127886,1,0,3:0:0:0:
342,5,128052,2,0,L|220:20,1,104.999996795654,10|2,0:0|3:2,0:0:0:0:
153,80,128719,2,0,L|93:72,1,52.4999983978271,10|8,3:2|0:0,0:0:0:0:
53,94,129052,102,0,B|60:143|60:143|55:157|55:157|61:204,1,104.999996795654,6|2,3:2|0:0,0:0:0:0:
102,228,129552,2,0,P|161:241|216:200,1,104.999996795654,2|0,3:2|3:0,0:0:0:0:
231,180,130052,1,10,0:0:0:0:
295,97,130386,2,0,P|354:89|406:134,1,104.999996795654,2|0,3:2|3:0,0:0:0:0:
471,178,131052,6,0,L|455:311,1,104.999996795654,2|2,3:2|0:0,0:0:0:0:
424,322,131552,2,0,P|365:335|310:294,1,104.999996795654,2|0,3:2|3:0,0:0:0:0:
294,275,132052,1,10,0:0:0:0:
236,187,132386,2,0,L|243:121,1,52.4999983978271,2|0,3:2|3:0,0:0:0:0:
262,86,132719,1,8,0:0:0:0:
173,30,133052,102,0,L|111:38,1,52.4999983978271,6|2,3:2|3:2,0:0:0:0:
78,68,133386,2,0,P|65:126|102:179,1,104.999996795654,2|0,0:0|0:0,0:0:0:0:
128,202,133886,1,0,3:0:0:0:
128,202,134052,1,10,0:0:0:0:
224,162,134386,1,2,3:2:0:0:
293,241,134719,1,2,3:2:0:0:
238,331,135053,1,2,3:2:0:0:
135,307,135386,6,0,L|64:319,1,52.4999983978271,10|0,0:0|3:0,0:0:0:0:
37,290,135719,2,0,B|18:240|18:240|42:181,1,104.999996795654,6|8,3:2|3:2,0:0:0:0:
84,166,136219,1,8,0:0:0:0:
84,166,136386,2,0,L|155:178,1,52.4999983978271,10|8,3:2|0:0,0:0:0:0:
182,199,136719,1,10,3:2:0:0:
256,125,137052,102,0,L|250:65,1,52.4999983978271,6|2,3:2|0:0,0:0:0:0:
280,28,137386,2,0,P|328:10|378:23,1,104.999996795654,2|0,0:0|0:0,0:0:0:0:
421,61,137886,1,0,3:0:0:0:
421,61,138052,1,10,0:0:0:0:
496,134,138386,2,0,L|474:268,1,104.999996795654,2|0,3:2|3:0,0:0:0:0:
503,289,138886,1,0,0:0:0:0:
503,289,139052,5,6,3:2:0:0:
438,371,139386,2,0,P|383:381|316:345,1,104.999996795654,2|0,0:0|0:0,0:0:0:0:
305,330,139886,1,0,3:0:0:0:
305,330,140052,1,10,0:0:0:0:
355,237,140386,2,0,L|337:133,1,104.999996795654,2|0,3:2|3:0,0:0:0:0:
270,52,141052,102,0,L|182:66,1,52.4999983978271,6|2,3:2|3:2,0:0:0:0:
183,100,141386,2,0,L|67:85,1,104.999996795654,2|0,0:0|0:0,0:0:0:0:
31,103,141886,1,2,3:2:0:0:
31,103,142052,1,10,0:0:0:0:
0,203,142386,1,2,3:2:0:0:
93,251,142719,1,2,3:2:0:0:
174,184,143052,5,6,3:2:0:0:
174,184,143219,2,0,B|221:178|221:178|234:182|234:182|311:173,1,104.999996795654,0|0,3:0|3:0,0:0:0:0:
319,144,143719,1,2,0:0:0:0:
420,166,144052,1,8,0:0:0:0:
432,271,144386,1,2,3:2:0:0:
336,314,144719,2,0,L|274:306,1,52.4999983978271,8|8,3:2|0:0,0:0:0:0:
243,273,145052,102,0,B|261:223|261:223|246:173,1,104.999996795654,6|2,3:2|0:0,0:0:0:0:
201,145,145552,2,0,L|95:159,1,104.999996795654,2|0,3:2|3:0,0:0:0:0:
46,142,146052,1,10,0:0:0:0:
0,236,146386,2,0,P|-6:295|32:345,1,104.999996795654,2|0,3:2|3:0,0:0:0:0:
108,384,147052,6,0,L|216:376,1,104.999996795654,2|2,3:2|0:0,0:0:0:0:
249,339,147552,2,0,L|357:347,1,104.999996795654,2|0,3:2|3:0,0:0:0:0:
396,377,148052,1,10,0:0:0:0:
495,342,148386,2,0,L|484:275,1,52.4999983978271,2|0,3:2|3:0,0:0:0:0:
501,239,148719,1,8,0:0:0:0:
439,154,149052,102,0,L|450:87,1,52.4999983978271,6|2,3:2|3:2,0:0:0:0:
423,55,149386,2,0,P|371:42|307:77,1,104.999996795654,2|0,0:0|0:0,0:0:0:0:
294,103,149886,1,0,3:0:0:0:
294,103,150052,1,10,0:0:0:0:
208,163,150386,2,0,L|141:152,1,52.4999983978271,2|0,3:2|3:0,0:0:0:0:
109,178,150719,1,8,0:0:0:0:
12,135,151052,6,0,P|0:80|36:23,1,104.999996795654,6|2,3:2|0:0,0:0:0:0:
72,21,151552,1,0,3:0:0:0:
72,21,151719,1,2,0:0:0:0:
172,51,152052,2,0,L|291:41,1,104.999996795654,10|0,0:2|3:0,0:0:0:0:
328,25,152552,1,2,3:2:0:0:
328,25,152719,1,8,0:0:0:0:
415,72,153052,1,4,3:2:0:0:
415,72,160052,5,8,0:0:0:0:
415,72,161052,86,0,B|409:122|409:122|412:129|412:129|405:184,1,99.9999999999999,6|0,3:2|0:0,0:0:0:0:
384,215,161552,2,0,P|330:223|277:183,1,99.9999999999999,8|0,0:0|3:0,0:0:0:0:
266,159,162052,1,8,0:0:0:0:
327,80,162386,1,0,3:0:0:0:
251,14,162719,2,0,L|167:20,1,50,8|8,0:0|0:0,0:0:0:0:
160,46,163052,6,0,B|182:95|182:95|167:159,1,99.9999999999999,6|0,3:2|0:0,0:0:0:0:
142,180,163552,2,0,L|32:170,1,99.9999999999999,8|0,0:0|3:0,0:0:0:0:
6,205,164052,1,8,0:0:0:0:
34,301,164386,1,0,3:0:0:0:
129,270,164719,2,0,L|205:278,1,50,8|8,0:0|0:0,0:0:0:0:
226,303,165052,1,6,3:2:0:0:
226,303,165219,101,0,3:0:0:0:
308,246,165552,2,0,P|321:195|292:129,1,99.9999999999999,8|0,0:0|3:0,0:0:0:0:
264,126,166052,1,8,0:0:0:0:
318,42,166386,2,0,L|394:50,1,50,0|0,3:0|3:0,0:0:0:0:
416,34,166719,1,8,0:0:0:0:
507,85,167052,5,6,3:2:0:0:
507,85,167219,2,0,P|516:138|485:189,1,99.9999999999999,0|8,3:0|0:0,0:0:0:0:
426,249,167886,1,0,3:0:0:0:
426,249,168052,2,0,L|366:241,1,50,8|8,0:2|0:0,0:0:0:0:
339,208,168386,2,0,L|279:216,1,50,8|8,3:2|0:0,0:0:0:0:
249,244,168719,1,8,3:2:0:0:
186,165,169052,102,0,B|203:117|203:117|188:63,1,99.9999999999999,6|0,3:2|0:0,0:0:0:0:
154,33,169552,2,0,P|96:28|51:53,1,99.9999999999999,8|0,0:0|3:0,0:0:0:0:
22,79,170052,1,8,0:0:0:0:
76,162,170386,1,0,3:0:0:0:
0,226,170719,2,0,L|6:288,1,50,8|8,0:0|0:0,0:0:0:0:
37,313,171052,6,0,B|85:290|85:290|150:306,1,99.9999999999999,6|0,3:2|0:0,0:0:0:0:
168,334,171552,2,0,L|276:322,1,99.9999999999999,8|0,0:0|3:0,0:0:0:0:
314,340,172052,1,8,0:0:0:0:
382,267,172386,1,0,3:0:0:0:
322,186,172719,2,0,L|246:178,1,50,8|8,0:0|0:0,0:0:0:0:
229,203,173052,1,6,3:2:0:0:
229,203,173219,101,0,3:0:0:0:
146,146,173552,2,0,P|134:91|171:33,1,99.9999999999999,8|0,0:0|3:0,0:0:0:0:
187,18,174052,1,8,0:0:0:0:
266,78,174386,1,0,3:0:0:0:
352,27,174719,2,0,L|422:33,1,50,8|0,0:0|0:0,0:0:0:0:
440,71,175052,5,6,3:2:0:0:
440,71,175219,2,0,P|449:124|418:175,1,99.9999999999999,0|8,3:0|0:0,0:0:0:0:
353,228,175886,1,0,3:0:0:0:
353,228,176052,2,0,L|293:220,1,50,8|0,0:0|0:0,0:0:0:0:
258,197,176386,1,0,3:2:0:0:
198,277,176719,2,0,L|206:337,1,50,8|0,3:2|0:0,0:0:0:0:
243,357,177052,38,0,B|289:338|289:338|355:355,1,99.9999999999999,6|2,3:2|0:0,0:0:0:0:
388,370,177552,1,8,0:0:0:0:
388,370,177719,1,2,0:0:0:0:
478,327,178052,1,2,3:2:0:0:
448,231,178386,2,0,L|458:167,1,50,10|8,0:0|0:0,0:0:0:0:
489,144,178719,1,10,0:0:0:0:
447,53,179052,6,0,P|390:29|330:60,1,99.9999999999999,2|2,3:2|0:0,0:0:0:0:
316,68,179552,1,8,0:0:0:0:
316,68,179719,1,2,0:0:0:0:
221,34,180052,1,10,0:0:0:0:
153,107,180386,1,2,0:1:0:0:
327,224,181052,102,0,L|332:276,1,52.4999983978271,4|2,3:2|0:0,0:0:0:0:
313,325,181386,2,0,P|260:339|211:321,1,104.999996795654,2|0,0:0|0:0,0:0:0:0:
192,280,181886,1,0,3:0:0:0:
192,280,182052,2,0,L|198:227,1,52.4999983978271,10|2,0:0|0:0,0:0:0:0:
171,181,182386,2,0,P|118:167|69:185,1,104.999996795654,2|0,3:2|3:0,0:0:0:0:
1,260,183052,6,0,L|7:313,1,52.4999983978271,2|2,3:2|3:2,0:0:0:0:
39,353,183386,2,0,P|92:367|141:349,1,104.999996795654,2|0,0:0|0:0,0:0:0:0:
177,316,183886,1,0,3:0:0:0:
177,316,184052,1,10,0:0:0:0:
263,376,184386,2,0,L|316:369,1,52.4999983978271,2|0,3:2|3:0,0:0:0:0:
367,361,184719,1,8,0:0:0:0:
447,293,185052,102,0,L|441:240,1,52.4999983978271,6|2,3:2|3:2,0:0:0:0:
408,199,185386,2,0,P|356:189|307:213,1,104.999996795654,2|0,0:0|0:0,0:0:0:0:
279,253,185886,1,2,3:2:0:0:
279,253,186052,1,10,0:0:0:0:
198,185,186386,2,0,L|207:127,1,52.4999983978271,2|0,3:2|0:0,0:0:0:0:
240,93,186719,2,0,L|231:35,1,52.4999983978271,2|0,3:2|0:0,0:0:0:0:
199,6,187052,5,6,3:2:0:0:
199,6,187219,2,0,B|153:13|153:13|141:22|141:22|97:29,1,104.999996795654,0|0,3:0|3:0,0:0:0:0:
11,86,187886,1,0,3:0:0:0:
11,86,188052,2,0,P|3:144|49:201,1,104.999996795654,10|2,0:0|3:2,0:0:0:0:
100,255,188719,2,0,L|183:242,1,52.4999983978271,10|8,3:2|0:0,0:0:0:0:
190,211,189052,102,0,B|236:218|236:218|248:227|248:227|292:234,1,104.999996795654,6|2,3:2|0:0,0:0:0:0:
333,202,189552,2,0,L|317:69,1,104.999996795654,2|0,3:2|3:0,0:0:0:0:
283,60,190052,1,10,0:0:0:0:
366,0,190386,2,0,P|421:-11|473:15,1,104.999996795654,2|0,3:2|3:0,0:0:0:0:
512,102,191052,6,0,L|496:235,1,104.999996795654,2|2,3:2|0:0,0:0:0:0:
460,241,191552,2,0,P|405:252|353:226,1,104.999996795654,2|0,3:2|3:0,0:0:0:0:
325,194,192052,1,10,0:0:0:0:
229,237,192386,2,0,L|236:303,1,52.4999983978271,2|0,3:2|3:0,0:0:0:0:
258,336,192719,1,8,0:0:0:0:
165,384,193052,102,0,L|104:380,1,52.4999983978271,6|2,3:2|3:2,0:0:0:0:
63,361,193386,2,0,B|48:310|48:310|71:249,1,104.999996795654,2|0,0:0|0:0,0:0:0:0:
104,225,193886,1,0,3:0:0:0:
104,225,194052,1,10,0:0:0:0:
201,263,194386,1,2,3:2:0:0:
275,193,194719,1,2,3:2:0:0:
371,235,195052,1,2,3:2:0:0:
454,170,195386,6,0,L|442:99,1,52.4999983978271,10|0,0:0|3:0,0:0:0:0:
407,81,195719,2,0,B|363:108|363:108|311:98,1,104.999996795654,6|8,3:2|3:2,0:0:0:0:
277,64,196219,1,8,0:0:0:0:
277,64,196386,2,0,L|207:72,1,52.4999983978271,10|8,3:2|0:0,0:0:0:0:
183,103,196719,1,10,3:2:0:0:
103,34,197052,102,0,L|33:42,1,52.4999983978271,6|2,3:2|0:0,0:0:0:0:
7,70,197386,2,0,P|3:125|58:185,1,104.999996795654,2|0,0:0|0:0,0:0:0:0:
69,207,197886,1,0,3:0:0:0:
69,207,198052,1,10,0:0:0:0:
158,152,198386,2,0,L|295:168,1,104.999996795654,2|0,3:2|3:0,0:0:0:0:
314,147,198886,1,0,0:0:0:0:
314,147,199052,5,6,3:2:0:0:
395,213,199386,2,0,P|407:270|350:338,1,104.999996795654,2|0,0:0|0:0,0:0:0:0:
347,341,199886,1,0,3:0:0:0:
347,341,200052,1,10,0:0:0:0:
250,382,200386,2,0,L|144:372,1,104.999996795654,2|0,3:2|3:0,0:0:0:0:
54,320,201052,102,0,L|64:230,1,52.4999983978271,6|2,3:2|3:2,0:0:0:0:
86,221,201386,2,0,L|70:89,1,104.999996795654,2|0,0:0|0:0,0:0:0:0:
55,72,201886,1,2,3:2:0:0:
55,72,202052,1,10,0:0:0:0:
136,5,202386,1,2,3:2:0:0:
227,60,202719,1,2,3:2:0:0:
201,164,203052,5,6,3:2:0:0:
201,164,203219,2,0,B|206:212|206:212|201:225|201:225|206:300,1,104.999996795654,0|2,3:0|3:1,0:0:0:0:
233,311,203719,2,0,P|262:313|294:300,1,52.4999983978271,2|2,0:1|3:1,0:0:0:0:
330,281,204052,2,0,P|359:279|391:292,1,52.4999983978271,10|2,0:0|0:1,0:0:0:0:
424,316,204386,1,2,3:2:0:0:
508,253,204719,2,0,L|497:191,1,52.4999983978271,8|8,3:2|0:0,0:0:0:0:
463,162,205052,102,0,B|414:184|414:184|347:169,1,104.999996795654,6|2,3:2|0:0,0:0:0:0:
322,140,205552,2,0,L|216:154,1,104.999996795654,2|0,3:2|3:0,0:0:0:0:
173,181,206052,1,10,0:0:0:0:
73,146,206386,2,0,P|55:98|82:31,1,104.999996795654,2|0,3:2|3:0,0:0:0:0:
163,4,207052,6,0,L|269:18,1,104.999996795654,2|2,3:2|0:0,0:0:0:0:
303,56,207552,2,0,L|409:42,1,104.999996795654,2|0,3:2|3:0,0:0:0:0:
448,10,208052,1,10,0:0:0:0:
510,94,208386,2,0,L|499:161,1,52.4999983978271,2|0,3:2|3:0,0:0:0:0:
507,198,208719,1,8,0:0:0:0:
428,267,209052,102,0,L|434:335,1,52.4999983978271,6|2,3:2|3:2,0:0:0:0:
402,363,209386,2,0,P|343:378|288:339,1,104.999996795654,2|0,0:0|0:0,0:0:0:0:
274,324,209886,1,0,3:0:0:0:
274,324,210052,1,10,0:0:0:0:
217,235,210386,2,0,L|222:182,1,52.4999983978271,2|0,3:2|3:0,0:0:0:0:
243,134,210719,1,8,0:0:0:0:
170,57,211052,6,0,P|114:46|59:82,1,104.999996795654,6|2,3:2|0:0,0:0:0:0:
43,110,211552,1,0,3:0:0:0:
43,110,211719,1,2,0:0:0:0:
98,199,212052,2,0,L|87:320,1,104.999996795654,10|0,0:2|3:0,0:0:0:0:
124,348,212552,1,2,3:2:0:0:
124,348,212719,1,8,0:0:0:0:
217,311,213052,1,6,3:2:0:0:
256,192,213219,12,0,221052,0:0:0:0:
