osu file format v14

[General]
AudioFilename: audio.mp3
AudioLeadIn: 0
PreviewTime: 98410
Countdown: 0
SampleSet: Soft
StackLeniency: 0.7
Mode: 3
LetterboxInBreaks: 0
SpecialStyle: 0
WidescreenStoryboard: 1

[Editor]
DistanceSpacing: 1
BeatDivisor: 4
GridSize: 4
TimelineZoom: 2.4

[Metadata]
Title:AKUMA
TitleUnicode:AKUMA
Artist:Tokoyami Towa
ArtistUnicode:常闇トワ
Creator:Angel False
Version:Hard
Source:
Tags:vtuber virtual youtuber hololive ホロライブ すりぃ surii iii0303 ep minialbum mini album scream pop j-pop jpop japanese
BeatmapID:3614021
BeatmapSetID:1765576

[Difficulty]
HPDrainRate:7.5
CircleSize:4
OverallDifficulty:7.5
ApproachRate:5
SliderMultiplier:1.4
SliderTickRate:1

[Events]
//Background and Video events
0,0,"default2.jpg",0,0
//Break Periods
//Storyboard Layer 0 (Background)
//Storyboard Layer 1 (Fail)
//Storyboard Layer 2 (Pass)
//Storyboard Layer 3 (Foreground)
//Storyboard Layer 4 (Overlay)
//Storyboard Sound Samples
Sample,60626,0,"Hat open.wav",50
Sample,69707,0,"Hat open.wav",50
Sample,107329,0,"Hat open.wav",50
Sample,116410,0,"Hat open.wav",50
Sample,169599,0,"Hat open.wav",50
Sample,178680,0,"Ride.wav",50
Sample,181275,0,"Hat open.wav",50
Sample,190356,0,"Hat open.wav",50

[TimingPoints]
140,324.324324324324,4,2,1,70,1,0
52031,-100,4,2,1,70,0,1
72788,-100,4,2,1,70,0,0
98734,-100,4,2,1,70,0,1
119491,-100,4,2,1,70,0,0
162302,-100,4,2,1,70,0,1
172680,-100,4,2,1,70,0,0
173977,-100,4,2,1,70,0,1
193437,-100,4,2,1,70,0,0

[HitObjects]
64,192,140,5,4,2:0:0:0:
320,192,140,1,2,2:0:0:0:
448,192,140,1,0,0:0:0:0:
64,192,464,1,2,2:0:0:0:
192,192,464,1,0,0:0:0:0:
192,192,626,1,0,0:0:0:0:
320,192,788,1,2,2:0:0:0:
448,192,788,1,0,0:0:0:0:
448,192,950,128,0,1112:0:0:0:0:
64,192,1112,1,2,2:0:0:0:
320,192,1112,128,0,1275:0:0:0:0:
192,192,1275,128,0,1437:0:0:0:0:
64,192,1437,1,2,2:0:0:0:
448,192,1437,1,0,0:0:0:0:
320,192,1599,1,0,0:0:0:0:
320,192,1761,1,2,2:0:0:0:
448,192,1761,1,0,0:0:0:0:
192,192,1923,1,0,0:0:0:0:
64,192,2085,1,2,2:0:0:0:
192,192,2085,128,0,2248:0:0:0:0:
448,192,2248,128,0,2410:0:0:0:0:
64,192,2410,1,2,2:0:0:0:
320,192,2410,128,0,2572:0:0:0:0:
192,192,2572,1,0,0:0:0:0:
320,192,2734,1,2,2:0:0:0:
448,192,2734,1,0,0:0:0:0:
192,192,2896,1,0,0:0:0:0:
64,192,3058,1,2,2:0:0:0:
192,192,3058,1,0,0:0:0:0:
448,192,3221,1,0,0:0:0:0:
320,192,3383,1,2,2:0:0:0:
448,192,3383,1,0,0:0:0:0:
64,192,3545,128,0,3707:0:0:0:0:
192,192,3707,128,2,3869:2:0:0:0:
448,192,3707,1,0,0:0:0:0:
320,192,3869,128,0,4031:0:0:0:0:
64,192,4031,1,2,2:0:0:0:
192,192,4031,1,0,0:0:0:0:
192,192,4194,128,0,4356:0:0:0:0:
64,192,4356,1,2,2:0:0:0:
448,192,4356,128,0,4518:0:0:0:0:
320,192,4518,128,0,4680:0:0:0:0:
64,192,4680,128,8,4842:2:0:0:0:
448,192,4680,1,0,0:0:0:0:
192,192,5004,1,2,2:0:0:0:
320,192,5004,1,0,0:0:0:0:
64,192,5329,1,2,2:0:0:0:
192,192,5329,1,4,2:0:0:0:
448,192,5329,1,0,0:0:0:0:
64,192,5653,128,8,5815:2:0:0:0:
320,192,5653,1,0,2:0:0:50:Hat open.wav
192,192,5815,128,0,5977:0:0:0:0:
64,192,5977,1,2,2:0:0:0:
448,192,5977,1,0,2:0:0:50:Hat open.wav
448,192,6139,128,0,6302:0:0:0:0:
64,192,6302,1,8,2:0:0:0:
320,192,6302,128,0,6464:2:0:0:50:Hat open.wav
192,192,6464,128,0,6626:0:0:0:0:
64,192,6626,1,2,2:0:0:0:
448,192,6626,1,0,2:0:0:50:Hat open.wav
320,192,6788,128,0,6950:0:0:0:0:
64,192,6950,1,8,2:0:0:0:
192,192,6950,128,0,7112:2:0:0:50:Hat open.wav
320,192,7112,1,0,0:0:0:0:
192,192,7194,1,0,0:0:0:0:
64,192,7275,1,2,2:0:0:0:
320,192,7275,128,0,7437:2:0:0:50:Hat open.wav
448,192,7437,128,0,7599:0:0:0:0:
192,192,7599,128,8,7923:2:0:0:0:
320,192,7599,1,0,2:0:0:50:Hat open.wav
64,192,7923,1,2,2:0:0:0:
448,192,7923,1,0,2:0:0:50:Hat open.wav
64,192,8248,128,8,8410:2:0:0:0:
448,192,8248,1,0,2:0:0:50:Hat open.wav
192,192,8410,128,0,8572:0:0:0:0:
64,192,8572,1,2,2:0:0:0:
320,192,8572,1,0,2:0:0:50:Hat open.wav
320,192,8734,128,0,8896:0:0:0:0:
192,192,8896,128,8,9058:2:0:0:0:
448,192,8896,1,0,2:0:0:50:Hat open.wav
64,192,9058,128,0,9221:0:0:0:0:
192,192,9221,1,2,2:0:0:0:
448,192,9221,1,0,2:0:0:50:Hat open.wav
320,192,9383,128,0,9545:0:0:0:0:
64,192,9545,1,8,2:0:0:0:
448,192,9545,128,0,9707:2:0:0:50:Hat open.wav
192,192,9707,128,0,9869:0:0:0:0:
320,192,9869,128,2,10031:2:0:0:0:
448,192,9869,1,0,2:0:0:50:Hat open.wav
64,192,10194,1,8,2:0:0:0:
448,192,10194,1,0,0:0:0:0:
192,192,10356,1,8,2:0:0:0:
320,192,10437,1,8,2:0:0:0:
64,192,10518,1,4,2:0:0:0:
192,192,10518,1,2,2:0:0:0:
448,192,10518,1,0,0:0:0:0:
64,192,10842,1,8,2:0:0:0:
192,192,10842,128,0,11004:2:0:0:50:Hat open.wav
320,192,11004,128,0,11167:0:0:0:0:
192,192,11167,1,2,2:0:0:0:
448,192,11167,1,0,2:0:0:50:Hat open.wav
64,192,11329,128,0,11491:0:0:0:0:
320,192,11491,128,8,11653:2:0:0:0:
448,192,11491,1,0,2:0:0:50:Hat open.wav
192,192,11653,128,0,11815:0:0:0:0:
64,192,11815,1,2,2:0:0:0:
320,192,11815,1,0,2:0:0:50:Hat open.wav
448,192,11977,128,0,12139:0:0:0:0:
64,192,12139,1,8,2:0:0:0:
192,192,12139,128,0,12302:2:0:0:50:Hat open.wav
320,192,12302,1,0,0:0:0:0:
192,192,12383,1,0,0:0:0:0:
64,192,12464,128,2,12626:2:0:0:0:
320,192,12464,1,0,2:0:0:50:Hat open.wav
448,192,12626,128,0,12788:0:0:0:0:
192,192,12788,128,8,13112:2:0:0:0:
320,192,12788,1,0,2:0:0:50:Hat open.wav
64,192,13112,1,2,2:0:0:0:
320,192,13112,1,0,2:0:0:50:Hat open.wav
320,192,13437,128,8,13599:2:0:0:0:
448,192,13437,1,0,2:0:0:50:Hat open.wav
192,192,13599,128,0,13761:0:0:0:0:
64,192,13761,1,2,2:0:0:0:
320,192,13761,1,0,2:0:0:50:Hat open.wav
448,192,13923,128,0,14085:0:0:0:0:
64,192,14085,1,8,2:0:0:0:
192,192,14085,128,0,14248:2:0:0:50:Hat open.wav
320,192,14248,128,0,14410:0:0:0:0:
192,192,14410,1,2,2:0:0:0:
448,192,14410,1,0,2:0:0:50:Hat open.wav
64,192,14572,128,0,14734:0:0:0:0:
320,192,14734,1,8,2:0:0:0:
448,192,14734,128,0,14896:2:0:0:50:Hat open.wav
192,192,14896,128,0,15058:0:0:0:0:
64,192,15058,1,2,2:0:0:0:
320,192,15058,128,0,15221:2:0:0:50:Hat open.wav
64,192,15383,1,8,2:0:0:0:
448,192,15383,1,0,2:0:0:50:Hat open.wav
192,192,15545,1,8,2:0:0:0:
320,192,15626,1,8,2:0:0:0:
64,192,15707,1,2,2:0:0:0:
192,192,15707,128,4,15869:2:0:0:0:
448,192,15707,1,0,0:0:0:0:
192,192,16031,1,2,2:0:0:0:
320,192,16031,128,0,16356:0:0:0:0:
64,192,16356,1,2,2:0:0:0:
448,192,16356,128,0,16437:0:0:0:0:
448,192,16518,128,0,16599:0:0:0:0:
192,192,16680,128,2,16761:2:0:0:0:
320,192,16680,1,0,0:0:0:0:
192,192,16842,128,0,16923:0:0:0:0:
64,192,17004,1,2,2:0:0:0:
320,192,17004,128,0,17329:0:0:0:0:
192,192,17329,128,2,17491:2:0:0:0:
448,192,17329,1,0,0:0:0:0:
64,192,17491,128,0,17815:0:0:0:0:
192,192,17653,1,2,2:0:0:0:
448,192,17653,1,0,0:0:0:0:
320,192,17815,128,0,18302:0:0:0:0:
64,192,17977,1,2,2:0:0:0:
192,192,17977,1,0,0:0:0:0:
192,192,18302,1,2,2:0:0:0:
448,192,18302,1,0,0:0:0:0:
64,192,18464,128,0,18626:0:0:0:0:
320,192,18626,128,2,18788:2:0:0:0:
448,192,18626,1,0,0:0:0:0:
64,192,18788,128,0,18950:0:0:0:0:
192,192,18950,1,2,2:0:0:0:
320,192,18950,128,0,19275:0:0:0:0:
192,192,19275,128,2,19599:2:0:0:0:
448,192,19275,1,0,0:0:0:0:
320,192,19599,1,2,2:0:0:0:
448,192,19599,1,0,0:0:0:0:
320,192,19761,128,0,19842:0:0:0:0:
192,192,19842,128,0,19923:0:0:0:0:
64,192,19923,1,2,2:0:0:0:
320,192,19923,128,0,20085:0:0:0:0:
64,192,20085,128,0,20248:0:0:0:0:
192,192,20248,128,2,20572:2:0:0:0:
448,192,20248,1,0,0:0:0:0:
64,192,20572,1,2,2:0:0:0:
448,192,20572,128,0,20896:0:0:0:0:
64,192,20896,1,2,2:0:0:0:
192,192,20896,128,0,21058:0:0:0:0:
448,192,21058,128,0,21221:0:0:0:0:
192,192,21221,1,2,2:0:0:0:
320,192,21221,128,0,21383:0:0:0:0:
448,192,21383,128,0,21545:0:0:0:0:
64,192,21545,1,2,2:0:0:0:
192,192,21545,128,0,21707:0:0:0:0:
320,192,21707,128,0,21869:0:0:0:0:
192,192,21869,128,2,22031:2:0:0:0:
448,192,21869,1,0,0:0:0:0:
64,192,22031,128,0,22194:0:0:0:0:
192,192,22194,1,2,2:0:0:0:
320,192,22194,128,0,22356:0:0:0:0:
448,192,22356,128,0,22518:0:0:0:0:
192,192,22518,1,2,2:0:0:0:
320,192,22518,128,0,22842:0:0:0:0:
64,192,22842,128,2,23167:2:0:0:0:
448,192,22842,1,0,0:0:0:0:
192,192,23167,1,2,2:0:0:0:
320,192,23167,1,0,0:0:0:0:
320,192,23491,128,2,23653:2:0:0:0:
448,192,23491,1,0,0:0:0:0:
192,192,23653,128,0,23815:0:0:0:0:
64,192,23815,1,2,2:0:0:0:
448,192,23815,128,0,23977:0:0:0:0:
320,192,23977,128,0,24139:0:0:0:0:
64,192,24139,128,2,24464:2:0:0:0:
192,192,24139,1,0,0:0:0:0:
192,192,24464,1,2,2:0:0:0:
448,192,24464,128,0,24788:0:0:0:0:
64,192,24788,1,2,2:0:0:0:
192,192,24788,128,0,24950:0:0:0:0:
448,192,24950,128,0,25112:0:0:0:0:
192,192,25112,128,2,25275:2:0:0:0:
320,192,25112,1,0,0:0:0:0:
448,192,25275,128,0,25437:0:0:0:0:
64,192,25437,1,2,2:0:0:0:
192,192,25437,1,0,2:0:0:50:Hat open.wav
320,192,25761,1,8,2:0:0:0:
448,192,25761,1,0,0:0:0:0:
64,192,26085,1,4,2:0:0:0:
192,192,26085,1,2,2:0:0:0:
448,192,26085,1,0,0:0:0:0:
320,192,26410,1,8,2:0:0:0:
448,192,26410,128,0,26572:2:0:0:50:Hat open.wav
192,192,26572,128,0,26734:0:0:0:0:
64,192,26734,1,2,2:0:0:0:
320,192,26734,1,0,2:0:0:50:Hat open.wav
448,192,26896,128,0,27058:0:0:0:0:
192,192,27058,128,8,27221:2:0:0:0:
320,192,27058,1,0,2:0:0:50:Hat open.wav
64,192,27221,128,0,27383:0:0:0:0:
192,192,27383,1,2,2:0:0:0:
448,192,27383,1,0,2:0:0:50:Hat open.wav
320,192,27545,128,0,27707:0:0:0:0:
192,192,27707,128,8,27869:2:0:0:0:
448,192,27707,1,0,2:0:0:50:Hat open.wav
320,192,27869,1,0,0:0:0:0:
192,192,27950,1,0,0:0:0:0:
64,192,28031,128,2,28194:2:0:0:0:
320,192,28031,1,0,2:0:0:50:Hat open.wav
448,192,28194,128,0,28356:0:0:0:0:
192,192,28356,1,8,2:0:0:0:
320,192,28356,128,0,28680:2:0:0:50:Hat open.wav
64,192,28680,1,2,2:0:0:0:
448,192,28680,1,0,2:0:0:50:Hat open.wav
192,192,29004,128,8,29167:2:0:0:0:
448,192,29004,1,0,2:0:0:50:Hat open.wav
320,192,29167,128,0,29329:0:0:0:0:
64,192,29329,1,2,2:0:0:0:
192,192,29329,1,0,2:0:0:50:Hat open.wav
448,192,29491,128,0,29653:0:0:0:0:
64,192,29653,1,8,2:0:0:0:
320,192,29653,128,0,29815:2:0:0:50:Hat open.wav
192,192,29815,128,0,29977:0:0:0:0:
320,192,29977,1,2,2:0:0:0:
448,192,29977,1,0,2:0:0:50:Hat open.wav
192,192,30139,128,0,30302:0:0:0:0:
64,192,30302,1,8,2:0:0:0:
320,192,30302,128,0,30464:2:0:0:50:Hat open.wav
448,192,30464,128,0,30626:0:0:0:0:
64,192,30626,1,2,2:0:0:0:
320,192,30626,128,0,30788:2:0:0:50:Hat open.wav
64,192,30950,1,8,2:0:0:0:
448,192,30950,1,0,0:0:0:0:
320,192,31112,1,8,2:0:0:0:
192,192,31194,1,8,2:0:0:0:
64,192,31275,1,4,2:0:0:0:
320,192,31275,128,2,31437:2:0:0:0:
448,192,31275,1,0,0:0:0:0:
64,192,31599,1,8,2:0:0:0:
192,192,31599,128,0,31923:0:0:0:0:
320,192,31923,128,2,32085:2:0:0:0:
448,192,31923,1,0,0:0:0:0:
192,192,32085,128,0,32248:0:0:0:0:
320,192,32248,1,8,2:0:0:0:
448,192,32248,128,0,32410:0:0:0:0:
64,192,32410,128,0,32572:0:0:0:0:
192,192,32572,1,2,2:0:0:0:
320,192,32572,128,0,32896:0:0:0:0:
192,192,32896,128,8,33058:2:0:0:0:
448,192,32896,1,0,0:0:0:0:
64,192,33058,128,0,33383:0:0:0:0:
192,192,33221,1,2,2:0:0:0:
448,192,33221,1,0,0:0:0:0:
320,192,33383,128,0,33869:0:0:0:0:
64,192,33545,1,8,2:0:0:0:
192,192,33545,1,0,0:0:0:0:
192,192,33869,1,2,2:0:0:0:
448,192,33869,1,0,0:0:0:0:
192,192,34031,128,0,34112:0:0:0:0:
64,192,34112,128,0,34194:0:0:0:0:
320,192,34194,128,8,34356:2:0:0:0:
448,192,34194,1,0,0:0:0:0:
64,192,34356,128,0,34518:0:0:0:0:
192,192,34518,1,2,2:0:0:0:
320,192,34518,128,0,34842:0:0:0:0:
64,192,34842,1,8,2:0:0:0:
192,192,34842,128,0,35167:0:0:0:0:
320,192,35167,1,2,2:0:0:0:
448,192,35167,1,0,0:0:0:0:
64,192,35329,128,0,35410:0:0:0:0:
192,192,35410,128,0,35491:0:0:0:0:
320,192,35491,128,8,35653:2:0:0:0:
448,192,35491,1,0,0:0:0:0:
64,192,35653,128,0,35815:0:0:0:0:
192,192,35815,128,2,36139:2:0:0:0:
448,192,35815,1,0,0:0:0:0:
64,192,36139,1,8,2:0:0:0:
448,192,36139,128,0,36464:0:0:0:0:
64,192,36464,1,2,2:0:0:0:
192,192,36464,128,4,36626:2:0:0:0:
320,192,36464,1,0,0:0:0:0:
448,192,36626,128,0,36788:0:0:0:0:
64,192,36788,1,8,2:0:0:0:
320,192,36788,128,0,36950:0:0:0:0:
192,192,36950,128,0,37112:0:0:0:0:
64,192,37112,128,2,37437:2:0:0:0:
448,192,37112,1,0,0:0:0:0:
192,192,37437,1,8,2:0:0:0:
448,192,37437,128,0,37761:0:0:0:0:
192,192,37761,128,2,37923:2:0:0:0:
320,192,37761,1,0,0:0:0:0:
448,192,37923,128,0,38085:0:0:0:0:
64,192,38085,1,8,2:0:0:0:
320,192,38085,128,0,38248:0:0:0:0:
192,192,38248,128,0,38410:0:0:0:0:
64,192,38410,128,2,38572:2:0:0:0:
448,192,38410,1,0,0:0:0:0:
192,192,38734,128,8,39058:2:0:0:0:
448,192,38734,1,0,0:0:0:0:
64,192,39058,1,2,2:0:0:0:
320,192,39058,128,0,39221:0:0:0:0:
192,192,39221,128,0,39383:0:0:0:0:
64,192,39383,1,8,2:0:0:0:
448,192,39383,128,0,39545:0:0:0:0:
320,192,39545,128,0,39707:0:0:0:0:
64,192,39707,128,2,39869:2:0:0:0:
192,192,39707,1,0,0:0:0:0:
192,192,39869,128,0,40031:0:0:0:0:
320,192,40031,1,8,2:0:0:0:
448,192,40031,128,0,40194:0:0:0:0:
320,192,40194,128,0,40356:0:0:0:0:
64,192,40356,1,2,2:0:0:0:
192,192,40356,128,0,40518:0:0:0:0:
320,192,40518,128,0,40680:0:0:0:0:
64,192,40680,128,8,40842:2:0:0:0:
448,192,40680,1,0,0:0:0:0:
320,192,40842,128,0,41004:0:0:0:0:
64,192,41004,1,2,2:0:0:0:
192,192,41004,128,0,41167:2:0:0:50:Hat open.wav
320,192,41329,128,8,41653:2:0:0:0:
448,192,41329,1,0,0:0:0:0:
64,192,41653,1,4,2:0:0:0:
192,192,41653,128,2,41815:2:0:0:0:
448,192,41653,128,0,41977:0:0:0:0:
64,192,41977,128,2,42302:2:0:0:0:
192,192,41977,128,0,42139:0:0:0:0:
320,192,42139,1,0,2:0:0:50:Hat open.wav
320,192,42302,128,2,42464:2:0:0:0:
448,192,42302,128,0,42626:0:0:0:0:
192,192,42464,1,0,2:0:0:50:Hat open.wav
64,192,42626,128,2,42950:2:0:0:0:
320,192,42626,128,0,42788:0:0:0:0:
448,192,42788,1,0,2:0:0:50:Hat open.wav
192,192,42950,1,2,2:0:0:0:
320,192,42950,1,0,0:0:0:0:
320,192,43112,128,0,43275:2:0:0:50:Hat open.wav
192,192,43275,1,2,2:0:0:0:
448,192,43275,128,0,43437:0:0:0:0:
64,192,43437,128,0,43599:2:0:0:50:Hat open.wav
192,192,43599,128,2,43923:2:0:0:0:
448,192,43599,128,0,43761:0:0:0:0:
320,192,43761,1,0,2:0:0:50:Hat open.wav
64,192,43923,128,2,44085:2:0:0:0:
448,192,43923,128,0,44248:0:0:0:0:
192,192,44085,1,0,2:0:0:50:Hat open.wav
64,192,44248,1,2,2:0:0:0:
320,192,44248,128,0,44410:0:0:0:0:
192,192,44410,128,0,44572:2:0:0:50:Hat open.wav
320,192,44572,1,2,2:0:0:0:
448,192,44572,1,0,0:0:0:0:
192,192,44734,128,0,45058:2:0:0:50:Hat open.wav
320,192,44896,1,2,2:0:0:0:
448,192,44896,1,0,0:0:0:0:
64,192,45058,128,0,45221:2:0:0:50:Hat open.wav
192,192,45221,1,2,2:0:0:0:
448,192,45221,1,0,0:0:0:0:
320,192,45383,128,0,46194:2:0:0:50:Hat open.wav
64,192,45545,1,2,2:0:0:0:
192,192,45545,1,0,0:0:0:0:
448,192,45707,1,0,2:0:0:50:Hat open.wav
64,192,45869,1,2,2:0:0:0:
448,192,45869,1,0,0:0:0:0:
192,192,46031,1,0,2:0:0:50:Hat open.wav
64,192,46194,1,2,2:0:0:0:
448,192,46194,1,0,0:0:0:0:
320,192,46356,1,0,2:0:0:50:Hat open.wav
64,192,46518,1,2,2:0:0:0:
192,192,46518,1,0,0:0:0:0:
64,192,46680,1,0,2:0:0:50:Hat open.wav
192,192,46842,128,4,47004:2:0:0:0:
320,192,46842,128,2,47167:2:0:0:0:
448,192,46842,1,0,0:0:0:0:
64,192,47167,128,2,47491:2:0:0:0:
448,192,47167,128,0,47329:0:0:0:0:
192,192,47329,1,0,2:0:0:50:Hat open.wav
192,192,47491,128,2,47653:2:0:0:0:
320,192,47491,128,0,47815:0:0:0:0:
64,192,47653,1,0,2:0:0:50:Hat open.wav
64,192,47815,128,2,48139:2:0:0:0:
448,192,47815,128,0,47977:0:0:0:0:
320,192,47977,1,0,2:0:0:50:Hat open.wav
192,192,48139,1,2,2:0:0:0:
448,192,48139,1,0,0:0:0:0:
320,192,48302,128,0,48464:2:0:0:50:Hat open.wav
192,192,48464,1,2,2:0:0:0:
448,192,48464,128,0,48626:0:0:0:0:
64,192,48626,128,0,48788:2:0:0:50:Hat open.wav
192,192,48788,128,2,49112:2:0:0:0:
448,192,48788,128,0,48950:0:0:0:0:
64,192,48950,1,0,2:0:0:50:Hat open.wav
320,192,49112,128,2,49275:2:0:0:0:
448,192,49112,128,0,49437:0:0:0:0:
192,192,49275,1,0,2:0:0:50:Hat open.wav
192,192,49437,1,2,2:0:0:0:
320,192,49437,1,4,2:0:0:0:
64,192,49599,128,8,49761:2:0:0:0:
320,192,49761,1,8,2:0:0:0:
448,192,49761,128,0,49923:0:0:0:0:
64,192,49923,128,0,50085:2:0:0:50:marching_drum.wav
192,192,49923,1,0,0:0:0:0:
320,192,50085,128,8,50167:2:0:0:0:
448,192,50085,1,0,0:0:0:0:
320,192,50248,128,0,50410:2:0:0:50:marching_drum.wav
64,192,50410,1,8,2:0:0:0:
192,192,50410,128,0,50491:0:0:0:0:
192,192,50572,128,0,50734:2:0:0:50:marching_drum.wav
64,192,50734,1,8,2:0:0:0:
320,192,50734,1,0,2:0:0:50:Hat open.wav
448,192,50734,128,0,51058:0:0:0:0:
64,192,51383,1,8,2:0:0:0:
448,192,51383,1,0,0:0:0:0:
192,192,51545,1,2,2:0:0:0:
320,192,51626,1,2,2:0:0:0:
64,192,51707,1,8,2:0:0:0:
448,192,51707,128,0,52031:2:0:0:50:Hat open.wav
64,192,52031,128,2,52112:2:0:0:0:
192,192,52031,1,4,2:0:0:0:
320,192,52031,128,0,52112:0:0:0:0:
64,192,52194,128,0,52275:0:0:0:0:
320,192,52356,128,8,52437:2:0:0:0:
448,192,52356,1,0,0:0:0:0:
320,192,52518,128,0,52599:2:0:0:50:Hat open.wav
64,192,52680,1,2,2:0:0:0:
448,192,52680,128,0,53004:0:0:0:0:
320,192,52842,1,0,2:0:0:50:Hat open.wav
64,192,53004,128,8,53329:2:0:0:0:
192,192,53004,1,0,0:0:0:0:
448,192,53167,1,0,2:0:0:50:Hat open.wav
192,192,53329,1,2,2:0:0:0:
448,192,53329,128,0,53491:0:0:0:0:
64,192,53491,1,0,2:0:0:50:Hat open.wav
192,192,53653,128,8,53734:2:0:0:0:
320,192,53653,1,0,0:0:0:0:
192,192,53815,128,0,53977:2:0:0:50:Hat open.wav
64,192,53977,1,2,2:0:0:0:
448,192,53977,1,0,0:0:0:0:
320,192,54139,128,0,54302:2:0:0:50:Hat open.wav
64,192,54302,1,8,2:0:0:0:
192,192,54302,1,0,0:0:0:0:
192,192,54464,128,0,54545:2:0:0:50:Hat open.wav
64,192,54626,1,2,2:0:0:0:
448,192,54626,128,0,54707:0:0:0:0:
448,192,54788,128,0,54869:2:0:0:50:Hat open.wav
192,192,54950,128,8,55031:2:0:0:0:
320,192,54950,1,0,0:0:0:0:
192,192,55112,128,0,55194:2:0:0:50:Hat open.wav
64,192,55275,1,2,2:0:0:0:
320,192,55275,128,0,55356:0:0:0:0:
320,192,55437,128,0,55518:2:0:0:50:Hat open.wav
192,192,55599,128,8,55680:2:0:0:0:
448,192,55599,1,0,0:0:0:0:
192,192,55761,128,0,55842:2:0:0:50:Hat open.wav
64,192,55923,128,2,56085:2:0:0:0:
320,192,55923,1,0,0:0:0:0:
448,192,56085,128,0,56248:2:0:0:50:Hat open.wav
64,192,56248,1,8,2:0:0:0:
320,192,56248,128,0,56410:0:0:0:0:
192,192,56410,128,0,56572:2:0:0:50:Hat open.wav
64,192,56572,128,2,56896:2:0:0:0:
448,192,56572,1,0,0:0:0:0:
320,192,56734,1,0,2:0:0:50:Hat open.wav
192,192,56896,1,8,2:0:0:0:
448,192,56896,1,0,0:0:0:0:
64,192,57058,1,8,2:0:0:0:
192,192,57139,1,8,2:0:0:0:
64,192,57221,1,2,2:0:0:0:
320,192,57221,128,4,57545:2:0:0:0:
448,192,57221,128,0,57545:0:0:0:0:
64,192,57545,128,8,57626:2:0:0:0:
192,192,57545,128,0,57626:0:0:0:0:
64,192,57707,128,0,57788:2:0:0:50:Ride.wav
320,192,57869,128,2,57950:2:0:0:0:
448,192,57869,128,0,57950:0:0:0:0:
448,192,58031,128,0,58112:2:0:0:50:Ride.wav
64,192,58194,1,8,2:0:0:0:
192,192,58194,1,0,0:0:0:0:
64,192,58356,128,4,58680:2:0:0:0:
320,192,58356,128,2,58680:2:0:0:0:
448,192,58356,1,0,0:0:0:0:
192,192,58680,128,0,58842:0:0:0:0:
64,192,58842,1,8,2:0:0:0:
448,192,58842,128,0,59004:0:0:0:0:
192,192,59004,128,0,59167:2:0:0:50:Ride.wav
64,192,59167,128,2,59329:2:0:0:0:
448,192,59167,1,0,0:0:0:0:
192,192,59329,1,2,2:0:0:0:
320,192,59329,1,0,2:0:0:50:Ride.wav
64,192,59491,1,8,2:0:0:0:
448,192,59491,1,0,0:0:0:0:
320,192,59572,1,8,2:0:0:0:
192,192,59653,1,8,2:0:0:0:
448,192,59734,1,8,2:0:0:0:
64,192,59815,128,4,60139:2:0:0:0:
192,192,59815,128,2,60139:2:0:0:0:
320,192,59815,1,0,0:0:0:0:
320,192,60139,128,8,60221:2:0:0:0:
448,192,60139,128,0,60221:0:0:0:0:
448,192,60302,128,0,60383:2:0:0:50:Hat open.wav
64,192,60464,128,2,60545:2:0:0:0:
192,192,60464,128,0,60545:0:0:0:0:
64,192,60626,128,2,60707:2:0:0:0:
320,192,60788,1,8,2:0:0:0:
448,192,60788,1,0,0:0:0:0:
64,192,60950,1,4,2:0:0:0:
192,192,60950,128,2,61275:2:0:0:0:
448,192,60950,128,0,61275:0:0:0:0:
64,192,61275,1,2,2:0:0:0:
320,192,61275,128,0,61437:0:0:0:0:
192,192,61437,128,8,61599:2:0:0:0:
448,192,61437,1,0,2:0:0:50:Hat open.wav
64,192,61599,128,2,61761:2:0:0:0:
320,192,61761,1,8,2:0:0:0:
448,192,61761,128,0,61842:2:0:0:50:Hat open.wav
64,192,61923,1,2,2:0:0:0:
448,192,61923,128,0,62004:0:0:0:0:
192,192,62085,128,2,62167:2:0:0:0:
64,192,62248,1,8,2:0:0:0:
192,192,62248,128,0,62329:0:0:0:0:
320,192,62329,1,8,2:0:0:0:
64,192,62410,1,2,2:0:0:0:
192,192,62410,1,4,2:0:0:0:
448,192,62410,1,0,0:0:0:0:
64,192,62734,1,8,2:0:0:0:
320,192,62734,128,0,63058:0:0:0:0:
192,192,62896,1,0,2:0:0:50:Hat open.wav
64,192,63058,1,2,2:0:0:0:
448,192,63058,128,0,63383:0:0:0:0:
192,192,63221,1,0,2:0:0:50:Hat open.wav
64,192,63383,128,8,63707:2:0:0:0:
320,192,63383,1,0,0:0:0:0:
448,192,63545,1,0,2:0:0:50:Hat open.wav
192,192,63707,1,2,2:0:0:0:
320,192,63707,128,0,64031:0:0:0:0:
64,192,63869,1,0,2:0:0:50:Hat open.wav
192,192,64031,128,8,64112:2:0:0:0:
448,192,64031,1,0,0:0:0:0:
192,192,64194,128,0,64356:2:0:0:50:Hat open.wav
64,192,64356,1,2,2:0:0:0:
448,192,64356,1,0,0:0:0:0:
320,192,64518,128,0,64680:2:0:0:50:Hat open.wav
64,192,64680,1,8,2:0:0:0:
448,192,64680,1,0,0:0:0:0:
192,192,64842,128,0,64923:2:0:0:50:Hat open.wav
320,192,65004,1,2,2:0:0:0:
448,192,65004,128,0,65085:0:0:0:0:
448,192,65167,128,0,65248:2:0:0:50:Hat open.wav
64,192,65329,1,8,2:0:0:0:
192,192,65329,128,0,65410:0:0:0:0:
192,192,65491,128,0,65572:2:0:0:50:Hat open.wav
64,192,65653,1,2,2:0:0:0:
320,192,65653,128,0,65734:0:0:0:0:
320,192,65815,128,0,65896:2:0:0:50:Hat open.wav
192,192,65977,128,8,66058:2:0:0:0:
448,192,65977,1,0,0:0:0:0:
192,192,66139,128,0,66221:2:0:0:50:Hat open.wav
64,192,66302,128,2,66464:2:0:0:0:
320,192,66302,1,0,0:0:0:0:
448,192,66464,128,0,66626:2:0:0:50:Hat open.wav
64,192,66626,1,8,2:0:0:0:
320,192,66626,128,0,66788:0:0:0:0:
192,192,66788,128,0,66950:2:0:0:50:Hat open.wav
64,192,66950,128,2,67275:2:0:0:0:
448,192,66950,1,0,0:0:0:0:
192,192,67112,1,0,2:0:0:50:Hat open.wav
320,192,67275,1,8,2:0:0:0:
448,192,67275,1,0,0:0:0:0:
192,192,67437,1,8,2:0:0:0:
320,192,67518,1,8,2:0:0:0:
64,192,67599,1,2,2:0:0:0:
192,192,67599,128,4,67923:2:0:0:0:
448,192,67599,1,0,0:0:0:0:
320,192,67923,128,8,68004:2:0:0:0:
448,192,67923,128,0,68004:0:0:0:0:
320,192,68085,128,0,68167:2:0:0:50:Hat open.wav
448,192,68085,128,0,68167:0:0:0:0:
64,192,68248,128,2,68329:2:0:0:0:
192,192,68248,128,0,68329:0:0:0:0:
64,192,68410,128,2,68734:2:0:0:0:
192,192,68410,128,0,68572:2:0:0:50:Hat open.wav
320,192,68572,1,8,2:0:0:0:
448,192,68572,1,0,0:0:0:0:
192,192,68734,1,2,2:0:0:0:
320,192,68734,1,4,2:0:0:0:
448,192,68734,128,0,69221:0:0:0:0:
64,192,69221,1,2,2:0:0:0:
320,192,69221,128,0,69545:0:0:0:0:
448,192,69383,1,0,2:0:0:50:Hat open.wav
64,192,69545,1,2,2:0:0:0:
192,192,69545,128,0,69869:0:0:0:0:
320,192,69707,1,2,2:0:0:0:
64,192,69869,128,8,70031:2:0:0:0:
448,192,69869,1,0,0:0:0:0:
320,192,70031,128,0,70518:2:0:0:50:Hat open.wav
64,192,70194,1,4,2:0:0:0:
192,192,70194,1,2,2:0:0:0:
448,192,70194,1,0,0:0:0:0:
64,192,70518,1,8,2:0:0:0:
448,192,70518,1,0,2:0:0:50:Ride.wav
192,192,70680,1,0,0:0:0:0:
64,192,70842,1,2,2:0:0:0:
320,192,70842,1,0,2:0:0:50:Ride.wav
320,192,71004,1,2,2:0:0:0:
448,192,71004,1,0,0:0:0:0:
64,192,71167,1,8,2:0:0:0:
192,192,71167,128,0,71329:2:0:0:50:Ride.wav
320,192,71329,128,0,71491:0:0:0:0:
64,192,71491,1,4,2:0:0:0:
192,192,71491,1,2,2:0:0:0:
448,192,71491,1,0,0:0:0:0:
192,192,71815,1,4,2:0:0:0:
320,192,71815,1,2,2:0:0:0:
448,192,71815,1,0,0:0:0:0:
64,192,72139,1,2,2:0:0:0:
320,192,72139,1,4,2:0:0:0:
448,192,72139,1,0,0:0:0:0:
64,192,72464,1,8,2:0:0:0:
192,192,72464,128,0,72788:0:0:0:0:
320,192,72464,1,0,0:0:0:0:
64,192,72788,1,2,2:0:0:0:
320,192,72788,1,4,2:0:0:0:
448,192,72788,1,0,0:0:0:0:
64,192,73112,1,8,2:0:0:0:
192,192,73112,128,0,73275:2:0:0:50:Hat open.wav
320,192,73275,128,0,73437:0:0:0:0:
64,192,73437,1,2,2:0:0:0:
192,192,73437,1,0,2:0:0:50:Hat open.wav
448,192,73599,128,0,73761:0:0:0:0:
64,192,73761,1,8,2:0:0:0:
320,192,73761,128,0,73923:2:0:0:50:Hat open.wav
192,192,73923,128,0,74085:0:0:0:0:
320,192,74085,1,2,2:0:0:0:
448,192,74085,1,0,2:0:0:50:Hat open.wav
64,192,74248,128,0,74410:0:0:0:0:
192,192,74410,128,8,74572:2:0:0:0:
448,192,74410,1,0,2:0:0:50:Hat open.wav
320,192,74572,1,0,0:0:0:0:
448,192,74653,1,0,0:0:0:0:
64,192,74734,128,2,74896:2:0:0:0:
320,192,74734,1,0,2:0:0:50:Hat open.wav
192,192,74896,128,0,75058:0:0:0:0:
320,192,75058,128,8,75383:2:0:0:0:
448,192,75058,1,0,2:0:0:50:Hat open.wav
64,192,75383,1,2,2:0:0:0:
192,192,75383,1,0,2:0:0:50:Hat open.wav
64,192,75707,128,8,75869:2:0:0:0:
448,192,75707,1,0,2:0:0:50:Hat open.wav
192,192,75869,128,0,76031:0:0:0:0:
320,192,76031,1,2,2:0:0:0:
448,192,76031,1,0,2:0:0:50:Hat open.wav
192,192,76194,128,0,76356:0:0:0:0:
64,192,76356,1,8,2:0:0:0:
320,192,76356,128,0,76518:2:0:0:50:Hat open.wav
448,192,76518,128,0,76680:0:0:0:0:
192,192,76680,1,2,2:0:0:0:
320,192,76680,1,0,2:0:0:50:Hat open.wav
64,192,76842,128,0,77004:0:0:0:0:
192,192,77004,1,8,2:0:0:0:
448,192,77004,128,0,77167:2:0:0:50:Hat open.wav
320,192,77167,128,0,77329:0:0:0:0:
64,192,77329,1,2,2:0:0:0:
192,192,77329,128,0,77491:2:0:0:50:Hat open.wav
64,192,77653,1,8,2:0:0:0:
448,192,77653,128,0,77815:0:0:0:0:
320,192,77815,1,8,2:0:0:0:
192,192,77896,1,8,2:0:0:0:
64,192,77977,128,2,78139:2:0:0:0:
320,192,77977,1,4,2:0:0:0:
448,192,77977,1,0,0:0:0:0:
64,192,78302,128,0,78464:0:0:0:0:
320,192,78626,128,0,78707:0:0:0:0:
320,192,78788,128,0,78869:0:0:0:0:
448,192,78950,128,0,79031:0:0:0:0:
448,192,79112,128,0,79194:0:0:0:0:
192,192,79275,128,0,79599:0:0:0:0:
320,192,79599,128,0,79761:0:0:0:0:
64,192,79761,128,0,79923:0:0:0:0:
320,192,80085,128,0,80410:0:0:0:0:
192,192,80410,1,2,2:0:0:0:
448,192,80410,1,0,0:0:0:0:
64,192,80572,1,2,2:0:0:0:
320,192,80572,1,0,0:0:0:0:
192,192,80734,128,0,80815:0:0:0:0:
320,192,80815,128,0,80896:0:0:0:0:
192,192,80896,128,0,81058:0:0:0:0:
64,192,81058,128,0,81221:0:0:0:0:
320,192,81221,128,0,81545:0:0:0:0:
64,192,81545,128,0,81869:0:0:0:0:
448,192,81869,1,0,0:0:0:0:
320,192,82031,128,0,82112:0:0:0:0:
192,192,82112,128,0,82194:0:0:0:0:
320,192,82194,128,0,82275:0:0:0:0:
64,192,82356,128,0,82518:0:0:0:0:
320,192,82518,128,0,82842:0:0:0:0:
448,192,82842,128,0,83004:0:0:0:0:
192,192,83004,1,2,2:0:0:0:
320,192,83004,1,0,0:0:0:0:
64,192,83167,1,2,2:0:0:0:
320,192,83167,1,0,0:0:0:0:
64,192,83329,1,0,0:0:0:0:
320,192,83491,1,0,0:0:0:0:
320,192,83653,1,0,0:0:0:0:
192,192,83815,1,0,0:0:0:0:
192,192,83977,1,0,0:0:0:0:
448,192,84139,1,0,0:0:0:0:
448,192,84302,1,0,0:0:0:0:
64,192,84464,1,0,0:0:0:0:
448,192,84626,1,0,0:0:0:0:
320,192,84788,1,0,0:0:0:0:
192,192,84950,1,0,0:0:0:0:
64,192,85112,1,0,0:0:0:0:
192,192,85599,1,2,2:0:0:0:
448,192,85599,1,0,0:0:0:0:
64,192,85761,1,2,2:0:0:0:
320,192,85761,1,0,0:0:0:0:
448,192,85923,1,0,0:0:0:0:
192,192,86085,1,0,0:0:0:0:
64,192,86248,1,2,2:0:0:0:
320,192,86248,1,0,0:0:0:0:
192,192,86410,1,2,2:0:0:0:
448,192,86410,1,0,0:0:0:0:
320,192,86734,1,0,0:0:0:0:
192,192,86896,1,2,2:0:0:0:
448,192,86896,1,0,0:0:0:0:
64,192,87058,1,2,2:0:0:0:
320,192,87058,128,0,87221:2:0:0:50:Hat open.wav
192,192,87221,1,0,0:0:0:0:
320,192,87383,128,2,87545:2:0:0:0:
448,192,87383,1,0,2:0:0:50:Hat open.wav
64,192,87545,1,0,0:0:0:0:
320,192,87707,128,2,87869:2:0:0:0:
448,192,87707,1,0,2:0:0:50:Hat open.wav
64,192,88031,1,8,2:0:0:0:
448,192,88031,128,0,88356:0:0:0:0:
64,192,88356,1,4,2:0:0:0:
192,192,88356,1,2,2:0:0:0:
320,192,88356,1,0,0:0:0:0:
192,192,88518,1,0,0:0:0:0:
64,192,88680,1,8,2:0:0:0:
448,192,88680,1,0,0:0:0:0:
192,192,88842,1,8,0:0:0:50:marching_drum.wav
320,192,88923,1,8,0:0:0:50:marching_drum.wav
64,192,89004,1,2,2:0:0:0:
448,192,89004,1,0,0:0:0:0:
192,192,89167,1,2,2:0:0:0:
320,192,89167,128,0,89329:0:0:0:0:
192,192,89329,128,8,89491:2:0:0:0:
448,192,89329,1,0,0:0:0:0:
64,192,89491,128,2,89653:2:0:0:0:
320,192,89491,1,0,0:0:0:0:
192,192,89815,1,2,2:0:0:0:
320,192,89815,1,0,0:0:0:0:
64,192,89977,1,8,2:0:0:0:
320,192,89977,1,0,0:0:0:0:
192,192,90139,1,8,2:0:0:50:marching_drum.wav
320,192,90221,1,8,2:0:0:50:marching_drum.wav
64,192,90302,128,2,90464:2:0:0:0:
448,192,90302,1,0,0:0:0:0:
192,192,90464,128,2,90626:2:0:0:0:
320,192,90464,1,0,0:0:0:0:
64,192,90626,1,8,2:0:0:0:
320,192,90626,128,0,90869:0:0:0:0:
192,192,90869,1,8,2:0:0:0:
64,192,90950,1,2,2:0:0:0:
448,192,90950,1,0,0:0:0:0:
320,192,91112,1,0,0:0:0:0:
64,192,91275,1,8,2:0:0:0:
448,192,91275,1,0,0:0:0:0:
320,192,91437,1,0,0:0:0:0:
192,192,91599,1,2,2:0:0:0:
448,192,91599,1,0,0:0:0:0:
64,192,91761,1,2,2:0:0:0:
192,192,91761,128,0,91923:0:0:0:0:
320,192,91923,128,8,92085:2:0:0:0:
448,192,91923,1,0,0:0:0:0:
192,192,92085,1,2,2:0:0:0:
448,192,92085,128,0,92248:0:0:0:0:
192,192,92410,128,2,92572:2:0:0:0:
320,192,92410,1,0,0:0:0:0:
64,192,92572,128,8,92734:2:0:0:0:
448,192,92572,1,0,0:0:0:0:
192,192,92734,1,8,2:0:0:50:marching_drum.wav
320,192,92815,1,8,2:0:0:50:marching_drum.wav
64,192,92896,1,2,2:0:0:0:
448,192,92896,128,0,93058:0:0:0:0:
320,192,93058,1,2,2:0:0:0:
64,192,93221,1,8,2:0:0:0:
192,192,93221,1,0,0:0:0:0:
448,192,93302,1,0,0:0:0:0:
320,192,93383,1,8,2:0:0:0:
192,192,93464,1,8,2:0:0:0:
64,192,93545,1,2,2:0:0:0:
320,192,93545,1,4,2:0:0:0:
448,192,93545,1,0,0:0:0:0:
64,192,93869,1,8,2:0:0:0:
320,192,93869,1,0,0:0:0:0:
448,192,94031,1,8,0:0:0:50:marching_drum.wav
320,192,94112,1,8,0:0:0:50:marching_drum.wav
64,192,94194,1,2,2:0:0:0:
192,192,94194,1,0,0:0:0:0:
320,192,94356,128,2,94518:2:0:0:0:
448,192,94356,1,0,0:0:0:0:
64,192,94518,1,8,2:0:0:0:
192,192,94518,128,0,94680:0:0:0:0:
64,192,94680,128,2,94842:2:0:0:0:
320,192,94680,1,0,0:0:0:0:
320,192,95004,1,2,2:0:0:0:
448,192,95004,1,0,0:0:0:0:
64,192,95167,1,8,2:0:0:0:
192,192,95167,1,0,0:0:0:0:
320,192,95329,1,8,2:0:0:50:marching_drum.wav
192,192,95410,1,8,2:0:0:50:marching_drum.wav
64,192,95491,128,2,95653:2:0:0:0:
448,192,95491,1,0,0:0:0:0:
192,192,95653,1,2,2:0:0:0:
320,192,95653,128,0,95815:0:0:0:0:
64,192,95815,1,8,2:0:0:0:
448,192,95815,128,0,96058:0:0:0:0:
320,192,96058,1,8,2:0:0:0:
64,192,96139,1,2,2:0:0:0:
192,192,96139,1,0,0:0:0:0:
320,192,96302,1,0,0:0:0:0:
64,192,96464,1,8,2:0:0:0:
448,192,96464,1,0,0:0:0:0:
320,192,96626,1,0,0:0:0:0:
192,192,96707,1,8,0:0:0:0:
320,192,96788,1,2,2:0:0:0:
448,192,96788,1,0,0:0:0:0:
64,192,96950,1,2,2:0:0:0:
192,192,96950,128,0,97112:0:0:0:0:
320,192,97112,128,8,97275:2:0:0:0:
448,192,97112,1,0,0:0:0:0:
64,192,97275,1,2,2:0:0:0:
448,192,97275,128,0,97437:0:0:0:0:
192,192,97599,128,2,97761:2:0:0:0:
320,192,97599,1,0,0:0:0:0:
64,192,97761,1,8,2:0:0:0:
320,192,97761,128,0,97923:0:0:0:0:
448,192,97761,1,0,0:0:0:0:
192,192,97923,1,8,2:0:0:50:marching_drum.wav
320,192,98004,1,8,2:0:0:50:marching_drum.wav
64,192,98085,128,2,98248:2:0:0:0:
448,192,98085,1,0,0:0:0:0:
192,192,98248,1,2,2:0:0:0:
320,192,98248,1,0,0:0:0:0:
64,192,98410,1,8,2:0:0:0:
448,192,98410,1,0,0:0:0:0:
320,192,98491,1,8,2:0:0:0:
192,192,98572,1,8,2:0:0:0:
64,192,98653,1,8,2:0:0:0:
192,192,98734,128,2,98815:2:0:0:0:
320,192,98734,1,4,2:0:0:0:
448,192,98734,128,0,98815:0:0:0:0:
448,192,98896,128,0,98977:0:0:0:0:
64,192,99058,1,8,2:0:0:0:
192,192,99058,128,0,99139:0:0:0:0:
192,192,99221,128,0,99302:2:0:0:50:Hat open.wav
320,192,99383,1,2,2:0:0:0:
448,192,99383,128,0,99707:0:0:0:0:
64,192,99545,1,0,2:0:0:50:Hat open.wav
192,192,99707,128,8,100031:2:0:0:0:
320,192,99707,1,0,0:0:0:0:
64,192,99869,1,0,2:0:0:50:Hat open.wav
320,192,100031,1,2,2:0:0:0:
448,192,100031,128,0,100356:0:0:0:0:
192,192,100194,1,0,2:0:0:50:Hat open.wav
64,192,100356,1,8,2:0:0:0:
320,192,100356,128,0,100437:0:0:0:0:
320,192,100518,128,0,100680:2:0:0:50:Hat open.wav
64,192,100680,1,2,2:0:0:0:
192,192,100680,1,0,0:0:0:0:
448,192,100842,128,0,101004:2:0:0:50:Hat open.wav
64,192,101004,1,8,2:0:0:0:
320,192,101004,1,0,0:0:0:0:
192,192,101167,128,0,101248:2:0:0:50:Hat open.wav
320,192,101329,1,2,2:0:0:0:
448,192,101329,128,0,101410:0:0:0:0:
448,192,101491,128,0,101572:2:0:0:50:Hat open.wav
64,192,101653,1,8,2:0:0:0:
192,192,101653,128,0,101734:0:0:0:0:
192,192,101815,128,0,101896:2:0:0:50:Hat open.wav
320,192,101977,128,2,102058:2:0:0:0:
448,192,101977,1,0,0:0:0:0:
320,192,102139,128,0,102221:2:0:0:50:Hat open.wav
192,192,102302,128,8,102383:2:0:0:0:
448,192,102302,1,0,0:0:0:0:
192,192,102464,128,0,102545:2:0:0:50:Hat open.wav
64,192,102626,128,2,102788:2:0:0:0:
320,192,102626,1,0,0:0:0:0:
448,192,102788,128,0,102950:2:0:0:50:Hat open.wav
64,192,102950,1,8,2:0:0:0:
320,192,102950,128,0,103112:0:0:0:0:
192,192,103112,128,0,103275:2:0:0:50:Hat open.wav
64,192,103275,128,2,103599:2:0:0:0:
448,192,103275,1,0,0:0:0:0:
320,192,103437,1,0,2:0:0:50:Hat open.wav
192,192,103599,1,8,2:0:0:0:
448,192,103599,1,0,0:0:0:0:
320,192,103761,1,8,2:0:0:0:
192,192,103842,1,8,2:0:0:0:
64,192,103923,1,2,2:0:0:0:
320,192,103923,128,4,104248:2:0:0:0:
448,192,103923,128,0,104248:0:0:0:0:
64,192,104248,128,8,104329:2:0:0:0:
192,192,104248,128,0,104329:0:0:0:0:
64,192,104410,128,0,104491:2:0:0:50:Ride.wav
320,192,104572,128,2,104653:2:0:0:0:
448,192,104572,128,0,104653:0:0:0:0:
448,192,104734,128,0,104815:2:0:0:50:Ride.wav
64,192,104896,1,8,2:0:0:0:
192,192,104896,1,0,0:0:0:0:
192,192,105058,128,4,105383:2:0:0:0:
320,192,105058,1,2,2:0:0:0:
448,192,105058,128,0,105383:0:0:0:0:
320,192,105383,128,0,105545:0:0:0:0:
64,192,105545,1,8,2:0:0:0:
448,192,105545,128,0,105707:0:0:0:0:
192,192,105707,128,0,105869:2:0:0:50:Ride.wav
64,192,105869,1,2,2:0:0:0:
448,192,105869,128,0,106031:0:0:0:0:
192,192,106031,1,2,2:0:0:0:
320,192,106031,1,0,2:0:0:50:Ride.wav
64,192,106194,1,8,2:0:0:0:
448,192,106194,1,0,0:0:0:0:
192,192,106275,1,8,2:0:0:0:
320,192,106356,1,8,2:0:0:0:
64,192,106437,1,8,2:0:0:0:
192,192,106518,1,4,2:0:0:0:
320,192,106518,128,2,106842:2:0:0:0:
448,192,106518,128,0,106842:0:0:0:0:
64,192,106842,128,8,106923:2:0:0:0:
192,192,106842,128,0,106923:0:0:0:0:
64,192,107004,128,0,107085:2:0:0:50:Hat open.wav
320,192,107167,128,2,107248:2:0:0:0:
448,192,107167,128,0,107248:0:0:0:0:
448,192,107329,128,2,107410:2:0:0:0:
64,192,107491,1,8,2:0:0:0:
192,192,107491,1,0,0:0:0:0:
64,192,107653,128,4,107977:2:0:0:0:
192,192,107653,1,2,2:0:0:0:
320,192,107653,128,0,107977:0:0:0:0:
192,192,107977,128,2,108139:2:0:0:0:
448,192,107977,1,0,0:0:0:0:
64,192,108139,1,8,2:0:0:0:
320,192,108139,128,0,108302:2:0:0:50:Hat open.wav
192,192,108302,128,2,108464:2:0:0:0:
320,192,108464,1,8,2:0:0:0:
448,192,108464,128,0,108626:2:0:0:50:Hat open.wav
64,192,108626,1,2,2:0:0:0:
192,192,108626,1,0,0:0:0:0:
320,192,108788,128,8,108950:2:0:0:0:
448,192,108788,1,0,0:0:0:0:
64,192,108950,1,8,2:0:0:0:
192,192,108950,1,0,0:0:0:0:
320,192,109031,1,8,2:0:0:0:
64,192,109112,1,2,2:0:0:0:
192,192,109112,1,4,2:0:0:0:
448,192,109112,1,0,0:0:0:0:
64,192,109437,1,8,2:0:0:0:
320,192,109437,128,0,109761:0:0:0:0:
192,192,109599,1,0,2:0:0:50:Hat open.wav
64,192,109761,1,2,2:0:0:0:
448,192,109761,128,0,110085:0:0:0:0:
320,192,109923,1,0,2:0:0:50:Hat open.wav
64,192,110085,128,8,110410:2:0:0:0:
192,192,110085,1,0,0:0:0:0:
320,192,110248,1,0,2:0:0:50:Hat open.wav
192,192,110410,1,2,2:0:0:0:
448,192,110410,128,0,110734:0:0:0:0:
64,192,110572,1,0,2:0:0:50:Hat open.wav
192,192,110734,1,8,2:0:0:0:
320,192,110734,128,0,110815:0:0:0:0:
320,192,110896,128,0,111058:2:0:0:50:Hat open.wav
192,192,111058,1,2,2:0:0:0:
448,192,111058,1,0,0:0:0:0:
64,192,111221,128,0,111383:2:0:0:50:Hat open.wav
320,192,111383,1,8,2:0:0:0:
448,192,111383,1,0,0:0:0:0:
192,192,111545,128,0,111626:2:0:0:50:Hat open.wav
320,192,111707,1,2,2:0:0:0:
448,192,111707,128,0,111788:0:0:0:0:
448,192,111869,128,0,111950:2:0:0:50:Hat open.wav
64,192,112031,1,8,2:0:0:0:
192,192,112031,128,0,112112:0:0:0:0:
192,192,112194,128,0,112275:2:0:0:50:Hat open.wav
320,192,112356,128,2,112437:2:0:0:0:
448,192,112356,1,0,0:0:0:0:
320,192,112518,128,0,112599:2:0:0:50:Hat open.wav
64,192,112680,1,8,2:0:0:0:
192,192,112680,128,0,112761:0:0:0:0:
192,192,112842,128,0,112923:2:0:0:50:Hat open.wav
64,192,113004,128,2,113167:2:0:0:0:
320,192,113004,1,0,0:0:0:0:
448,192,113167,128,0,113329:2:0:0:50:Hat open.wav
64,192,113329,1,8,2:0:0:0:
320,192,113329,128,0,113491:0:0:0:0:
192,192,113491,128,0,113653:2:0:0:50:Hat open.wav
64,192,113653,128,2,113977:2:0:0:0:
448,192,113653,1,0,0:0:0:0:
320,192,113815,1,0,2:0:0:50:Hat open.wav
192,192,113977,1,8,2:0:0:0:
448,192,113977,1,0,0:0:0:0:
320,192,114139,1,8,2:0:0:0:
192,192,114221,1,8,2:0:0:0:
64,192,114302,1,2,2:0:0:0:
320,192,114302,128,4,114626:2:0:0:0:
448,192,114302,1,0,0:0:0:0:
64,192,114626,128,8,114707:2:0:0:0:
192,192,114626,128,0,114707:0:0:0:0:
64,192,114788,128,0,114869:2:0:0:50:Hat open.wav
192,192,114788,128,0,114869:0:0:0:0:
320,192,114950,128,2,115031:2:0:0:0:
448,192,114950,128,0,115031:0:0:0:0:
320,192,115112,128,2,115275:2:0:0:0:
448,192,115112,128,0,115275:2:0:0:50:Hat open.wav
64,192,115275,1,8,2:0:0:0:
192,192,115275,1,0,0:0:0:0:
64,192,115437,128,2,115923:2:0:0:0:
320,192,115437,1,4,2:0:0:0:
448,192,115437,1,0,0:0:0:0:
192,192,115923,1,2,2:0:0:0:
320,192,115923,128,0,116248:0:0:0:0:
448,192,116085,1,0,2:0:0:50:Hat open.wav
64,192,116248,1,2,2:0:0:0:
192,192,116248,128,0,116572:0:0:0:0:
320,192,116410,1,2,2:0:0:0:
64,192,116572,128,8,116734:2:0:0:0:
448,192,116572,1,0,0:0:0:0:
320,192,116734,128,0,117221:2:0:0:50:Hat open.wav
64,192,116896,1,4,2:0:0:0:
192,192,116896,1,2,2:0:0:0:
448,192,116896,1,0,0:0:0:0:
64,192,117221,1,8,2:0:0:0:
448,192,117221,1,0,2:0:0:50:Ride.wav
320,192,117383,1,0,0:0:0:0:
64,192,117545,1,2,2:0:0:0:
192,192,117545,1,0,2:0:0:50:Ride.wav
192,192,117707,1,2,2:0:0:0:
448,192,117707,1,0,0:0:0:0:
64,192,117869,1,8,2:0:0:0:
320,192,117869,128,0,118031:2:0:0:50:Ride.wav
192,192,118031,128,0,118194:0:0:0:0:
64,192,118194,1,4,2:0:0:0:
320,192,118194,1,2,2:0:0:0:
448,192,118194,1,0,0:0:0:0:
64,192,118518,1,4,2:0:0:0:
192,192,118518,1,2,2:0:0:0:
448,192,118518,1,0,0:0:0:0:
64,192,118842,1,2,2:0:0:0:
320,192,118842,1,4,2:0:0:0:
448,192,118842,1,0,0:0:0:0:
64,192,119167,128,8,119491:2:0:0:0:
192,192,119167,1,0,0:0:0:0:
320,192,119167,1,0,0:0:0:0:
192,192,119491,1,4,2:0:0:0:
320,192,119491,128,2,119815:2:0:0:0:
448,192,119491,1,0,0:0:0:0:
64,192,119815,1,8,2:0:0:0:
448,192,119815,1,0,2:0:0:50:Hat open.wav
64,192,120139,1,2,2:0:0:0:
320,192,120139,1,0,2:0:0:50:Hat open.wav
64,192,120302,1,2,2:0:0:0:
192,192,120302,1,0,0:0:0:0:
320,192,120464,128,8,120626:2:0:0:0:
448,192,120464,1,0,2:0:0:50:Hat open.wav
192,192,120788,128,2,121112:2:0:0:0:
448,192,120788,1,0,2:0:0:50:Hat open.wav
64,192,121112,1,8,2:0:0:0:
320,192,121112,1,0,2:0:0:50:Hat open.wav
192,192,121275,1,2,2:0:0:0:
320,192,121275,1,0,0:0:0:0:
64,192,121599,1,2,2:0:0:0:
448,192,121599,128,0,122085:0:0:0:0:
192,192,121761,1,8,2:0:0:0:
320,192,121761,1,0,2:0:0:50:Hat open.wav
192,192,122085,128,2,122410:2:0:0:0:
320,192,122085,1,0,2:0:0:50:Hat open.wav
64,192,122410,1,8,2:0:0:0:
448,192,122410,1,0,2:0:0:50:Hat open.wav
192,192,122734,1,2,2:0:0:0:
320,192,122734,1,0,2:0:0:50:Hat open.wav
192,192,122896,1,2,2:0:0:0:
448,192,122896,1,0,0:0:0:0:
64,192,123058,1,8,2:0:0:0:
320,192,123058,128,0,123221:2:0:0:50:Hat open.wav
448,192,123221,128,0,123383:0:0:0:0:
64,192,123383,128,2,123545:2:0:0:0:
192,192,123383,1,0,2:0:0:50:Hat open.wav
320,192,123707,1,8,2:0:0:0:
448,192,123707,1,0,2:0:0:50:Hat open.wav
64,192,123869,1,2,2:0:0:0:
192,192,123869,128,0,124194:0:0:0:0:
64,192,124194,1,2,2:0:0:0:
320,192,124194,128,0,124680:0:0:0:0:
192,192,124356,1,8,2:0:0:0:
448,192,124356,1,0,2:0:0:50:Hat open.wav
64,192,124680,128,2,125004:2:0:0:0:
448,192,124680,1,0,0:0:0:0:
192,192,125004,1,8,2:0:0:0:
320,192,125004,1,0,2:0:0:50:Hat open.wav
64,192,125329,1,2,2:0:0:0:
448,192,125329,1,0,2:0:0:50:Hat open.wav
192,192,125491,1,2,2:0:0:0:
320,192,125491,1,0,0:0:0:0:
64,192,125653,128,8,125815:2:0:0:0:
448,192,125653,1,0,2:0:0:50:Hat open.wav
192,192,125815,128,0,125977:0:0:0:0:
64,192,125977,128,2,126302:2:0:0:0:
448,192,125977,1,0,2:0:0:50:Hat open.wav
320,192,126302,128,8,126464:2:0:0:0:
448,192,126302,1,0,2:0:0:50:Hat open.wav
64,192,126464,1,2,2:0:0:0:
192,192,126464,128,0,126788:0:0:0:0:
64,192,126788,128,2,127275:2:0:0:0:
448,192,126788,1,0,0:0:0:0:
320,192,126950,1,8,2:0:0:0:
448,192,126950,1,0,2:0:0:50:Hat open.wav
192,192,127275,128,2,127599:2:0:0:0:
320,192,127275,1,0,2:0:0:50:Hat open.wav
64,192,127599,1,8,2:0:0:0:
448,192,127599,1,0,2:0:0:50:Hat open.wav
192,192,127923,1,2,2:0:0:0:
448,192,127923,1,0,2:0:0:50:Hat open.wav
64,192,128085,1,2,2:0:0:0:
320,192,128085,1,0,0:0:0:0:
192,192,128248,1,8,2:0:0:0:
448,192,128248,1,0,2:0:0:50:Hat open.wav
320,192,128410,128,0,128572:0:0:0:0:
64,192,128572,1,2,2:0:0:0:
448,192,128572,128,0,128896:2:0:0:50:Hat open.wav
64,192,128896,1,8,2:0:0:0:
320,192,128896,1,0,2:0:0:50:Hat open.wav
192,192,129058,128,2,129383:2:0:0:0:
448,192,129058,1,0,0:0:0:0:
64,192,129383,1,2,2:0:0:0:
320,192,129383,128,0,129707:0:0:0:0:
64,192,129545,1,8,2:0:0:0:
192,192,129545,1,0,2:0:0:50:Hat open.wav
448,192,129707,1,8,2:0:0:0:
320,192,129788,1,8,2:0:0:0:
64,192,129869,128,2,130194:2:0:0:0:
192,192,129869,1,4,2:0:0:0:
448,192,129869,1,0,0:0:0:0:
192,192,130194,1,8,2:0:0:0:
320,192,130194,1,0,2:0:0:50:Hat open.wav
64,192,130518,1,2,2:0:0:0:
320,192,130518,1,0,2:0:0:50:Hat open.wav
64,192,130680,1,2,2:0:0:0:
192,192,130680,1,0,0:0:0:0:
320,192,130842,128,8,131004:2:0:0:0:
448,192,130842,1,0,2:0:0:50:Hat open.wav
64,192,131004,128,0,131167:0:0:0:0:
192,192,131167,128,2,131491:2:0:0:0:
448,192,131167,1,0,2:0:0:50:Hat open.wav
320,192,131491,1,8,2:0:0:0:
448,192,131491,1,0,2:0:0:50:Hat open.wav
64,192,131653,1,2,2:0:0:0:
320,192,131653,1,0,0:0:0:0:
64,192,131977,1,2,2:0:0:0:
448,192,131977,128,0,132464:0:0:0:0:
192,192,132139,1,8,2:0:0:0:
320,192,132139,1,0,2:0:0:50:Hat open.wav
192,192,132464,128,2,132788:2:0:0:0:
320,192,132464,1,0,2:0:0:50:Hat open.wav
64,192,132788,1,8,2:0:0:0:
448,192,132788,1,0,2:0:0:50:Hat open.wav
64,192,133112,1,2,2:0:0:0:
320,192,133112,1,0,2:0:0:50:Hat open.wav
192,192,133275,1,2,2:0:0:0:
448,192,133275,1,0,0:0:0:0:
192,192,133437,1,8,2:0:0:0:
320,192,133437,128,0,133599:2:0:0:50:Hat open.wav
448,192,133599,128,0,133761:0:0:0:0:
64,192,133761,128,2,133923:2:0:0:0:
192,192,133761,1,0,2:0:0:50:Hat open.wav
320,192,134085,1,8,2:0:0:0:
448,192,134085,1,0,2:0:0:50:Hat open.wav
64,192,134248,1,2,2:0:0:0:
192,192,134248,128,0,134572:0:0:0:0:
64,192,134572,1,2,2:0:0:0:
320,192,134572,128,0,135058:0:0:0:0:
192,192,134734,1,8,2:0:0:0:
448,192,134734,1,0,2:0:0:50:Hat open.wav
64,192,135058,128,2,135383:2:0:0:0:
448,192,135058,1,0,0:0:0:0:
192,192,135383,1,8,2:0:0:0:
320,192,135383,1,0,2:0:0:50:Hat open.wav
64,192,135707,1,2,2:0:0:0:
448,192,135707,1,0,2:0:0:50:Hat open.wav
320,192,135869,1,2,2:0:0:0:
64,192,136031,1,8,2:0:0:0:
448,192,136031,128,0,136194:2:0:0:50:Hat open.wav
192,192,136194,128,0,136356:0:0:0:0:
64,192,136356,128,2,136680:2:0:0:0:
320,192,136356,1,0,2:0:0:50:Hat open.wav
192,192,136680,1,8,2:0:0:0:
448,192,136680,128,0,136842:2:0:0:50:Hat open.wav
192,192,136842,128,2,137167:2:0:0:0:
320,192,136842,1,0,0:0:0:0:
64,192,137167,128,2,137653:2:0:0:0:
448,192,137167,1,0,0:0:0:0:
192,192,137329,1,8,2:0:0:0:
448,192,137329,1,0,2:0:0:50:Hat open.wav
192,192,137653,128,2,137977:2:0:0:0:
320,192,137653,1,0,2:0:0:50:Hat open.wav
64,192,137977,1,8,2:0:0:0:
448,192,137977,1,0,2:0:0:50:Hat open.wav
192,192,138302,1,2,2:0:0:0:
320,192,138302,1,0,2:0:0:50:Hat open.wav
64,192,138464,1,2,2:0:0:0:
320,192,138464,1,0,0:0:0:0:
192,192,138626,1,8,2:0:0:0:
448,192,138626,1,0,2:0:0:50:Hat open.wav
320,192,138788,128,0,138950:0:0:0:0:
64,192,138950,1,2,2:0:0:0:
448,192,138950,128,0,139275:2:0:0:50:Hat open.wav
64,192,139275,1,8,2:0:0:0:
320,192,139275,1,0,2:0:0:50:Hat open.wav
192,192,139437,128,2,139761:2:0:0:0:
448,192,139437,1,0,0:0:0:0:
64,192,139761,1,2,2:0:0:0:
320,192,139761,128,0,140085:0:0:0:0:
64,192,139923,1,8,2:0:0:0:
448,192,139923,1,0,2:0:0:50:Hat open.wav
448,192,140085,128,8,140572:2:0:0:0:
320,192,140167,1,8,2:0:0:0:
64,192,140248,1,2,2:0:0:0:
192,192,140248,128,4,140572:2:0:0:0:
64,192,140572,1,2,2:0:0:0:
320,192,140572,1,0,0:0:0:0:
64,192,140734,1,8,2:0:0:0:
320,192,140734,128,4,141058:2:0:0:0:
192,192,141058,1,2,2:0:0:0:
448,192,141058,1,0,0:0:0:0:
192,192,141221,128,8,141545:2:0:0:0:
448,192,141221,1,4,2:0:0:0:
64,192,141545,1,2,2:0:0:0:
448,192,141545,1,0,0:0:0:0:
64,192,141707,1,8,2:0:0:0:
448,192,141707,128,4,142031:2:0:0:0:
64,192,142031,1,2,2:0:0:0:
320,192,142031,1,0,0:0:0:0:
64,192,142194,128,8,142356:2:0:0:0:
320,192,142194,1,4,2:0:0:0:
192,192,142356,1,2,2:0:0:0:
320,192,142437,1,0,0:0:0:0:
64,192,142518,1,8,2:0:0:0:
448,192,142518,128,0,142680:0:0:0:0:
320,192,142680,1,8,2:0:0:0:
192,192,142761,1,8,2:0:0:0:
64,192,142842,128,4,143167:2:0:0:0:
448,192,142842,1,8,2:0:0:0:
192,192,143167,1,2,2:0:0:0:
448,192,143167,1,0,0:0:0:0:
64,192,143329,1,8,2:0:0:0:
448,192,143329,128,4,143653:2:0:0:0:
64,192,143653,1,2,2:0:0:0:
320,192,143653,1,0,0:0:0:0:
64,192,143815,128,8,144139:2:0:0:0:
448,192,143815,1,4,2:0:0:0:
192,192,144139,1,2,2:0:0:0:
448,192,144139,1,0,0:0:0:0:
64,192,144302,1,8,2:0:0:0:
320,192,144302,128,4,144626:2:0:0:0:
64,192,144626,1,2,2:0:0:0:
448,192,144626,1,0,0:0:0:0:
192,192,144788,1,8,2:0:0:0:
448,192,144788,128,4,144950:2:0:0:0:
192,192,144950,1,2,2:0:0:0:
448,192,145031,1,0,0:0:0:0:
64,192,145112,128,8,145275:2:0:0:0:
320,192,145112,1,0,0:0:0:0:
320,192,145275,1,8,2:0:0:0:
64,192,145356,1,8,2:0:0:0:
192,192,145437,128,8,145761:2:0:0:0:
448,192,145437,1,4,2:0:0:0:
64,192,145761,1,2,2:0:0:0:
320,192,145761,1,0,0:0:0:0:
192,192,145923,1,8,2:0:0:0:
448,192,145923,128,4,146248:2:0:0:0:
192,192,146248,1,2,2:0:0:0:
320,192,146248,1,0,0:0:0:0:
64,192,146410,128,8,146734:2:0:0:0:
448,192,146410,1,4,2:0:0:0:
192,192,146734,1,2,2:0:0:0:
448,192,146734,1,0,0:0:0:0:
64,192,146896,1,8,2:0:0:0:
320,192,146896,128,4,147221:2:0:0:0:
192,192,147058,1,2,2:0:0:0:
64,192,147221,1,2,2:0:0:0:
448,192,147221,1,0,0:0:0:0:
192,192,147383,1,8,2:0:0:0:
320,192,147383,1,4,2:0:0:0:
448,192,147545,1,2,2:0:0:0:
320,192,147626,1,0,0:0:0:0:
64,192,147707,1,8,2:0:0:0:
192,192,147707,1,0,0:0:0:0:
64,192,147869,1,8,2:0:0:0:
192,192,147950,1,8,2:0:0:0:
320,192,148031,1,8,2:0:0:0:
448,192,148031,128,4,148356:2:0:0:0:
64,192,148356,1,2,2:0:0:0:
320,192,148356,1,0,0:0:0:0:
192,192,148518,128,8,148842:2:0:0:0:
448,192,148518,1,4,2:0:0:0:
64,192,148842,1,2,2:0:0:0:
448,192,148842,1,0,0:0:0:0:
192,192,149004,1,8,2:0:0:0:
320,192,149004,128,4,149329:2:0:0:0:
192,192,149329,1,2,2:0:0:0:
448,192,149329,1,0,0:0:0:0:
64,192,149491,128,8,149815:2:0:0:0:
320,192,149491,1,4,2:0:0:0:
448,192,149653,1,2,2:0:0:0:
192,192,149815,1,2,2:0:0:0:
320,192,149815,1,0,0:0:0:0:
64,192,149977,1,8,2:0:0:0:
448,192,149977,1,4,2:0:0:0:
192,192,150139,1,2,2:0:0:0:
320,192,150221,1,0,0:0:0:0:
64,192,150302,1,8,2:0:0:0:
448,192,150302,1,0,0:0:0:0:
320,192,150464,1,0,2:0:0:50:Tom2.wav
192,192,150545,1,0,2:0:0:50:Tom3.wav
320,192,151599,128,0,151923:0:0:0:0:
64,192,151923,128,4,153221:2:0:0:0:
192,192,151923,1,2,2:0:0:0:
448,192,151923,1,0,0:0:0:0:
320,192,152248,128,0,152410:2:0:0:50:Hat open.wav
320,192,152896,128,0,153058:2:0:0:50:Hat open.wav
448,192,153221,128,0,154518:0:0:0:0:
192,192,153545,128,0,153707:2:0:0:50:Hat open.wav
192,192,154194,128,0,154356:2:0:0:50:Hat open.wav
192,192,154518,128,0,155815:0:0:0:0:
448,192,154842,128,0,155004:2:0:0:50:Hat open.wav
448,192,155491,128,0,155653:2:0:0:50:Hat open.wav
320,192,155815,128,0,157112:0:0:0:0:
64,192,156139,128,0,156302:2:0:0:50:Hat open.wav
64,192,156788,128,0,156950:2:0:0:50:Hat open.wav
64,192,157112,1,2,2:0:0:0:
192,192,157112,1,4,2:0:0:0:
448,192,157112,1,0,0:0:0:0:
192,192,157437,128,8,157518:2:0:0:0:
448,192,157437,128,0,157518:0:0:0:0:
192,192,157599,128,2,157680:2:0:0:0:
448,192,157599,128,0,157680:0:0:0:0:
64,192,157761,128,8,157842:2:0:0:0:
320,192,157761,128,0,157842:0:0:0:0:
64,192,157923,128,2,158004:2:0:0:0:
320,192,157923,128,0,158004:0:0:0:0:
192,192,158085,1,8,2:0:0:0:
64,192,158248,1,4,2:0:0:0:
320,192,158248,1,2,2:0:0:0:
448,192,158248,1,0,0:0:0:0:
192,192,158572,1,8,2:0:0:0:
64,192,158734,1,8,2:0:0:0:
448,192,158734,1,0,0:0:0:0:
320,192,158896,1,8,2:0:0:0:
64,192,159058,1,8,2:0:0:0:
192,192,159058,1,0,0:0:0:0:
448,192,159221,1,8,2:0:0:0:
64,192,159383,1,8,2:0:0:0:
320,192,159383,1,0,0:0:0:0:
192,192,159545,1,8,2:0:0:0:
64,192,159707,1,4,2:0:0:0:
320,192,159707,1,2,2:0:0:0:
448,192,159707,1,0,0:0:0:0:
64,192,160031,1,8,2:0:0:0:
192,192,160031,1,0,0:0:0:0:
320,192,160112,1,0,2:0:0:50:marching_drum.wav
448,192,160194,1,0,2:0:0:50:marching_drum.wav
64,192,160275,1,0,2:0:0:50:marching_drum.wav
192,192,160356,1,8,2:0:0:0:
320,192,160356,1,0,0:0:0:0:
448,192,160437,1,0,2:0:0:50:marching_drum.wav
192,192,160518,1,0,2:0:0:50:marching_drum.wav
64,192,160599,1,0,2:0:0:50:marching_drum.wav
320,192,160680,1,0,2:0:0:50:marching_drum.wav
192,192,160761,1,0,2:0:0:50:marching_drum.wav
64,192,160842,1,8,2:0:0:0:
320,192,160842,1,4,2:0:0:0:
448,192,160842,1,0,0:0:0:0:
64,192,161167,1,2,2:0:0:0:
320,192,161167,1,0,0:0:0:0:
320,192,161329,1,8,2:0:0:0:
448,192,161329,1,0,2:0:0:50:Hat open.wav
64,192,161491,1,2,2:0:0:0:
192,192,161491,1,0,0:0:0:0:
192,192,161653,128,8,161734:2:0:0:0:
448,192,161653,128,0,161734:2:0:0:50:Hat open.wav
192,192,161815,128,2,161896:2:0:0:0:
448,192,161815,128,0,161896:0:0:0:0:
64,192,161977,128,8,162058:2:0:0:0:
320,192,161977,128,0,162058:0:0:0:0:
64,192,162139,128,0,162221:2:0:0:50:marching_drum.wav
320,192,162139,128,0,162221:0:0:0:0:
448,192,162221,1,0,2:0:0:50:marching_drum.wav
64,192,162302,128,2,162626:2:0:0:0:
192,192,162302,1,4,2:0:0:0:
320,192,162302,1,0,0:0:0:0:
320,192,162626,128,8,162950:2:0:0:0:
448,192,162626,1,0,0:0:0:0:
64,192,162788,1,0,2:0:0:50:Hat open.wav
192,192,162950,1,2,2:0:0:0:
448,192,162950,128,0,163275:0:0:0:0:
320,192,163112,1,0,2:0:0:50:Hat open.wav
64,192,163275,1,8,2:0:0:0:
192,192,163275,128,0,163599:0:0:0:0:
320,192,163437,1,0,2:0:0:50:Hat open.wav
64,192,163599,1,2,2:0:0:0:
448,192,163599,128,0,163923:0:0:0:0:
320,192,163761,1,0,2:0:0:50:Hat open.wav
64,192,163923,1,8,2:0:0:0:
192,192,163923,128,0,164004:0:0:0:0:
192,192,164085,128,0,164248:2:0:0:50:Hat open.wav
64,192,164248,1,2,2:0:0:0:
448,192,164248,1,0,0:0:0:0:
320,192,164410,128,0,164572:2:0:0:50:Hat open.wav
64,192,164572,1,8,2:0:0:0:
448,192,164572,1,0,0:0:0:0:
192,192,164734,128,0,164896:2:0:0:50:Hat open.wav
320,192,164896,1,2,2:0:0:0:
448,192,164896,128,0,164977:0:0:0:0:
448,192,165058,128,0,165139:2:0:0:50:Hat open.wav
64,192,165221,1,8,2:0:0:0:
192,192,165221,128,0,165302:0:0:0:0:
192,192,165383,128,0,165464:2:0:0:50:Hat open.wav
320,192,165545,128,2,165626:2:0:0:0:
448,192,165545,1,0,0:0:0:0:
320,192,165707,128,0,165788:2:0:0:50:Hat open.wav
64,192,165869,1,8,2:0:0:0:
192,192,165869,128,0,165950:0:0:0:0:
192,192,166031,128,0,166112:2:0:0:50:Hat open.wav
64,192,166194,128,2,166356:2:0:0:0:
320,192,166194,1,0,0:0:0:0:
448,192,166356,128,0,166518:2:0:0:50:Hat open.wav
64,192,166518,1,8,2:0:0:0:
320,192,166518,128,0,166680:0:0:0:0:
192,192,166680,128,0,166842:2:0:0:50:Hat open.wav
64,192,166842,128,2,167167:2:0:0:0:
448,192,166842,1,0,0:0:0:0:
320,192,167004,1,0,2:0:0:50:Hat open.wav
192,192,167167,1,8,2:0:0:0:
448,192,167167,1,0,0:0:0:0:
320,192,167329,1,8,2:0:0:0:
192,192,167410,1,8,2:0:0:0:
64,192,167491,1,2,2:0:0:0:
320,192,167491,128,4,167815:2:0:0:0:
448,192,167491,1,0,0:0:0:0:
192,192,167815,128,8,167896:2:0:0:0:
448,192,167815,128,0,167896:0:0:0:0:
192,192,167977,128,0,168058:2:0:0:50:Hat open.wav
448,192,167977,128,0,168058:0:0:0:0:
64,192,168139,128,2,168221:2:0:0:0:
320,192,168139,128,0,168221:0:0:0:0:
64,192,168302,128,2,168626:2:0:0:0:
320,192,168302,128,0,168464:2:0:0:50:Hat open.wav
192,192,168464,1,8,2:0:0:0:
448,192,168464,1,0,0:0:0:0:
192,192,168626,128,2,169112:2:0:0:0:
320,192,168626,1,4,2:0:0:0:
448,192,168626,1,0,0:0:0:0:
64,192,169112,1,2,2:0:0:0:
320,192,169112,128,0,169437:0:0:0:0:
448,192,169275,1,0,2:0:0:50:Hat open.wav
64,192,169437,1,2,2:0:0:0:
192,192,169437,128,0,169761:0:0:0:0:
320,192,169599,1,2,2:0:0:0:
64,192,169761,128,8,169923:2:0:0:0:
448,192,169761,1,0,0:0:0:0:
320,192,169923,128,0,170085:2:0:0:50:Hat open.wav
64,192,170085,1,4,2:0:0:0:
192,192,170085,1,2,2:0:0:0:
448,192,170085,128,0,170572:0:0:0:0:
64,192,170410,1,8,2:0:0:0:
320,192,170410,1,0,2:0:0:50:Ride.wav
192,192,170572,1,0,0:0:0:0:
320,192,170734,1,2,2:0:0:0:
448,192,170734,1,0,2:0:0:50:Ride.wav
64,192,170896,1,2,2:0:0:0:
192,192,170896,1,0,0:0:0:0:
64,192,171058,1,8,2:0:0:0:
320,192,171058,128,0,171221:2:0:0:50:Ride.wav
448,192,171221,128,0,171383:0:0:0:0:
64,192,171383,1,4,2:0:0:0:
192,192,171383,1,2,2:0:0:0:
320,192,171383,1,0,0:0:0:0:
192,192,171707,1,4,2:0:0:0:
320,192,171707,1,2,2:0:0:0:
448,192,171707,1,0,0:0:0:0:
64,192,172031,1,2,2:0:0:0:
192,192,172031,1,4,2:0:0:0:
448,192,172031,1,0,0:0:0:0:
64,192,172356,1,2,2:0:0:0:
320,192,172356,1,0,0:0:0:0:
448,192,172356,128,0,172680:0:0:0:0:
192,192,172680,128,0,172761:0:0:0:0:
192,192,172842,128,0,172923:0:0:0:0:
64,192,173004,1,4,2:0:0:0:
320,192,173004,128,2,173085:2:0:0:0:
448,192,173004,1,0,0:0:0:0:
320,192,173167,128,0,173248:0:0:0:0:
64,192,173329,1,8,2:0:0:0:
192,192,173329,128,0,173491:0:0:0:0:
320,192,173491,1,0,2:0:0:50:Tom3.wav
448,192,173572,1,0,2:0:0:50:Tom3.wav
64,192,173653,128,8,173977:2:0:0:0:
192,192,173653,1,0,0:0:0:0:
192,192,173977,1,2,2:0:0:0:
320,192,173977,1,4,2:0:0:0:
448,192,173977,128,0,174302:0:0:0:0:
192,192,174302,1,8,2:0:0:0:
320,192,174302,128,0,174383:0:0:0:0:
320,192,174464,128,0,174626:2:0:0:50:Hat open.wav
64,192,174626,1,2,2:0:0:0:
448,192,174626,1,0,0:0:0:0:
192,192,174788,128,0,174950:2:0:0:50:Hat open.wav
320,192,174950,1,8,2:0:0:0:
448,192,174950,1,0,0:0:0:0:
192,192,175112,128,0,175194:2:0:0:50:Hat open.wav
64,192,175275,1,2,2:0:0:0:
448,192,175275,128,0,175356:0:0:0:0:
448,192,175437,128,0,175518:2:0:0:50:Hat open.wav
192,192,175599,128,8,175680:2:0:0:0:
320,192,175599,1,0,0:0:0:0:
192,192,175761,128,0,175842:2:0:0:50:Hat open.wav
64,192,175923,1,2,2:0:0:0:
320,192,175923,128,0,176004:0:0:0:0:
320,192,176085,128,0,176167:2:0:0:50:Hat open.wav
192,192,176248,128,8,176329:2:0:0:0:
448,192,176248,1,0,0:0:0:0:
192,192,176410,128,0,176491:2:0:0:50:Hat open.wav
64,192,176572,128,2,176734:2:0:0:0:
320,192,176572,1,0,0:0:0:0:
448,192,176734,128,0,176896:2:0:0:50:Hat open.wav
64,192,176896,1,8,2:0:0:0:
320,192,176896,128,0,177058:0:0:0:0:
192,192,177058,128,0,177221:2:0:0:50:Hat open.wav
64,192,177221,128,2,177545:2:0:0:0:
448,192,177221,1,0,0:0:0:0:
320,192,177383,1,0,2:0:0:50:Hat open.wav
192,192,177545,1,8,2:0:0:0:
448,192,177545,1,0,0:0:0:0:
320,192,177707,1,8,2:0:0:0:
448,192,177788,1,8,2:0:0:0:
64,192,177869,128,2,178194:2:0:0:0:
192,192,177869,128,4,178194:2:0:0:0:
320,192,177869,1,0,0:0:0:0:
320,192,178194,128,8,178275:2:0:0:0:
448,192,178194,128,0,178275:0:0:0:0:
320,192,178356,128,0,178437:2:0:0:50:Ride.wav
64,192,178518,128,2,178599:2:0:0:0:
192,192,178518,128,0,178599:0:0:0:0:
192,192,178680,128,2,178761:2:0:0:0:
320,192,178842,1,8,2:0:0:0:
448,192,178842,1,0,0:0:0:0:
64,192,179004,128,4,179329:2:0:0:0:
192,192,179004,1,2,2:0:0:0:
320,192,179004,128,0,179329:0:0:0:0:
192,192,179329,128,0,179491:0:0:0:0:
448,192,179329,1,0,0:0:0:0:
64,192,179491,1,8,2:0:0:0:
320,192,179491,128,0,179653:0:0:0:0:
192,192,179653,128,0,179815:2:0:0:50:Ride.wav
320,192,179815,1,2,2:0:0:0:
448,192,179815,128,0,179977:0:0:0:0:
64,192,179977,1,2,2:0:0:0:
192,192,179977,1,0,2:0:0:50:Ride.wav
320,192,180139,1,8,2:0:0:0:
448,192,180139,1,0,0:0:0:0:
192,192,180221,1,8,2:0:0:0:
320,192,180302,1,8,2:0:0:0:
64,192,180383,1,8,2:0:0:0:
192,192,180464,128,4,180788:2:0:0:0:
320,192,180464,1,2,2:0:0:0:
448,192,180464,128,0,180788:0:0:0:0:
64,192,180788,128,8,180869:2:0:0:0:
320,192,180788,128,0,180869:0:0:0:0:
64,192,180950,128,0,181031:2:0:0:50:Hat open.wav
192,192,181112,128,2,181194:2:0:0:0:
448,192,181112,128,0,181194:0:0:0:0:
448,192,181275,128,2,181356:2:0:0:0:
64,192,181437,1,8,2:0:0:0:
192,192,181437,1,0,0:0:0:0:
64,192,181599,128,4,181923:2:0:0:0:
192,192,181599,128,2,181923:2:0:0:0:
320,192,181599,1,0,0:0:0:0:
320,192,181923,128,2,182085:2:0:0:0:
448,192,181923,1,0,0:0:0:0:
64,192,182085,1,8,2:0:0:0:
192,192,182085,128,0,182248:2:0:0:50:Hat open.wav
320,192,182248,128,2,182410:2:0:0:0:
192,192,182410,1,8,2:0:0:0:
448,192,182410,128,0,182572:2:0:0:50:Hat open.wav
64,192,182572,1,2,2:0:0:0:
320,192,182572,1,0,0:0:0:0:
192,192,182734,128,2,182896:2:0:0:0:
448,192,182734,1,0,0:0:0:0:
64,192,182896,1,8,2:0:0:0:
320,192,182896,1,0,0:0:0:0:
192,192,182977,1,8,2:0:0:0:
64,192,183058,1,2,2:0:0:0:
320,192,183058,1,4,2:0:0:0:
448,192,183058,1,0,0:0:0:0:
192,192,183383,1,8,2:0:0:0:
320,192,183383,128,0,183545:0:0:0:0:
64,192,183545,1,0,2:0:0:50:Hat open.wav
192,192,183707,1,2,2:0:0:0:
320,192,183707,128,0,184031:0:0:0:0:
448,192,183869,1,0,2:0:0:50:Hat open.wav
64,192,184031,1,8,2:0:0:0:
192,192,184031,128,0,184356:0:0:0:0:
320,192,184194,1,0,2:0:0:50:Hat open.wav
64,192,184356,1,2,2:0:0:0:
448,192,184356,128,0,184680:0:0:0:0:
192,192,184518,1,0,2:0:0:50:Hat open.wav
64,192,184680,1,8,2:0:0:0:
320,192,184680,128,0,184761:0:0:0:0:
320,192,184842,128,0,185004:2:0:0:50:Hat open.wav
64,192,185004,1,2,2:0:0:0:
192,192,185004,1,0,0:0:0:0:
448,192,185167,128,0,185329:2:0:0:50:Hat open.wav
64,192,185329,1,8,2:0:0:0:
320,192,185329,1,0,0:0:0:0:
192,192,185491,128,0,185653:2:0:0:50:Hat open.wav
320,192,185653,1,2,2:0:0:0:
448,192,185653,128,0,185734:0:0:0:0:
448,192,185815,128,0,185896:2:0:0:50:Hat open.wav
192,192,185977,128,8,186058:2:0:0:0:
320,192,185977,1,0,0:0:0:0:
192,192,186139,128,0,186221:2:0:0:50:Hat open.wav
64,192,186302,1,2,2:0:0:0:
320,192,186302,128,0,186383:0:0:0:0:
320,192,186464,128,0,186545:2:0:0:50:Hat open.wav
192,192,186626,128,8,186707:2:0:0:0:
448,192,186626,1,0,0:0:0:0:
192,192,186788,128,0,186869:2:0:0:50:Hat open.wav
64,192,186950,128,2,187112:2:0:0:0:
320,192,186950,1,0,0:0:0:0:
448,192,187112,128,0,187275:2:0:0:50:Hat open.wav
64,192,187275,1,8,2:0:0:0:
320,192,187275,128,0,187437:0:0:0:0:
192,192,187437,128,0,187599:2:0:0:50:Hat open.wav
64,192,187599,128,2,187923:2:0:0:0:
448,192,187599,1,0,0:0:0:0:
192,192,187761,1,0,2:0:0:50:Hat open.wav
320,192,187923,1,8,2:0:0:0:
448,192,187923,1,0,0:0:0:0:
192,192,188085,1,8,2:0:0:0:
320,192,188167,1,8,2:0:0:0:
64,192,188248,1,2,2:0:0:0:
192,192,188248,128,4,188572:2:0:0:0:
448,192,188248,1,0,0:0:0:0:
320,192,188572,128,8,188653:2:0:0:0:
448,192,188572,128,0,188653:0:0:0:0:
320,192,188734,128,0,188815:2:0:0:50:Hat open.wav
448,192,188734,128,0,188815:0:0:0:0:
64,192,188896,128,2,188977:2:0:0:0:
192,192,188896,128,0,188977:0:0:0:0:
64,192,189058,128,2,189383:2:0:0:0:
192,192,189058,128,0,189221:2:0:0:50:Hat open.wav
320,192,189221,1,8,2:0:0:0:
448,192,189221,1,0,0:0:0:0:
192,192,189383,1,2,2:0:0:0:
320,192,189383,1,4,2:0:0:0:
448,192,189383,128,0,189869:0:0:0:0:
192,192,189869,1,2,2:0:0:0:
320,192,189869,128,0,190194:0:0:0:0:
448,192,190031,1,0,2:0:0:50:Hat open.wav
64,192,190194,1,2,2:0:0:0:
192,192,190194,128,0,190518:0:0:0:0:
320,192,190356,1,2,2:0:0:0:
64,192,190518,128,8,190680:2:0:0:0:
448,192,190518,1,0,0:0:0:0:
192,192,190680,128,0,191329:2:0:0:50:Hat open.wav
64,192,190842,1,4,2:0:0:0:
320,192,190842,1,2,2:0:0:0:
448,192,190842,1,0,0:0:0:0:
64,192,191167,1,8,2:0:0:0:
448,192,191167,1,0,2:0:0:50:Ride.wav
320,192,191329,1,0,0:0:0:0:
64,192,191491,1,2,2:0:0:0:
192,192,191491,1,0,2:0:0:50:Ride.wav
192,192,191653,1,2,2:0:0:0:
448,192,191653,1,0,0:0:0:0:
64,192,191815,1,8,2:0:0:0:
320,192,191815,128,0,191977:2:0:0:50:Ride.wav
192,192,191977,128,0,192139:0:0:0:0:
64,192,192139,1,4,2:0:0:0:
320,192,192139,1,2,2:0:0:0:
448,192,192139,1,0,0:0:0:0:
192,192,192464,1,4,2:0:0:0:
320,192,192464,1,2,2:0:0:0:
448,192,192464,1,0,0:0:0:0:
64,192,192788,1,2,2:0:0:0:
320,192,192788,1,4,2:0:0:0:
448,192,192788,1,0,0:0:0:0:
192,192,193112,128,8,193437:2:0:0:0:
320,192,193112,1,0,0:0:0:0:
448,192,193112,1,0,0:0:0:0:
64,192,193437,1,2,2:0:0:0:
320,192,193437,1,4,2:0:0:0:
448,192,193437,1,0,0:0:0:0:
64,192,193761,1,8,2:0:0:0:
192,192,193761,128,0,193923:2:0:0:50:Hat open.wav
320,192,193923,128,0,194085:0:0:0:0:
192,192,194085,1,2,2:0:0:0:
448,192,194085,1,0,2:0:0:50:Hat open.wav
448,192,194248,128,0,194410:0:0:0:0:
64,192,194410,1,8,2:0:0:0:
320,192,194410,128,0,194572:2:0:0:50:Hat open.wav
192,192,194572,128,0,194734:0:0:0:0:
64,192,194734,1,2,2:0:0:0:
320,192,194734,1,0,2:0:0:50:Hat open.wav
448,192,194896,128,0,195058:0:0:0:0:
64,192,195058,1,8,2:0:0:0:
320,192,195058,128,0,195221:2:0:0:50:Hat open.wav
192,192,195221,1,0,0:0:0:0:
320,192,195302,1,0,0:0:0:0:
64,192,195383,1,2,2:0:0:0:
192,192,195383,128,0,195545:2:0:0:50:Hat open.wav
448,192,195545,128,0,195707:0:0:0:0:
192,192,195707,128,8,196031:2:0:0:0:
320,192,195707,1,0,2:0:0:50:Hat open.wav
64,192,196031,1,2,2:0:0:0:
320,192,196031,1,0,2:0:0:50:Hat open.wav
64,192,196356,1,8,2:0:0:0:
448,192,196356,128,0,196518:2:0:0:50:Hat open.wav
320,192,196518,128,0,196680:0:0:0:0:
64,192,196680,1,2,2:0:0:0:
448,192,196680,1,0,2:0:0:50:Hat open.wav
64,192,196842,128,0,197004:0:0:0:0:
192,192,197004,128,8,197167:2:0:0:0:
448,192,197004,1,0,2:0:0:50:Hat open.wav
320,192,197167,128,0,197329:0:0:0:0:
64,192,197329,1,2,2:0:0:0:
448,192,197329,1,0,2:0:0:50:Hat open.wav
320,192,197491,128,0,197653:0:0:0:0:
64,192,197653,1,8,2:0:0:0:
448,192,197653,128,0,197815:2:0:0:50:Hat open.wav
192,192,197815,128,0,197977:0:0:0:0:
64,192,197977,128,2,198139:2:0:0:0:
448,192,197977,1,0,2:0:0:50:Hat open.wav
64,192,198302,1,8,2:0:0:0:
448,192,198302,1,0,0:0:0:0:
192,192,198464,1,8,2:0:0:0:
320,192,198545,1,8,2:0:0:0:
64,192,198626,1,4,2:0:0:0:
192,192,198626,1,2,2:0:0:0:
448,192,198626,1,0,0:0:0:0:
192,192,198950,128,8,199112:2:0:0:0:
448,192,198950,1,0,2:0:0:50:Hat open.wav
320,192,199112,128,0,199275:0:0:0:0:
64,192,199275,1,2,2:0:0:0:
192,192,199275,1,0,2:0:0:50:Hat open.wav
320,192,199437,128,0,199599:0:0:0:0:
192,192,199599,128,8,199761:2:0:0:0:
448,192,199599,1,0,2:0:0:50:Hat open.wav
64,192,199761,128,0,199923:0:0:0:0:
192,192,199923,1,2,2:0:0:0:
448,192,199923,1,0,2:0:0:50:Hat open.wav
320,192,200085,128,0,200248:0:0:0:0:
64,192,200248,1,8,2:0:0:0:
192,192,200248,128,0,200410:2:0:0:50:Hat open.wav
320,192,200410,1,0,0:0:0:0:
192,192,200491,1,0,0:0:0:0:
64,192,200572,128,2,200734:2:0:0:0:
320,192,200572,1,0,2:0:0:50:Hat open.wav
448,192,200734,128,0,200896:0:0:0:0:
64,192,200896,128,8,201221:2:0:0:0:
192,192,200896,1,0,2:0:0:50:Hat open.wav
192,192,201221,1,2,2:0:0:0:
448,192,201221,1,0,2:0:0:50:Hat open.wav
64,192,201545,128,8,201707:2:0:0:0:
320,192,201545,1,0,2:0:0:50:Hat open.wav
192,192,201707,128,0,201869:0:0:0:0:
64,192,201869,1,2,2:0:0:0:
448,192,201869,1,0,2:0:0:50:Hat open.wav
320,192,202031,128,0,202194:0:0:0:0:
192,192,202194,128,8,202356:2:0:0:0:
448,192,202194,1,0,2:0:0:50:Hat open.wav
64,192,202356,128,0,202518:0:0:0:0:
320,192,202518,1,2,2:0:0:0:
448,192,202518,1,0,2:0:0:50:Hat open.wav
192,192,202680,128,0,202842:0:0:0:0:
64,192,202842,1,8,2:0:0:0:
320,192,202842,128,0,203004:2:0:0:50:Hat open.wav
448,192,203004,128,0,203167:0:0:0:0:
192,192,203167,128,2,203329:2:0:0:0:
320,192,203167,1,0,2:0:0:50:Hat open.wav
64,192,203491,1,8,2:0:0:0:
448,192,203491,1,0,2:0:0:50:Hat open.wav
320,192,203653,1,8,2:0:0:0:
64,192,203734,1,8,2:0:0:0:
192,192,203734,1,0,0:0:0:0:
