osu file format v14

[General]
AudioFilename: audio.mp3
AudioLeadIn: 0
PreviewTime: 98410
Countdown: 0
SampleSet: Soft
StackLeniency: 0.7
Mode: 3
LetterboxInBreaks: 0
SpecialStyle: 0
WidescreenStoryboard: 1

[Editor]
DistanceSpacing: 1
BeatDivisor: 4
GridSize: 4
TimelineZoom: 2

[Metadata]
Title:AKUMA
TitleUnicode:AKUMA
Artist:Tokoyami Towa
ArtistUnicode:常闇トワ
Creator:Angel False
Version:Easy
Source:
Tags:vtuber virtual youtuber hololive ホロライブ すりぃ surii iii0303 ep minialbum mini album scream pop j-pop jpop japanese
BeatmapID:4070856
BeatmapSetID:1765576

[Difficulty]
HPDrainRate:6.5
CircleSize:4
OverallDifficulty:6.5
ApproachRate:5
SliderMultiplier:1.4
SliderTickRate:1

[Events]
//Background and Video events
0,0,"default.jpg",0,0
//Break Periods
//Storyboard Layer 0 (Background)
//Storyboard Layer 1 (Fail)
//Storyboard Layer 2 (Pass)
//Storyboard Layer 3 (Foreground)
//Storyboard Layer 4 (Overlay)
//Storyboard Sound Samples
Sample,5653,0,"Hat open.wav",50
Sample,6302,0,"Hat open.wav",50
Sample,6950,0,"Hat open.wav",50
Sample,7275,0,"Hat open.wav",50
Sample,7599,0,"Hat open.wav",50
Sample,7923,0,"Hat open.wav",50
Sample,8248,0,"Hat open.wav",50
Sample,8896,0,"Hat open.wav",50
Sample,9545,0,"Hat open.wav",50
Sample,9869,0,"Hat open.wav",50
Sample,10842,0,"Hat open.wav",50
Sample,11491,0,"Hat open.wav",50
Sample,12139,0,"Hat open.wav",50
Sample,12464,0,"Hat open.wav",50
Sample,12788,0,"Hat open.wav",50
Sample,13112,0,"Hat open.wav",50
Sample,13437,0,"Hat open.wav",50
Sample,14085,0,"Hat open.wav",50
Sample,14734,0,"Hat open.wav",50
Sample,15058,0,"Hat open.wav",50
Sample,15383,0,"Hat open.wav",50
Sample,25437,0,"Hat open.wav",50
Sample,26410,0,"Hat open.wav",50
Sample,27058,0,"Hat open.wav",50
Sample,27707,0,"Hat open.wav",50
Sample,28031,0,"Hat open.wav",50
Sample,28356,0,"Hat open.wav",50
Sample,28680,0,"Hat open.wav",50
Sample,29004,0,"Hat open.wav",50
Sample,29653,0,"Hat open.wav",50
Sample,30302,0,"Hat open.wav",50
Sample,30626,0,"Hat open.wav",50
Sample,41004,0,"Hat open.wav",50
Sample,51707,0,"Hat open.wav",50
Sample,60626,0,"Hat open.wav",50
Sample,61437,0,"Hat open.wav",50
Sample,68410,0,"Hat open.wav",50
Sample,70842,0,"Ride.wav",50
Sample,71167,0,"Ride.wav",50
Sample,73112,0,"Hat open.wav",50
Sample,73761,0,"Hat open.wav",50
Sample,74410,0,"Hat open.wav",50
Sample,74734,0,"Hat open.wav",50
Sample,75058,0,"Hat open.wav",50
Sample,75383,0,"Hat open.wav",50
Sample,75707,0,"Hat open.wav",50
Sample,76356,0,"Hat open.wav",50
Sample,77004,0,"Hat open.wav",50
Sample,77329,0,"Hat open.wav",50
Sample,87058,0,"Hat open.wav",50
Sample,87383,0,"Hat open.wav",50
Sample,87707,0,"Hat open.wav",50
Sample,107329,0,"Hat open.wav",50
Sample,108139,0,"Hat open.wav",50
Sample,115112,0,"Hat open.wav",50
Sample,117545,0,"Ride.wav",50
Sample,117869,0,"Ride.wav",50
Sample,119815,0,"Hat open.wav",50
Sample,120464,0,"Hat open.wav",50
Sample,121112,0,"Hat open.wav",50
Sample,121761,0,"Hat open.wav",50
Sample,122085,0,"Hat open.wav",50
Sample,122410,0,"Hat open.wav",50
Sample,123058,0,"Hat open.wav",50
Sample,123707,0,"Hat open.wav",50
Sample,124356,0,"Hat open.wav",50
Sample,125004,0,"Hat open.wav",50
Sample,125653,0,"Hat open.wav",50
Sample,126302,0,"Hat open.wav",50
Sample,126950,0,"Hat open.wav",50
Sample,127275,0,"Hat open.wav",50
Sample,127599,0,"Hat open.wav",50
Sample,128248,0,"Hat open.wav",50
Sample,128572,0,"Hat open.wav",50
Sample,128896,0,"Hat open.wav",50
Sample,129545,0,"Hat open.wav",50
Sample,130194,0,"Hat open.wav",50
Sample,130842,0,"Hat open.wav",50
Sample,131491,0,"Hat open.wav",50
Sample,132139,0,"Hat open.wav",50
Sample,132464,0,"Hat open.wav",50
Sample,132788,0,"Hat open.wav",50
Sample,133437,0,"Hat open.wav",50
Sample,134085,0,"Hat open.wav",50
Sample,134734,0,"Hat open.wav",50
Sample,135383,0,"Hat open.wav",50
Sample,136031,0,"Hat open.wav",50
Sample,136680,0,"Hat open.wav",50
Sample,137329,0,"Hat open.wav",50
Sample,137653,0,"Hat open.wav",50
Sample,137977,0,"Hat open.wav",50
Sample,138626,0,"Hat open.wav",50
Sample,138950,0,"Hat open.wav",50
Sample,139275,0,"Hat open.wav",50
Sample,139923,0,"Hat open.wav",50
Sample,161329,0,"Hat open.wav",50
Sample,161653,0,"Hat open.wav",50
Sample,168302,0,"Hat open.wav",50
Sample,170734,0,"Ride.wav",50
Sample,171058,0,"Ride.wav",50
Sample,178680,0,"Ride.wav",50
Sample,181275,0,"Hat open.wav",50
Sample,182085,0,"Hat open.wav",50
Sample,189058,0,"Hat open.wav",50
Sample,191491,0,"Ride.wav",50
Sample,191815,0,"Ride.wav",50
Sample,193761,0,"Hat open.wav",50
Sample,194410,0,"Hat open.wav",50
Sample,195058,0,"Hat open.wav",50
Sample,195383,0,"Hat open.wav",50
Sample,195707,0,"Hat open.wav",50
Sample,196031,0,"Hat open.wav",50
Sample,196356,0,"Hat open.wav",50
Sample,197004,0,"Hat open.wav",50
Sample,197653,0,"Hat open.wav",50
Sample,197977,0,"Hat open.wav",50
Sample,198950,0,"Hat open.wav",50
Sample,199599,0,"Hat open.wav",50
Sample,200248,0,"Hat open.wav",50
Sample,200572,0,"Hat open.wav",50
Sample,200896,0,"Hat open.wav",50
Sample,201221,0,"Hat open.wav",50
Sample,201545,0,"Hat open.wav",50
Sample,202194,0,"Hat open.wav",50
Sample,202842,0,"Hat open.wav",50
Sample,203167,0,"Hat open.wav",50
Sample,203491,0,"Hat open.wav",50

[TimingPoints]
140,324.324324324324,4,2,1,70,1,0
52031,-100,4,2,1,70,0,1
72788,-100,4,2,1,70,0,0
98734,-100,4,2,1,70,0,1
119491,-100,4,2,1,70,0,0
162302,-100,4,2,1,70,0,1
172680,-100,4,2,1,70,0,0
173977,-100,4,2,1,70,0,1
193437,-100,4,2,1,70,0,0

[HitObjects]
64,192,140,5,4,2:0:0:0:
448,192,140,1,2,2:0:0:0:
192,192,464,1,2,2:0:0:0:
320,192,626,1,0,0:0:0:0:
448,192,950,1,0,0:0:0:0:
320,192,1112,1,2,2:0:0:0:
192,192,1275,1,0,0:0:0:0:
320,192,1599,1,0,0:0:0:0:
64,192,1761,1,2,2:0:0:0:
320,192,1923,1,0,0:0:0:0:
192,192,2085,128,2,2410:2:0:0:0:
320,192,2410,128,2,2734:2:0:0:0:
192,192,2734,1,2,2:0:0:0:
64,192,3058,1,2,2:0:0:0:
192,192,3221,1,0,0:0:0:0:
448,192,3545,1,0,0:0:0:0:
320,192,3707,1,2,2:0:0:0:
192,192,3869,1,0,0:0:0:0:
64,192,4194,1,0,0:0:0:0:
320,192,4356,1,2,2:0:0:0:
192,192,4518,1,0,0:0:0:0:
320,192,4680,1,8,2:0:0:0:
448,192,4680,1,0,0:0:0:0:
64,192,5004,128,2,5329:2:0:0:0:
320,192,5329,1,2,2:0:0:0:
448,192,5329,1,4,2:0:0:0:
64,192,5653,1,8,2:0:0:0:
192,192,5815,1,0,0:0:0:0:
448,192,6139,1,0,0:0:0:0:
320,192,6302,1,8,2:0:0:0:
192,192,6464,1,0,0:0:0:0:
320,192,6788,1,0,0:0:0:0:
64,192,6950,1,8,2:0:0:0:
320,192,7112,1,0,0:0:0:0:
192,192,7275,128,2,7599:2:0:0:0:
64,192,7599,128,8,7923:2:0:0:0:
448,192,7923,1,2,2:0:0:0:
320,192,8248,1,8,2:0:0:0:
448,192,8410,1,0,0:0:0:0:
64,192,8734,1,0,0:0:0:0:
192,192,8896,1,8,2:0:0:0:
320,192,9058,1,0,0:0:0:0:
448,192,9383,1,0,0:0:0:0:
192,192,9545,1,8,2:0:0:0:
320,192,9707,1,0,0:0:0:0:
64,192,9869,1,2,2:0:0:0:
448,192,10194,128,8,10518:2:0:0:0:
64,192,10518,1,4,2:0:0:0:
192,192,10518,1,2,2:0:0:0:
64,192,10842,1,8,2:0:0:0:
320,192,11004,1,0,0:0:0:0:
448,192,11329,1,0,0:0:0:0:
320,192,11491,1,8,2:0:0:0:
192,192,11653,1,0,0:0:0:0:
320,192,11977,1,0,0:0:0:0:
192,192,12139,1,8,2:0:0:0:
320,192,12302,1,0,0:0:0:0:
64,192,12464,128,2,12788:2:0:0:0:
320,192,12788,128,8,13112:2:0:0:0:
448,192,13112,1,2,2:0:0:0:
320,192,13437,1,8,2:0:0:0:
192,192,13599,1,0,0:0:0:0:
64,192,13923,1,0,0:0:0:0:
192,192,14085,1,8,2:0:0:0:
320,192,14248,1,0,0:0:0:0:
192,192,14572,1,0,0:0:0:0:
448,192,14734,1,8,2:0:0:0:
192,192,14896,1,0,0:0:0:0:
64,192,15058,1,2,2:0:0:0:
192,192,15383,128,8,15707:2:0:0:0:
320,192,15707,1,2,2:0:0:0:
448,192,15707,1,4,2:0:0:0:
192,192,16031,1,2,2:0:0:0:
192,192,16356,1,2,2:0:0:0:
448,192,16518,1,0,0:0:0:0:
192,192,16680,1,2,2:0:0:0:
64,192,16842,1,0,0:0:0:0:
448,192,17004,128,2,17329:2:0:0:0:
320,192,17329,1,2,2:0:0:0:
192,192,17491,1,0,0:0:0:0:
64,192,17815,128,0,18302:0:0:0:0:
448,192,18302,1,2,2:0:0:0:
64,192,18464,1,0,0:0:0:0:
448,192,18626,128,2,18950:2:0:0:0:
320,192,18950,128,2,19275:2:0:0:0:
192,192,19275,128,2,19599:2:0:0:0:
448,192,19599,1,2,2:0:0:0:
320,192,19761,1,0,0:0:0:0:
64,192,19923,128,2,20248:2:0:0:0:
192,192,20248,128,2,20572:2:0:0:0:
320,192,20572,128,2,20896:2:0:0:0:
64,192,20896,1,2,2:0:0:0:
320,192,21058,1,0,0:0:0:0:
64,192,21221,1,2,2:0:0:0:
448,192,21545,1,2,2:0:0:0:
192,192,21707,1,0,0:0:0:0:
448,192,21869,1,2,2:0:0:0:
64,192,22194,1,2,2:0:0:0:
320,192,22356,1,0,0:0:0:0:
192,192,22518,128,2,22842:2:0:0:0:
320,192,22842,128,2,23167:2:0:0:0:
448,192,23167,1,2,2:0:0:0:
64,192,23491,1,2,2:0:0:0:
320,192,23653,1,0,0:0:0:0:
64,192,23815,1,2,2:0:0:0:
448,192,24139,1,2,2:0:0:0:
64,192,24302,1,0,0:0:0:0:
320,192,24464,128,2,24788:2:0:0:0:
192,192,24788,1,2,2:0:0:0:
320,192,24950,1,0,0:0:0:0:
64,192,25112,1,2,2:0:0:0:
320,192,25437,1,2,2:0:0:0:
192,192,25761,128,8,26085:2:0:0:0:
320,192,26085,1,4,2:0:0:0:
448,192,26085,1,2,2:0:0:0:
192,192,26410,1,8,2:0:0:0:
320,192,26572,1,0,0:0:0:0:
64,192,26896,1,0,0:0:0:0:
192,192,27058,1,8,2:0:0:0:
320,192,27221,1,0,0:0:0:0:
192,192,27545,1,0,0:0:0:0:
320,192,27707,1,8,2:0:0:0:
192,192,27869,1,0,0:0:0:0:
448,192,28031,128,2,28356:2:0:0:0:
192,192,28356,128,8,28680:2:0:0:0:
320,192,28680,1,2,2:0:0:0:
64,192,29004,1,8,2:0:0:0:
192,192,29167,1,0,0:0:0:0:
448,192,29491,1,0,0:0:0:0:
320,192,29653,1,8,2:0:0:0:
192,192,29815,1,0,0:0:0:0:
320,192,30139,1,0,0:0:0:0:
64,192,30302,1,8,2:0:0:0:
192,192,30464,1,0,0:0:0:0:
320,192,30626,1,2,2:0:0:0:
64,192,30950,128,8,31275:2:0:0:0:
320,192,31275,1,4,2:0:0:0:
448,192,31275,1,2,2:0:0:0:
192,192,31599,1,8,2:0:0:0:
320,192,31923,1,2,2:0:0:0:
448,192,32085,1,0,0:0:0:0:
320,192,32248,1,8,2:0:0:0:
64,192,32410,1,0,0:0:0:0:
192,192,32572,128,2,32896:2:0:0:0:
320,192,32896,1,8,2:0:0:0:
448,192,33058,1,0,0:0:0:0:
320,192,33383,128,0,33869:0:0:0:0:
192,192,33869,1,2,2:0:0:0:
64,192,34031,1,0,0:0:0:0:
192,192,34194,128,8,34518:2:0:0:0:
320,192,34518,128,2,34842:2:0:0:0:
448,192,34842,128,8,35167:2:0:0:0:
64,192,35167,1,2,2:0:0:0:
320,192,35329,1,0,0:0:0:0:
64,192,35491,128,8,35815:2:0:0:0:
192,192,35815,128,2,36139:2:0:0:0:
320,192,36139,128,8,36464:2:0:0:0:
64,192,36464,1,2,2:0:0:0:
192,192,36464,1,4,2:0:0:0:
448,192,36626,1,0,0:0:0:0:
320,192,36788,1,8,2:0:0:0:
320,192,37112,1,2,2:0:0:0:
192,192,37275,1,0,0:0:0:0:
64,192,37437,1,8,2:0:0:0:
192,192,37761,1,2,2:0:0:0:
320,192,37923,1,0,0:0:0:0:
448,192,38085,1,8,2:0:0:0:
192,192,38410,1,2,2:0:0:0:
320,192,38734,1,8,2:0:0:0:
64,192,39058,1,2,2:0:0:0:
320,192,39221,1,0,0:0:0:0:
64,192,39383,1,8,2:0:0:0:
448,192,39707,1,2,2:0:0:0:
192,192,39869,1,0,0:0:0:0:
448,192,40031,1,8,2:0:0:0:
320,192,40356,1,2,2:0:0:0:
192,192,40518,1,0,0:0:0:0:
64,192,40680,1,8,2:0:0:0:
320,192,41004,128,2,41329:2:0:0:0:
192,192,41329,1,8,2:0:0:0:
64,192,41653,128,4,41977:2:0:0:0:
448,192,41653,1,2,2:0:0:0:
320,192,41977,128,2,42302:2:0:0:0:
448,192,42302,128,2,42626:2:0:0:0:
192,192,42626,128,2,42950:2:0:0:0:
64,192,42950,1,2,2:0:0:0:
320,192,43275,1,2,2:0:0:0:
192,192,43599,1,2,2:0:0:0:
448,192,43923,1,2,2:0:0:0:
320,192,44248,1,2,2:0:0:0:
64,192,44572,1,2,2:0:0:0:
192,192,44896,1,2,2:0:0:0:
64,192,45221,1,2,2:0:0:0:
320,192,45545,1,2,2:0:0:0:
192,192,45869,1,2,2:0:0:0:
448,192,46194,1,2,2:0:0:0:
320,192,46518,1,2,2:0:0:0:
64,192,46842,128,4,47167:2:0:0:0:
448,192,46842,1,2,2:0:0:0:
192,192,47167,128,2,47491:2:0:0:0:
320,192,47491,128,2,47815:2:0:0:0:
448,192,47815,128,2,48139:2:0:0:0:
64,192,48139,1,2,2:0:0:0:
192,192,48464,1,2,2:0:0:0:
64,192,48788,1,2,2:0:0:0:
448,192,49112,1,2,2:0:0:0:
64,192,49437,1,2,2:0:0:0:
320,192,49437,1,4,2:0:0:0:
192,192,49599,1,8,2:0:0:0:
320,192,49761,128,8,50085:2:0:0:0:
192,192,50085,1,8,2:0:0:0:
448,192,50248,1,0,2:0:0:50:marching_drum.wav
192,192,50410,1,8,2:0:0:0:
320,192,50572,1,0,2:0:0:50:marching_drum.wav
64,192,50734,1,8,2:0:0:0:
448,192,50734,1,0,2:0:0:50:Hat open.wav
64,192,51383,1,8,2:0:0:0:
448,192,51383,1,0,0:0:0:0:
320,192,51545,1,2,2:0:0:0:
192,192,51707,128,8,52031:2:0:0:0:
320,192,52031,1,2,2:0:0:0:
448,192,52031,1,4,2:0:0:0:
64,192,52356,1,8,2:0:0:0:
192,192,52356,1,0,0:0:0:0:
320,192,52680,1,2,2:0:0:0:
64,192,53004,128,8,53329:2:0:0:0:
448,192,53004,1,0,0:0:0:0:
320,192,53329,128,2,53653:2:0:0:0:
64,192,53653,1,8,2:0:0:0:
448,192,53653,1,0,0:0:0:0:
192,192,53977,1,2,2:0:0:0:
64,192,54302,1,8,2:0:0:0:
448,192,54302,1,0,0:0:0:0:
320,192,54626,1,2,2:0:0:0:
64,192,54950,1,8,2:0:0:0:
320,192,54950,1,0,0:0:0:0:
192,192,55275,1,2,2:0:0:0:
192,192,55599,1,8,2:0:0:0:
448,192,55599,1,0,0:0:0:0:
320,192,55923,1,2,2:0:0:0:
64,192,56248,1,8,2:0:0:0:
320,192,56248,1,0,0:0:0:0:
192,192,56572,128,2,56896:2:0:0:0:
320,192,56896,1,8,2:0:0:0:
64,192,57221,1,2,2:0:0:0:
448,192,57221,1,4,2:0:0:0:
192,192,57545,1,8,2:0:0:0:
320,192,57707,1,0,2:0:0:50:Ride.wav
192,192,57869,1,2,2:0:0:0:
320,192,58031,1,0,2:0:0:50:Ride.wav
64,192,58356,1,4,2:0:0:0:
320,192,58356,128,2,58842:2:0:0:0:
64,192,58842,1,8,2:0:0:0:
192,192,58842,1,0,0:0:0:0:
320,192,59167,1,2,2:0:0:0:
448,192,59491,128,8,59815:2:0:0:0:
64,192,59815,1,4,2:0:0:0:
192,192,59815,1,2,2:0:0:0:
320,192,60139,1,8,2:0:0:0:
192,192,60302,1,0,2:0:0:50:Hat open.wav
320,192,60464,1,2,2:0:0:0:
192,192,60626,1,2,2:0:0:0:
64,192,60950,128,4,61437:2:0:0:0:
448,192,60950,1,2,2:0:0:0:
192,192,61437,1,8,2:0:0:0:
64,192,61761,128,8,62085:2:0:0:0:
448,192,61761,1,0,2:0:0:50:Hat open.wav
192,192,62085,128,2,62410:2:0:0:0:
320,192,62410,1,2,2:0:0:0:
448,192,62410,1,4,2:0:0:0:
64,192,62734,1,8,2:0:0:0:
192,192,62734,1,0,0:0:0:0:
320,192,63058,1,2,2:0:0:0:
64,192,63383,128,8,63707:2:0:0:0:
448,192,63383,1,0,0:0:0:0:
320,192,63707,128,2,64031:2:0:0:0:
64,192,64031,1,8,2:0:0:0:
192,192,64031,1,0,0:0:0:0:
320,192,64356,1,2,2:0:0:0:
64,192,64680,1,8,2:0:0:0:
448,192,64680,1,0,0:0:0:0:
192,192,65004,1,2,2:0:0:0:
64,192,65329,1,8,2:0:0:0:
192,192,65329,1,0,0:0:0:0:
320,192,65653,1,2,2:0:0:0:
320,192,65977,1,8,2:0:0:0:
448,192,65977,1,0,0:0:0:0:
192,192,66302,1,2,2:0:0:0:
192,192,66626,1,8,2:0:0:0:
448,192,66626,1,0,0:0:0:0:
320,192,66950,128,2,67275:2:0:0:0:
64,192,67275,1,8,2:0:0:0:
192,192,67599,1,2,2:0:0:0:
320,192,67599,1,4,2:0:0:0:
448,192,67923,1,8,2:0:0:0:
64,192,68085,1,0,2:0:0:50:Hat open.wav
448,192,68248,1,2,2:0:0:0:
64,192,68410,1,2,2:0:0:0:
192,192,68734,1,2,2:0:0:0:
448,192,68734,128,4,69221:2:0:0:0:
320,192,69221,128,2,69545:2:0:0:0:
192,192,69545,128,2,69869:2:0:0:0:
64,192,69869,1,8,2:0:0:0:
448,192,70031,1,0,2:0:0:50:Hat open.wav
192,192,70194,1,4,2:0:0:0:
320,192,70194,1,2,2:0:0:0:
64,192,70518,1,8,2:0:0:0:
448,192,70518,1,0,2:0:0:50:Ride.wav
320,192,70842,1,2,2:0:0:0:
192,192,71167,1,8,2:0:0:0:
320,192,71329,1,0,0:0:0:0:
64,192,71491,1,4,2:0:0:0:
448,192,71491,1,2,2:0:0:0:
192,192,71815,1,6,2:0:0:0:
320,192,72139,1,6,2:0:0:0:
448,192,72464,128,8,72788:2:0:0:0:
64,192,72788,1,2,2:0:0:0:
192,192,72788,1,4,2:0:0:0:
64,192,73112,1,8,2:0:0:0:
192,192,73275,1,0,0:0:0:0:
448,192,73599,1,0,0:0:0:0:
320,192,73761,1,8,2:0:0:0:
192,192,73923,1,0,0:0:0:0:
320,192,74248,1,0,0:0:0:0:
64,192,74410,1,8,2:0:0:0:
320,192,74572,1,0,0:0:0:0:
64,192,74734,128,2,75058:2:0:0:0:
192,192,75058,128,8,75383:2:0:0:0:
448,192,75383,1,2,2:0:0:0:
320,192,75707,1,8,2:0:0:0:
448,192,75869,1,0,0:0:0:0:
64,192,76194,1,0,0:0:0:0:
192,192,76356,1,8,2:0:0:0:
320,192,76518,1,0,0:0:0:0:
448,192,76842,1,0,0:0:0:0:
64,192,77004,1,8,2:0:0:0:
192,192,77167,1,0,0:0:0:0:
320,192,77329,1,2,2:0:0:0:
64,192,77653,128,8,77977:2:0:0:0:
320,192,77977,1,2,2:0:0:0:
448,192,77977,128,4,79275:2:0:0:0:
320,192,79275,128,0,79761:0:0:0:0:
64,192,79761,128,0,80248:0:0:0:0:
320,192,80248,128,0,80572:0:0:0:0:
192,192,80572,128,2,81869:2:0:0:0:
320,192,81869,128,0,82356:0:0:0:0:
448,192,82356,128,0,82842:0:0:0:0:
320,192,82842,128,0,83167:0:0:0:0:
192,192,83167,128,2,84464:2:0:0:0:
320,192,84464,128,0,84950:0:0:0:0:
64,192,84950,128,0,85437:0:0:0:0:
320,192,85437,128,0,85761:0:0:0:0:
192,192,85761,128,2,87058:2:0:0:0:
320,192,87058,1,2,2:0:0:0:
320,192,87383,1,2,2:0:0:0:
320,192,87707,1,2,2:0:0:0:
64,192,88031,1,8,2:0:0:0:
192,192,88031,1,0,0:0:0:0:
320,192,88356,1,4,2:0:0:0:
448,192,88356,1,2,2:0:0:0:
64,192,88518,1,0,0:0:0:0:
320,192,88680,128,8,89004:2:0:0:0:
192,192,89004,1,2,2:0:0:0:
64,192,89167,1,2,2:0:0:0:
448,192,89491,1,2,2:0:0:0:
192,192,89653,128,0,89977:0:0:0:0:
320,192,89977,1,8,2:0:0:0:
448,192,90139,1,8,2:0:0:50:marching_drum.wav
192,192,90464,1,2,2:0:0:0:
320,192,90626,1,8,2:0:0:0:
192,192,90788,1,0,0:0:0:0:
320,192,91112,1,0,0:0:0:0:
64,192,91275,128,8,91599:2:0:0:0:
192,192,91599,1,2,2:0:0:0:
320,192,91761,1,2,2:0:0:0:
192,192,92085,1,2,2:0:0:0:
448,192,92248,128,0,92572:0:0:0:0:
320,192,92572,1,8,2:0:0:0:
192,192,92734,1,8,2:0:0:50:marching_drum.wav
320,192,93058,1,2,2:0:0:0:
192,192,93383,1,8,2:0:0:0:
64,192,93545,1,2,2:0:0:0:
448,192,93545,1,4,2:0:0:0:
320,192,93707,1,0,0:0:0:0:
64,192,93869,128,8,94194:2:0:0:0:
192,192,94194,1,2,2:0:0:0:
320,192,94356,1,2,2:0:0:0:
192,192,94680,1,2,2:0:0:0:
448,192,94842,128,0,95167:0:0:0:0:
320,192,95167,1,8,2:0:0:0:
192,192,95329,1,8,2:0:0:50:marching_drum.wav
320,192,95653,1,2,2:0:0:0:
192,192,95815,1,8,2:0:0:0:
64,192,95977,1,0,0:0:0:0:
448,192,96139,1,2,2:0:0:0:
192,192,96302,128,0,96626:0:0:0:0:
320,192,96626,1,0,0:0:0:0:
448,192,96788,1,2,2:0:0:0:
192,192,96950,1,2,2:0:0:0:
448,192,97275,1,2,2:0:0:0:
192,192,97437,1,0,0:0:0:0:
64,192,97761,1,8,2:0:0:0:
320,192,97761,1,0,0:0:0:0:
192,192,98085,1,2,2:0:0:0:
448,192,98410,1,8,2:0:0:0:
64,192,98734,1,2,2:0:0:0:
192,192,98734,1,4,2:0:0:0:
320,192,99058,1,8,2:0:0:0:
448,192,99058,1,0,0:0:0:0:
192,192,99383,1,2,2:0:0:0:
64,192,99707,1,8,2:0:0:0:
448,192,99707,128,0,100031:0:0:0:0:
320,192,100031,128,2,100356:2:0:0:0:
64,192,100356,1,8,2:0:0:0:
448,192,100356,1,0,0:0:0:0:
320,192,100680,1,2,2:0:0:0:
64,192,101004,1,8,2:0:0:0:
192,192,101004,1,0,0:0:0:0:
448,192,101329,1,2,2:0:0:0:
192,192,101653,1,8,2:0:0:0:
448,192,101653,1,0,0:0:0:0:
64,192,101977,1,2,2:0:0:0:
64,192,102302,1,8,2:0:0:0:
448,192,102302,1,0,0:0:0:0:
320,192,102626,1,2,2:0:0:0:
64,192,102950,1,8,2:0:0:0:
320,192,102950,1,0,0:0:0:0:
192,192,103275,128,2,103599:2:0:0:0:
64,192,103599,1,8,2:0:0:0:
320,192,103923,1,2,2:0:0:0:
448,192,103923,1,4,2:0:0:0:
64,192,104248,1,8,2:0:0:0:
320,192,104410,1,0,2:0:0:50:Ride.wav
64,192,104572,1,2,2:0:0:0:
320,192,104734,1,0,2:0:0:50:Ride.wav
64,192,105058,1,4,2:0:0:0:
192,192,105058,128,2,105545:2:0:0:0:
320,192,105545,1,8,2:0:0:0:
448,192,105545,1,0,0:0:0:0:
192,192,105869,1,2,2:0:0:0:
320,192,106194,128,8,106518:2:0:0:0:
64,192,106518,1,4,2:0:0:0:
192,192,106518,1,2,2:0:0:0:
448,192,106842,1,8,2:0:0:0:
192,192,107004,1,0,2:0:0:50:Hat open.wav
448,192,107167,1,2,2:0:0:0:
192,192,107329,1,2,2:0:0:0:
64,192,107653,128,4,108139:2:0:0:0:
448,192,107653,1,2,2:0:0:0:
192,192,108139,1,8,2:0:0:0:
64,192,108464,1,8,2:0:0:0:
448,192,108464,128,0,108788:2:0:0:50:Hat open.wav
320,192,108788,128,8,109112:2:0:0:0:
64,192,109112,1,2,2:0:0:0:
192,192,109112,1,4,2:0:0:0:
320,192,109437,1,8,2:0:0:0:
448,192,109437,1,0,0:0:0:0:
192,192,109761,1,2,2:0:0:0:
64,192,110085,128,8,110410:2:0:0:0:
448,192,110085,1,0,0:0:0:0:
192,192,110410,128,2,110734:2:0:0:0:
320,192,110734,1,8,2:0:0:0:
448,192,110734,1,0,0:0:0:0:
192,192,111058,1,2,2:0:0:0:
64,192,111383,1,8,2:0:0:0:
448,192,111383,1,0,0:0:0:0:
320,192,111707,1,2,2:0:0:0:
64,192,112031,1,8,2:0:0:0:
320,192,112031,1,0,0:0:0:0:
192,192,112356,1,2,2:0:0:0:
192,192,112680,1,8,2:0:0:0:
448,192,112680,1,0,0:0:0:0:
320,192,113004,1,2,2:0:0:0:
320,192,113329,1,8,2:0:0:0:
448,192,113329,1,0,0:0:0:0:
192,192,113653,128,2,113977:2:0:0:0:
64,192,113977,1,8,2:0:0:0:
192,192,114302,1,2,2:0:0:0:
320,192,114302,1,4,2:0:0:0:
448,192,114626,1,8,2:0:0:0:
64,192,114788,1,0,2:0:0:50:Hat open.wav
448,192,114950,1,2,2:0:0:0:
64,192,115112,1,2,2:0:0:0:
192,192,115437,128,2,115923:2:0:0:0:
320,192,115437,1,4,2:0:0:0:
64,192,115923,128,2,116248:2:0:0:0:
448,192,116248,128,2,116572:2:0:0:0:
192,192,116572,1,8,2:0:0:0:
320,192,116734,1,0,2:0:0:50:Hat open.wav
64,192,116896,1,4,2:0:0:0:
192,192,116896,1,2,2:0:0:0:
320,192,117221,1,8,2:0:0:0:
448,192,117221,1,0,2:0:0:50:Ride.wav
64,192,117545,1,2,2:0:0:0:
192,192,117869,1,8,2:0:0:0:
320,192,118031,1,0,0:0:0:0:
64,192,118194,1,4,2:0:0:0:
448,192,118194,1,2,2:0:0:0:
192,192,118518,1,6,2:0:0:0:
320,192,118842,1,6,2:0:0:0:
448,192,119167,1,8,2:0:0:0:
64,192,119491,128,4,122085:2:0:0:0:
320,192,119491,1,2,2:0:0:0:
192,192,119815,1,8,2:0:0:0:
448,192,120464,1,8,2:0:0:0:
192,192,121112,1,8,2:0:0:0:
448,192,121761,1,8,2:0:0:0:
192,192,122085,128,2,124680:2:0:0:0:
64,192,122410,1,8,2:0:0:0:
448,192,123058,1,8,2:0:0:0:
64,192,123707,1,8,2:0:0:0:
448,192,124356,1,8,2:0:0:0:
320,192,124680,128,2,127275:2:0:0:0:
64,192,125004,1,8,2:0:0:0:
448,192,125653,1,8,2:0:0:0:
64,192,126302,1,8,2:0:0:0:
192,192,126950,1,8,2:0:0:0:
448,192,127275,128,2,128572:2:0:0:0:
64,192,127599,1,8,2:0:0:0:
192,192,128248,1,8,2:0:0:0:
320,192,128572,128,2,129869:2:0:0:0:
64,192,128896,1,8,2:0:0:0:
192,192,129545,1,8,2:0:0:0:
64,192,129869,1,2,2:0:0:0:
448,192,129869,128,4,132464:2:0:0:0:
192,192,130194,1,8,2:0:0:0:
320,192,130842,1,8,2:0:0:0:
64,192,131491,1,8,2:0:0:0:
192,192,132139,1,8,2:0:0:0:
320,192,132464,128,2,135058:2:0:0:0:
192,192,132788,1,8,2:0:0:0:
448,192,133437,1,8,2:0:0:0:
64,192,134085,1,8,2:0:0:0:
448,192,134734,1,8,2:0:0:0:
192,192,135058,128,2,137653:2:0:0:0:
320,192,135383,1,8,2:0:0:0:
64,192,136031,1,8,2:0:0:0:
448,192,136680,1,8,2:0:0:0:
320,192,137329,1,8,2:0:0:0:
64,192,137653,128,2,138950:2:0:0:0:
192,192,137977,1,8,2:0:0:0:
448,192,138626,1,8,2:0:0:0:
192,192,138950,128,2,140248:2:0:0:0:
320,192,139275,1,8,2:0:0:0:
64,192,139923,1,8,2:0:0:0:
320,192,140248,1,2,2:0:0:0:
448,192,140248,1,4,2:0:0:0:
64,192,140572,1,2,2:0:0:0:
320,192,140734,1,12,2:0:0:0:
192,192,141058,1,2,2:0:0:0:
448,192,141221,1,12,2:0:0:0:
64,192,141545,1,2,2:0:0:0:
320,192,141707,1,12,2:0:0:0:
192,192,142031,1,2,2:0:0:0:
448,192,142194,1,12,2:0:0:0:
64,192,142356,1,2,2:0:0:0:
448,192,142518,1,8,2:0:0:0:
64,192,142842,1,4,2:0:0:0:
192,192,142842,1,8,2:0:0:0:
448,192,143167,1,2,2:0:0:0:
192,192,143329,1,12,2:0:0:0:
320,192,143653,1,2,2:0:0:0:
64,192,143815,1,12,2:0:0:0:
448,192,144139,1,2,2:0:0:0:
192,192,144302,1,12,2:0:0:0:
320,192,144626,1,2,2:0:0:0:
64,192,144788,1,12,2:0:0:0:
448,192,144950,1,2,2:0:0:0:
64,192,145112,1,8,2:0:0:0:
192,192,145437,1,8,2:0:0:0:
448,192,145437,1,4,2:0:0:0:
192,192,145761,1,2,2:0:0:0:
448,192,145923,1,12,2:0:0:0:
320,192,146248,1,2,2:0:0:0:
64,192,146410,1,12,2:0:0:0:
192,192,146734,1,2,2:0:0:0:
448,192,146896,1,12,2:0:0:0:
320,192,147221,1,2,2:0:0:0:
64,192,147383,1,12,2:0:0:0:
448,192,147545,1,2,2:0:0:0:
64,192,147707,1,8,2:0:0:0:
64,192,148031,1,8,2:0:0:0:
192,192,148031,1,4,2:0:0:0:
320,192,148356,1,2,2:0:0:0:
192,192,148518,1,12,2:0:0:0:
192,192,148842,1,2,2:0:0:0:
320,192,149004,1,12,2:0:0:0:
320,192,149329,1,2,2:0:0:0:
192,192,149491,1,12,2:0:0:0:
192,192,149815,1,2,2:0:0:0:
448,192,149977,1,12,2:0:0:0:
64,192,150139,1,2,2:0:0:0:
448,192,150302,1,8,2:0:0:0:
320,192,150626,1,0,0:0:0:0:
192,192,151599,1,0,0:0:0:0:
64,192,151923,1,4,2:0:0:0:
320,192,151923,128,2,153221:2:0:0:0:
448,192,153221,128,0,154518:0:0:0:0:
64,192,154518,128,0,155815:0:0:0:0:
320,192,155815,128,0,157112:0:0:0:0:
64,192,157112,1,2,2:0:0:0:
448,192,157112,1,4,2:0:0:0:
192,192,157437,1,8,2:0:0:0:
320,192,157599,1,2,2:0:0:0:
192,192,157761,1,8,2:0:0:0:
320,192,157923,1,2,2:0:0:0:
64,192,158248,128,4,158572:2:0:0:0:
448,192,158248,1,2,2:0:0:0:
192,192,158572,1,8,2:0:0:0:
320,192,158734,1,8,2:0:0:0:
64,192,159058,128,8,159383:2:0:0:0:
192,192,159383,128,8,159707:2:0:0:0:
320,192,159707,1,4,2:0:0:0:
448,192,159707,1,2,2:0:0:0:
320,192,160031,1,8,2:0:0:0:
64,192,160194,1,0,2:0:0:50:marching_drum.wav
320,192,160356,1,8,2:0:0:0:
64,192,160518,1,0,2:0:0:50:marching_drum.wav
192,192,160842,128,8,161167:2:0:0:0:
448,192,160842,1,4,2:0:0:0:
64,192,161167,1,2,2:0:0:0:
320,192,161329,128,8,161653:2:0:0:0:
64,192,161653,128,8,161977:2:0:0:0:
192,192,161977,1,8,2:0:0:0:
64,192,162302,1,2,2:0:0:0:
448,192,162302,1,4,2:0:0:0:
192,192,162626,1,8,2:0:0:0:
320,192,162626,1,0,0:0:0:0:
64,192,162950,1,2,2:0:0:0:
192,192,163275,128,8,163599:2:0:0:0:
448,192,163275,1,0,0:0:0:0:
320,192,163599,128,2,163923:2:0:0:0:
64,192,163923,1,8,2:0:0:0:
448,192,163923,1,0,0:0:0:0:
192,192,164248,1,2,2:0:0:0:
320,192,164572,1,8,2:0:0:0:
448,192,164572,1,0,0:0:0:0:
192,192,164896,1,2,2:0:0:0:
64,192,165221,1,8,2:0:0:0:
192,192,165221,1,0,0:0:0:0:
320,192,165545,1,2,2:0:0:0:
320,192,165869,1,8,2:0:0:0:
448,192,165869,1,0,0:0:0:0:
192,192,166194,1,2,2:0:0:0:
192,192,166518,1,8,2:0:0:0:
448,192,166518,1,0,0:0:0:0:
320,192,166842,128,2,167167:2:0:0:0:
64,192,167167,1,8,2:0:0:0:
192,192,167491,1,2,2:0:0:0:
320,192,167491,1,4,2:0:0:0:
448,192,167815,1,8,2:0:0:0:
64,192,167977,1,0,2:0:0:50:Hat open.wav
448,192,168139,1,2,2:0:0:0:
64,192,168302,1,2,2:0:0:0:
192,192,168626,1,2,2:0:0:0:
448,192,168626,128,4,169112:2:0:0:0:
192,192,169112,128,2,169437:2:0:0:0:
64,192,169437,128,2,169761:2:0:0:0:
448,192,169761,1,8,2:0:0:0:
320,192,169923,1,0,2:0:0:50:Hat open.wav
64,192,170085,1,4,2:0:0:0:
192,192,170085,1,2,2:0:0:0:
320,192,170410,1,8,2:0:0:0:
448,192,170410,1,0,2:0:0:50:Ride.wav
192,192,170734,1,2,2:0:0:0:
320,192,171058,1,8,2:0:0:0:
192,192,171221,1,0,0:0:0:0:
64,192,171383,1,4,2:0:0:0:
448,192,171383,1,2,2:0:0:0:
192,192,171707,1,6,2:0:0:0:
320,192,172031,1,6,2:0:0:0:
192,192,172356,128,2,172680:2:0:0:0:
448,192,172680,128,0,173004:0:0:0:0:
64,192,173004,1,4,2:0:0:0:
320,192,173004,128,2,173329:2:0:0:0:
192,192,173329,128,8,173653:2:0:0:0:
64,192,173653,128,8,173977:2:0:0:0:
320,192,173977,1,2,2:0:0:0:
448,192,173977,1,4,2:0:0:0:
64,192,174302,1,8,2:0:0:0:
192,192,174302,1,0,0:0:0:0:
320,192,174626,1,2,2:0:0:0:
64,192,174950,1,8,2:0:0:0:
448,192,174950,1,0,0:0:0:0:
192,192,175275,1,2,2:0:0:0:
192,192,175599,1,8,2:0:0:0:
448,192,175599,1,0,0:0:0:0:
320,192,175923,1,2,2:0:0:0:
64,192,176248,1,8,2:0:0:0:
320,192,176248,1,0,0:0:0:0:
192,192,176572,1,2,2:0:0:0:
64,192,176896,1,8,2:0:0:0:
192,192,176896,1,0,0:0:0:0:
320,192,177221,128,2,177545:2:0:0:0:
448,192,177545,1,8,2:0:0:0:
192,192,177869,1,2,2:0:0:0:
320,192,177869,1,4,2:0:0:0:
64,192,178194,1,8,2:0:0:0:
192,192,178356,1,0,2:0:0:50:Ride.wav
64,192,178518,1,2,2:0:0:0:
192,192,178680,1,2,2:0:0:0:
320,192,179004,128,4,179491:2:0:0:0:
448,192,179004,1,2,2:0:0:0:
64,192,179491,1,8,2:0:0:0:
192,192,179491,1,0,0:0:0:0:
448,192,179815,1,2,2:0:0:0:
320,192,180139,128,8,180464:2:0:0:0:
64,192,180464,1,4,2:0:0:0:
192,192,180464,1,2,2:0:0:0:
448,192,180788,1,8,2:0:0:0:
320,192,180950,1,0,2:0:0:50:Hat open.wav
448,192,181112,1,2,2:0:0:0:
320,192,181275,1,2,2:0:0:0:
64,192,181599,128,4,182085:2:0:0:0:
192,192,181599,1,2,2:0:0:0:
192,192,182085,1,8,2:0:0:0:
320,192,182410,128,8,182734:2:0:0:0:
448,192,182410,1,0,2:0:0:50:Hat open.wav
192,192,182734,128,2,183058:2:0:0:0:
320,192,183058,1,2,2:0:0:0:
448,192,183058,1,4,2:0:0:0:
64,192,183383,1,8,2:0:0:0:
192,192,183383,1,0,0:0:0:0:
448,192,183707,1,2,2:0:0:0:
192,192,184031,1,8,2:0:0:0:
320,192,184031,128,0,184356:0:0:0:0:
448,192,184356,128,2,184680:2:0:0:0:
64,192,184680,1,8,2:0:0:0:
192,192,184680,1,0,0:0:0:0:
320,192,185004,1,2,2:0:0:0:
64,192,185329,1,8,2:0:0:0:
448,192,185329,1,0,0:0:0:0:
192,192,185653,1,2,2:0:0:0:
64,192,185977,1,8,2:0:0:0:
192,192,185977,1,0,0:0:0:0:
320,192,186302,1,2,2:0:0:0:
320,192,186626,1,8,2:0:0:0:
448,192,186626,1,0,0:0:0:0:
64,192,186950,1,2,2:0:0:0:
64,192,187275,1,8,2:0:0:0:
448,192,187275,1,0,0:0:0:0:
320,192,187599,128,2,187923:2:0:0:0:
448,192,187923,1,8,2:0:0:0:
64,192,188248,1,2,2:0:0:0:
192,192,188248,1,4,2:0:0:0:
448,192,188572,1,8,2:0:0:0:
64,192,188734,1,0,2:0:0:50:Hat open.wav
448,192,188896,1,2,2:0:0:0:
64,192,189058,1,2,2:0:0:0:
192,192,189383,1,2,2:0:0:0:
448,192,189383,128,4,189869:2:0:0:0:
320,192,189869,128,2,190194:2:0:0:0:
192,192,190194,128,2,190518:2:0:0:0:
64,192,190518,1,8,2:0:0:0:
448,192,190680,1,0,2:0:0:50:Hat open.wav
192,192,190842,1,4,2:0:0:0:
320,192,190842,1,2,2:0:0:0:
64,192,191167,1,8,2:0:0:0:
448,192,191167,1,0,2:0:0:50:Ride.wav
192,192,191491,1,2,2:0:0:0:
320,192,191815,1,8,2:0:0:0:
192,192,191977,1,0,0:0:0:0:
64,192,192139,1,4,2:0:0:0:
448,192,192139,1,2,2:0:0:0:
320,192,192464,1,6,2:0:0:0:
192,192,192788,1,6,2:0:0:0:
64,192,193112,128,8,193437:2:0:0:0:
320,192,193437,1,2,2:0:0:0:
448,192,193437,1,4,2:0:0:0:
64,192,193761,1,8,2:0:0:0:
192,192,193923,1,0,0:0:0:0:
448,192,194248,1,0,0:0:0:0:
320,192,194410,1,8,2:0:0:0:
192,192,194572,1,0,0:0:0:0:
320,192,194896,1,0,0:0:0:0:
64,192,195058,1,8,2:0:0:0:
320,192,195221,1,0,0:0:0:0:
64,192,195383,128,2,195707:2:0:0:0:
192,192,195707,128,8,196031:2:0:0:0:
448,192,196031,1,2,2:0:0:0:
320,192,196356,1,8,2:0:0:0:
448,192,196518,1,0,0:0:0:0:
64,192,196842,1,0,0:0:0:0:
192,192,197004,1,8,2:0:0:0:
320,192,197167,1,0,0:0:0:0:
448,192,197491,1,0,0:0:0:0:
64,192,197653,1,8,2:0:0:0:
192,192,197815,1,0,0:0:0:0:
320,192,197977,1,2,2:0:0:0:
64,192,198302,128,8,198626:2:0:0:0:
320,192,198626,1,4,2:0:0:0:
448,192,198626,1,2,2:0:0:0:
64,192,198950,1,8,2:0:0:0:
320,192,199112,1,0,0:0:0:0:
448,192,199437,1,0,0:0:0:0:
320,192,199599,1,8,2:0:0:0:
192,192,199761,1,0,0:0:0:0:
320,192,200085,1,0,0:0:0:0:
192,192,200248,1,8,2:0:0:0:
320,192,200410,1,0,0:0:0:0:
64,192,200572,128,2,200896:2:0:0:0:
320,192,200896,128,8,201221:2:0:0:0:
448,192,201221,1,2,2:0:0:0:
320,192,201545,1,8,2:0:0:0:
192,192,201707,1,0,0:0:0:0:
64,192,202031,1,0,0:0:0:0:
192,192,202194,1,8,2:0:0:0:
320,192,202356,1,0,0:0:0:0:
192,192,202680,1,0,0:0:0:0:
448,192,202842,1,8,2:0:0:0:
192,192,203004,1,0,0:0:0:0:
64,192,203167,1,2,2:0:0:0:
448,192,203491,1,8,2:0:0:0:
64,192,203734,1,8,2:0:0:0:
192,192,203734,1,0,0:0:0:0:
