osu file format v14

[General]
AudioFilename: audio.mp3
AudioLeadIn: 0
PreviewTime: 65401
Countdown: 0
SampleSet: Soft
StackLeniency: 0.4
Mode: 0
LetterboxInBreaks: 0
WidescreenStoryboard: 1

[Editor]
Bookmarks: 88258,110937,115401
DistanceSpacing: 0.7
BeatDivisor: 4
GridSize: 8
TimelineZoom: 1

[Metadata]
Title:Camomile Bathroom
TitleUnicode:カモミール・バスルーム
Artist:Tokiwa Yu
ArtistUnicode:常盤ゆう
Creator:Log Off Now
Version:shiinoha's Insane
Source:pop'n music 7
Tags:ポップンミュージック スウェディッシュ jun wakita nishiki josenho shuni reflec beat volzza 2 swedish japanese pop jpop rhythm video game size tomadoi browiec
BeatmapID:1939858
BeatmapSetID:897569

[Difficulty]
HPDrainRate:5
CircleSize:4.5
OverallDifficulty:8.2
ApproachRate:9
SliderMultiplier:1.68
SliderTickRate:1

[Events]
//Background and Video events
0,0,"cute.jpg",0,0
//Break Periods
//Storyboard Layer 0 (Background)
//Storyboard Layer 1 (Fail)
//Storyboard Layer 2 (Pass)
//Storyboard Layer 3 (Foreground)
//Storyboard Layer 4 (Overlay)
//Storyboard Sound Samples

[TimingPoints]
1116,357.142857142857,4,2,1,40,1,0
1116,-166.666666666667,4,2,1,40,0,0
1473,-100,4,2,1,45,0,0
1830,-100,4,2,1,50,0,0
2187,-166.666666666667,4,2,1,55,0,0
2544,-100,4,2,1,65,0,0
3973,-100,4,2,1,60,0,0
28258,-125,4,2,1,50,0,0
50937,-125,4,2,1,60,0,0
56294,-166.666666666667,4,2,1,60,0,0
56830,-125,4,2,1,60,0,0
62544,-111.111111111111,4,2,1,65,0,0
65401,-100,4,2,1,70,0,1
76830,-76.9230769230769,4,2,1,70,0,1
77187,-100,4,2,1,70,0,1
88258,-83.3333333333333,4,2,1,70,0,1
96651,-83.3333333333333,4,2,1,65,0,1
97187,-125,4,2,1,65,0,1
97723,-166.666666666667,4,2,1,65,0,1
98258,-100,4,2,1,70,0,1
99687,-100,4,2,1,70,0,0
111115,-100,4,2,1,30,0,0
113973,-100,4,2,1,20,0,0
115401,-100,4,2,1,10,0,0

[Colours]
Combo1 : 255,223,128
Combo2 : 191,242,98
Combo3 : 100,170,255
Combo4 : 236,116,102

[HitObjects]
142,102,1116,6,0,P|134:74|129:44,2,50.3999984619141,4|4|4,0:3|0:3|0:3,0:0:0:0:
295,195,1651,1,4,0:3:0:0:
225,184,1830,1,4,0:3:0:0:
185,242,2008,1,4,0:3:0:0:
113,193,2187,2,0,P|104:222|99:248,1,50.3999984619141,4|4,0:3|0:3,0:0:0:0:
170,368,2544,5,8,0:0:0:0:
192,349,2633,1,8,0:0:0:0:
219,336,2723,1,8,0:0:0:0:
247,331,2812,1,8,0:0:0:0:
275,336,2901,1,0,1:0:0:0:
413,232,3080,5,8,0:0:0:0:
401,237,3169,1,8,0:0:0:0:
390,243,3258,1,8,0:3:0:0:
252,173,3437,5,8,0:0:0:0:
229,155,3526,1,8,0:0:0:0:
214,131,3615,1,8,0:0:0:0:
206,102,3705,1,8,0:0:0:0:
205,73,3794,1,8,0:0:0:0:
284,26,3973,6,0,P|200:36|112:43,1,168,4|10,1:2|0:0,0:0:0:0:
33,173,4508,1,2,0:0:0:0:
103,210,4687,2,0,P|110:183|119:120,1,84,2|2,1:2|1:2,0:0:0:0:
211,328,5044,5,10,0:0:0:0:
131,309,5223,2,0,P|171:257|267:265,1,168,2|0,1:2|1:0,0:0:0:0:
429,328,5758,5,10,0:0:0:0:
411,228,5937,2,0,B|356:309|412:304|361:384,1,168,2|0,3:2|1:0,0:0:0:0:
325,204,6473,1,8,0:0:0:0:
308,181,6830,6,0,L|176:200,1,126,0|0,1:0|0:0,0:0:0:0:
183,198,7187,1,10,0:0:0:0:
93,77,7365,2,0,B|107:117|107:117|86:161,2,84,2|2|2,0:0|1:2|1:2,0:0:0:0:
25,113,7901,1,8,0:0:0:0:
175,46,8080,6,0,P|224:81|336:73,1,168,2|2,1:2|1:2,0:0:0:0:
395,43,8615,1,8,0:0:0:0:
485,182,8794,5,2,3:2:0:0:
462,170,8883,1,0,3:0:0:0:
436,168,8973,1,0,1:0:0:0:
444,242,9151,1,2,1:2:0:0:
485,80,9330,1,8,0:0:0:0:
471,63,9687,6,0,B|403:80|431:112|361:122,1,126,0|0,1:0|0:0,0:0:0:0:
362,121,10044,1,10,0:0:0:0:
200,220,10223,1,2,0:0:0:0:
268,262,10401,2,0,P|281:226|266:174,1,84,2|2,1:2|1:2,0:0:0:0:
146,66,10758,5,8,0:0:0:0:
236,101,10937,2,0,P|154:107|65:125,1,168,2|0,1:2|1:0,0:0:0:0:
30,188,11473,1,10,0:0:0:0:
138,311,11651,6,0,P|187:277|296:280,1,168,2|0,3:2|1:0,0:0:0:0:
390,381,12187,2,0,P|380:346|377:293,1,84,10|0,0:0|0:0,0:0:0:0:
453,188,12544,6,0,B|454:121|421:141|423:43,1,126,0|0,1:0|0:0,0:0:0:0:
423,67,12901,2,0,P|460:77|510:81,1,84,10|2,0:0|0:0,0:0:0:0:
346,172,13258,5,2,1:2:0:0:
292,118,13437,2,0,P|250:121|209:132,1,84,2|8,1:2|0:0,0:0:0:0:
345,47,13794,2,0,P|271:29|175:27,2,168,2|2|2,1:2|1:2|3:2,0:0:0:0:
375,70,14598,1,0,3:0:0:0:
375,70,14687,1,0,1:0:0:0:
461,159,14865,1,2,1:2:0:0:
316,259,15044,1,8,0:0:0:0:
381,306,15223,1,8,0:0:0:0:
397,271,15312,1,8,0:0:0:0:
392,233,15401,1,6,1:2:0:0:
65,321,15758,6,0,B|145:309|107:357|204:347,1,126,10|0,0:0|0:0,0:0:0:0:
184,348,16115,1,2,1:2:0:0:
269,199,16294,1,2,1:2:0:0:
283,304,16473,1,10,0:0:0:0:
174,201,16651,6,0,P|159:113|141:29,1,168,2|0,1:2|1:0,0:0:0:0:
276,118,17187,2,0,P|233:110|183:108,1,84,10|0,0:2|3:0,0:0:0:0:
355,39,17544,1,2,1:2:0:0:
321,206,17723,1,2,1:2:0:0:
287,101,17901,1,10,0:0:0:0:
407,203,18080,6,0,B|316:210|359:269|248:285,1,168,2|0,0:0|0:0,0:0:0:0:
396,371,18615,2,0,P|405:331|401:283,1,84,10|0,0:0|3:0,0:0:0:0:
271,198,18973,1,2,1:2:0:0:
316,347,19151,1,2,1:2:0:0:
386,270,19330,1,10,0:0:0:0:
240,300,19508,6,0,P|204:290|153:282,1,84,2|0,1:2|0:0,0:0:0:0:
274,118,19865,2,0,P|283:154|301:202,1,84,2|8,1:2|0:0,0:0:0:0:
101,189,20223,2,0,P|127:162|160:122,1,84,0|0,3:0|1:0,0:0:0:0:
210,219,20580,5,2,1:2:0:0:
196,200,20758,1,10,0:0:0:0:
220,197,20937,1,2,0:0:0:0:
86,312,21115,6,0,L|72:227,1,84,2|0,1:2|0:0,0:0:0:0:
179,126,21473,2,0,L|193:41,1,84,10|0,0:0|0:0,0:0:0:0:
87,137,21830,1,2,1:2:0:0:
220,197,22008,1,2,1:2:0:0:
97,240,22187,1,10,0:0:0:0:
198,119,22365,6,0,P|273:121|369:110,1,168,2|0,1:2|1:0,0:0:0:0:
435,210,22901,2,0,P|395:203|347:201,1,84,10|0,0:2|3:0,0:0:0:0:
361,31,23258,1,2,1:2:0:0:
470,134,23437,1,2,1:2:0:0:
338,188,23615,1,10,0:0:0:0:
456,47,23794,6,0,B|416:139|479:118|431:216,1,168,2|0,1:2|0:0,0:0:0:0:
297,344,24330,2,0,B|286:305|286:305|307:256,1,84,10|0,0:0|3:0,0:0:0:0:
456,314,24687,5,2,1:2:0:0:
377,342,24865,1,2,1:2:0:0:
294,188,25044,5,10,0:0:0:0:
398,239,25222,1,2,1:2:0:0:
158,311,25401,6,0,P|101:321|30:339,1,126,6|0,1:2|0:0,0:0:0:0:
34,337,25758,2,0,P|45:302|39:255,1,84,8|0,0:3|0:0,0:0:0:0:
166,95,26115,5,0,1:0:0:0:
217,162,26294,2,0,P|138:174|84:105,1,168,8|4,0:3|0:3,0:0:0:0:
83,98,27008,5,8,0:0:0:0:
68,106,27098,1,8,0:0:0:0:
51,109,27187,1,8,0:0:0:0:
143,212,27365,2,0,P|122:204|98:201,1,42,0|0,3:0|3:0,0:0:0:0:
14,288,27544,2,0,P|57:281|103:278,1,84,8|8,0:3|0:3,0:0:0:0:
164,324,27901,1,4,0:3:0:0:
164,324,28080,1,4,0:3:0:0:
261,358,28258,6,0,B|343:333|321:383|401:366,2,134.4,4|10|2,1:2|0:0|1:2,0:0:0:0:
367,286,29151,1,0,1:0:0:0:
276,210,29330,2,0,P|284:241|287:280,1,67.2,8|2,0:2|1:2,0:0:0:0:
375,126,29687,6,0,P|313:133|251:97,1,134.4,2|8,0:0|0:0,0:0:0:0:
190,57,30223,2,0,P|126:71|56:79,1,134.4,0|2,3:0|1:2,0:0:0:0:
145,184,30758,2,0,P|113:173|69:170,1,67.2,8|2,0:0|0:2,0:0:0:0:
231,288,31115,6,0,B|162:308|196:336|118:365,1,134.4,2|8,1:2|0:0,0:0:0:0:
0,291,31651,6,0,P|19:283|42:280,1,33.6,0|0,3:0|3:0,0:0:0:0:
112,287,31830,2,0,P|104:255|99:217,1,67.2,0|2,1:0|1:2,0:0:0:0:
235,129,32187,5,8,0:0:0:0:
305,168,32365,2,0,P|320:118|321:31,1,134.4,2|0,1:2|1:0,0:0:0:0:
383,227,32901,5,8,0:0:0:0:
437,177,33080,1,0,3:0:0:0:
462,185,33169,1,0,3:0:0:0:
488,183,33258,1,0,1:0:0:0:
469,108,33437,1,0,1:0:0:0:
459,290,33615,1,8,0:0:0:0:
448,309,33973,6,0,P|378:296|304:288,2,134.4,0|10|2,1:2|0:0|1:2,0:0:0:0:
501,258,34865,1,0,0:0:0:0:
348,144,35044,5,8,0:0:0:0:
296,196,35223,2,0,B|226:217|259:247|186:272,1,134.4,2|2,1:2|1:2,0:0:0:0:
122,237,35758,1,8,0:0:0:0:
183,137,35937,6,0,P|180:158|178:178,1,33.6,0|0,3:0|3:0,0:0:0:0:
111,330,36115,2,0,P|107:297|100:255,1,67.2,0|2,1:0|1:2,0:0:0:0:
51,169,36473,1,8,0:0:0:0:
38,157,36830,6,0,B|52:77|23:106|37:17,2,134.4,2|8|0,1:2|0:0|1:0,0:0:0:0:
79,218,37723,1,2,1:2:0:0:
239,124,37901,5,10,0:0:0:0:
257,129,38080,1,2,0:0:0:0:
363,224,38258,2,0,P|330:227|297:232,1,67.2,0|0,1:0|1:0,0:0:0:0:
462,79,38615,5,8,0:0:0:0:
471,156,38794,2,0,P|405:149|339:137,1,134.4,0|0,1:2|1:0,0:0:0:0:
255,48,39330,1,8,0:0:0:0:
239,60,39687,6,0,P|248:120|255:200,2,134.4,4|10|2,1:2|0:0|1:2,0:0:0:0:
177,18,40580,1,0,1:0:0:0:
86,165,40758,5,8,0:2:0:0:
122,229,40937,2,0,P|65:193|-6:209,1,134.4,2|2,1:2|1:2,0:0:0:0:
61,342,41473,2,0,P|54:309|51:271,1,67.2,8|0,0:0|3:0,0:0:0:0:
214,218,41830,5,0,1:0:0:0:
252,280,42008,1,2,1:2:0:0:
220,363,42187,2,0,P|227:330|230:292,1,67.2,8|2,0:0|0:0,0:0:0:0:
337,192,42544,6,0,B|413:205|379:239|464:254,2,134.4,2|8|0,1:2|0:0|1:0,0:0:0:0:
265,292,43437,2,0,P|295:282|332:277,1,67.2,2|8,1:2|0:0,0:0:0:0:
249,84,43794,2,0,P|295:99|386:107,1,134.4,2|0,1:2|1:0,0:0:0:0:
432,160,44330,1,8,0:0:0:0:
483,60,44508,6,0,P|486:79|488:98,1,33.6,0|0,0:0|0:0,0:0:0:0:
420,177,44687,2,0,P|413:212|409:247,1,67.2,2|2,1:2|1:2,0:0:0:0:
440,310,45044,1,8,0:0:0:0:
309,383,45223,6,0,P|243:372|166:366,1,134.4,2|0,0:0|0:0,0:0:0:0:
116,321,45758,1,8,0:0:0:0:
11,355,45937,6,0,P|6:334|7:311,1,33.6,0|0,3:0|3:0,0:0:0:0:
55,260,46115,2,0,L|63:186,1,67.2,0|2,1:0|1:2,0:0:0:0:
28,126,46473,1,8,0:0:0:0:
150,223,46651,6,0,B|219:208|192:164|263:159,1,134.4,2|2,1:2|1:2,0:0:0:0:
333,257,47187,2,0,P|300:248|262:240,1,67.2,8|2,0:0|1:2,0:0:0:0:
258,81,47544,5,0,1:0:0:0:
325,110,47723,1,2,1:2:0:0:
404,72,47901,2,0,P|371:81|333:89,1,67.2,8|2,0:0|0:0,0:0:0:0:
267,241,48258,6,0,P|315:208|403:227,1,134.4,0|8,1:0|0:0,0:0:0:0:
256,332,48794,6,0,P|236:325|217:322,1,33.6,0|0,3:0|3:0,0:0:0:0:
151,347,48973,2,0,L|72:362,1,67.2,0|0,1:0|1:0,0:0:0:0:
3,221,49330,2,0,B|65:230|39:249|93:269,1,100.8,8|0,0:0|0:0,0:0:0:0:
109,264,49687,5,2,1:2:0:0:
261,165,49865,2,0,P|293:173|332:179,1,67.2,4|8,0:3|0:0,0:0:0:0:
201,232,50223,2,0,P|163:183|88:175,1,134.4,2|10,1:2|0:0,0:0:0:0:
97,246,50758,1,8,0:0:0:0:
22,77,50937,6,0,B|106:59|84:102|162:88,1,134.4,14|0,0:0|1:0,0:0:0:0:
214,47,51473,1,8,0:0:0:0:
351,171,51651,5,2,0:0:0:0:
409,125,51830,2,0,P|441:135|480:139,1,67.2,2|2,1:2|1:2,0:0:0:0:
509,73,52187,1,8,0:0:0:0:
413,223,52365,6,0,P|349:227|269:238,1,134.4,2|0,1:2|1:0,0:0:0:0:
229,291,52901,2,0,P|237:329|241:369,1,67.2,8|2,0:0|0:0,0:0:0:0:
141,161,53258,5,2,1:2:0:0:
92,216,53437,1,2,1:2:0:0:
147,264,53615,1,8,0:0:0:0:
196,209,53794,2,0,P|187:147|176:60,1,134.4,2|0,0:0|0:0,0:0:0:0:
238,32,54330,1,8,0:0:0:0:
344,129,54508,6,0,P|364:122|383:119,1,33.6,0|0,3:0|3:0,0:0:0:0:
455,205,54687,2,0,P|422:198|385:195,1,67.2,0|2,1:0|1:2,0:0:0:0:
292,264,55044,1,8,0:0:0:0:
462,317,55223,6,0,B|380:337|380:337|374:360|393:387,1,134.4,2|2,1:2|1:2,0:0:0:0:
281,293,55758,2,0,P|246:288|214:279,1,67.2,8|0,0:0|3:0,0:0:0:0:
156,325,56115,1,2,1:2:0:0:
85,134,56294,6,0,B|140:160|107:173|168:203,1,100.799996923828,2|8,1:3|0:0,0:0:0:0:
174,190,56740,1,8,0:0:0:0:
174,190,56830,6,0,P|240:183|315:177,2,134.4,6|8|2,1:2|0:0|1:2,0:0:0:0:
114,145,57723,1,2,1:2:0:0:
24,320,57901,5,8,0:0:0:0:
7,247,58080,2,0,P|75:248|126:303,1,134.4,2|2,1:2|1:2,0:0:0:0:
228,378,58615,2,0,P|260:369|293:365,1,67.2,10|0,0:0|0:0,0:0:0:0:
405,278,58973,5,2,1:2:0:0:
474,247,59151,1,0,1:0:0:0:
367,209,59330,5,10,0:0:0:0:
296,185,59508,1,0,0:0:0:0:
356,2,59687,6,0,P|354:40|362:139,1,134.4,2|8,1:2|0:0,0:0:0:0:
203,213,60223,1,0,3:0:0:0:
142,171,60401,2,0,P|111:161|69:157,1,67.2,0|0,1:0|1:0,0:0:0:0:
226,59,60758,2,0,P|195:68|153:73,1,67.2,8|0,0:0|1:0,0:0:0:0:
295,202,61115,5,2,0:0:0:0:
314,196,61294,1,0,1:0:0:0:
182,255,61473,5,8,0:0:0:0:
298,365,61651,1,0,0:0:0:0:
304,349,61740,1,8,0:0:0:0:
311,333,61830,2,0,B|271:343|246:323|246:323|220:355|176:355,1,134.4,4|8,0:3|0:0,0:0:0:0:
54,175,62544,6,0,P|52:208|41:257,1,75.5999976928712,6|0,1:2|0:0,0:0:0:0:
224,161,62901,2,0,P|196:142|159:108,1,75.5999976928712,10|0,0:0|0:0,0:0:0:0:
143,316,63258,2,0,P|172:301|220:286,1,75.5999976928712,2|0,1:2|1:0,0:0:0:0:
279,324,63615,1,10,0:0:0:0:
386,256,63794,5,8,0:0:0:0:
407,261,63883,1,8,0:0:0:0:
266,181,64062,5,8,0:0:0:0:
245,186,64151,1,8,0:0:0:0:
369,40,64330,5,8,0:0:0:0:
384,74,64419,1,8,0:0:0:0:
364,105,64508,1,8,0:0:0:0:
382,138,64598,1,8,0:3:0:0:
376,175,64687,5,8,0:0:0:0:
258,99,64865,1,8,0:3:0:0:
123,195,65044,2,0,P|77:183|8:170,1,113.399996539307,4|0,0:3|0:0,0:0:0:0:
12,170,65401,6,0,B|46:263|-3:242|36:340,2,168,6|10|2,1:2|0:0|1:2,0:0:0:0:
117,276,66294,1,2,1:2:0:0:
223,128,66473,5,8,0:0:0:0:
282,187,66651,2,0,P|318:180|368:178,1,84,2|0,1:2|0:0,0:0:0:0:
424,348,67008,5,0,1:0:0:0:
469,277,67187,2,0,P|432:270|383:268,1,84,8|0,0:0|1:0,0:0:0:0:
229,368,67544,5,0,1:0:0:0:
229,368,67723,1,0,1:0:0:0:
188,287,67901,2,0,P|229:293|271:296,1,84,8|0,0:0|0:0,0:0:0:0:
369,79,68258,5,2,1:2:0:0:
397,158,68437,1,2,0:0:0:0:
193,250,68615,5,8,0:0:0:0:
221,171,68794,2,0,L|311:152,1,84,2|0,0:0|1:0,0:0:0:0:
377,192,69151,1,2,1:2:0:0:
162,59,69330,5,8,0:0:0:0:
111,125,69508,2,0,L|21:106,1,84,2|0,1:2|0:0,0:0:0:0:
206,255,69865,5,2,1:2:0:0:
93,301,70044,1,8,0:0:0:0:
95,226,70223,2,0,L|12:243,1,84,2|0,1:2|1:0,0:0:0:0:
282,93,70580,5,2,1:2:0:0:
334,157,70758,2,0,B|405:171|375:200|453:225,1,126,8|0,0:0|0:0,0:0:0:0:
440,220,71115,6,0,P|434:147|427:46,2,168,6|10|2,1:2|0:0|1:2,0:0:0:0:
474,297,72008,1,2,1:2:0:0:
311,367,72187,5,8,0:0:0:0:
233,334,72365,2,0,P|165:362|60:353,1,168,2|0,1:2|1:0,0:0:0:0:
13,296,72901,1,8,0:0:0:0:
127,186,73080,5,0,1:0:0:0:
168,180,73169,1,0,1:0:0:0:
204,200,73258,1,0,1:0:0:0:
103,269,73437,1,0,1:0:0:0:
11,190,73615,2,0,P|19:148|19:107,1,84,8|0,0:0|0:0,0:0:0:0:
194,54,73973,5,2,1:2:0:0:
263,100,74151,2,0,P|302:86|351:84,1,84,2|8,0:0|0:0,0:0:0:0:
191,179,74508,2,0,B|280:217|228:258|315:296,1,168,2|2,0:0|1:2,0:0:0:0:
334,213,75044,1,8,0:0:0:0:
436,353,75223,6,0,P|447:243|456:183,1,168,2|2,1:2|1:2,0:0:0:0:
443,31,75758,1,8,0:0:0:0:
375,60,75937,2,0,P|379:101|386:143,1,84,2|0,0:0|1:0,0:0:0:0:
249,128,76294,5,0,1:0:0:0:
266,133,76383,1,8,0:0:0:0:
318,269,76562,5,0,1:0:0:0:
301,274,76651,1,8,0:0:0:0:
388,329,76830,6,0,P|306:320|224:314,1,163.799992501831,2|0,1:2|0:0,0:0:0:0:
160,371,77187,6,0,B|98:360|124:318|51:308,1,126,6|0,1:2|0:0,0:0:0:0:
41,318,77544,1,2,1:2:0:0:
170,183,77723,2,0,P|163:221|156:272,1,84,2|8,1:2|0:0,0:0:0:0:
27,106,78080,6,0,P|108:116|177:52,1,168,2|0,1:2|1:0,0:0:0:0:
112,17,78615,1,8,0:0:0:0:
236,133,78794,6,0,P|258:126|281:121,1,42,0|0,1:0|1:0,0:0:0:0:
338,49,78973,2,0,P|298:46|249:40,1,84,0|0,1:0|1:0,0:0:0:0:
407,156,79330,1,8,0:0:0:0:
426,151,79508,1,0,0:0:0:0:
322,254,79687,5,2,1:2:0:0:
390,285,79865,1,2,0:0:0:0:
197,101,80044,5,8,0:0:0:0:
265,70,80223,2,0,P|273:115|272:156,1,84,2|0,0:0|1:0,0:0:0:0:
126,186,80580,2,0,P|118:144|118:102,1,84,2|8,1:2|0:0,0:0:0:0:
224,284,80937,6,0,P|144:274|51:269,1,168,2|0,1:2|0:0,0:0:0:0:
296,186,81473,5,8,0:0:0:0:
351,237,81651,2,0,P|392:236|440:228,1,84,2|0,0:0|1:0,0:0:0:0:
252,362,82008,5,2,1:2:0:0:
206,301,82187,2,0,B|137:293|176:252|91:250,1,126,8|0,0:0|0:0,0:0:0:0:
95,250,82544,6,0,P|90:159|84:82,2,168,6|10|2,1:2|0:0|1:2,0:0:0:0:
53,313,83437,1,2,1:2:0:0:
220,178,83615,5,8,0:0:0:0:
273,231,83794,2,0,B|366:222|366:222|400:244|383:296,1,168,2|0,1:2|1:0,0:0:0:0:
464,103,84330,5,8,0:0:0:0:
429,176,84508,1,0,1:0:0:0:
398,153,84598,1,0,1:0:0:0:
360,151,84687,1,0,1:0:0:0:
215,44,84865,1,0,1:0:0:0:
162,98,85044,2,0,P|123:107|76:111,1,84,8|0,0:0|0:0,0:0:0:0:
202,222,85401,6,0,P|149:208|30:199,1,168,2|8,1:2|0:0,0:0:0:0:
97,280,85937,2,0,P|75:281|53:287,1,42,2|0,0:0|0:0,0:0:0:0:
6,360,86115,2,0,P|48:363|94:370,1,84,0|2,1:0|1:2,0:0:0:0:
321,279,86473,5,8,0:0:0:0:
269,334,86651,2,0,P|232:288|241:208,1,126,2|0,1:2|0:0,0:0:0:0:
278,161,87008,5,8,0:0:0:0:
311,178,87098,1,8,0:0:0:0:
348,178,87187,1,8,0:0:0:0:
165,169,87365,5,8,0:0:0:0:
133,189,87455,1,8,0:0:0:0:
115,221,87544,1,8,0:0:0:0:
218,99,87723,5,8,0:0:0:0:
228,86,87812,1,8,0:0:0:0:
212,79,87901,1,8,0:3:0:0:
225,68,87990,1,8,0:3:0:0:
225,68,88080,2,0,L|217:26,1,42,4|4,0:3|0:3,0:0:0:0:
308,98,88258,6,0,B|366:87|351:73|407:67,1,100.799996923828,12|0,0:0|0:0,0:0:0:0:
250,218,88615,2,0,B|298:251|298:230|341:266,1,100.799996923828,8|0,0:0|1:0,0:0:0:0:
167,73,88973,5,8,0:0:0:0:
0,103,89151,1,0,1:0:0:0:
159,231,89330,5,8,0:0:0:0:
63,217,89508,1,0,1:0:0:0:
110,145,89687,1,8,0:0:0:0:
261,311,89865,5,0,1:2:0:0:
333,275,90044,2,0,P|378:296|431:303,1,100.799996923828,8|0,0:0|1:2,0:0:0:0:
261,128,90401,2,0,P|306:107|359:100,1,100.799996923828,8|0,0:2|1:0,0:0:0:0:
417,146,90669,1,0,0:0:0:0:
435,152,90758,1,8,0:0:0:0:
249,23,90937,1,0,1:0:0:0:
99,125,91115,6,0,B|60:116|60:116|44:122|44:122|-11:113,1,100.799996923828,12|0,0:0|0:0,0:0:0:0:
189,269,91473,2,0,B|153:294|153:294|146:310|146:310|112:331,1,100.799996923828,8|0,0:0|1:0,0:0:0:0:
303,115,91830,5,8,0:0:0:0:
474,219,92008,1,0,1:0:0:0:
503,142,92187,5,8,0:0:0:0:
277,213,92365,1,0,1:0:0:0:
365,297,92544,1,8,0:0:0:0:
274,88,92723,5,0,1:0:0:0:
210,139,92901,2,0,B|187:97|187:97|203:38,1,100.799996923828,8|0,0:0|1:0,0:0:0:0:
304,251,93258,2,0,L|197:242,1,100.799996923828,8|0,0:0|1:0,0:0:0:0:
182,256,93526,2,0,L|236:262,1,50.3999984619141,0|8,0:0|0:0,0:0:0:0:
467,141,93794,5,8,0:0:0:0:
456,71,93883,1,8,0:0:0:0:
446,0,93973,1,12,0:0:0:0:
93,35,94330,6,0,P|108:83|115:132,1,100.799996923828,8|0,0:0|1:0,0:0:0:0:
247,297,94687,5,8,0:0:0:0:
213,134,94865,1,0,1:0:0:0:
24,346,95044,5,8,0:0:0:0:
98,159,95222,1,0,1:0:0:0:
149,273,95401,1,8,0:0:0:0:
314,66,95580,5,0,1:2:0:0:
366,125,95758,2,0,P|350:173|343:222,1,100.799996923828,8|0,0:0|1:2,0:0:0:0:
122,89,96115,2,0,P|138:137|145:186,1,100.799996923828,8|0,0:2|1:0,0:0:0:0:
256,60,96473,1,8,0:0:0:0:
440,124,96651,6,0,B|324:99|369:179|246:167,1,201.599993847656,4|0,1:2|0:0,0:0:0:0:
101,61,97187,5,0,1:0:0:0:
101,61,97365,1,0,1:0:0:0:
45,223,97544,5,8,0:0:0:0:
113,194,97723,2,0,P|122:240|126:308,1,100.799996923828,8|4,0:3|0:3,0:0:0:0:
385,353,98258,5,4,0:3:0:0:
375,311,98348,1,8,0:0:0:0:
371,289,98437,1,8,0:0:0:0:
205,217,98615,5,4,0:3:0:0:
215,175,98705,1,8,0:0:0:0:
219,153,98794,1,8,0:0:0:0:
418,33,98973,5,4,0:3:0:0:
392,0,99063,1,8,0:0:0:0:
389,29,99152,1,8,0:0:0:0:
385,57,99240,1,8,0:0:0:0:
381,86,99330,1,8,0:0:0:0:
238,0,99508,1,4,0:3:0:0:
113,198,99687,1,6,1:2:0:0:
330,342,100044,6,0,P|291:333|242:334,1,84,10|0,0:0|0:0,0:0:0:0:
82,281,100401,1,2,1:2:0:0:
234,249,100580,1,2,1:2:0:0:
162,354,100758,1,10,0:0:0:0:
181,180,100937,6,0,P|260:195|357:201,1,168,2|0,1:2|1:0,0:0:0:0:
451,286,101473,2,0,P|410:289|363:299,1,84,10|0,0:2|3:0,0:0:0:0:
393,100,101830,1,2,1:2:0:0:
498,205,102008,1,2,1:2:0:0:
361,184,102187,1,10,0:0:0:0:
447,35,102365,6,0,P|378:70|288:60,1,168,2|0,0:0|0:0,0:0:0:0:
179,171,102901,2,0,P|214:154|261:156,1,84,10|0,0:0|3:0,0:0:0:0:
225,359,103258,5,2,1:2:0:0:
274,301,103437,1,2,1:2:0:0:
238,234,103615,1,10,0:0:0:0:
361,352,103794,6,0,P|399:340|446:335,1,84,2|0,1:2|0:0,0:0:0:0:
199,339,104151,2,0,P|161:327|114:322,1,84,2|8,1:2|0:0,0:0:0:0:
317,221,104508,1,0,3:0:0:0:
349,240,104598,1,0,3:0:0:0:
386,240,104687,1,0,1:0:0:0:
274,301,104865,1,2,1:2:0:0:
231,140,105044,2,0,P|228:182|218:228,1,84,10|2,0:0|0:0,0:0:0:0:
197,46,105401,6,0,P|132:85|29:71,2,168,6|10|2,1:2|0:0|1:2,0:0:0:0:
360,141,106294,1,2,1:2:0:0:
244,219,106473,1,10,0:0:0:0:
310,49,106651,2,0,P|351:47|393:40,1,84,2|0,1:2|0:0,0:0:0:0:
158,182,107008,5,0,1:0:0:0:
119,116,107187,2,0,P|77:109|35:106,1,84,10|2,0:2|3:2,0:0:0:0:
240,251,107544,5,2,1:2:0:0:
310,231,107723,1,2,1:2:0:0:
299,346,107901,5,10,0:0:0:0:
185,165,108080,1,2,1:2:0:0:
131,236,108258,6,0,B|59:245|91:274|8:293,1,126,2|0,0:0|0:0,0:0:0:0:
19,290,108615,2,0,B|1:252|1:252|17:205,1,84,10|0,0:0|3:0,0:0:0:0:
150,75,108973,1,2,1:2:0:0:
114,214,109151,1,2,1:2:0:0:
18,120,109330,1,10,0:0:0:0:
206,172,109508,1,2,1:2:0:0:
246,98,109687,5,4,1:2:0:0:
14,213,109865,1,8,0:0:0:0:
0,0,110223,5,12,0:0:0:0:
305,196,110580,5,8,0:3:0:0:
0,384,110937,5,2,0:0:0:0:
256,192,111115,12,0,115401,0:0:0:0:
