osu file format v14

[General]
AudioFilename: audio.mp3
AudioLeadIn: 0
PreviewTime: 65401
Countdown: 0
SampleSet: Soft
StackLeniency: 0.4
Mode: 0
LetterboxInBreaks: 0
WidescreenStoryboard: 0

[Editor]
Bookmarks: 88258,110937,115401
DistanceSpacing: 1
BeatDivisor: 4
GridSize: 8
TimelineZoom: 1

[Metadata]
Title:Camomile Bathroom
TitleUnicode:カモミール・バスルーム
Artist:Tokiwa Yu
ArtistUnicode:常盤ゆう
Creator:Log Off Now
Version:Simple Mind
Source:pop'n music 7
Tags:ポップンミュージック スウェディッシュ jun wakita nishiki josenho shuni reflec beat volzza 2 swedish japanese pop jpop rhythm video game size tomadoi browiec
BeatmapID:1875178
BeatmapSetID:897569

[Difficulty]
HPDrainRate:5.5
CircleSize:4
OverallDifficulty:9
ApproachRate:9.3
SliderMultiplier:1.8
SliderTickRate:1

[Events]
//Background and Video events
0,0,"cute.jpg",0,0
//Break Periods
//Storyboard Layer 0 (Background)
//Storyboard Layer 1 (Fail)
//Storyboard Layer 2 (Pass)
//Storyboard Layer 3 (Foreground)
//Storyboard Layer 4 (Overlay)
//Storyboard Sound Samples

[TimingPoints]
1116,357.142857142857,4,2,1,40,1,0
1473,-100,4,2,1,45,0,0
1830,-100,4,2,1,50,0,0
2187,-100,4,2,1,55,0,0
2544,-100,4,2,1,65,0,0
3973,-100,4,2,1,60,0,0
28258,-117.647058823529,4,2,1,50,0,0
50937,-117.647058823529,4,2,1,60,0,0
62544,-117.647058823529,4,2,1,65,0,0
65401,-100,4,2,1,70,0,1
76830,-133.333333333333,4,2,1,70,0,1
77187,-100,4,2,1,70,0,1
96651,-117.647058823529,4,2,1,65,0,0
98258,-100,4,2,1,70,0,0
111115,-100,4,2,1,30,0,0
113973,-100,4,2,1,20,0,0
115401,-100,4,2,1,10,0,0

[Colours]
Combo1 : 255,223,128
Combo2 : 191,242,98
Combo3 : 100,170,255
Combo4 : 236,116,102

[HitObjects]
222,157,1116,6,0,L|230:257,1,90,4|4,0:3|0:3,0:0:0:0:
292,131,1473,5,4,0:3:0:0:
218,280,1651,1,4,0:3:0:0:
215,80,1830,5,4,0:3:0:0:
353,184,2008,1,4,0:3:0:0:
328,53,2187,5,4,0:3:0:0:
301,245,2365,1,4,0:3:0:0:
139,56,2544,5,8,0:0:0:0:
135,97,2633,1,8,0:0:0:0:
153,135,2722,1,8,0:0:0:0:
188,158,2811,1,8,0:0:0:0:
230,159,2901,1,0,1:0:0:0:
400,59,3080,5,8,0:0:0:0:
400,59,3169,1,8,0:0:0:0:
400,59,3258,1,8,0:3:0:0:
382,240,3437,6,0,L|376:299,1,45,8|8,0:0|0:0,0:0:0:0:
230,159,3615,2,0,L|234:203,1,45,8|8,0:0|0:0,0:0:0:0:
253,384,3794,1,8,0:0:0:0:
27,312,3973,6,0,P|54:279|150:275,1,135,4|0,1:2|0:0,0:0:0:0:
163,285,4330,2,0,L|154:191,1,90,10|2,0:0|0:0,0:0:0:0:
142,77,4687,1,2,1:2:0:0:
54,229,4865,2,0,L|62:139,1,90,2|10,1:2|0:0,0:0:0:0:
81,4,5223,6,0,P|127:56|231:42,1,180,2|0,1:2|1:0,0:0:0:0:
355,0,5758,1,10,0:0:0:0:
300,169,5937,1,2,3:2:0:0:
300,169,6026,1,0,3:0:0:0:
300,169,6115,2,0,L|308:79,1,90,0|0,1:0|1:0,0:0:0:0:
453,155,6473,2,0,P|409:194|407:235,1,90,8|0,0:0|0:0,0:0:0:0:
462,341,6830,6,0,B|389:321|409:372|314:340,1,135,0|0,1:0|0:0,0:0:0:0:
304,337,7187,1,10,0:0:0:0:
382,234,7365,1,2,0:0:0:0:
254,157,7544,1,2,1:2:0:0:
281,248,7723,1,2,1:2:0:0:
333,99,7901,1,8,0:0:0:0:
170,184,8080,6,0,P|117:203|78:201,1,90,2|0,1:2|0:0,0:0:0:0:
255,17,8437,2,0,P|289:45|311:84,1,90,2|8,1:2|0:0,0:0:0:0:
282,209,8794,1,2,3:2:0:0:
282,209,8883,1,0,3:0:0:0:
282,209,8973,1,0,1:0:0:0:
179,151,9151,1,2,1:2:0:0:
132,250,9330,2,0,P|132:297|141:366,1,90,8|0,0:0|0:0,0:0:0:0:
259,379,9687,6,0,P|304:339|391:349,1,135,0|0,1:0|0:0,0:0:0:0:
398,355,10044,2,0,L|407:239,1,90,10|2,0:0|0:0,0:0:0:0:
413,141,10401,1,2,1:2:0:0:
292,229,10580,2,0,P|225:251|179:230,1,90,2|8,1:2|0:0,0:0:0:0:
141,42,10937,6,0,P|206:64|234:165,1,180,2|0,1:2|1:0,0:0:0:0:
150,133,11472,1,10,0:0:0:0:
324,77,11651,1,2,3:2:0:0:
324,77,11740,1,0,3:0:0:0:
324,77,11829,2,0,P|318:123|316:167,1,90,0|0,1:0|1:0,0:0:0:0:
302,313,12187,2,0,P|353:283|385:286,1,90,10|0,0:0|0:0,0:0:0:0:
230,200,12544,6,0,B|157:180|177:231|82:199,1,135,0|0,1:0|0:0,0:0:0:0:
72,196,12901,1,10,0:0:0:0:
146,108,13080,1,2,0:0:0:0:
200,277,13258,1,2,1:2:0:0:
261,84,13437,1,2,1:2:0:0:
119,126,13615,1,8,0:0:0:0:
310,166,13794,6,0,P|356:156|408:152,1,90,2|0,1:2|0:0,0:0:0:0:
230,10,14151,2,0,P|196:38|180:80,1,90,2|8,1:2|0:0,0:0:0:0:
229,216,14508,1,2,3:2:0:0:
229,216,14597,1,0,3:0:0:0:
229,216,14687,1,0,1:0:0:0:
306,132,14865,1,2,1:2:0:0:
371,292,15044,1,8,0:0:0:0:
471,127,15223,1,8,0:0:0:0:
295,255,15401,6,0,P|250:245|197:241,1,90,6|0,1:2|0:0,0:0:0:0:
119,43,15758,2,0,P|157:112|139:190,1,135,10|0,0:0|0:0,0:0:0:0:
136,188,16115,1,2,1:2:0:0:
71,121,16294,1,2,1:2:0:0:
222,51,16473,1,10,0:0:0:0:
124,210,16651,6,0,P|101:280|135:393,1,180,2|0,1:2|1:0,0:0:0:0:
304,293,17187,2,0,P|259:283|206:279,1,90,10|0,0:2|3:0,0:0:0:0:
202,295,17455,1,0,3:0:0:0:
202,295,17544,1,2,1:2:0:0:
241,193,17723,1,2,1:2:0:0:
298,375,17901,1,10,0:0:0:0:
369,185,18080,6,0,L|355:4,1,180,2|0,0:0|0:0,0:0:0:0:
180,96,18615,2,0,P|217:127|286:124,1,90,10|0,0:0|3:0,0:0:0:0:
284,117,18883,1,0,3:0:0:0:
284,117,18973,1,2,1:2:0:0:
248,33,19151,1,2,1:2:0:0:
190,206,19330,1,10,0:0:0:0:
55,31,19508,6,0,P|63:80|66:137,1,90,2|0,1:2|0:0,0:0:0:0:
177,230,19865,2,0,P|169:279|166:336,1,90,2|8,1:2|0:0,0:0:0:0:
61,146,20223,1,0,3:0:0:0:
61,146,20312,1,0,3:0:0:0:
61,146,20401,1,0,1:0:0:0:
200,218,20580,1,2,1:2:0:0:
53,263,20758,1,10,0:0:0:0:
214,133,20937,1,2,0:0:0:0:
239,372,21115,6,0,P|249:327|253:274,1,90,2|0,1:2|0:0,0:0:0:0:
210,104,21473,2,0,P|267:161|349:147,1,135,10|0,0:0|0:0,0:0:0:0:
342,149,21829,1,2,1:2:0:0:
298,65,22008,1,2,1:2:0:0:
248,256,22187,1,10,0:0:0:0:
197,78,22365,6,0,P|134:40|14:88,1,180,2|0,1:2|1:0,0:0:0:0:
115,235,22901,2,0,P|125:190|129:137,1,90,10|0,0:2|3:0,0:0:0:0:
113,133,23169,1,0,3:0:0:0:
113,133,23258,1,2,1:2:0:0:
33,229,23437,1,2,1:2:0:0:
210,176,23615,1,10,0:0:0:0:
116,339,23794,6,0,B|227:320|191:372|296:349,1,180,2|0,1:2|0:0,0:0:0:0:
284,166,24330,2,0,P|250:226|254:264,1,90,10|0,0:0|3:0,0:0:0:0:
266,268,24598,1,0,3:0:0:0:
266,268,24687,1,2,1:2:0:0:
371,216,24865,1,2,1:2:0:0:
181,193,25044,1,10,0:0:0:0:
356,295,25223,1,2,1:2:0:0:
260,126,25401,6,0,B|239:86|239:86|258:-22,1,135,6|0,1:2|0:0,0:0:0:0:
277,17,25758,1,8,0:3:0:0:
277,17,26115,5,0,1:0:0:0:
79,122,26294,2,0,P|145:132|170:155,1,90,8|0,0:3|0:0,0:0:0:0:
226,259,26651,1,4,0:3:0:0:
226,259,27008,5,8,0:0:0:0:
229,228,27098,1,8,0:0:0:0:
232,197,27187,1,8,0:0:0:0:
328,70,27365,2,0,L|335:140,1,45,0|0,3:0|3:0,0:0:0:0:
342,202,27544,5,8,0:3:0:0:
137,143,27723,1,8,0:3:0:0:
260,271,27901,1,4,0:3:0:0:
246,107,28080,1,4,0:3:0:0:
108,304,28258,6,0,P|173:282|214:286,1,76.5000014591217,4|0,1:2|0:0,0:0:0:0:
278,348,28615,2,0,P|343:370|384:366,1,76.5000014591217,10|0,0:0|0:0,0:0:0:0:
435,306,28973,2,0,P|410:263|438:165,1,153.000002918243,2|8,1:2|0:2,0:2:0:0:
508,114,29508,1,2,1:2:0:0:
495,236,29687,5,2,0:0:0:0:
362,125,29865,2,0,L|355:201,1,76.5000014591217,2|8,1:2|0:0,0:0:0:0:
349,342,30223,1,0,3:0:0:0:
349,342,30312,1,0,3:0:0:0:
349,342,30401,1,0,1:0:0:0:
224,288,30580,2,0,P|187:278|145:282,1,76.5000014591217,2|8,1:2|0:0,0:0:0:0:
234,170,30937,6,0,P|230:96|173:46,1,153.000002918243,2|0,0:2|0:0,0:0:0:0:
18,117,31473,1,8,0:0:0:0:
91,6,31651,1,0,3:0:0:0:
91,6,31740,1,0,3:0:0:0:
91,6,31830,1,0,1:0:0:0:
115,138,32008,2,0,P|119:171|122:216,1,76.5000014591217,2|8,1:2|0:0,0:0:0:0:
349,190,32365,6,0,P|290:144|215:145,1,153.000002918243,2|0,1:2|1:0,0:0:0:0:
226,283,32901,2,0,P|230:316|233:361,1,76.5000014591217,8|0,0:0|3:0,0:0:0:0:
252,384,33169,1,0,3:0:0:0:
252,384,33258,1,0,1:0:0:0:
318,287,33437,1,0,1:0:0:0:
150,227,33615,1,8,0:0:0:0:
150,227,33973,6,0,P|85:205|44:209,1,76.5000014591217,0|0,1:2|0:0,0:0:0:0:
257,161,34330,2,0,P|322:139|363:143,1,76.5000014591217,10|0,0:0|0:0,0:0:0:0:
206,63,34687,2,0,B|111:46|143:94|30:59,1,153.000002918243,2|8,1:2|0:0,0:0:0:0:
166,148,35223,1,2,1:2:0:0:
238,42,35402,5,2,0:0:0:0:
294,150,35580,2,0,P|288:191|287:226,1,76.5000014591217,2|8,1:2|0:0,0:0:0:0:
281,367,35938,1,0,3:0:0:0:
281,367,36027,1,0,3:0:0:0:
281,367,36116,1,0,1:0:0:0:
365,293,36295,1,2,1:2:0:0:
472,369,36473,1,8,0:0:0:0:
446,213,36651,1,2,0:0:0:0:
341,303,36830,6,0,B|246:319|278:271|165:306,1,153.000002918243,2|8,1:2|0:0,0:0:0:0:
61,334,37365,1,0,3:0:0:0:
61,334,37455,1,0,3:0:0:0:
61,334,37544,1,0,1:0:0:0:
107,181,37723,1,2,1:2:0:0:
158,284,37901,1,10,0:0:0:0:
27,245,38080,1,2,0:0:0:0:
217,207,38258,5,0,1:0:0:0:
217,207,38437,1,0,1:0:0:0:
21,143,38615,1,8,0:0:0:0:
141,17,38794,2,0,P|134:70|124:185,1,153.000002918243,0|0,1:2|1:0,0:0:0:0:
219,370,39330,1,8,0:0:0:0:
219,370,39687,6,0,P|284:348|325:352,1,76.5000014591217,4|0,1:2|0:0,0:0:0:0:
419,384,40044,2,0,P|394:319|397:278,1,76.5000014591217,10|0,0:0|0:0,0:0:0:0:
398,177,40401,2,0,P|346:230|271:232,1,153.000002918243,2|8,1:2|0:2,0:2:0:0:
157,161,40937,1,2,1:2:0:0:
207,298,41116,5,2,0:0:0:0:
310,148,41294,2,0,P|307:107|303:72,1,76.5000014591217,2|8,1:2|0:0,0:0:0:0:
395,11,41652,1,0,3:0:0:0:
395,11,41741,1,0,3:0:0:0:
395,11,41830,1,0,1:0:0:0:
463,167,42008,2,0,P|466:129|470:91,1,76.5000014591217,2|8,1:2|0:0,0:0:0:0:
376,222,42365,1,2,0:0:0:0:
259,154,42544,6,0,B|164:137|196:185|83:150,1,153.000002918243,2|8,1:2|0:0,0:0:0:0:
10,76,43080,1,0,3:0:0:0:
10,76,43169,1,0,3:0:0:0:
10,76,43258,1,0,1:0:0:0:
159,0,43437,2,0,P|156:42|152:76,1,76.5000014591217,2|8,1:2|0:0,0:0:0:0:
124,256,43794,6,0,P|183:225|273:267,1,153.000002918243,2|0,1:2|1:0,0:0:0:0:
196,383,44330,2,0,P|189:343|189:307,1,76.5000014591217,8|0,0:0|0:0,0:0:0:0:
186,137,44687,1,2,1:2:0:0:
295,235,44865,2,0,P|339:259|392:254,1,76.5000014591217,2|8,1:2|0:0,0:0:0:0:
445,79,45223,6,0,P|370:110|358:192,1,153.000002918243,2|0,0:0|0:0,0:0:0:0:
403,339,45758,1,8,0:0:0:0:
268,273,45937,1,0,3:0:0:0:
268,273,46026,1,0,3:0:0:0:
268,273,46115,1,0,1:0:0:0:
148,370,46294,2,0,P|153:325|153:271,1,76.5000014591217,2|8,1:2|0:0,0:0:0:0:
141,143,46651,6,0,P|188:181|234:181,1,76.5000014591217,2|0,1:2|0:0,0:0:0:0:
279,66,47008,2,0,P|222:87|199:127,1,76.5000014591217,2|8,1:2|0:0,0:0:0:0:
275,222,47365,2,0,P|284:162|261:122,1,76.5000014591217,2|0,1:2|0:0,0:0:0:0:
212,33,47723,2,0,P|241:57|278:65,1,76.5000014591217,2|8,1:2|0:0,0:0:0:0:
395,12,48080,1,2,0:0:0:0:
412,260,48258,6,0,P|349:217|264:233,1,153.000002918243,0|8,1:0|0:0,0:0:0:0:
177,326,48794,1,0,3:0:0:0:
177,326,48883,1,0,3:0:0:0:
177,326,48973,1,0,1:0:0:0:
199,202,49151,2,0,P|205:164|204:114,1,76.5000014591217,0|8,1:0|0:0,0:0:0:0:
143,30,49508,1,0,1:0:0:0:
304,89,49687,5,2,1:2:0:0:
123,163,49865,1,4,0:3:0:0:
266,10,50044,1,8,0:0:0:0:
273,232,50223,2,0,L|194:221,1,76.5000014591217,2|0,1:2|0:0,0:0:0:0:
19,191,50580,1,10,0:0:0:0:
178,304,50758,1,8,0:0:0:0:
120,80,50937,6,0,P|112:153|111:236,1,153.000002918243,14|0,0:0|1:0,0:0:0:0:
147,380,51473,1,8,0:0:0:0:
236,237,51651,1,2,0:0:0:0:
76,316,51830,1,2,1:2:0:0:
246,361,52008,1,2,1:2:0:0:
50,313,52187,1,8,0:0:0:0:
260,226,52365,6,0,P|299:192|286:94,1,153.000002918243,2|0,1:2|1:0,0:0:0:0:
174,8,52901,1,8,0:0:0:0:
225,153,53080,1,2,0:0:0:0:
280,23,53258,1,2,1:2:0:0:
287,207,53437,1,2,1:2:0:0:
165,97,53615,1,8,0:0:0:0:
141,291,53794,1,2,0:0:0:0:
287,207,53973,6,0,B|382:191|350:239|463:204,1,153.000002918243,2|8,1:2|0:0,0:0:0:0:
330,303,54508,1,0,3:0:0:0:
330,303,54598,1,0,3:0:0:0:
330,303,54687,1,0,1:0:0:0:
396,127,54865,2,0,P|404:76|395:35,1,76.5000014591217,2|8,1:2|0:0,0:0:0:0:
243,101,55223,6,0,P|286:94|332:90,1,76.5000014591217,2|0,1:2|0:0,0:0:0:0:
488,226,55580,2,0,P|445:219|399:215,1,76.5000014591217,2|8,1:2|0:0,0:0:0:0:
250,240,55937,1,0,3:0:0:0:
250,240,56026,1,0,3:0:0:0:
250,240,56115,1,2,1:2:0:0:
442,334,56294,1,2,1:3:0:0:
442,334,56651,5,8,0:0:0:0:
411,337,56741,1,8,0:0:0:0:
380,340,56830,2,0,P|408:263|360:179,1,153.000002918243,6|8,1:2|0:0,0:0:0:0:
258,141,57365,1,0,0:0:0:0:
306,269,57544,1,2,1:2:0:0:
353,103,57723,1,2,1:2:0:0:
216,233,57901,1,8,0:0:0:0:
103,37,58080,6,0,P|111:107|114:205,1,153.000002918243,2|2,1:2|1:2,0:0:0:0:
83,330,58615,2,0,P|128:305|189:305,1,76.5000014591217,10|0,0:0|0:0,0:0:0:0:
268,331,58973,1,2,1:2:0:0:
193,214,59151,1,0,1:0:0:0:
310,124,59330,1,10,0:0:0:0:
287,232,59508,1,0,0:0:0:0:
229,59,59687,6,0,B|134:42|166:90|53:55,1,153.000002918243,2|8,1:2|0:0,0:0:0:0:
162,203,60223,1,0,3:0:0:0:
162,203,60312,1,0,3:0:0:0:
162,203,60401,2,0,P|193:161|189:108,1,76.5000014591217,0|0,1:0|1:0,0:0:0:0:
146,10,60758,1,8,0:0:0:0:
274,69,60937,6,0,P|320:57|429:52,1,153.000002918243,0|0,1:0|1:0,0:0:0:0:
423,275,61473,2,0,P|400:202|414:149,1,114.750002188683,8|8,0:0|0:0,0:0:0:0:
430,152,61830,1,4,0:3:0:0:
299,57,62008,1,4,0:3:0:0:
308,259,62187,2,0,L|315:360,1,76.5000014591217,8|0,0:0|0:0,0:0:0:0:
115,232,62544,6,0,P|80:217|41:214,1,76.5000014591217,6|0,1:2|0:0,0:0:0:0:
246,103,62901,2,0,P|281:88|320:85,1,76.5000014591217,10|0,0:0|0:0,0:0:0:0:
220,270,63258,1,2,1:2:0:0:
141,112,63437,1,0,1:0:0:0:
343,185,63615,1,10,0:0:0:0:
96,311,63794,5,8,0:0:0:0:
96,311,63883,1,8,0:0:0:0:
421,233,64062,1,8,0:0:0:0:
421,233,64151,1,8,0:0:0:0:
166,134,64330,5,8,0:0:0:0:
141,112,64419,1,8,0:0:0:0:
127,83,64508,1,8,0:0:0:0:
126,51,64598,1,8,0:3:0:0:
138,21,64687,1,8,0:0:0:0:
220,298,64865,1,8,0:3:0:0:
266,105,65044,1,4,0:3:0:0:
266,105,65401,6,0,P|206:132|160:135,1,90,6|0,1:2|0:0,0:0:0:0:
7,17,65758,2,0,P|38:46|51:95,1,90,10|0,0:0|0:0,0:0:0:0:
32,304,66115,1,2,1:2:0:0:
189,212,66294,1,2,1:2:0:0:
51,123,66473,1,8,0:0:0:0:
45,331,66651,6,0,B|161:355|108:293|256:332,1,180,2|0,1:2|1:0,0:0:0:0:
396,360,67187,1,8,0:0:0:0:
334,176,67365,1,0,1:0:0:0:
334,176,67455,1,0,1:0:0:0:
334,176,67544,1,0,1:0:0:0:
308,345,67723,1,0,1:0:0:0:
435,144,67901,2,0,L|425:33,1,90,8|0,0:0|0:0,0:0:0:0:
309,186,68258,5,2,1:2:0:0:
332,31,68437,1,2,0:0:0:0:
208,105,68615,1,8,0:0:0:0:
81,25,68794,2,0,L|88:125,1,90,2|0,0:0|1:0,0:0:0:0:
184,224,69151,1,2,1:2:0:0:
217,72,69330,1,8,0:0:0:0:
92,235,69508,6,0,L|99:335,1,90,2|0,1:2|0:0,0:0:0:0:
258,225,69865,1,2,1:2:0:0:
81,210,70044,1,8,0:0:0:0:
284,140,70223,1,2,1:2:0:0:
284,140,70312,1,0,1:0:0:0:
284,140,70401,1,0,1:0:0:0:
203,286,70580,1,2,1:2:0:0:
131,64,70758,2,0,B|209:48|186:91|286:60,1,135,8|0,0:0|0:0,0:0:0:0:
298,53,71115,6,0,P|280:118|299:174,1,90,6|0,1:2|0:0,0:0:0:0:
414,303,71473,2,0,P|379:257|321:244,1,90,10|0,0:0|0:0,0:0:0:0:
188,327,71830,1,2,1:2:0:0:
255,151,72008,1,2,1:2:0:0:
323,332,72187,1,8,0:0:0:0:
176,240,72365,6,0,B|60:216|113:278|-35:239,1,180,2|0,1:2|1:0,0:0:0:0:
135,144,72901,1,8,0:0:0:0:
177,329,73080,1,0,1:0:0:0:
177,329,73169,1,0,1:0:0:0:
177,329,73258,1,0,1:0:0:0:
12,227,73437,1,0,1:0:0:0:
4,375,73615,2,0,P|54:353|101:353,1,90,8|0,0:0|0:0,0:0:0:0:
249,381,73973,5,2,1:2:0:0:
181,246,74151,1,2,0:0:0:0:
336,285,74330,1,8,0:0:0:0:
264,111,74508,2,0,L|271:211,1,90,2|0,0:0|1:0,0:0:0:0:
279,367,74865,1,2,1:2:0:0:
351,194,75044,1,8,0:0:0:0:
195,264,75223,6,0,L|202:364,1,90,2|0,1:2|0:0,0:0:0:0:
119,206,75579,1,2,1:2:0:0:
288,280,75758,1,8,0:0:0:0:
255,110,75937,2,0,P|205:132|158:132,1,90,2|0,0:0|1:0,0:0:0:0:
50,71,76294,5,0,1:0:0:0:
50,71,76383,1,8,0:0:0:0:
263,199,76562,1,0,1:0:0:0:
263,199,76651,1,8,0:0:0:0:
173,7,76830,6,0,B|176:43|176:43|161:70|161:70|165:111,1,101.250003862381,2|0,1:2|0:0,0:0:0:0:
170,133,77187,6,0,P|220:111|267:111,1,90,6|0,1:2|0:0,0:0:0:0:
411,173,77544,1,2,1:2:0:0:
360,40,77723,1,2,1:2:0:0:
311,238,77901,1,8,0:0:0:0:
461,75,78080,6,0,B|345:99|398:37|250:76,1,180,2|0,1:2|1:0,0:0:0:0:
99,101,78615,1,8,0:0:0:0:
237,180,78794,1,0,1:0:0:0:
237,180,78883,1,0,1:0:0:0:
237,180,78972,1,0,1:0:0:0:
176,28,79151,1,0,1:0:0:0:
90,196,79330,2,0,L|102:317,1,90,8|0,0:0|0:0,0:0:0:0:
232,372,79687,5,2,1:2:0:0:
209,196,79865,1,2,0:0:0:0:
362,306,80044,1,8,0:0:0:0:
315,124,80222,2,0,L|308:224,1,90,2|0,0:0|1:0,0:0:0:0:
304,367,80579,1,2,1:2:0:0:
407,214,80758,1,8,0:0:0:0:
222,77,80937,6,0,L|229:177,1,90,2|0,1:2|0:0,0:0:0:0:
299,337,81293,1,2,1:2:0:0:
384,140,81472,1,8,0:0:0:0:
280,234,81651,2,0,P|230:256|183:256,1,90,2|0,0:0|1:0,0:0:0:0:
62,169,82008,1,2,1:2:0:0:
39,347,82187,2,0,B|117:331|94:374|194:343,1,135,8|0,0:0|0:0,0:0:0:0:
210,343,82544,6,0,P|192:278|211:222,1,90,6|0,1:2|0:0,0:0:0:0:
326,93,82902,2,0,P|291:139|233:152,1,90,10|0,0:0|0:0,0:0:0:0:
100,69,83259,1,2,1:2:0:0:
167,245,83437,1,2,1:2:0:0:
235,64,83616,1,8,0:0:0:0:
290,276,83794,6,0,P|330:225|451:233,1,180,2|0,1:2|1:0,0:0:0:0:
393,364,84330,1,8,0:0:0:0:
263,258,84508,1,0,1:0:0:0:
263,258,84598,1,0,1:0:0:0:
263,258,84687,1,0,1:0:0:0:
150,362,84865,1,0,1:0:0:0:
378,260,85044,2,0,L|368:371,1,90,8|0,0:0|0:0,0:0:0:0:
276,231,85401,5,2,1:2:0:0:
440,177,85579,1,2,0:0:0:0:
257,113,85758,1,8,0:0:0:0:
389,12,85936,2,0,L|396:112,1,90,2|0,0:0|1:0,0:0:0:0:
410,259,86293,1,2,1:2:0:0:
274,131,86472,1,8,0:0:0:0:
339,344,86651,6,0,P|283:319|182:325,1,135,2|0,1:2|0:0,0:0:0:0:
187,339,87008,1,8,0:0:0:0:
187,339,87098,1,8,0:0:0:0:
187,339,87187,1,8,0:0:0:0:
387,240,87365,1,8,0:0:0:0:
387,240,87455,1,8,0:0:0:0:
387,240,87544,1,8,0:0:0:0:
172,117,87723,5,8,0:0:0:0:
175,143,87812,1,8,0:0:0:0:
179,170,87901,1,8,0:3:0:0:
183,197,87990,1,8,0:3:0:0:
187,223,88080,1,4,0:3:0:0:
405,12,88258,6,0,L|393:114,1,90,12|0,0:0|0:0,0:0:0:0:
347,366,88615,1,8,0:0:0:0:
312,105,88794,1,0,1:0:0:0:
171,355,88973,5,8,0:0:0:0:
393,186,89151,1,0,1:0:0:0:
117,269,89330,5,8,0:0:0:0:
425,340,89509,1,0,1:0:0:0:
225,160,89687,5,8,0:0:0:0:
269,375,89866,1,0,1:2:0:0:
435,112,90044,1,8,0:0:0:0:
115,292,90223,1,0,1:2:0:0:
131,64,90401,5,8,0:2:0:0:
362,283,90580,2,0,L|376:160,1,90,0|8,1:0|0:0,0:0:0:0:
73,139,90937,1,0,1:0:0:0:
273,369,91115,6,0,L|263:267,1,90,12|0,0:0|0:0,0:0:0:0:
245,54,91473,1,8,0:0:0:0:
183,303,91652,1,0,1:0:0:0:
151,92,91830,5,8,0:0:0:0:
344,257,92008,1,0,1:0:0:0:
338,50,92187,5,8,0:0:0:0:
157,215,92365,1,0,1:0:0:0:
172,7,92544,5,8,0:0:0:0:
387,139,92723,1,0,1:0:0:0:
125,220,92901,5,8,0:0:0:0:
419,139,93080,1,0,1:0:0:0:
419,139,93169,1,0,1:0:0:0:
419,139,93258,1,8,0:0:0:0:
197,112,93437,5,0,1:0:0:0:
275,334,93615,1,8,0:0:0:0:
334,38,93794,1,8,0:0:0:0:
334,38,93883,1,8,0:0:0:0:
334,38,93973,6,0,L|328:140,1,90,12|0,0:0|0:0,0:0:0:0:
311,364,94330,1,8,0:0:0:0:
411,152,94509,1,0,1:0:0:0:
421,360,94688,5,8,0:0:0:0:
212,172,94866,1,0,1:0:0:0:
214,373,95045,5,8,0:0:0:0:
492,294,95224,1,0,1:0:0:0:
296,99,95402,5,8,0:0:0:0:
322,378,95581,1,0,1:2:0:0:
422,41,95759,5,8,0:0:0:0:
399,309,95938,1,0,1:2:0:0:
399,309,96026,1,0,1:0:0:0:
399,309,96115,1,8,0:2:0:0:
230,186,96295,1,0,1:0:0:0:
482,124,96473,1,8,0:0:0:0:
251,322,96651,6,0,P|203:301|96:301,1,153.000002918243,4|0,1:2|0:0,0:0:0:0:
24,353,97187,1,0,1:0:0:0:
24,353,97365,1,0,1:0:0:0:
98,206,97544,1,8,0:0:0:0:
52,126,97723,2,0,P|7:190|28:265,1,153.000002918243,8|4,0:3|0:3,0:0:0:0:
169,196,98258,5,4,0:3:0:0:
133,201,98347,1,8,0:0:0:0:
98,206,98436,1,8,0:0:0:0:
303,286,98615,5,4,0:3:0:0:
267,281,98704,1,8,0:0:0:0:
232,276,98793,1,8,0:0:0:0:
420,227,98973,5,4,0:3:0:0:
395,205,99062,1,8,0:0:0:0:
381,176,99151,1,8,0:0:0:0:
380,144,99240,1,8,0:0:0:0:
392,114,99330,1,8,0:0:0:0:
443,315,99508,1,4,0:3:0:0:
271,228,99687,6,0,P|227:218|182:214,1,90,6|0,1:2|0:0,0:0:0:0:
62,11,100044,2,0,P|100:80|82:158,1,135,10|0,0:0|0:0,0:0:0:0:
86,159,100401,1,2,1:2:0:0:
11,86,100580,1,2,1:2:0:0:
178,18,100759,1,10,0:0:0:0:
71,185,100937,6,0,P|48:255|82:368,1,180,2|0,1:2|1:0,0:0:0:0:
251,270,101473,2,0,P|206:260|153:256,1,90,10|0,0:2|3:0,0:0:0:0:
149,272,101741,1,0,3:0:0:0:
149,272,101830,1,2,1:2:0:0:
231,358,102009,1,2,1:2:0:0:
280,188,102187,1,10,0:0:0:0:
402,369,102366,6,0,P|394:281|400:180,1,180,2|0,0:0|0:0,0:0:0:0:
415,55,102901,2,0,P|378:86|309:83,1,90,10|0,0:0|3:0,0:0:0:0:
311,76,103169,1,0,3:0:0:0:
311,76,103259,1,2,1:2:0:0:
415,162,103437,1,2,1:2:0:0:
346,0,103616,1,10,0:0:0:0:
280,188,103794,6,0,P|243:219|174:216,1,90,2|0,1:2|0:0,0:0:0:0:
206,43,104151,2,0,P|214:92|217:149,1,90,2|8,1:2|0:0,0:0:0:0:
192,317,104509,1,0,3:0:0:0:
192,317,104598,1,0,3:0:0:0:
192,317,104687,1,0,1:0:0:0:
134,173,104866,1,2,1:2:0:0:
324,274,105044,1,10,0:0:0:0:
300,101,105223,1,2,0:0:0:0:
133,280,105401,6,0,P|143:325|147:378,1,90,6|0,1:2|0:0,0:0:0:0:
316,142,105759,2,0,P|259:199|177:185,1,135,10|0,0:0|0:0,0:0:0:0:
181,195,106115,1,2,1:2:0:0:
233,97,106294,1,2,1:2:0:0:
304,269,106473,1,10,0:0:0:0:
158,189,106651,6,0,P|84:177|11:247,1,180,2|0,1:2|1:0,0:0:0:0:
103,384,107187,2,0,P|113:339|117:286,1,90,10|2,0:2|3:2,0:0:0:0:
106,270,107455,1,0,3:0:0:0:
106,270,107544,1,2,1:2:0:0:
238,339,107723,1,2,1:2:0:0:
192,179,107901,1,10,0:0:0:0:
333,303,108080,6,0,B|222:284|258:336|153:313,1,180,2|0,1:2|0:0,0:0:0:0:
224,139,108616,2,0,P|190:199|194:237,1,90,10|0,0:0|3:0,0:0:0:0:
206,241,108884,1,0,3:0:0:0:
206,241,108973,1,2,1:2:0:0:
299,204,109151,1,2,1:2:0:0:
122,145,109330,1,10,0:0:0:0:
245,313,109509,1,2,1:2:0:0:
308,64,109687,5,4,1:2:0:0:
368,343,109865,1,8,0:0:0:0:
228,228,110044,1,4,0:3:0:0:
503,156,110223,6,0,L|410:147,1,90,12|0,0:0|0:0,0:0:0:0:
109,119,110580,1,8,0:3:0:0:
379,45,110758,1,4,0:3:0:0:
301,290,110937,1,2,0:0:0:0:
256,192,111115,12,0,115401,0:0:0:0:
