osu file format v14

[General]
AudioFilename: make a friendship.mp3
AudioLeadIn: 0
PreviewTime: 75320
Countdown: 0
SampleSet: Normal
StackLeniency: 0.7
Mode: 1
LetterboxInBreaks: 0
WidescreenStoryboard: 1

[Editor]
Bookmarks: 545,21116,48545,75973,104259,135116,162544,189973,219330
DistanceSpacing: 1
BeatDivisor: 2
GridSize: 32
TimelineZoom: 0.5999997

[Metadata]
Title:make a friendship (Cut Ver.)
TitleUnicode:make a friendship (Cut Ver.)
Artist:Tokiwa Machi (CV: Numakura Manami)
ArtistUnicode:常盤真智 (CV: 沼倉愛美)
Creator:realy0_
Version:fyn's kantan
Source:ハナヤマタ よさこいLIVE!
Tags:version short hanayamata yosakoi song series live madhouse flowers insert 挿入歌 characters anime video game japanese pop j-pop jpop volta yuki_momoiro722 eryzr Fynbi
BeatmapID:2642843
BeatmapSetID:1235438

[Difficulty]
HPDrainRate:8
CircleSize:2
OverallDifficulty:3
ApproachRate:10
SliderMultiplier:1.4
SliderTickRate:1

[Events]
//Background and Video events
0,0,"machi cute.jpg",0,160
//Break Periods
2,135116,147116
//Storyboard Layer 0 (Background)
//Storyboard Layer 1 (Fail)
//Storyboard Layer 2 (Pass)
//Storyboard Layer 3 (Foreground)
//Storyboard Layer 4 (Overlay)
//Storyboard Sound Samples

[TimingPoints]
535,428.571428571429,4,1,0,40,1,0
7392,-100,4,1,0,50,0,0
12963,-100,4,1,0,70,0,0
14249,-100,4,1,0,65,0,0
72535,-100,4,1,0,75,0,0
75963,-100,4,1,0,90,0,1
101677,-100,4,1,0,90,0,0
102106,-100,4,1,0,90,0,1
103392,428.571428571429,4,1,0,90,1,8
104249,428.571428571429,4,1,0,75,1,0
148820,-100,4,1,0,65,0,0
159106,-100,4,1,0,75,0,0
162534,-100,4,1,0,90,0,1
188249,-100,4,1,0,90,0,0
188677,-100,4,1,0,90,0,1
189963,-100,4,1,0,90,0,0
221677,-100,4,1,0,30,0,0

[HitObjects]
237,197,535,5,8,1:0:0:0:
256,202,2035,1,0,1:0:0:0:
302,160,2892,1,8,1:0:0:0:
268,213,3963,1,0,1:0:0:0:
287,195,5677,1,8,1:0:0:0:
287,195,6535,1,0,1:0:0:0:
287,195,7392,1,8,1:0:0:0:
280,189,9106,1,8,1:0:0:0:
253,171,9749,1,0,1:0:0:0:
280,189,10820,1,8,1:0:0:0:
271,212,12963,1,8,1:0:0:0:
270,214,13392,1,8,1:0:0:0:
270,214,13820,1,8,1:0:0:0:
269,214,14249,1,4,1:0:0:0:
263,192,16820,1,8,1:0:0:0:
261,186,17249,1,8,1:0:0:0:
263,192,17677,1,0,1:0:0:0:
263,192,19392,1,8,1:0:0:0:
254,198,20249,1,8,1:0:0:0:
254,198,20677,1,0,1:0:0:0:
254,198,21106,1,8,1:0:0:0:
254,199,22820,1,8,1:0:0:0:
259,208,23677,1,0,1:0:0:0:
244,180,24106,1,8,1:0:0:0:
262,195,24535,1,0,1:0:0:0:
249,189,25392,1,8,1:0:0:0:
262,195,26249,1,0,1:0:0:0:
262,195,27106,1,8,1:0:0:0:
246,186,27535,1,8,1:0:0:0:
262,204,27963,1,0,1:0:0:0:
262,204,29677,1,8,1:0:0:0:
265,189,30535,1,0,1:0:0:0:
262,204,31392,1,0,1:0:0:0:
262,204,32249,1,8,1:0:0:0:
262,204,33106,1,8,1:0:0:0:
262,204,33749,1,0,1:0:0:0:
262,204,34820,1,8,1:0:0:0:
262,204,36535,1,0,1:0:0:0:
262,204,37392,1,8,1:0:0:0:
259,188,37820,1,8,1:0:0:0:
277,208,38249,1,0,1:0:0:0:
251,191,39106,1,0,1:0:0:0:
270,211,39963,1,8,1:0:0:0:
270,211,40820,1,8,1:0:0:0:
251,192,41249,1,0,1:0:0:0:
270,211,41677,1,8,1:0:0:0:
248,193,43392,1,8,1:0:0:0:
248,193,44249,1,0,1:0:0:0:
248,193,45106,1,8,1:0:0:0:
254,204,47677,1,8,1:0:0:0:
254,204,48106,1,0,1:0:0:0:
254,204,48535,1,8,1:0:0:0:
251,192,49392,1,0,1:0:0:0:
234,157,50249,1,8,1:0:0:0:
233,183,51106,1,0,1:0:0:0:
254,196,51535,1,8,1:0:0:0:
254,196,51963,1,0,1:0:0:0:
254,197,52820,1,8,1:0:0:0:
254,197,53677,1,0,1:0:0:0:
268,196,54963,1,8,1:0:0:0:
268,196,55392,1,0,1:0:0:0:
277,193,56249,1,0,1:0:0:0:
260,204,57106,1,8,1:0:0:0:
274,186,57963,1,0,1:0:0:0:
274,186,58392,1,0,1:0:0:0:
274,186,58820,1,8,1:0:0:0:
274,186,61392,1,8,1:0:0:0:
274,186,61820,1,8,1:0:0:0:
274,186,62249,1,0,1:0:0:0:
274,186,63106,1,8,1:0:0:0:
274,186,63963,1,0,1:0:0:0:
274,186,64820,1,0,1:0:0:0:
274,186,65249,1,8,1:0:0:0:
274,186,65677,1,8,1:0:0:0:
276,186,66535,1,0,1:0:0:0:
276,186,67392,1,8,1:0:0:0:
276,186,68249,1,8,1:0:0:0:
276,186,68677,1,8,1:0:0:0:
276,186,69106,1,0,1:0:0:0:
276,186,71677,1,8,1:0:0:0:
276,186,72106,1,0,1:0:0:0:
276,186,72535,1,8,1:0:0:0:
276,186,73392,1,0,1:0:0:0:
276,186,74035,1,12,1:0:0:0:
272,202,74463,1,8,1:0:0:0:
272,202,75106,1,8,1:0:0:0:
257,212,75963,1,4,1:0:0:0:
257,211,76820,1,8,1:0:0:0:
257,211,77677,1,0,1:0:0:0:
249,242,78106,1,0,1:0:0:0:
252,242,78535,1,8,1:0:0:0:
253,209,79392,1,0,1:0:0:0:
253,209,81106,1,8,1:0:0:0:
253,209,81749,1,0,1:0:0:0:
253,209,82392,1,8,1:0:0:0:
253,209,82820,1,8,1:0:0:0:
238,220,83677,1,0,1:0:0:0:
233,199,84535,1,8,1:0:0:0:
233,199,85392,1,0,1:0:0:0:
233,199,85820,1,8,1:0:0:0:
238,189,86249,1,0,1:0:0:0:
247,206,87963,1,8,1:0:0:0:
243,171,88392,1,8,1:0:0:0:
247,206,88820,1,8,1:0:0:0:
248,205,89677,1,0,1:0:0:0:
255,192,90535,1,8,1:0:0:0:
255,199,91392,1,0,1:0:0:0:
252,205,91820,1,0,1:0:0:0:
252,205,92249,1,8,1:0:0:0:
226,195,93106,1,0,1:0:0:0:
227,193,94820,1,8,1:0:0:0:
227,193,95463,1,0,1:0:0:0:
227,193,96106,1,8,1:0:0:0:
231,193,96535,1,0,1:0:0:0:
236,173,97392,1,8,1:0:0:0:
236,173,98249,1,0,1:0:0:0:
230,211,98677,1,8,1:0:0:0:
236,173,99106,1,8,1:0:0:0:
236,173,99963,1,0,1:0:0:0:
217,208,100820,1,8,1:0:0:0:
219,204,101677,1,0,1:0:0:0:
238,184,102106,1,12,1:0:0:0:
255,209,103392,1,0,1:0:0:0:
234,174,104249,1,8,1:0:0:0:
279,181,105534,1,8,1:0:0:0:
271,181,105963,1,0,1:0:0:0:
268,181,106606,1,0,1:0:0:0:
270,181,107677,1,8,1:0:0:0:
269,184,108320,1,8,1:0:0:0:
256,188,109391,1,0,1:0:0:0:
243,193,110249,1,8,1:0:0:0:
259,190,111106,1,0,1:0:0:0:
249,199,112391,1,0,1:0:0:0:
249,200,112820,1,8,1:0:0:0:
249,203,113463,1,8,1:0:0:0:
240,200,114534,1,0,1:0:0:0:
240,200,115177,1,0,1:0:0:0:
235,205,116249,1,8,1:0:0:0:
235,205,117963,1,8,1:0:0:0:
240,200,119249,1,8,1:0:0:0:
242,198,119677,1,0,1:0:0:0:
261,188,120320,1,8,1:0:0:0:
248,184,121391,1,0,1:0:0:0:
268,181,122677,1,8,1:0:0:0:
255,198,123106,1,8,1:0:0:0:
251,198,124391,1,8,1:0:0:0:
253,195,124820,1,0,1:0:0:0:
254,205,125677,1,8,1:0:0:0:
239,217,126106,1,0,1:0:0:0:
252,202,126534,1,8,1:0:0:0:
251,198,127391,1,8,1:0:0:0:
255,197,128249,1,0,1:0:0:0:
247,201,129963,1,0,0:0:0:0:
256,195,131249,1,0,1:0:0:0:
255,195,131677,1,8,1:0:0:0:
263,218,132963,1,8,0:0:0:0:
257,199,133391,1,8,1:0:0:0:
241,195,133820,1,0,1:0:0:0:
257,200,134249,1,0,1:0:0:0:
265,191,148820,5,0,1:0:0:0:
265,191,150534,1,0,1:0:0:0:
264,190,152249,1,8,1:0:0:0:
261,194,153963,1,8,1:0:0:0:
266,192,155677,1,0,1:0:0:0:
264,192,156534,1,0,1:0:0:0:
261,194,157391,1,8,1:0:0:0:
279,197,158249,1,0,1:0:0:0:
257,193,159106,1,8,1:0:0:0:
258,197,159963,1,0,1:0:0:0:
255,189,161249,1,8,1:0:0:0:
256,189,161677,1,8,1:0:0:0:
261,191,162534,1,4,1:0:0:0:
252,195,163391,1,8,1:0:0:0:
253,193,164249,1,0,1:0:0:0:
253,193,164677,1,0,1:0:0:0:
253,193,165106,1,8,1:0:0:0:
253,193,165963,1,0,1:0:0:0:
253,193,167677,1,8,1:0:0:0:
253,193,168320,1,0,1:0:0:0:
253,190,168963,1,8,1:0:0:0:
253,190,169391,1,8,1:0:0:0:
240,185,170249,1,0,1:0:0:0:
241,185,171106,1,8,1:0:0:0:
241,185,171963,1,0,1:0:0:0:
241,185,172391,1,8,1:0:0:0:
245,176,172820,1,8,1:0:0:0:
242,177,174534,1,8,1:0:0:0:
236,178,174963,1,8,1:0:0:0:
235,178,175391,1,8,1:0:0:0:
240,177,176249,1,0,1:0:0:0:
240,175,177106,1,8,1:0:0:0:
240,175,177963,1,0,1:0:0:0:
240,175,178391,1,0,1:0:0:0:
240,175,178820,1,8,1:0:0:0:
240,175,179677,1,0,1:0:0:0:
221,181,181391,1,8,1:0:0:0:
226,181,182034,1,0,1:0:0:0:
227,179,182677,1,8,1:0:0:0:
227,179,183106,1,0,1:0:0:0:
254,175,183963,1,8,1:0:0:0:
255,186,184820,1,0,1:0:0:0:
253,185,185249,1,8,1:0:0:0:
253,185,185677,1,8,1:0:0:0:
251,185,186534,1,0,1:0:0:0:
252,197,187391,1,8,1:0:0:0:
252,197,188249,1,0,1:0:0:0:
252,197,188677,1,12,1:0:0:0:
264,191,189963,1,4,1:0:0:0:
268,204,191677,1,8,1:0:0:0:
260,217,192534,1,0,1:0:0:0:
268,204,192963,1,8,1:0:0:0:
268,204,193391,1,0,1:0:0:0:
272,199,194249,1,0,1:0:0:0:
253,200,195106,1,8,1:0:0:0:
273,199,195963,1,8,1:0:0:0:
256,205,196391,1,8,1:0:0:0:
256,205,196820,1,0,1:0:0:0:
257,205,198534,1,8,1:0:0:0:
243,200,199391,1,8,1:0:0:0:
257,203,200249,1,0,1:0:0:0:
260,202,201963,1,8,1:0:0:0:
260,202,202820,1,0,1:0:0:0:
260,202,203249,1,0,1:0:0:0:
260,202,203677,1,8,1:0:0:0:
259,202,204534,1,8,1:0:0:0:
259,204,205391,1,0,1:0:0:0:
268,209,206249,1,8,1:0:0:0:
268,209,207106,1,0,1:0:0:0:
268,208,208820,1,8,1:0:0:0:
254,195,209677,1,0,1:0:0:0:
254,197,210106,1,8,1:0:0:0:
256,196,210534,1,0,1:0:0:0:
311,173,211391,1,8,1:0:0:0:
270,198,212249,1,0,1:0:0:0:
260,192,213106,1,8,1:0:0:0:
259,186,213963,1,8,1:0:0:0:
260,199,215677,1,0,1:0:0:0:
260,199,216106,1,12,1:0:0:0:
256,204,216963,1,0,1:0:0:0:
260,199,217391,1,4,1:0:0:0:
266,204,218249,1,8,1:0:0:0:
266,204,218677,1,0,1:0:0:0:
266,204,219106,1,12,1:0:0:0:
256,192,219320,12,0,221677,0:0:0:0:
