osu file format v14

[General]
AudioFilename: make a friendship.mp3
AudioLeadIn: 0
PreviewTime: 75320
Countdown: 0
SampleSet: Normal
StackLeniency: 0.7
Mode: 1
LetterboxInBreaks: 0
WidescreenStoryboard: 1

[Editor]
DistanceSpacing: 1
BeatDivisor: 4
GridSize: 4
TimelineZoom: 1.3

[Metadata]
Title:make a friendship (Cut Ver.)
TitleUnicode:make a friendship (Cut Ver.)
Artist:Tokiwa Machi (CV: Numakura Manami)
ArtistUnicode:常盤真智 (CV: 沼倉愛美)
Creator:realy0_
Version:friendly oni
Source:ハナヤマタ よさこいLIVE!
Tags:version short hanayamata yosakoi song series live madhouse flowers insert 挿入歌 characters anime video game japanese pop j-pop jpop volta yuki_momoiro722 eryzr Fynbi
BeatmapID:2568236
BeatmapSetID:1235438

[Difficulty]
HPDrainRate:5.5
CircleSize:5
OverallDifficulty:5.5
ApproachRate:5
SliderMultiplier:1.4
SliderTickRate:1

[Events]
//Background and Video events
0,0,"machi cute.jpg",0,160
//Break Periods
//Storyboard Layer 0 (Background)
//Storyboard Layer 1 (Fail)
//Storyboard Layer 2 (Pass)
//Storyboard Layer 3 (Foreground)
//Storyboard Layer 4 (Overlay)
//Storyboard Sound Samples

[TimingPoints]
535,428.571428571429,4,1,0,40,1,0
535,-111.111111111111,4,1,0,40,0,0
6106,-113.636363636364,4,1,0,40,0,0
6320,-114.942528735632,4,1,0,40,0,0
6535,-116.279069767442,4,1,0,40,0,0
6963,-119.047619047619,4,1,0,40,0,0
7392,-121.951219512195,4,1,0,50,0,0
9106,-123.456790123457,4,1,0,50,0,0
10820,-125,4,1,0,50,0,0
12749,-105.263157894737,4,1,0,70,0,0
13177,-113.636363636364,4,1,0,70,0,0
13285,-114.942528735632,4,1,0,70,0,0
13392,-116.279069767442,4,1,0,70,0,0
13606,-119.047619047619,4,1,0,70,0,0
13820,-115.606936416185,4,1,0,70,0,0
14249,-111.111111111111,4,1,0,65,0,0
19820,-113.636363636364,4,1,0,65,0,0
20035,-114.942528735632,4,1,0,65,0,0
20249,-116.279069767442,4,1,0,65,0,0
20463,-117.647058823529,4,1,0,65,0,0
20677,-119.047619047619,4,1,0,65,0,0
20785,-119.760479041916,4,1,0,65,0,0
20892,-120.481927710843,4,1,0,65,0,0
21106,-117.647058823529,4,1,0,65,0,0
21535,-125,4,1,0,65,0,0
34392,-121.212121212121,4,1,0,65,0,0
34606,-121.951219512195,4,1,0,65,0,0
34713,-119.760479041916,4,1,0,65,0,0
34820,-117.647058823529,4,1,0,65,0,0
47892,-119.047619047619,4,1,0,65,0,0
48106,-120.481927710843,4,1,0,65,0,0
48320,-121.951219512195,4,1,0,65,0,0
48427,-119.760479041916,4,1,0,65,0,0
48535,-117.647058823529,4,1,0,65,0,0
48749,-125,4,1,0,65,0,0
61820,-121.212121212121,4,1,0,65,0,0
62035,-121.951219512195,4,1,0,65,0,0
62142,-119.760479041916,4,1,0,65,0,0
62249,-117.647058823529,4,1,0,65,0,0
68463,-116.279069767442,4,1,0,65,0,0
68677,-111.731843575419,4,1,0,65,0,0
68785,-113.636363636364,4,1,0,65,0,0
68892,-115.606936416185,4,1,0,65,0,0
69106,-111.111111111111,4,1,0,65,0,0
72106,-108.108108108108,4,1,0,65,0,0
72320,-108.695652173913,4,1,0,65,0,0
72427,-106.951871657754,4,1,0,65,0,0
72535,-105.263157894737,4,1,0,75,0,0
72963,-103.092783505155,4,1,0,75,0,0
73285,-100,4,1,0,75,0,0
73392,-101.010101010101,4,1,0,75,0,0
73499,-102.564102564103,4,1,0,75,0,0
73606,-104.712041884817,4,1,0,75,0,0
73820,-108.108108108108,4,1,0,75,0,0
74035,-95.2380952380952,4,1,0,75,0,0
74249,-97.5609756097561,4,1,0,75,0,0
74463,-100,4,1,0,75,0,0
74892,-90.9090909090909,4,1,0,75,0,0
75427,-94.3396226415094,4,1,0,75,0,0
75535,-95.2380952380952,4,1,0,75,0,0
75642,-96.6183574879227,4,1,0,75,0,0
75749,-98.5221674876847,4,1,0,75,0,0
75963,-92.5925925925926,4,1,0,90,0,1
76177,-95.2380952380952,4,1,0,90,0,1
82177,-92.5925925925926,4,1,0,90,0,1
82392,-95.2380952380952,4,1,0,90,0,1
82606,-96.1538461538461,4,1,0,90,0,1
82713,-94.3396226415094,4,1,0,90,0,1
82820,-92.5925925925926,4,1,0,90,0,1
83035,-95.2380952380952,4,1,0,90,0,1
88285,-96.1538461538461,4,1,0,90,0,1
88392,-95.2380952380952,4,1,0,90,0,1
88606,-97.0873786407767,4,1,0,90,0,1
88713,-96.1538461538461,4,1,0,90,0,1
88820,-95.2380952380952,4,1,0,90,0,1
89035,-100,4,1,0,90,0,1
89249,-96.1538461538461,4,1,0,90,0,1
89356,-94.7867298578199,4,1,0,90,0,1
89463,-93.4579439252336,4,1,0,90,0,1
89570,-92.1658986175115,4,1,0,90,0,1
89677,-90.9090909090909,4,1,0,90,0,1
89892,-95.2380952380952,4,1,0,90,0,1
96320,-92.5925925925926,4,1,0,90,0,1
96427,-93.8967136150235,4,1,0,90,0,1
96535,-95.2380952380952,4,1,0,90,0,1
96963,-94.4882187364469,4,1,0,90,0,1
97177,-96.1538461538461,4,1,0,90,0,1
97285,-94.7867298578199,4,1,0,90,0,1
97392,-93.7499707031342,4,1,0,90,0,1
97713,-94.3396226415094,4,1,0,90,0,1
97820,-93.0232558139535,4,1,0,90,0,1
98035,-92.5925925925926,4,1,0,90,0,1
98463,-94.3396226415094,4,1,0,90,0,1
98677,-89.9280575539568,4,1,0,90,0,1
98785,-90.0900900900901,4,1,0,90,0,1
98892,-90.9090909090909,4,1,0,90,0,1
98999,-91.743119266055,4,1,0,90,0,1
99106,-92.5925925925926,4,1,0,90,0,1
99535,-87.719298245614,4,1,0,90,0,1
99642,-88.8888888888889,4,1,0,90,0,1
99749,-89.8876404494382,4,1,0,90,0,1
99963,-84.7457627118644,4,1,0,90,0,1
100285,-90.0900900900901,4,1,0,90,0,1
100392,-88.8888888888889,4,1,0,90,0,1
100606,-90.9090909090909,4,1,0,90,0,1
100713,-89.6860986547085,4,1,0,90,0,1
100820,-88.2353200692118,4,1,0,90,0,1
100927,-89.6860986547085,4,1,0,90,0,1
101035,-90.9090909090909,4,1,0,90,0,1
101249,-87.591215301835,4,1,0,90,0,1
101463,-92.5925925925926,4,1,0,90,0,1
101570,-93.4579439252336,4,1,0,90,0,1
101677,-94.3396226415094,4,1,0,90,0,0
102106,-86.9565217391304,4,1,0,90,0,1
102535,-105.263157894737,4,1,0,90,0,1
102749,-106.382978723404,4,1,0,90,0,1
102963,-107.52688172043,4,1,0,90,0,1
103070,-108.108108108108,4,1,0,90,0,1
103177,-108.695652173913,4,1,0,90,0,1
103392,428.571428571429,4,1,0,90,1,8
103392,-111.111111111111,4,1,0,90,0,8
103713,-100,4,1,0,90,0,8
103820,-102.040816326531,4,1,0,90,0,8
103927,-104.166666666667,4,1,0,90,0,8
104034,-106.382978723404,4,1,0,90,0,8
104142,-108.695652173913,4,1,0,90,0,8
104249,428.571428571429,4,1,0,75,1,0
104249,-102.040816326531,4,1,0,75,0,0
104677,-111.111111111111,4,1,0,75,0,0
128248,-102.040816326531,4,1,0,75,0,0
128249,-102.040816326531,4,1,0,75,0,0
128677,-110.091783519921,4,1,0,75,0,0
128999,-109.339447595243,4,1,0,75,0,0
129106,-109.090869421502,4,1,0,75,0,0
129320,-108.597324379122,4,1,0,75,0,0
129534,-108.108108108108,4,1,0,75,0,0
129749,-107.623279776402,4,1,0,75,0,0
129856,-107.38255033557,4,1,0,75,0,0
129963,-107.142895408177,4,1,0,75,0,0
130391,-106.194652674459,4,1,0,75,0,0
130606,-105.726909507281,4,1,0,75,0,0
130713,-105.49446839755,4,1,0,75,0,0
130820,-105.263157894737,4,1,0,75,0,0
131034,-104.80345683722,4,1,0,75,0,0
131249,-102.040816326531,4,1,0,75,0,0
131356,-100.502512562814,4,1,0,75,0,0
131463,-99.009900990099,4,1,0,75,0,0
131570,-97.5609756097561,4,1,0,75,0,0
131677,-96.1538461538461,4,1,0,75,0,0
132106,-100,4,1,0,75,0,0
132427,-97.5609756097561,4,1,0,75,0,0
132534,-96.774224765879,4,1,0,75,0,0
132749,-95.2380952380952,4,1,0,75,0,0
132963,-93.7499707031342,4,1,0,75,0,0
133177,-92.3077207100679,4,1,0,75,0,0
133284,-91.6030254647251,4,1,0,75,0,0
133391,-90.9090909090909,4,1,0,75,0,0
133606,-94.100465420902,4,1,0,75,0,0
133820,-97.5239640760726,4,1,0,75,0,0
134034,-101.20607276919,4,1,0,75,0,0
134141,-103.153399420278,4,1,0,75,0,0
134249,-105.177134070345,4,1,0,75,0,0
134463,-109.472430463112,4,1,0,75,0,0
134677,-114.133623080558,4,1,0,75,0,0
135106,-125,4,1,0,40,0,0
144534,-133.333333333333,4,1,0,40,0,0
145391,-142.857142857143,4,1,0,40,0,0
148820,-111.111111111111,4,1,0,65,0,0
149034,-110.918605708759,4,1,0,65,0,0
149249,-110.726643598616,4,1,0,65,0,0
149463,-110.535344781847,4,1,0,65,0,0
149677,-110.344827586207,4,1,0,65,0,0
150106,-109.965635738832,4,1,0,65,0,0
150320,-109.77695518246,4,1,0,65,0,0
150427,-109.682917653356,4,1,0,65,0,0
150534,-109.58904109589,4,1,0,65,0,0
150963,-109.215017064846,4,1,0,65,0,0
151177,-109.028901381178,4,1,0,65,0,0
151391,-108.843537414966,4,1,0,65,0,0
151606,-108.658802666922,4,1,0,65,0,0
151713,-108.566552382276,4,1,0,65,0,0
151820,-108.474576271186,4,1,0,65,0,0
152034,-108.290973514194,4,1,0,65,0,0
152249,-108.108108108108,4,1,0,65,0,0
152677,-107.744107744108,4,1,0,65,0,0
152891,-107.562967361093,4,1,0,65,0,0
153106,-107.38255033557,4,1,0,65,0,0
153320,-107.202737529106,4,1,0,65,0,0
153427,-107.112942028334,4,1,0,65,0,0
153534,-107.023411371237,4,1,0,65,0,0
153749,-106.844684156429,4,1,0,65,0,0
153963,-106.666666666667,4,1,0,65,0,0
154177,-106.489241391942,4,1,0,65,0,0
154284,-106.40063670141,4,1,0,65,0,0
154391,-106.312292358804,4,1,0,65,0,0
154606,-106.135930408793,4,1,0,65,0,0
154820,-105.960264900662,4,1,0,65,0,0
155034,-105.785179919434,4,1,0,65,0,0
155249,-105.610561056106,4,1,0,65,0,0
155463,-105.436628895752,4,1,0,65,0,0
155570,-105.349766492243,4,1,0,65,0,0
155677,-105.263157894737,4,1,0,65,0,0
156320,-104.308352178376,4,1,0,65,0,0
156427,-103.837523350463,4,1,0,65,0,0
156534,-103.37081903801,4,1,0,65,0,0
156749,-102.449884077956,4,1,0,65,0,0
156963,-101.545213514043,4,1,0,65,0,0
157177,-100.656481572818,4,1,0,65,0,0
157284,-100.217873657331,4,1,0,65,0,0
157391,-99.7830716023365,4,1,0,65,0,0
157606,-98.9246886345425,4,1,0,65,0,0
157820,-98.0810443669604,4,1,0,65,0,0
157927,-97.6645476715307,4,1,0,65,0,0
158034,-97.2515732873268,4,1,0,65,0,0
158141,-96.84207672023,4,1,0,65,0,0
158249,-96.4360142223834,4,1,0,65,0,0
158463,-95.634111539977,4,1,0,65,0,0
158677,-94.8453451801492,4,1,0,65,0,0
159106,-93.4579439252336,4,1,0,75,0,0
159534,-111.111111111111,4,1,0,75,0,0
159749,-107.16930499634,4,1,0,75,0,0
159963,-103.497490703338,4,1,0,75,0,0
160177,-100.069047642874,4,1,0,75,0,0
160284,-98.4385674432157,4,1,0,75,0,0
160391,-96.8603680306544,4,1,0,75,0,0
160499,-95.3319745349229,4,1,0,75,0,0
160606,-93.8511539468633,4,1,0,75,0,0
160820,-91.0232009036783,4,1,0,75,0,0
161034,-83.4292073975009,4,1,0,75,0,0
161677,-100,4,1,0,75,0,0
161999,-108.695652173913,4,1,0,75,0,0
162106,-106.382978723404,4,1,0,75,0,0
162213,-104.166666666667,4,1,0,75,0,0
162320,-102.040816326531,4,1,0,75,0,0
162427,-100,4,1,0,75,0,0
162534,-92.5925925925926,4,1,0,90,0,1
162749,-95.2380952380952,4,1,0,90,0,1
168749,-92.5925925925926,4,1,0,90,0,1
168963,-95.2380952380952,4,1,0,90,0,1
169177,-96.1538461538461,4,1,0,90,0,1
169284,-94.3396226415094,4,1,0,90,0,1
169391,-92.5925925925926,4,1,0,90,0,1
169606,-95.2380952380952,4,1,0,90,0,1
174856,-96.1538461538461,4,1,0,90,0,1
174963,-95.2380952380952,4,1,0,90,0,1
175177,-97.0873786407767,4,1,0,90,0,1
175284,-96.1538461538461,4,1,0,90,0,1
175391,-95.2380952380952,4,1,0,90,0,1
175606,-99.009900990099,4,1,0,90,0,1
175713,-97.5609756097561,4,1,0,90,0,1
175820,-96.1538461538461,4,1,0,90,0,1
175927,-94.7867298578199,4,1,0,90,0,1
176034,-93.4579439252336,4,1,0,90,0,1
176141,-92.1658986175115,4,1,0,90,0,1
176249,-90.9090909090909,4,1,0,90,0,1
176463,-95.2380952380952,4,1,0,90,0,1
182891,-92.5925925925926,4,1,0,90,0,1
182999,-93.8967136150235,4,1,0,90,0,1
183106,-95.2380952380952,4,1,0,90,0,1
183534,-94.4894686762687,4,1,0,90,0,1
183749,-96.1538461538461,4,1,0,90,0,1
183856,-94.7867298578199,4,1,0,90,0,1
183963,-93.7525195989642,4,1,0,90,0,1
184284,-95.2380952380952,4,1,0,90,0,1
184391,-93.0269768930292,4,1,0,90,0,1
184606,-90.9090909090909,4,1,0,90,0,1
185034,-94.3396226415094,4,1,0,90,0,1
185249,-89.2857142857143,4,1,0,90,0,1
185356,-90.0900900900901,4,1,0,90,0,1
185463,-90.9090909090909,4,1,0,90,0,1
185570,-91.743119266055,4,1,0,90,0,1
185677,-92.5925925925926,4,1,0,90,0,1
186106,-87.719298245614,4,1,0,90,0,1
186213,-88.8888888888889,4,1,0,90,0,1
186320,-90.0900900900901,4,1,0,90,0,1
186534,-84.7457627118644,4,1,0,90,0,1
186856,-90.0900900900901,4,1,0,90,0,1
186963,-88.4955752212389,4,1,0,90,0,1
187177,-90.9090909090909,4,1,0,90,0,1
187284,-89.6860986547085,4,1,0,90,0,1
187391,-88.2465325731189,4,1,0,90,0,1
187499,-89.6860986547085,4,1,0,90,0,1
187606,-90.9090909090909,4,1,0,90,0,1
187820,-87.6034158323901,4,1,0,90,0,1
188034,-92.5925925925926,4,1,0,90,0,1
188141,-93.4579439252336,4,1,0,90,0,1
188248,-94.3396226415094,4,1,0,90,0,1
188249,-94.3396226415094,4,1,0,90,0,0
188677,-86.9565217391304,4,1,0,90,0,1
189106,-102.040816326531,4,1,0,90,0,1
189320,-107.52688172043,4,1,0,90,0,1
189427,-106.382978723404,4,1,0,90,0,1
189534,-105.263157894737,4,1,0,90,0,1
189641,-104.166666666667,4,1,0,90,0,1
189749,-103.092783505155,4,1,0,90,0,1
189856,-102.040816326531,4,1,0,90,0,1
189963,-95.2380952380952,4,1,0,90,0,0
190391,-100,4,1,0,90,0,0
202284,-98.159509202454,4,1,0,90,0,0
202391,-97.5609756097561,4,1,0,90,0,0
202606,-96.3855421686747,4,1,0,90,0,0
202713,-95.8083832335329,4,1,0,90,0,0
202820,-95.2380952380952,4,1,0,90,0,0
203034,-94.1176470588235,4,1,0,90,0,0
203249,-93.0232558139535,4,1,0,90,0,0
203356,-92.485549132948,4,1,0,90,0,0
203463,-91.9540229885058,4,1,0,90,0,0
203570,-91.4285714285714,4,1,0,90,0,0
203677,-90.9090909090909,4,1,0,90,0,0
214284,-92.485549132948,4,1,0,90,0,0
214391,-93.0232558139535,4,1,0,90,0,0
214606,-94.1176470588235,4,1,0,90,0,0
214713,-94.6745562130178,4,1,0,90,0,0
214820,-95.2380952380952,4,1,0,90,0,0
214927,-95.8083832335329,4,1,0,90,0,0
215034,-96.3855421686747,4,1,0,90,0,0
215249,-97.5609756097561,4,1,0,90,0,0
215463,-98.7654320987654,4,1,0,90,0,0
215570,-99.3788819875776,4,1,0,90,0,0
215677,-100,4,1,0,90,0,0
216106,-86.9565217391304,4,1,0,90,0,0
216963,-97.0873786407767,4,1,0,90,0,0
217034,-99.009900990099,4,1,0,90,0,0
217106,-101.010101010101,4,1,0,90,0,0
217177,-103.092783505155,4,1,0,90,0,0
217391,-95.2380952380952,4,1,0,90,0,0
217820,-100,4,1,0,90,0,0
218034,-98.0392156862745,4,1,0,90,0,0
218141,-99.502487562189,4,1,0,90,0,0
218249,-101.010101010101,4,1,0,90,0,0
218356,-103.626943005181,4,1,0,90,0,0
218463,-105.263157894737,4,1,0,90,0,0
218570,-106.951871657754,4,1,0,90,0,0
218677,-109.89010989011,4,1,0,90,0,0
218784,-111.731843575419,4,1,0,90,0,0
218891,-113.636363636364,4,1,0,90,0,0
219106,-111.111111111111,4,1,0,90,0,0
221677,-111.111111111111,4,1,0,30,0,0

[HitObjects]
92,312,535,5,8,1:0:0:0:
98,318,963,1,0,1:0:0:0:
98,318,1177,1,8,1:0:0:0:
98,318,1606,1,8,1:0:0:0:
98,318,2035,1,0,1:0:0:0:
98,318,2463,1,8,1:0:0:0:
98,318,2677,1,0,1:0:0:0:
98,318,2892,1,8,1:0:0:0:
129,299,3320,1,0,1:0:0:0:
253,250,3749,1,8,1:0:0:0:
253,250,3963,1,0,1:0:0:0:
256,255,4392,1,0,1:0:0:0:
256,255,4606,1,8,1:0:0:0:
252,260,5035,1,0,1:0:0:0:
252,260,5249,1,8,1:0:0:0:
252,260,5463,1,8,1:0:0:0:
252,260,5677,1,0,1:0:0:0:
252,257,6106,1,8,1:0:0:0:
252,257,6320,1,0,1:0:0:0:
252,257,6535,1,8,1:0:0:0:
252,257,6963,1,8,1:0:0:0:
252,257,7392,1,0,1:0:0:0:
267,209,9106,1,0,1:0:0:0:
267,210,10820,1,8,1:0:0:0:
267,213,12535,1,0,1:0:0:0:
267,213,12749,1,12,1:0:0:0:
267,213,12963,1,12,1:0:0:0:
239,332,13177,1,0,1:0:0:0:
239,332,13285,1,8,1:0:0:0:
267,212,13392,1,0,1:0:0:0:
251,298,13606,1,0,1:0:0:0:
267,213,13820,1,8,1:0:0:0:
267,212,14249,1,4,1:0:0:0:
287,277,14677,1,0,1:0:0:0:
287,277,15106,1,0,1:0:0:0:
287,277,15535,1,0,1:0:0:0:
287,277,15963,1,0,1:0:0:0:
287,277,16392,1,0,1:0:0:0:
212,233,16606,1,8,1:0:0:0:
212,233,16820,1,8,1:0:0:0:
212,233,17035,1,0,1:0:0:0:
212,233,17249,1,8,1:0:0:0:
209,235,17570,1,0,1:0:0:0:
287,277,17677,1,8,1:0:0:0:
287,277,18106,1,0,1:0:0:0:
315,200,18320,1,8,1:0:0:0:
286,277,18535,1,0,1:0:0:0:
286,277,18963,1,0,1:0:0:0:
223,146,19392,1,8,1:0:0:0:
223,146,19820,1,8,1:0:0:0:
243,189,20035,1,8,1:0:0:0:
284,279,20249,1,0,1:0:0:0:
258,195,20463,1,8,1:0:0:0:
284,279,20677,1,0,1:0:0:0:
284,279,20785,1,0,1:0:0:0:
284,279,20892,1,0,1:0:0:0:
284,279,21106,1,12,1:0:0:0:
267,283,21535,1,8,1:0:0:0:
267,283,21749,1,8,1:0:0:0:
273,293,21963,1,0,1:0:0:0:
273,293,22392,1,8,1:0:0:0:
273,293,22606,1,0,1:0:0:0:
310,377,22713,1,0,1:0:0:0:
273,293,22820,1,8,1:0:0:0:
273,293,23249,1,8,1:0:0:0:
273,293,23677,1,0,1:0:0:0:
273,293,23892,1,0,1:0:0:0:
273,293,24106,1,8,1:0:0:0:
273,330,24320,1,0,1:0:0:0:
273,330,24427,1,8,1:0:0:0:
286,317,24535,1,0,1:0:0:0:
267,283,24963,1,8,1:0:0:0:
231,293,25177,1,0,1:0:0:0:
237,283,25392,1,8,1:0:0:0:
273,293,25820,1,8,1:0:0:0:
273,293,26035,1,8,1:0:0:0:
310,377,26142,1,8,1:0:0:0:
273,293,26249,1,0,1:0:0:0:
273,293,26677,1,8,1:0:0:0:
273,293,27106,1,0,1:0:0:0:
273,293,27320,1,0,1:0:0:0:
273,293,27535,1,8,1:0:0:0:
273,330,27749,1,0,1:0:0:0:
286,317,27856,1,0,1:0:0:0:
273,330,27963,1,8,1:0:0:0:
267,283,28392,1,8,1:0:0:0:
267,283,28606,1,8,1:0:0:0:
273,293,28820,1,0,1:0:0:0:
273,293,29249,1,8,1:0:0:0:
273,293,29463,1,8,1:0:0:0:
310,377,29570,1,0,1:0:0:0:
273,293,29677,1,8,1:0:0:0:
273,293,30106,1,8,1:0:0:0:
273,293,30535,1,0,1:0:0:0:
273,293,30749,1,0,1:0:0:0:
273,293,30963,1,8,1:0:0:0:
273,330,31177,1,8,1:0:0:0:
273,330,31285,1,8,1:0:0:0:
286,317,31392,1,0,1:0:0:0:
267,283,31820,1,8,1:0:0:0:
231,293,32035,1,0,1:0:0:0:
231,293,32142,1,0,1:0:0:0:
237,283,32249,1,8,1:0:0:0:
231,293,32463,1,0,1:0:0:0:
273,293,32677,1,8,1:0:0:0:
273,293,32892,1,0,1:0:0:0:
310,377,32999,1,8,1:0:0:0:
273,293,33106,1,0,1:0:0:0:
273,293,33320,1,0,1:0:0:0:
273,293,33535,1,8,1:0:0:0:
273,293,33749,1,8,1:0:0:0:
273,293,33963,1,0,1:0:0:0:
273,293,34392,1,8,1:0:0:0:
273,330,34606,1,0,1:0:0:0:
286,317,34713,1,0,1:0:0:0:
273,330,34820,1,12,1:0:0:0:
267,283,35249,1,8,1:0:0:0:
267,283,35463,1,8,1:0:0:0:
273,293,35677,1,0,1:0:0:0:
273,293,36106,1,8,1:0:0:0:
273,293,36320,1,8,1:0:0:0:
310,377,36427,1,0,1:0:0:0:
273,293,36535,1,8,1:0:0:0:
273,293,36963,1,8,1:0:0:0:
273,293,37177,1,0,1:0:0:0:
273,293,37392,1,8,1:0:0:0:
273,293,37606,1,8,1:0:0:0:
273,293,37820,1,0,1:0:0:0:
273,330,38035,1,8,1:0:0:0:
273,330,38142,1,8,1:0:0:0:
286,317,38249,1,0,1:0:0:0:
267,283,38677,1,8,1:0:0:0:
231,293,38892,1,0,1:0:0:0:
237,283,39106,1,8,1:0:0:0:
273,293,39535,1,8,1:0:0:0:
273,293,39749,1,0,1:0:0:0:
310,377,39856,1,8,1:0:0:0:
273,293,39963,1,0,1:0:0:0:
273,293,40392,1,8,1:0:0:0:
222,193,40606,1,8,1:0:0:0:
273,293,40820,1,0,1:0:0:0:
273,293,41035,1,0,1:0:0:0:
273,293,41249,1,8,1:0:0:0:
273,330,41463,1,0,1:0:0:0:
286,317,41570,1,0,1:0:0:0:
273,330,41677,1,8,1:0:0:0:
267,283,42106,1,8,1:0:0:0:
267,283,42320,1,8,1:0:0:0:
273,293,42535,1,0,1:0:0:0:
273,293,42963,1,8,1:0:0:0:
273,293,43177,1,0,1:0:0:0:
310,377,43285,1,0,1:0:0:0:
273,293,43392,1,8,1:0:0:0:
273,293,43820,1,8,1:0:0:0:
273,293,44249,1,0,1:0:0:0:
273,293,44463,1,0,1:0:0:0:
273,293,44677,1,8,1:0:0:0:
273,330,44892,1,0,1:0:0:0:
273,330,44999,1,8,1:0:0:0:
286,317,45106,1,0,1:0:0:0:
267,283,45535,1,8,1:0:0:0:
237,283,45749,1,8,1:0:0:0:
231,293,45963,1,0,1:0:0:0:
231,293,46177,1,0,1:0:0:0:
273,293,46392,1,8,1:0:0:0:
273,293,46606,1,0,1:0:0:0:
310,377,46713,1,0,1:0:0:0:
273,293,46820,1,8,1:0:0:0:
286,263,47035,1,0,1:0:0:0:
273,293,47249,1,8,1:0:0:0:
273,293,47677,1,0,1:0:0:0:
273,293,47892,1,0,1:0:0:0:
273,293,48106,1,8,1:0:0:0:
273,330,48320,1,0,1:0:0:0:
286,317,48427,1,0,1:0:0:0:
273,330,48535,1,12,1:0:0:0:
305,267,48963,1,0,1:0:0:0:
225,310,49177,1,8,1:0:0:0:
302,243,49285,1,0,1:0:0:0:
309,263,49392,1,8,1:0:0:0:
309,263,49606,1,0,1:0:0:0:
224,308,49820,1,8,1:0:0:0:
222,308,50249,1,0,1:0:0:0:
219,308,50677,1,0,1:0:0:0:
219,308,50892,1,0,1:0:0:0:
219,308,51106,1,8,1:0:0:0:
219,308,51320,1,0,1:0:0:0:
281,251,51427,1,0,1:0:0:0:
225,308,51535,1,8,1:0:0:0:
225,308,51749,1,8,1:0:0:0:
225,308,51963,1,0,1:0:0:0:
305,267,52392,1,0,1:0:0:0:
225,310,52606,1,8,1:0:0:0:
309,263,52713,1,8,1:0:0:0:
302,243,52820,1,0,1:0:0:0:
309,263,53035,1,0,1:0:0:0:
224,308,53249,1,8,1:0:0:0:
222,308,53677,1,0,1:0:0:0:
219,308,54106,1,0,1:0:0:0:
219,308,54320,1,8,1:0:0:0:
281,251,54427,1,0,1:0:0:0:
219,308,54535,1,8,1:0:0:0:
219,308,54749,1,0,1:0:0:0:
225,308,54963,1,8,1:0:0:0:
225,308,55177,1,8,1:0:0:0:
225,308,55392,1,0,1:0:0:0:
246,221,55713,1,0,1:0:0:0:
246,221,55820,1,8,1:0:0:0:
246,215,56035,1,8,1:0:0:0:
246,215,56249,1,0,1:0:0:0:
244,214,56677,1,8,1:0:0:0:
244,214,56892,1,0,1:0:0:0:
244,214,56999,1,0,1:0:0:0:
244,214,57106,1,8,1:0:0:0:
237,211,57320,1,0,1:0:0:0:
237,211,57535,1,8,1:0:0:0:
282,145,57749,1,0,1:0:0:0:
282,145,57856,1,8,1:0:0:0:
237,211,57963,1,0,1:0:0:0:
267,137,58177,1,0,1:0:0:0:
276,119,58392,1,8,1:0:0:0:
383,195,58499,1,8,1:0:0:0:
267,157,58606,1,0,1:0:0:0:
267,157,58713,1,0,1:0:0:0:
273,122,58820,1,8,1:0:0:0:
272,175,59249,1,0,1:0:0:0:
272,175,59677,1,8,1:0:0:0:
207,238,59892,1,0,1:0:0:0:
267,175,60106,1,8,1:0:0:0:
310,191,60320,1,8,1:0:0:0:
310,194,60535,1,0,1:0:0:0:
312,196,60749,1,8,1:0:0:0:
312,195,60963,1,0,1:0:0:0:
310,194,61177,1,8,1:0:0:0:
306,178,61285,1,0,1:0:0:0:
310,194,61392,1,8,1:0:0:0:
306,176,61820,1,0,1:0:0:0:
296,164,62035,1,0,1:0:0:0:
265,113,62142,1,0,1:0:0:0:
306,176,62249,1,12,1:0:0:0:
306,265,62677,1,0,1:0:0:0:
226,308,62892,1,8,1:0:0:0:
310,261,62999,1,8,1:0:0:0:
303,241,63106,1,0,1:0:0:0:
310,261,63320,1,0,1:0:0:0:
225,306,63535,1,8,1:0:0:0:
167,177,63749,1,0,1:0:0:0:
208,279,63856,1,8,1:0:0:0:
223,306,63963,1,0,1:0:0:0:
220,306,64392,1,0,1:0:0:0:
281,228,64606,1,8,1:0:0:0:
192,165,64713,1,8,1:0:0:0:
281,228,64820,1,0,1:0:0:0:
165,270,65035,1,0,1:0:0:0:
268,234,65249,1,8,1:0:0:0:
111,246,65677,1,0,1:0:0:0:
302,247,66106,1,0,1:0:0:0:
222,290,66320,1,8,1:0:0:0:
299,223,66427,1,0,1:0:0:0:
306,243,66535,1,8,1:0:0:0:
306,243,66749,1,0,1:0:0:0:
221,288,66963,1,8,1:0:0:0:
221,288,67177,1,0,1:0:0:0:
155,181,67285,1,0,1:0:0:0:
219,288,67392,1,8,1:0:0:0:
216,288,67820,1,0,1:0:0:0:
146,275,68035,1,0,1:0:0:0:
142,277,68142,1,0,1:0:0:0:
142,277,68249,1,8,1:0:0:0:
142,277,68463,1,0,1:0:0:0:
142,277,68677,1,8,1:0:0:0:
142,277,68785,1,0,1:0:0:0:
142,277,68892,1,8,1:0:0:0:
142,277,69106,1,4,1:0:0:0:
142,207,69535,1,0,1:0:0:0:
158,250,69749,1,8,1:0:0:0:
157,250,69963,1,8,1:0:0:0:
170,238,70177,1,0,1:0:0:0:
170,238,70285,1,0,1:0:0:0:
170,238,70392,1,8,1:0:0:0:
170,238,70606,1,8,1:0:0:0:
169,238,70820,1,0,1:0:0:0:
200,191,71249,1,0,1:0:0:0:
303,245,71463,1,8,1:0:0:0:
303,245,71570,1,0,1:0:0:0:
343,178,71677,1,8,1:0:0:0:
343,178,71785,1,8,1:0:0:0:
413,248,71892,1,0,1:0:0:0:
413,248,72106,1,8,1:0:0:0:
213,144,72320,1,0,1:0:0:0:
213,144,72427,1,0,1:0:0:0:
213,144,72535,1,12,1:0:0:0:
191,271,72963,1,0,1:0:0:0:
186,269,73285,1,0,1:0:0:0:
186,269,73392,1,8,1:0:0:0:
178,269,73499,1,0,1:0:0:0:
178,269,73606,1,8,1:0:0:0:
178,267,73820,1,0,1:0:0:0:
293,246,74035,1,12,1:0:0:0:
291,248,74463,1,4,1:0:0:0:
291,248,74892,1,12,1:0:0:0:
291,248,75106,1,12,1:0:0:0:
214,210,75427,1,0,1:0:0:0:
214,210,75535,1,8,1:0:0:0:
214,210,75642,1,8,1:0:0:0:
214,210,75749,1,0,1:0:0:0:
214,210,75963,1,4,1:0:0:0:
180,231,76177,1,0,1:0:0:0:
180,231,76392,1,8,1:0:0:0:
180,231,76606,1,8,1:0:0:0:
180,231,76820,1,0,1:0:0:0:
270,355,77142,1,0,1:0:0:0:
180,231,77249,1,8,1:0:0:0:
180,231,77463,1,0,1:0:0:0:
257,345,77570,1,8,1:0:0:0:
257,345,77677,1,0,1:0:0:0:
180,231,77892,1,0,1:0:0:0:
180,231,78106,1,8,1:0:0:0:
289,169,78320,1,0,1:0:0:0:
256,345,78427,1,0,1:0:0:0:
180,231,78535,1,8,1:0:0:0:
256,345,78642,1,8,1:0:0:0:
256,345,78749,1,0,1:0:0:0:
256,345,78963,1,8,1:0:0:0:
249,192,79392,1,0,1:0:0:0:
249,192,79713,1,0,1:0:0:0:
249,192,79820,1,8,1:0:0:0:
249,192,80035,1,0,1:0:0:0:
249,192,80249,1,8,1:0:0:0:
273,195,80356,1,8,1:0:0:0:
233,133,80463,1,0,1:0:0:0:
282,121,80677,1,8,1:0:0:0:
273,195,80892,1,0,1:0:0:0:
232,136,80999,1,0,1:0:0:0:
273,195,81106,1,8,1:0:0:0:
282,122,81320,1,0,1:0:0:0:
282,122,81535,1,8,1:0:0:0:
287,124,81642,1,0,1:0:0:0:
287,124,81749,1,8,1:0:0:0:
283,163,81856,1,8,1:0:0:0:
283,163,81963,1,0,1:0:0:0:
282,161,82177,1,8,1:0:0:0:
282,161,82392,1,0,1:0:0:0:
282,161,82606,1,8,1:0:0:0:
229,154,82713,1,0,1:0:0:0:
282,161,82820,1,12,1:0:0:0:
199,231,83249,1,8,1:0:0:0:
199,231,83570,1,8,1:0:0:0:
199,231,83677,1,0,1:0:0:0:
199,231,83892,1,0,1:0:0:0:
199,231,84106,1,8,1:0:0:0:
272,136,84320,1,0,1:0:0:0:
272,136,84427,1,0,1:0:0:0:
272,136,84535,1,8,1:0:0:0:
273,169,84749,1,0,1:0:0:0:
273,169,84963,1,8,1:0:0:0:
270,167,85285,1,8,1:0:0:0:
273,164,85392,1,0,1:0:0:0:
273,164,85606,1,0,1:0:0:0:
273,164,85820,1,8,1:0:0:0:
267,297,86035,1,0,1:0:0:0:
267,296,86142,1,8,1:0:0:0:
273,164,86249,1,0,1:0:0:0:
267,296,86677,1,8,1:0:0:0:
209,299,86892,1,8,1:0:0:0:
209,299,86999,1,8,1:0:0:0:
207,239,87106,1,0,1:0:0:0:
207,239,87320,1,0,1:0:0:0:
219,186,87535,1,8,1:0:0:0:
219,186,87749,1,0,1:0:0:0:
219,186,87856,1,0,1:0:0:0:
219,186,87963,1,8,1:0:0:0:
212,288,88285,1,0,1:0:0:0:
220,186,88392,1,8,1:0:0:0:
298,152,88606,1,8,1:0:0:0:
298,152,88713,1,0,1:0:0:0:
298,152,88820,1,8,1:0:0:0:
286,153,89035,1,0,1:0:0:0:
288,153,89249,1,8,1:0:0:0:
287,153,89356,1,8,1:0:0:0:
287,153,89463,1,0,1:0:0:0:
287,153,89570,1,0,1:0:0:0:
286,153,89677,1,12,1:0:0:0:
180,231,89892,1,0,1:0:0:0:
180,231,90106,1,8,1:0:0:0:
180,231,90320,1,8,1:0:0:0:
180,231,90535,1,0,1:0:0:0:
270,355,90856,1,0,1:0:0:0:
180,231,90963,1,8,1:0:0:0:
180,231,91177,1,8,1:0:0:0:
257,345,91285,1,8,1:0:0:0:
257,345,91392,1,0,1:0:0:0:
180,231,91606,1,0,1:0:0:0:
180,231,91820,1,8,1:0:0:0:
289,169,92035,1,8,1:0:0:0:
256,345,92142,1,0,1:0:0:0:
180,231,92249,1,8,1:0:0:0:
256,345,92356,1,8,1:0:0:0:
256,345,92463,1,0,1:0:0:0:
256,345,92677,1,8,1:0:0:0:
249,192,93106,1,0,1:0:0:0:
249,192,93427,1,0,1:0:0:0:
249,192,93535,1,8,1:0:0:0:
249,192,93749,1,0,1:0:0:0:
249,192,93963,1,8,1:0:0:0:
273,195,94070,1,8,1:0:0:0:
233,133,94177,1,0,1:0:0:0:
282,121,94392,1,8,1:0:0:0:
273,195,94606,1,0,1:0:0:0:
232,136,94713,1,0,1:0:0:0:
273,195,94820,1,8,1:0:0:0:
282,122,95035,1,0,1:0:0:0:
282,122,95249,1,8,1:0:0:0:
287,124,95356,1,8,1:0:0:0:
287,124,95463,1,0,1:0:0:0:
283,163,95570,1,0,1:0:0:0:
283,163,95677,1,8,1:0:0:0:
282,161,95892,1,8,1:0:0:0:
282,161,96106,1,0,1:0:0:0:
282,161,96320,1,8,1:0:0:0:
229,154,96427,1,8,1:0:0:0:
282,161,96535,1,4,1:0:0:0:
275,168,96963,1,8,1:0:0:0:
275,168,97177,1,0,1:0:0:0:
231,249,97285,1,0,1:0:0:0:
275,168,97392,1,8,1:0:0:0:
204,278,97713,1,8,1:0:0:0:
239,156,97820,1,0,1:0:0:0:
239,156,98035,1,8,1:0:0:0:
239,156,98142,1,0,1:0:0:0:
239,156,98249,1,8,1:0:0:0:
239,156,98463,1,0,1:0:0:0:
238,156,98677,1,8,1:0:0:0:
238,156,98785,1,8,1:0:0:0:
238,156,98892,1,8,1:0:0:0:
240,157,98999,1,8,1:0:0:0:
240,157,99106,1,0,1:0:0:0:
273,277,99535,1,8,1:0:0:0:
273,277,99642,1,8,1:0:0:0:
180,258,99749,1,0,1:0:0:0:
256,232,99963,1,4,1:0:0:0:
366,323,100285,1,0,1:0:0:0:
204,235,100392,1,8,1:0:0:0:
365,323,100606,1,0,1:0:0:0:
365,323,100713,1,0,1:0:0:0:
362,322,100820,1,8,1:0:0:0:
193,101,100927,1,8,1:0:0:0:
203,189,101035,1,0,1:0:0:0:
203,189,101249,1,8,1:0:0:0:
203,189,101463,1,0,1:0:0:0:
196,182,101570,1,0,1:0:0:0:
196,182,101677,1,8,1:0:0:0:
198,134,102106,1,12,1:0:0:0:
245,215,102535,1,0,1:0:0:0:
230,205,102749,1,0,1:0:0:0:
230,205,102963,1,8,1:0:0:0:
229,205,103070,1,0,1:0:0:0:
230,205,103177,1,8,1:0:0:0:
229,205,103392,1,0,1:0:0:0:
295,175,103713,1,8,1:0:0:0:
332,183,103820,1,8,1:0:0:0:
295,175,103927,1,0,1:0:0:0:
332,183,104034,1,8,1:0:0:0:
295,175,104142,1,0,1:0:0:0:
289,176,104249,1,12,1:0:0:0:
247,328,104677,1,8,1:0:0:0:
248,328,105106,1,0,1:0:0:0:
248,328,105320,1,0,1:0:0:0:
248,328,105534,1,8,1:0:0:0:
407,376,105963,1,0,1:0:0:0:
248,328,106391,1,8,1:0:0:0:
248,328,106606,1,0,1:0:0:0:
327,324,106713,1,8,1:0:0:0:
254,322,106820,1,0,1:0:0:0:
248,328,107034,1,0,1:0:0:0:
254,322,107249,1,8,1:0:0:0:
254,323,107677,1,0,1:0:0:0:
254,323,108106,1,8,1:0:0:0:
389,272,108320,1,8,1:0:0:0:
389,273,108534,1,0,1:0:0:0:
254,323,108749,1,0,1:0:0:0:
323,311,108856,1,0,1:0:0:0:
254,323,108963,1,8,1:0:0:0:
254,323,109391,1,0,1:0:0:0:
324,213,109606,1,0,1:0:0:0:
254,323,109820,1,8,1:0:0:0:
260,319,110034,1,8,1:0:0:0:
260,319,110249,1,0,1:0:0:0:
254,323,110463,1,8,1:0:0:0:
262,317,110677,1,8,1:0:0:0:
262,317,110891,1,0,1:0:0:0:
324,313,110999,1,0,1:0:0:0:
262,317,111106,1,12,1:0:0:0:
247,328,111534,1,8,1:0:0:0:
248,328,111963,1,0,1:0:0:0:
248,328,112177,1,0,1:0:0:0:
248,328,112391,1,8,1:0:0:0:
204,175,112606,1,8,1:0:0:0:
248,328,112713,1,8,1:0:0:0:
407,376,112820,1,0,1:0:0:0:
248,328,113249,1,8,1:0:0:0:
225,223,113463,1,0,1:0:0:0:
327,324,113570,1,8,1:0:0:0:
254,322,113677,1,0,1:0:0:0:
248,328,113891,1,0,1:0:0:0:
254,322,114106,1,8,1:0:0:0:
254,323,114534,1,0,1:0:0:0:
254,323,114963,1,8,1:0:0:0:
389,272,115177,1,8,1:0:0:0:
389,273,115391,1,0,1:0:0:0:
254,323,115606,1,0,1:0:0:0:
323,311,115713,1,0,1:0:0:0:
254,323,115820,1,8,1:0:0:0:
254,323,116034,1,0,1:0:0:0:
324,213,116249,1,8,1:0:0:0:
254,323,116677,1,8,1:0:0:0:
226,223,116891,1,0,1:0:0:0:
233,214,116999,1,8,1:0:0:0:
260,319,117106,1,0,1:0:0:0:
254,323,117320,1,8,1:0:0:0:
262,317,117534,1,8,1:0:0:0:
262,317,117749,1,0,1:0:0:0:
324,313,117856,1,0,1:0:0:0:
262,317,117963,1,12,1:0:0:0:
247,328,118391,1,8,1:0:0:0:
248,328,118820,1,0,1:0:0:0:
248,328,119034,1,0,1:0:0:0:
248,328,119249,1,8,1:0:0:0:
248,328,119463,1,0,1:0:0:0:
248,328,119570,1,0,1:0:0:0:
407,376,119677,1,8,1:0:0:0:
248,328,120106,1,8,1:0:0:0:
248,328,120320,1,0,1:0:0:0:
327,324,120427,1,8,1:0:0:0:
254,322,120534,1,0,1:0:0:0:
248,328,120749,1,0,1:0:0:0:
254,322,120963,1,8,1:0:0:0:
254,323,121391,1,0,1:0:0:0:
254,323,121820,1,8,1:0:0:0:
389,273,122249,1,0,1:0:0:0:
254,323,122463,1,0,1:0:0:0:
254,323,122677,1,8,1:0:0:0:
324,213,122891,1,8,1:0:0:0:
323,311,122999,1,8,1:0:0:0:
254,323,123106,1,0,1:0:0:0:
254,323,123534,1,8,1:0:0:0:
260,319,123749,1,8,1:0:0:0:
260,319,123963,1,0,1:0:0:0:
254,323,124177,1,0,1:0:0:0:
262,317,124391,1,8,1:0:0:0:
262,317,124606,1,0,1:0:0:0:
324,313,124713,1,0,1:0:0:0:
262,317,124820,1,12,1:0:0:0:
247,328,125249,1,8,1:0:0:0:
248,328,125677,1,0,1:0:0:0:
248,328,125891,1,0,1:0:0:0:
248,328,126106,1,8,1:0:0:0:
204,175,126320,1,0,1:0:0:0:
248,328,126427,1,8,1:0:0:0:
407,376,126534,1,0,1:0:0:0:
248,328,126963,1,8,1:0:0:0:
225,223,127177,1,8,1:0:0:0:
327,324,127284,1,8,1:0:0:0:
254,322,127391,1,0,1:0:0:0:
248,328,127606,1,0,1:0:0:0:
254,322,127820,1,8,1:0:0:0:
254,323,128249,1,4,1:0:0:0:
254,323,128677,1,8,1:0:0:0:
253,220,128999,1,8,1:0:0:0:
389,273,129106,1,0,1:0:0:0:
254,323,129320,1,0,1:0:0:0:
254,323,129534,1,8,1:0:0:0:
324,213,129749,1,0,1:0:0:0:
324,213,129856,1,0,1:0:0:0:
254,323,129963,1,8,1:0:0:0:
254,323,130391,1,8,1:0:0:0:
226,223,130606,1,0,1:0:0:0:
233,214,130713,1,8,1:0:0:0:
260,319,130820,1,0,1:0:0:0:
254,323,131034,1,0,1:0:0:0:
262,317,131249,1,8,1:0:0:0:
262,317,131356,1,8,1:0:0:0:
262,317,131463,1,0,1:0:0:0:
324,313,131570,1,0,1:0:0:0:
262,317,131677,1,12,1:0:0:0:
254,323,132106,1,8,1:0:0:0:
233,213,132427,1,8,1:0:0:0:
389,273,132534,1,0,1:0:0:0:
254,323,132749,1,0,1:0:0:0:
254,323,132963,1,8,1:0:0:0:
324,213,133177,1,8,1:0:0:0:
324,213,133284,1,8,1:0:0:0:
254,323,133391,1,0,1:0:0:0:
231,216,133606,1,8,1:0:0:0:
254,323,133820,1,8,1:0:0:0:
226,223,134034,1,0,1:0:0:0:
233,214,134141,1,8,1:0:0:0:
260,319,134249,1,0,1:0:0:0:
254,323,134463,1,8,1:0:0:0:
262,317,134677,1,0,1:0:0:0:
262,317,135106,1,8,1:0:0:0:
223,373,136820,1,0,1:0:0:0:
268,380,138534,1,8,1:0:0:0:
177,365,140249,1,0,1:0:0:0:
177,368,140677,1,0,1:0:0:0:
175,369,141106,1,8,1:0:0:0:
177,367,141963,1,0,1:0:0:0:
196,350,143677,1,8,1:0:0:0:
196,350,144534,1,8,1:0:0:0:
192,353,145391,1,0,1:0:0:0:
199,359,147106,1,8,1:0:0:0:
202,357,147534,1,0,1:0:0:0:
202,357,147963,1,8,1:0:0:0:
149,288,148820,1,0,1:0:0:0:
133,381,149034,1,0,1:0:0:0:
211,139,149249,1,8,1:0:0:0:
296,174,149463,1,0,1:0:0:0:
210,154,149677,1,0,1:0:0:0:
296,174,150106,1,8,1:0:0:0:
236,153,150320,1,8,1:0:0:0:
244,358,150427,1,8,1:0:0:0:
210,154,150534,1,0,1:0:0:0:
296,174,150963,1,8,1:0:0:0:
296,174,151177,1,8,1:0:0:0:
296,174,151391,1,0,1:0:0:0:
423,361,151606,1,8,1:0:0:0:
423,361,151713,1,0,1:0:0:0:
233,155,151820,1,8,1:0:0:0:
348,252,152034,1,0,1:0:0:0:
46,314,152249,1,8,1:0:0:0:
344,243,152677,1,8,1:0:0:0:
344,243,152891,1,0,1:0:0:0:
343,243,153106,1,8,1:0:0:0:
286,313,153320,1,0,1:0:0:0:
269,340,153427,1,0,1:0:0:0:
284,309,153534,1,8,1:0:0:0:
284,309,153749,1,8,1:0:0:0:
284,309,153963,1,0,1:0:0:0:
284,309,154177,1,8,1:0:0:0:
189,279,154284,1,0,1:0:0:0:
284,308,154391,1,8,1:0:0:0:
284,308,154606,1,0,1:0:0:0:
278,235,154820,1,0,1:0:0:0:
213,172,155034,1,8,1:0:0:0:
213,172,155249,1,8,1:0:0:0:
213,172,155463,1,0,1:0:0:0:
349,278,155570,1,0,1:0:0:0:
213,172,155677,1,12,1:0:0:0:
275,168,156106,1,8,1:0:0:0:
275,168,156320,1,0,1:0:0:0:
231,249,156427,1,0,1:0:0:0:
275,168,156534,1,8,1:0:0:0:
204,278,156749,1,8,1:0:0:0:
239,156,156963,1,0,1:0:0:0:
239,156,157177,1,8,1:0:0:0:
239,156,157284,1,0,1:0:0:0:
239,156,157391,1,8,1:0:0:0:
239,156,157606,1,0,1:0:0:0:
238,156,157820,1,8,1:0:0:0:
238,156,157927,1,8,1:0:0:0:
238,156,158034,1,8,1:0:0:0:
240,157,158141,1,8,1:0:0:0:
240,157,158249,1,0,1:0:0:0:
273,277,158463,1,8,1:0:0:0:
273,277,158677,1,8,1:0:0:0:
256,232,159106,1,4,1:0:0:0:
189,213,159534,1,0,1:0:0:0:
189,213,159749,1,0,1:0:0:0:
320,219,159963,1,8,1:0:0:0:
189,213,160177,1,0,1:0:0:0:
337,318,160284,1,0,1:0:0:0:
320,219,160391,1,8,1:0:0:0:
298,222,160499,1,0,1:0:0:0:
320,219,160606,1,8,1:0:0:0:
320,219,160820,1,0,1:0:0:0:
320,219,161034,1,12,1:0:0:0:
320,219,161249,1,12,1:0:0:0:
320,219,161677,1,4,1:0:0:0:
380,225,161999,1,8,1:0:0:0:
369,212,162106,1,0,1:0:0:0:
369,212,162213,1,8,1:0:0:0:
369,212,162320,1,8,1:0:0:0:
248,290,162427,1,0,1:0:0:0:
286,153,162534,1,12,1:0:0:0:
180,231,162749,1,0,1:0:0:0:
180,231,162963,1,8,1:0:0:0:
180,231,163177,1,8,1:0:0:0:
180,231,163391,1,0,1:0:0:0:
270,355,163713,1,0,1:0:0:0:
180,231,163820,1,8,1:0:0:0:
180,231,164034,1,8,1:0:0:0:
257,345,164141,1,8,1:0:0:0:
257,345,164249,1,0,1:0:0:0:
180,231,164463,1,0,1:0:0:0:
180,231,164677,1,8,1:0:0:0:
289,169,164891,1,8,1:0:0:0:
256,345,164999,1,0,1:0:0:0:
180,231,165106,1,8,1:0:0:0:
256,345,165213,1,8,1:0:0:0:
256,345,165320,1,0,1:0:0:0:
256,345,165534,1,8,1:0:0:0:
249,192,165963,1,0,1:0:0:0:
249,192,166284,1,0,1:0:0:0:
249,192,166391,1,8,1:0:0:0:
249,192,166606,1,0,1:0:0:0:
249,192,166820,1,8,1:0:0:0:
273,195,166927,1,8,1:0:0:0:
233,133,167034,1,0,1:0:0:0:
282,121,167249,1,8,1:0:0:0:
273,195,167463,1,0,1:0:0:0:
232,136,167570,1,0,1:0:0:0:
273,195,167677,1,8,1:0:0:0:
282,122,167891,1,0,1:0:0:0:
282,122,168106,1,8,1:0:0:0:
287,124,168213,1,8,1:0:0:0:
287,124,168320,1,0,1:0:0:0:
283,163,168427,1,0,1:0:0:0:
283,163,168534,1,8,1:0:0:0:
282,161,168749,1,8,1:0:0:0:
282,161,168963,1,0,1:0:0:0:
282,161,169177,1,8,1:0:0:0:
229,154,169284,1,8,1:0:0:0:
282,161,169391,1,4,1:0:0:0:
199,231,169820,1,8,1:0:0:0:
199,231,170141,1,8,1:0:0:0:
199,231,170249,1,0,1:0:0:0:
199,231,170463,1,0,1:0:0:0:
199,231,170677,1,8,1:0:0:0:
272,136,170891,1,0,1:0:0:0:
272,136,170999,1,0,1:0:0:0:
272,136,171106,1,8,1:0:0:0:
273,169,171320,1,0,1:0:0:0:
273,169,171534,1,8,1:0:0:0:
270,167,171856,1,8,1:0:0:0:
273,164,171963,1,0,1:0:0:0:
273,164,172177,1,0,1:0:0:0:
273,164,172391,1,8,1:0:0:0:
267,297,172606,1,0,1:0:0:0:
267,296,172713,1,8,1:0:0:0:
273,164,172820,1,0,1:0:0:0:
267,296,173249,1,8,1:0:0:0:
209,299,173463,1,8,1:0:0:0:
209,299,173570,1,8,1:0:0:0:
207,239,173677,1,0,1:0:0:0:
207,239,173891,1,0,1:0:0:0:
219,186,174106,1,8,1:0:0:0:
219,186,174320,1,0,1:0:0:0:
219,186,174427,1,0,1:0:0:0:
219,186,174534,1,8,1:0:0:0:
212,288,174856,1,0,1:0:0:0:
220,186,174963,1,8,1:0:0:0:
298,152,175177,1,8,1:0:0:0:
298,152,175284,1,0,1:0:0:0:
298,152,175391,1,8,1:0:0:0:
286,153,175606,1,0,1:0:0:0:
286,153,175713,1,0,1:0:0:0:
288,153,175820,1,8,1:0:0:0:
287,153,175927,1,8,1:0:0:0:
287,153,176034,1,0,1:0:0:0:
287,153,176141,1,0,1:0:0:0:
286,153,176249,1,12,1:0:0:0:
180,231,176463,1,0,1:0:0:0:
180,231,176677,1,8,1:0:0:0:
180,231,176891,1,8,1:0:0:0:
180,231,177106,1,0,1:0:0:0:
270,355,177427,1,0,1:0:0:0:
180,231,177534,1,8,1:0:0:0:
180,231,177749,1,0,1:0:0:0:
257,345,177856,1,8,1:0:0:0:
257,345,177963,1,0,1:0:0:0:
180,231,178177,1,0,1:0:0:0:
180,231,178391,1,8,1:0:0:0:
289,169,178606,1,0,1:0:0:0:
256,345,178713,1,0,1:0:0:0:
180,231,178820,1,8,1:0:0:0:
256,345,178927,1,8,1:0:0:0:
256,345,179034,1,0,1:0:0:0:
256,345,179249,1,8,1:0:0:0:
249,192,179677,1,0,1:0:0:0:
249,192,179999,1,0,1:0:0:0:
249,192,180106,1,8,1:0:0:0:
249,192,180320,1,0,1:0:0:0:
249,192,180534,1,8,1:0:0:0:
273,195,180641,1,8,1:0:0:0:
233,133,180749,1,0,1:0:0:0:
282,121,180963,1,8,1:0:0:0:
273,195,181177,1,0,1:0:0:0:
232,136,181284,1,0,1:0:0:0:
273,195,181391,1,8,1:0:0:0:
282,122,181606,1,0,1:0:0:0:
282,122,181820,1,8,1:0:0:0:
287,124,181927,1,0,1:0:0:0:
287,124,182034,1,8,1:0:0:0:
283,163,182141,1,8,1:0:0:0:
283,163,182249,1,0,1:0:0:0:
282,161,182463,1,8,1:0:0:0:
282,161,182677,1,0,1:0:0:0:
282,161,182891,1,8,1:0:0:0:
229,154,182999,1,0,1:0:0:0:
282,161,183106,1,12,1:0:0:0:
275,168,183534,1,8,1:0:0:0:
275,168,183749,1,0,1:0:0:0:
231,249,183856,1,0,1:0:0:0:
275,168,183963,1,8,1:0:0:0:
204,278,184284,1,8,1:0:0:0:
239,156,184391,1,0,1:0:0:0:
239,156,184606,1,8,1:0:0:0:
239,156,184713,1,0,1:0:0:0:
239,156,184820,1,8,1:0:0:0:
239,156,185034,1,0,1:0:0:0:
238,156,185249,1,8,1:0:0:0:
238,156,185356,1,8,1:0:0:0:
238,156,185463,1,8,1:0:0:0:
240,157,185570,1,8,1:0:0:0:
240,157,185677,1,0,1:0:0:0:
273,277,186106,1,8,1:0:0:0:
273,277,186213,1,8,1:0:0:0:
180,258,186320,1,0,1:0:0:0:
256,232,186534,1,4,1:0:0:0:
366,323,186856,1,0,1:0:0:0:
204,235,186963,1,8,1:0:0:0:
365,323,187177,1,0,1:0:0:0:
365,323,187284,1,0,1:0:0:0:
362,322,187391,1,8,1:0:0:0:
193,101,187499,1,8,1:0:0:0:
203,189,187606,1,0,1:0:0:0:
203,189,187820,1,8,1:0:0:0:
203,189,188034,1,0,1:0:0:0:
196,182,188141,1,0,1:0:0:0:
196,182,188249,1,8,1:0:0:0:
198,134,188677,1,12,1:0:0:0:
245,215,189106,1,0,1:0:0:0:
230,205,189320,1,0,1:0:0:0:
230,205,189427,1,0,1:0:0:0:
230,205,189534,1,8,1:0:0:0:
229,205,189641,1,0,1:0:0:0:
230,205,189749,1,8,1:0:0:0:
229,205,189856,1,8,1:0:0:0:
229,205,189963,1,4,1:0:0:0:
290,207,190391,1,8,1:0:0:0:
290,207,190820,1,0,1:0:0:0:
290,207,191249,1,8,1:0:0:0:
290,207,191463,1,0,1:0:0:0:
293,186,191570,1,0,1:0:0:0:
290,207,191677,1,8,1:0:0:0:
290,206,191891,1,0,1:0:0:0:
290,206,192106,1,8,1:0:0:0:
290,206,192320,1,0,1:0:0:0:
292,186,192427,1,8,1:0:0:0:
290,206,192534,1,0,1:0:0:0:
192,171,192749,1,0,1:0:0:0:
193,176,192963,1,8,1:0:0:0:
232,100,193177,1,8,1:0:0:0:
192,170,193284,1,8,1:0:0:0:
192,171,193391,1,0,1:0:0:0:
290,207,193820,1,8,1:0:0:0:
290,207,194249,1,0,1:0:0:0:
290,207,194677,1,8,1:0:0:0:
290,207,194891,1,8,1:0:0:0:
293,186,194999,1,0,1:0:0:0:
290,207,195106,1,8,1:0:0:0:
290,206,195320,1,0,1:0:0:0:
290,206,195534,1,8,1:0:0:0:
290,206,195749,1,8,1:0:0:0:
292,186,195856,1,8,1:0:0:0:
290,206,195963,1,0,1:0:0:0:
192,171,196177,1,8,1:0:0:0:
193,176,196391,1,8,1:0:0:0:
232,100,196606,1,0,1:0:0:0:
192,170,196713,1,0,1:0:0:0:
192,171,196820,1,12,1:0:0:0:
263,275,197034,1,0,1:0:0:0:
332,253,197249,1,8,1:0:0:0:
332,253,197463,1,8,1:0:0:0:
332,253,197677,1,0,1:0:0:0:
332,253,198106,1,8,1:0:0:0:
331,252,198534,1,0,1:0:0:0:
331,252,198749,1,8,1:0:0:0:
256,268,198856,1,0,1:0:0:0:
256,268,198963,1,8,1:0:0:0:
330,252,199177,1,8,1:0:0:0:
330,252,199391,1,0,1:0:0:0:
246,268,199606,1,0,1:0:0:0:
246,268,199713,1,0,1:0:0:0:
246,268,199820,1,8,1:0:0:0:
329,252,200034,1,8,1:0:0:0:
329,252,200249,1,0,1:0:0:0:
196,173,200463,1,8,0:0:0:0:
263,176,200677,1,8,1:0:0:0:
260,174,201106,1,0,1:0:0:0:
260,174,201320,1,0,1:0:0:0:
260,174,201534,1,8,1:0:0:0:
196,283,201749,1,0,1:0:0:0:
330,280,201856,1,0,1:0:0:0:
260,174,201963,1,8,1:0:0:0:
294,285,202284,1,0,1:0:0:0:
260,174,202391,1,8,1:0:0:0:
332,150,202606,1,8,1:0:0:0:
214,286,202713,1,0,1:0:0:0:
332,150,202820,1,12,1:0:0:0:
252,204,203034,1,0,1:0:0:0:
267,203,203249,1,8,1:0:0:0:
267,203,203356,1,8,1:0:0:0:
267,203,203463,1,0,1:0:0:0:
267,203,203570,1,0,1:0:0:0:
271,191,203677,1,12,1:0:0:0:
221,239,203891,1,8,1:0:0:0:
376,126,203999,1,0,1:0:0:0:
221,239,204106,1,8,1:0:0:0:
364,130,204320,1,0,1:0:0:0:
364,130,204534,1,8,1:0:0:0:
364,130,204856,1,0,1:0:0:0:
327,340,204963,1,8,1:0:0:0:
288,164,205177,1,8,1:0:0:0:
288,164,205284,1,8,1:0:0:0:
181,125,205391,1,0,1:0:0:0:
271,206,205606,1,0,1:0:0:0:
272,207,205820,1,8,1:0:0:0:
252,222,206034,1,8,1:0:0:0:
252,222,206141,1,0,1:0:0:0:
253,105,206249,1,8,1:0:0:0:
252,222,206463,1,8,1:0:0:0:
268,207,206677,1,0,1:0:0:0:
267,206,206891,1,8,1:0:0:0:
267,206,206999,1,8,1:0:0:0:
267,206,207106,1,0,1:0:0:0:
221,239,207320,1,8,1:0:0:0:
376,126,207427,1,0,1:0:0:0:
221,239,207534,1,8,1:0:0:0:
364,130,207749,1,0,1:0:0:0:
364,130,207963,1,8,1:0:0:0:
364,130,208284,1,0,1:0:0:0:
346,324,208391,1,8,1:0:0:0:
288,164,208606,1,0,1:0:0:0:
181,125,208713,1,8,1:0:0:0:
288,164,208820,1,0,1:0:0:0:
272,207,209034,1,0,1:0:0:0:
271,206,209249,1,8,1:0:0:0:
252,222,209463,1,8,1:0:0:0:
252,222,209570,1,8,1:0:0:0:
253,105,209677,1,0,1:0:0:0:
252,222,209891,1,8,1:0:0:0:
268,207,210106,1,8,1:0:0:0:
268,207,210213,1,0,1:0:0:0:
267,206,210320,1,8,1:0:0:0:
267,206,210427,1,8,1:0:0:0:
267,206,210534,1,4,1:0:0:0:
315,303,210749,1,8,1:0:0:0:
248,252,211177,1,0,1:0:0:0:
314,301,211391,1,12,1:0:0:0:
214,228,211606,1,0,1:0:0:0:
80,284,211820,1,8,1:0:0:0:
214,228,212034,1,8,1:0:0:0:
214,228,212141,1,8,1:0:0:0:
311,299,212249,1,4,1:0:0:0:
216,228,212463,1,8,1:0:0:0:
216,228,212891,1,0,1:0:0:0:
311,299,213106,1,12,1:0:0:0:
311,299,213320,1,0,1:0:0:0:
247,228,213534,1,8,1:0:0:0:
247,228,213641,1,0,1:0:0:0:
247,228,213749,1,8,1:0:0:0:
247,228,213856,1,8,1:0:0:0:
247,228,213963,1,4,1:0:0:0:
353,211,214284,1,0,1:0:0:0:
256,300,214391,1,8,1:0:0:0:
245,238,214606,1,0,1:0:0:0:
351,209,214713,1,0,1:0:0:0:
351,209,214820,1,8,1:0:0:0:
351,209,214927,1,8,1:0:0:0:
351,209,215034,1,0,1:0:0:0:
349,209,215249,1,8,1:0:0:0:
346,208,215463,1,0,1:0:0:0:
237,256,215570,1,0,1:0:0:0:
237,256,215677,1,8,1:0:0:0:
237,254,216106,1,12,1:0:0:0:
286,182,216963,1,8,1:0:0:0:
286,182,217034,1,8,1:0:0:0:
286,182,217106,1,8,1:0:0:0:
384,125,217177,1,0,1:0:0:0:
272,118,217391,1,4,1:0:0:0:
310,267,217820,1,8,1:0:0:0:
205,330,218034,1,0,1:0:0:0:
312,258,218141,1,0,1:0:0:0:
312,258,218249,1,8,1:0:0:0:
411,211,218356,1,0,1:0:0:0:
410,211,218463,1,8,1:0:0:0:
312,206,218570,1,8,1:0:0:0:
310,206,218677,1,0,1:0:0:0:
304,199,218784,1,8,1:0:0:0:
274,179,218891,1,0,1:0:0:0:
304,199,219106,1,12,1:0:0:0:
256,192,219320,8,0,221677,1:0:0:0:
