osu file format v14

[General]
AudioFilename: audio.mp3
AudioLeadIn: 0
PreviewTime: 53917
Countdown: 0
SampleSet: Soft
StackLeniency: 0.7
Mode: 3
LetterboxInBreaks: 0
SpecialStyle: 0
WidescreenStoryboard: 0

[Editor]
Bookmarks: 27601,27900
DistanceSpacing: 1
BeatDivisor: 4
GridSize: 4
TimelineZoom: 2.999997

[Metadata]
Title:BRYNHILDR IN THE DARKNESS -Ver. EJECTED-
TitleUnicode:BRYNHILDR IN THE DARKNESS -Ver. EJECTED-
Artist:Tokisawa Nao
ArtistUnicode:鴇沢直
Creator:error_exe777
Version:HD
Source:極黒のブリュンヒルデ
Tags:tv size opening gokukoku no buryunhirude theme
BeatmapID:1343952
BeatmapSetID:633186

[Difficulty]
HPDrainRate:8
CircleSize:4
OverallDifficulty:8
ApproachRate:5
SliderMultiplier:1.4
SliderTickRate:1

[Events]
//Background and Video events
0,0,"maxresdefault (1).jpg",0,0
//Break Periods
//Storyboard Layer 0 (Background)
//Storyboard Layer 1 (Fail)
//Storyboard Layer 2 (Pass)
//Storyboard Layer 3 (Foreground)
//Storyboard Sound Samples

[TimingPoints]
285,303.030303030303,4,2,1,40,1,0
285,-90.9090909090909,4,2,1,40,0,0
9981,288.461538461538,4,2,1,40,1,0
9981,-95.2380952380952,4,2,1,40,0,0
10557,275.305129852253,4,2,1,40,1,0
11107,275.305129852253,4,2,1,40,1,0
56257,-100,4,2,1,40,0,1
73876,-100,4,2,1,40,0,0

[HitObjects]
320,192,285,5,0,0:0:0:0:
64,192,436,1,0,0:0:0:0:
192,192,588,1,0,0:0:0:0:
448,192,739,1,0,0:0:0:0:
64,192,891,1,0,0:0:0:0:
320,192,1042,1,0,0:0:0:0:
192,192,1194,1,0,0:0:0:0:
448,192,1345,1,0,0:0:0:0:
64,192,1497,1,0,0:0:0:0:
320,192,1648,1,0,0:0:0:0:
192,192,1800,1,0,0:0:0:0:
448,192,1951,1,0,0:0:0:0:
192,192,2103,1,0,0:0:0:0:
64,192,2254,1,0,0:0:0:0:
448,192,2406,1,0,0:0:0:0:
320,192,2557,1,0,0:0:0:0:
192,192,2709,1,0,0:0:0:0:
448,192,2860,1,0,0:0:0:0:
320,192,3012,1,0,0:0:0:0:
64,192,3163,1,0,0:0:0:0:
448,192,3315,1,0,0:0:0:0:
64,192,3466,1,0,0:0:0:0:
320,192,3618,1,0,0:0:0:0:
192,192,3769,1,0,0:0:0:0:
64,192,3921,1,0,0:0:0:0:
320,192,4072,1,0,0:0:0:0:
448,192,4224,1,0,0:0:0:0:
320,192,4375,1,0,0:0:0:0:
64,192,4527,1,0,0:0:0:0:
448,192,4678,1,0,0:0:0:0:
320,192,4830,1,0,0:0:0:0:
64,192,4981,1,0,0:0:0:0:
192,192,5133,1,0,0:0:0:0:
448,192,5284,1,0,0:0:0:0:
320,192,5436,1,0,0:0:0:0:
64,192,5588,1,0,0:0:0:0:
448,192,5739,1,0,0:0:0:0:
64,192,5891,1,0,0:0:0:0:
192,192,6042,1,0,0:0:0:0:
448,192,6194,1,0,0:0:0:0:
64,192,6345,1,0,0:0:0:0:
320,192,6497,1,0,0:0:0:0:
192,192,6648,1,0,0:0:0:0:
320,192,6800,1,0,0:0:0:0:
448,192,6951,1,0,0:0:0:0:
192,192,7103,1,0,0:0:0:0:
320,192,7254,1,0,0:0:0:0:
64,192,7406,1,0,0:0:0:0:
192,192,7557,1,0,0:0:0:0:
448,192,7709,1,0,0:0:0:0:
320,192,7860,1,0,0:0:0:0:
64,192,8012,1,0,0:0:0:0:
448,192,8163,1,0,0:0:0:0:
320,192,8315,1,0,0:0:0:0:
192,192,8466,128,0,9981:0:0:0:0:
448,192,9981,1,0,0:0:0:0:
320,192,9981,128,0,10269:0:0:0:0:
64,192,9981,1,0,0:0:0:70:cymbal.wav
64,192,10269,128,0,10413:0:0:0:0:
320,192,10557,128,0,10694:0:0:0:0:
448,192,10694,128,0,10832:0:0:0:0:
448,192,10969,128,0,11107:0:0:0:0:
320,192,11107,1,0,0:0:0:0:
64,192,11107,1,0,0:0:0:70:cymbal two.wav
192,192,11244,128,0,11382:0:0:0:0:
64,192,11382,128,0,11519:0:0:0:0:
320,192,11657,128,0,11795:0:0:0:0:
448,192,11795,128,0,11932:0:0:0:0:
192,192,11932,128,0,12070:0:0:0:0:
64,192,12208,1,0,0:0:0:70:kick.wav
320,192,12208,128,0,12345:0:0:0:0:
448,192,12345,128,0,12483:0:0:0:0:
64,192,12483,128,0,12621:0:0:0:0:
320,192,12758,128,0,12896:0:0:0:0:
192,192,12896,128,0,13034:0:0:0:0:
192,192,13171,128,0,13309:0:0:0:0:
64,192,13309,1,0,0:0:0:70:cymbal two.wav
320,192,13309,1,0,0:0:0:0:
448,192,13447,128,0,13584:0:0:0:0:
320,192,13584,128,0,13722:0:0:0:0:
448,192,13860,128,0,13997:0:0:0:0:
320,192,13997,128,0,14135:0:0:0:0:
192,192,14135,128,0,14273:0:0:0:0:
64,192,14273,128,0,14410:0:0:0:0:
192,192,14410,1,0,0:0:0:70:kick.wav
320,192,14410,128,0,14548:0:0:0:0:
448,192,14548,128,0,14685:0:0:0:0:
192,192,14685,128,0,14823:0:0:0:0:
320,192,14961,128,0,15098:0:0:0:0:
64,192,15098,128,0,15236:0:0:0:0:
64,192,15374,128,0,15511:0:0:0:0:
320,192,15511,1,0,0:0:0:70:cymbal two.wav
448,192,15511,1,0,0:0:0:0:
192,192,15649,128,0,15787:0:0:0:0:
64,192,15787,128,0,15924:0:0:0:0:
320,192,16062,128,0,16200:0:0:0:0:
448,192,16200,128,0,16337:0:0:0:0:
192,192,16337,128,0,16475:0:0:0:0:
64,192,16613,128,0,16750:0:0:0:0:
448,192,16613,1,0,0:0:0:70:kick.wav
192,192,16750,128,0,16888:0:0:0:0:
320,192,16888,128,0,17026:0:0:0:0:
448,192,17026,128,0,17163:0:0:0:0:
64,192,17163,128,0,17301:0:0:0:70:snare.wav
192,192,17163,1,0,0:0:0:0:
320,192,17163,1,0,0:0:0:0:
320,192,17301,128,0,17439:0:0:0:0:
192,192,17439,128,0,17576:0:0:0:0:
448,192,17576,128,0,17714:0:0:0:0:
64,192,17714,1,0,0:0:0:70:snare.wav
192,192,17714,1,0,0:0:0:0:
320,192,17714,1,0,0:0:0:0:
320,192,17851,1,0,0:0:0:70:snare.wav
448,192,17851,1,0,0:0:0:0:
192,192,17851,1,0,0:0:0:0:
64,192,17989,128,0,18127:0:0:0:0:
192,192,18127,128,0,18264:0:0:0:0:
64,192,18264,1,0,0:0:0:70:snare.wav
320,192,18264,1,0,0:0:0:0:
448,192,18264,128,0,18402:0:0:0:0:
320,192,18402,128,0,18540:0:0:0:0:
192,192,18540,128,0,18677:0:0:0:0:
448,192,18677,128,0,18815:0:0:0:0:
64,192,18815,1,0,0:0:0:70:cymbal.wav
192,192,18815,1,0,0:0:0:0:
320,192,18815,128,0,18953:0:0:0:0:
192,192,18953,128,0,19090:0:0:0:0:
64,192,19090,128,0,19228:0:0:0:0:
192,192,19366,128,0,19503:0:0:0:0:
448,192,19503,128,0,19641:0:0:0:0:
64,192,19641,1,0,0:0:0:70:kick.wav
448,192,19779,128,0,19916:0:0:0:0:
320,192,19916,1,0,0:0:0:0:
64,192,19916,1,0,0:0:0:70:cymbal two.wav
192,192,20054,128,0,20192:0:0:0:0:
64,192,20192,128,0,20329:0:0:0:0:
320,192,20467,128,0,20605:0:0:0:0:
448,192,20605,128,0,20742:0:0:0:0:
192,192,20742,128,0,20880:0:0:0:0:
64,192,21017,1,0,0:0:0:70:kick.wav
320,192,21017,128,0,21155:0:0:0:0:
448,192,21155,128,0,21293:0:0:0:0:
64,192,21293,128,0,21430:0:0:0:0:
192,192,21568,128,0,21706:0:0:0:0:
320,192,21706,128,0,21843:0:0:0:0:
64,192,21843,1,0,0:0:0:70:kick.wav
320,192,21981,128,0,22119:0:0:0:0:
192,192,22119,1,0,0:0:0:70:cymbal two.wav
448,192,22119,1,0,0:0:0:0:
64,192,22256,128,0,22394:0:0:0:0:
192,192,22394,128,0,22532:0:0:0:0:
448,192,22669,128,0,22807:0:0:0:0:
320,192,22807,128,0,22945:0:0:0:0:
192,192,22945,128,0,23082:0:0:0:0:
64,192,23082,128,0,23220:0:0:0:0:
320,192,23220,128,0,23358:0:0:0:0:
448,192,23220,1,0,0:0:0:70:kick.wav
192,192,23358,128,0,23495:0:0:0:0:
448,192,23495,128,0,23633:0:0:0:0:
64,192,23771,128,0,23908:0:0:0:0:
192,192,23908,128,0,24046:0:0:0:0:
448,192,24046,1,0,0:0:0:70:kick.wav
192,192,24183,128,0,24321:0:0:0:0:
320,192,24321,1,0,0:0:0:70:cymbal two.wav
448,192,24321,1,0,0:0:0:0:
448,192,24459,128,0,24596:0:0:0:0:
320,192,24596,128,0,24734:0:0:0:0:
64,192,24734,1,0,0:0:0:70:kick.wav
192,192,24734,1,0,0:0:0:0:
192,192,24872,128,0,25009:0:0:0:0:
448,192,25009,128,0,25147:0:0:0:0:
64,192,25147,128,0,25285:0:0:0:0:
320,192,25147,1,0,0:0:0:70:kick.wav
320,192,25422,1,0,0:0:0:70:snare.wav
448,192,25422,1,0,0:0:0:0:
192,192,25422,1,0,0:0:0:0:
64,192,25560,1,0,0:0:0:0:
192,192,25560,1,0,0:0:0:70:snare.wav
448,192,25560,1,0,0:0:0:0:
192,192,25835,1,0,0:0:0:70:snare.wav
320,192,25835,1,0,0:0:0:0:
64,192,25835,1,0,0:0:0:0:
64,192,25973,1,0,0:0:0:70:snare.wav
448,192,25973,128,0,26111:0:0:0:0:
320,192,25973,1,0,0:0:0:0:
320,192,26111,128,0,26248:0:0:0:0:
64,192,26248,128,0,26386:0:0:0:0:
192,192,26386,128,0,26524:0:0:0:0:
448,192,26524,128,0,26661:0:0:0:70:drum thing.wav
320,192,26730,128,0,26799:0:0:0:70:drum thing.wav
192,192,26868,128,0,27074:0:0:0:70:drum thing.wav
320,192,27074,128,0,27350:0:0:0:70:drum thing.wav
64,192,27350,128,0,27625:0:0:0:70:drum thing.wav
192,192,27625,1,0,0:0:0:70:cymbal.wav
320,192,27625,1,0,0:0:0:0:
448,192,27625,1,0,0:0:0:0:
448,192,27762,1,0,0:0:0:0:
192,192,27900,1,0,0:0:0:0:
64,192,28175,1,0,0:0:0:70:snare.wav
320,192,28175,1,0,0:0:0:0:
448,192,28175,1,0,0:0:0:0:
192,192,28313,1,0,0:0:0:0:
64,192,28588,1,0,0:0:0:0:
192,192,28726,1,0,0:0:0:70:kick.wav
448,192,28726,1,0,0:0:0:0:
320,192,28864,1,0,0:0:0:0:
448,192,29001,1,0,0:0:0:0:
64,192,29277,1,0,0:0:0:70:snare.wav
192,192,29277,1,0,0:0:0:0:
448,192,29277,1,0,0:0:0:0:
320,192,29414,1,0,0:0:0:0:
192,192,29552,1,0,0:0:0:0:
64,192,29827,1,0,0:0:0:70:kick.wav
320,192,29827,1,0,0:0:0:0:
64,192,29965,1,0,0:0:0:0:
448,192,30103,1,0,0:0:0:0:
192,192,30378,1,0,0:0:0:70:snare.wav
320,192,30378,1,0,0:0:0:0:
448,192,30378,1,0,0:0:0:0:
64,192,30516,1,0,0:0:0:0:
448,192,30791,1,0,0:0:0:0:
192,192,30928,1,0,0:0:0:70:kick.wav
320,192,30928,1,0,0:0:0:0:
64,192,31066,1,0,0:0:0:0:
192,192,31204,1,0,0:0:0:0:
64,192,31479,1,0,0:0:0:70:cymbal two.wav
320,192,31479,1,0,0:0:0:0:
448,192,31479,1,0,0:0:0:0:
192,192,31617,1,0,0:0:0:0:
448,192,31754,1,0,0:0:0:0:
320,192,31892,1,0,0:0:0:0:
64,192,32030,1,0,0:0:0:70:kick.wav
192,192,32030,1,0,0:0:0:0:
192,192,32167,1,0,0:0:0:0:
448,192,32305,1,0,0:0:0:0:
64,192,32580,1,0,0:0:0:70:snare.wav
320,192,32580,1,0,0:0:0:0:
192,192,32580,1,0,0:0:0:0:
448,192,32718,1,0,0:0:0:0:
64,192,32993,1,0,0:0:0:0:
192,192,33131,1,0,0:0:0:70:kick.wav
320,192,33131,1,0,0:0:0:0:
448,192,33269,1,0,0:0:0:0:
320,192,33406,1,0,0:0:0:0:
64,192,33682,1,0,0:0:0:70:snare.wav
192,192,33682,1,0,0:0:0:0:
448,192,33682,1,0,0:0:0:0:
320,192,33819,1,0,0:0:0:0:
192,192,33957,1,0,0:0:0:0:
64,192,34232,1,0,0:0:0:70:kick.wav
448,192,34232,1,0,0:0:0:0:
64,192,34370,1,0,0:0:0:0:
448,192,34507,1,0,0:0:0:0:
448,192,34645,1,0,0:0:0:0:
64,192,34783,1,0,0:0:0:70:snare.wav
192,192,34783,1,0,0:0:0:0:
320,192,34783,1,0,0:0:0:0:
192,192,34920,1,0,0:0:0:0:
320,192,35058,1,0,0:0:0:0:
320,192,35196,1,0,0:0:0:0:
64,192,35333,128,0,35471:0:0:0:70:kick.wav
448,192,35471,128,0,35609:0:0:0:0:
64,192,35609,128,0,35746:0:0:0:0:
192,192,35609,128,0,35746:0:0:0:0:
320,192,35746,128,0,35884:0:0:0:0:
448,192,35746,128,0,35884:0:0:0:0:
64,192,35884,1,0,0:0:0:0:
192,192,35884,1,0,0:0:0:70:snare.wav
448,192,36022,1,0,0:0:0:0:
320,192,36022,1,0,0:0:0:70:snare.wav
64,192,36159,1,0,0:0:0:0:
192,192,36159,128,0,36435:0:0:0:70:snare.wav
64,192,36435,1,0,0:0:0:70:cymbal.wav
320,192,36435,1,0,0:0:0:0:
448,192,36435,1,0,0:0:0:0:
448,192,36572,1,0,0:0:0:0:
192,192,36710,1,0,0:0:0:0:
64,192,36985,1,0,0:0:0:70:snare.wav
192,192,36985,1,0,0:0:0:0:
320,192,36985,1,0,0:0:0:0:
448,192,37123,1,0,0:0:0:0:
64,192,37398,1,0,0:0:0:0:
192,192,37536,1,0,0:0:0:70:kick.wav
320,192,37536,1,0,0:0:0:0:
448,192,37673,1,0,0:0:0:0:
320,192,37811,1,0,0:0:0:0:
64,192,38086,1,0,0:0:0:70:snare.wav
192,192,38086,1,0,0:0:0:0:
448,192,38086,1,0,0:0:0:0:
320,192,38224,1,0,0:0:0:0:
64,192,38362,1,0,0:0:0:0:
192,192,38637,1,0,0:0:0:70:kick.wav
448,192,38637,1,0,0:0:0:0:
192,192,38775,1,0,0:0:0:0:
448,192,38912,1,0,0:0:0:0:
64,192,39188,1,0,0:0:0:70:snare.wav
192,192,39188,1,0,0:0:0:0:
448,192,39188,1,0,0:0:0:0:
320,192,39325,1,0,0:0:0:0:
448,192,39601,1,0,0:0:0:0:
64,192,39738,1,0,0:0:0:70:kick.wav
320,192,39738,1,0,0:0:0:0:
192,192,39876,1,0,0:0:0:0:
448,192,40014,1,0,0:0:0:0:
192,192,40289,1,0,0:0:0:70:cymbal two.wav
320,192,40289,1,0,0:0:0:0:
448,192,40289,1,0,0:0:0:0:
64,192,40426,1,0,0:0:0:0:
192,192,40564,1,0,0:0:0:0:
320,192,40702,1,0,0:0:0:0:
64,192,40839,1,0,0:0:0:70:kick.wav
448,192,40839,1,0,0:0:0:0:
64,192,40977,1,0,0:0:0:0:
320,192,41115,1,0,0:0:0:0:
64,192,41390,1,0,0:0:0:70:snare.wav
192,192,41390,1,0,0:0:0:0:
320,192,41390,1,0,0:0:0:0:
448,192,41528,1,0,0:0:0:0:
64,192,41803,1,0,0:0:0:0:
192,192,41941,1,0,0:0:0:70:kick.wav
320,192,41941,1,0,0:0:0:0:
448,192,42078,1,0,0:0:0:0:
192,192,42216,1,0,0:0:0:0:
64,192,42491,1,0,0:0:0:70:snare.wav
192,192,42491,1,0,0:0:0:0:
320,192,42491,1,0,0:0:0:0:
448,192,42629,1,0,0:0:0:0:
320,192,42767,1,0,0:0:0:0:
192,192,43042,1,0,0:0:0:70:kick.wav
448,192,43042,1,0,0:0:0:0:
192,192,43180,1,0,0:0:0:0:
320,192,43317,1,0,0:0:0:0:
320,192,43455,1,0,0:0:0:0:
64,192,43593,1,0,0:0:0:70:snare.wav
192,192,43593,1,0,0:0:0:0:
448,192,43593,1,0,0:0:0:0:
64,192,43730,1,0,0:0:0:0:
448,192,43868,1,0,0:0:0:0:
448,192,44005,1,0,0:0:0:0:
64,192,44143,1,0,0:0:0:70:snare.wav
192,192,44143,1,0,0:0:0:0:
320,192,44143,1,0,0:0:0:0:
192,192,44281,1,0,0:0:0:70:snare.wav
320,192,44281,1,0,0:0:0:0:
448,192,44281,1,0,0:0:0:0:
64,192,44694,1,0,0:0:0:70:snare.wav
192,192,44694,1,0,0:0:0:0:
448,192,44694,1,0,0:0:0:0:
64,192,44831,1,0,0:0:0:70:snare.wav
320,192,44831,1,0,0:0:0:0:
448,192,44831,1,0,0:0:0:0:
64,192,45107,1,0,0:0:0:70:snare.wav
192,192,45107,1,0,0:0:0:0:
320,192,45107,1,0,0:0:0:0:
448,192,45244,1,0,0:0:0:0:
192,192,45244,1,0,0:0:0:70:snare.wav
320,192,45382,1,0,0:0:0:0:
64,192,45520,1,0,0:0:0:0:
192,192,45657,1,0,0:0:0:0:
320,192,45795,1,0,0:0:0:0:
64,192,45933,1,0,0:0:0:0:
448,192,46070,1,0,0:0:0:0:
320,192,46208,1,0,0:0:0:0:
64,192,46346,1,0,0:0:0:0:
192,192,46483,1,0,0:0:0:0:
320,192,46621,1,0,0:0:0:0:
448,192,46759,1,0,0:0:0:0:
320,192,46896,1,0,0:0:0:0:
64,192,47034,1,0,0:0:0:0:
192,192,47171,1,0,0:0:0:0:
448,192,47309,1,0,0:0:0:0:
320,192,47447,1,0,0:0:0:0:
192,192,47584,1,0,0:0:0:0:
64,192,47722,1,0,0:0:0:0:
320,192,47860,1,0,0:0:0:0:
192,192,47997,1,0,0:0:0:0:
448,192,48135,1,0,0:0:0:0:
64,192,48273,1,0,0:0:0:0:
320,192,48410,1,0,0:0:0:0:
192,192,48548,1,0,0:0:0:0:
64,192,48686,1,0,0:0:0:0:
320,192,48823,1,0,0:0:0:0:
448,192,48961,1,0,0:0:0:0:
192,192,49099,1,0,0:0:0:0:
64,192,49236,1,0,0:0:0:0:
448,192,49374,1,0,0:0:0:0:
320,192,49512,1,0,0:0:0:0:
192,192,49649,1,0,0:0:0:0:
64,192,49787,1,0,0:0:0:0:
320,192,49925,128,0,50200:0:0:0:0:
64,192,50200,1,0,0:0:0:0:
448,192,50337,1,0,0:0:0:0:
320,192,50475,1,0,0:0:0:0:
64,192,50613,1,0,0:0:0:0:
448,192,50750,1,0,0:0:0:0:
192,192,50888,1,0,0:0:0:0:
64,192,51026,1,0,0:0:0:0:
448,192,51163,1,0,0:0:0:0:
192,192,51301,1,0,0:0:0:0:
320,192,51439,1,0,0:0:0:0:
192,192,51576,128,0,51852:0:0:0:0:
448,192,51852,128,0,51920:0:0:0:0:
320,192,51920,128,0,51989:0:0:0:0:
64,192,51989,128,0,52058:0:0:0:0:
192,192,52058,128,0,52127:0:0:0:0:
320,192,52127,128,0,52196:0:0:0:0:
320,192,52265,128,0,52333:0:0:0:0:
192,192,52402,128,0,52471:0:0:0:0:
192,192,52540,128,0,52609:0:0:0:0:
448,192,52678,128,0,52746:0:0:0:0:
448,192,52815,128,0,52884:0:0:0:0:
64,192,52953,128,0,53045:0:0:0:0:
320,192,53045,128,0,53136:0:0:0:0:
64,192,53136,128,0,53228:0:0:0:0:
448,192,53228,128,0,53320:0:0:0:0:
192,192,53320,128,0,53412:0:0:0:0:
448,192,53412,128,0,53503:0:0:0:0:
320,192,53503,128,0,53641:0:0:0:0:
64,192,53641,128,0,53779:0:0:0:0:
448,192,53779,128,0,53916:0:0:0:0:
192,192,53916,128,0,54054:0:0:0:0:
64,192,54054,1,0,0:0:0:70:drum thing.wav
448,192,54054,128,0,54329:0:0:0:0:
320,192,54329,128,0,54605:0:0:0:70:drum thing.wav
64,192,54605,1,0,0:0:0:70:drum thing.wav
448,192,54605,128,0,55155:0:0:0:0:
192,192,54742,1,0,0:0:0:70:drum thing.wav
320,192,54880,128,0,55155:0:0:0:70:drum thing.wav
64,192,55155,1,0,0:0:0:70:drum thing.wav
192,192,55155,128,0,55339:0:0:0:0:
448,192,55339,1,0,0:0:0:70:drum thing.wav
320,192,55385,1,0,0:0:0:70:drum thing.wav
64,192,55477,1,0,0:0:0:70:drum thing.wav
192,192,55522,1,0,0:0:0:70:drum thing.wav
320,192,55683,128,0,55775:0:0:0:70:drum thing.wav
448,192,55683,128,0,55775:0:0:0:0:
64,192,55844,128,0,56050:0:0:0:70:drum thing.wav
192,192,55844,128,0,56050:0:0:0:0:
320,192,56084,128,0,56188:0:0:0:70:drum thing.wav
448,192,56084,128,0,56188:0:0:0:0:
448,192,56257,1,0,0:0:0:0:
320,192,56257,1,0,0:0:0:0:
64,192,56257,128,0,56532:0:0:0:70:cymbal.wav
320,192,56532,128,0,56807:0:0:0:0:
192,192,56807,128,0,56945:0:0:0:0:
448,192,56945,128,0,57082:0:0:0:0:
448,192,57220,128,0,57358:0:0:0:0:
64,192,57358,1,0,0:0:0:70:cymbal two.wav
192,192,57358,1,0,0:0:0:0:
320,192,57358,1,0,0:0:0:0:
320,192,57495,128,0,57633:0:0:0:0:
192,192,57633,128,0,57771:0:0:0:0:
64,192,57908,128,0,58046:0:0:0:0:
192,192,58046,128,0,58184:0:0:0:0:
320,192,58184,128,0,58459:0:0:0:0:
64,192,58459,1,0,0:0:0:70:kick.wav
448,192,58459,1,0,0:0:0:0:
320,192,58734,1,0,0:0:0:0:
192,192,58872,1,0,0:0:0:0:
64,192,59010,1,0,0:0:0:70:snare.wav
320,192,59010,1,0,0:0:0:0:
448,192,59010,1,0,0:0:0:0:
192,192,59147,1,0,0:0:0:0:
320,192,59285,1,0,0:0:0:0:
448,192,59423,1,0,0:0:0:0:
64,192,59560,1,0,0:0:0:70:kick.wav
192,192,59560,1,0,0:0:0:0:
320,192,59698,1,0,0:0:0:0:
64,192,59836,1,0,0:0:0:70:snare.wav
192,192,59836,1,0,0:0:0:0:
448,192,59836,1,0,0:0:0:0:
320,192,59973,1,0,0:0:0:0:
64,192,60111,1,0,0:0:0:70:kick.wav
448,192,60111,1,0,0:0:0:0:
192,192,60248,1,0,0:0:0:0:
320,192,60386,1,0,0:0:0:0:
64,192,60524,1,0,0:0:0:0:
320,192,60661,128,0,60937:0:0:0:0:
192,192,60661,1,0,0:0:0:0:
64,192,60937,128,0,61212:0:0:0:0:
192,192,61212,128,0,61487:0:0:0:70:snare.wav
448,192,61212,1,0,0:0:0:0:
320,192,61487,1,0,0:0:0:70:kick.wav
448,192,61487,1,0,0:0:0:0:
320,192,61625,1,0,0:0:0:70:kick.wav
448,192,61625,1,0,0:0:0:0:
64,192,61763,1,0,0:0:0:0:
192,192,61763,1,0,0:0:0:70:kick.wav
64,192,61900,1,0,0:0:0:0:
192,192,61900,1,0,0:0:0:70:kick.wav
320,192,62038,1,0,0:0:0:70:kick.wav
448,192,62038,1,0,0:0:0:0:
320,192,62176,1,0,0:0:0:70:kick.wav
448,192,62176,1,0,0:0:0:0:
320,192,62313,1,0,0:0:0:0:
448,192,62313,1,0,0:0:0:0:
64,192,62313,128,0,62864:0:0:0:70:snare.wav
192,192,62589,1,0,0:0:0:0:
320,192,62864,128,0,63414:0:0:0:70:kick.wav
448,192,62864,1,0,0:0:0:0:
192,192,63139,1,0,0:0:0:70:snare.wav
64,192,63139,1,0,0:0:0:0:
64,192,63414,1,0,0:0:0:0:
448,192,63414,128,0,63965:0:0:0:0:
192,192,63690,1,0,0:0:0:0:
64,192,63965,128,0,64240:0:0:0:0:
320,192,63965,1,0,0:0:0:0:
192,192,64240,1,0,0:0:0:70:snare.wav
320,192,64240,1,0,0:0:0:0:
448,192,64240,1,0,0:0:0:0:
192,192,64516,1,0,0:0:0:70:drum thing.wav
448,192,64516,1,0,0:0:0:0:
64,192,64585,128,0,64722:0:0:0:70:drum thing.wav
320,192,64585,128,0,64722:0:0:0:0:
192,192,64791,128,0,65066:0:0:0:70:drum thing.wav
448,192,64791,128,0,65066:0:0:0:0:
64,192,65066,128,0,65342:0:0:0:70:drum thing.wav
320,192,65066,1,0,0:0:0:0:
320,192,65342,128,0,65617:0:0:0:70:drum thing.wav
448,192,65342,1,0,0:0:0:0:
64,192,65617,1,0,0:0:0:70:cymbal.wav
192,192,65617,1,0,0:0:0:0:
448,192,65617,1,0,0:0:0:0:
192,192,65892,1,0,0:0:0:0:
64,192,66168,1,0,0:0:0:70:kick.wav
320,192,66168,1,0,0:0:0:0:
448,192,66168,128,0,66443:0:0:0:0:
192,192,66443,1,0,0:0:0:70:snare.wav
320,192,66443,1,0,0:0:0:0:
64,192,66718,128,0,66856:0:0:0:0:
192,192,66718,128,0,66856:0:0:0:70:drum thing.wav
192,192,66925,128,0,67062:0:0:0:0:
320,192,66925,128,0,67062:0:0:0:70:drum thing.wav
320,192,67131,128,0,67269:0:0:0:0:
448,192,67131,128,0,67269:0:0:0:70:drum thing.wav
64,192,67269,128,0,67819:0:0:0:70:kick.wav
192,192,67269,1,0,0:0:0:0:
448,192,67544,1,0,0:0:0:0:
192,192,67819,128,0,68370:0:0:0:70:snare.wav
320,192,67819,1,0,0:0:0:0:
448,192,67819,1,0,0:0:0:0:
64,192,68095,1,0,0:0:0:0:
320,192,68370,128,0,68921:0:0:0:70:kick.wav
448,192,68370,1,0,0:0:0:0:
64,192,68645,1,0,0:0:0:0:
64,192,68921,1,0,0:0:0:70:snare.wav
192,192,68921,1,0,0:0:0:0:
448,192,68921,128,0,69471:0:0:0:0:
192,192,69196,1,0,0:0:0:0:
64,192,69471,128,0,70572:0:0:0:70:kick.wav
320,192,69471,1,0,0:0:0:0:
192,192,69746,1,0,0:0:0:0:
320,192,70022,1,0,0:0:0:70:snare.wav
448,192,70022,1,0,0:0:0:0:
192,192,70297,1,0,0:0:0:0:
320,192,70572,1,0,0:0:0:70:kick.wav
448,192,70572,128,0,71674:0:0:0:0:
192,192,70848,1,0,0:0:0:0:
64,192,71123,1,0,0:0:0:70:snare.wav
320,192,71123,1,0,0:0:0:0:
192,192,71398,1,0,0:0:0:0:
64,192,71674,1,0,0:0:0:70:snare.wav
192,192,71674,1,0,0:0:0:0:
320,192,71674,128,0,72775:0:0:0:0:
448,192,71949,1,0,0:0:0:0:
64,192,72224,1,0,0:0:0:70:snare.wav
192,192,72224,1,0,0:0:0:0:
192,192,72500,1,0,0:0:0:0:
64,192,72775,1,0,0:0:0:70:snare.wav
192,192,72775,128,0,73876:0:0:0:0:
448,192,72775,1,0,0:0:0:0:
64,192,73050,1,0,0:0:0:70:snare.wav
448,192,73050,1,0,0:0:0:0:
320,192,73325,1,0,0:0:0:70:snare.wav
448,192,73325,1,0,0:0:0:0:
320,192,73463,1,0,0:0:0:70:snare.wav
448,192,73463,1,0,0:0:0:0:
64,192,73601,1,0,0:0:0:70:snare.wav
64,192,73876,128,0,74151:0:0:0:70:cymbal.wav
320,192,73876,1,0,0:0:0:0:
448,192,73876,1,0,0:0:0:0:
448,192,74151,1,0,0:0:0:0:
192,192,74289,1,0,0:0:0:0:
64,192,74427,1,0,0:0:0:70:snare.wav
320,192,74427,1,0,0:0:0:0:
448,192,74564,1,0,0:0:0:0:
192,192,74702,1,0,0:0:0:0:
64,192,74840,1,0,0:0:0:0:
320,192,74977,1,0,0:0:0:70:kick.wav
448,192,74977,1,0,0:0:0:0:
192,192,75115,1,0,0:0:0:0:
448,192,75253,1,0,0:0:0:0:
320,192,75390,1,0,0:0:0:0:
64,192,75528,1,0,0:0:0:70:snare.wav
192,192,75528,1,0,0:0:0:0:
448,192,75666,1,0,0:0:0:0:
320,192,75803,1,0,0:0:0:0:
192,192,75941,1,0,0:0:0:0:
64,192,76079,128,0,76354:0:0:0:70:cymbal.wav
320,192,76079,1,0,0:0:0:0:
448,192,76079,1,0,0:0:0:0:
192,192,76354,1,0,0:0:0:0:
320,192,76491,1,0,0:0:0:0:
64,192,76629,1,0,0:0:0:70:snare.wav
448,192,76629,1,0,0:0:0:0:
320,192,76767,1,0,0:0:0:0:
192,192,76904,1,0,0:0:0:0:
64,192,77042,1,0,0:0:0:0:
320,192,77180,1,0,0:0:0:70:kick.wav
448,192,77180,1,0,0:0:0:0:
192,192,77317,1,0,0:0:0:0:
64,192,77455,1,0,0:0:0:0:
320,192,77593,1,0,0:0:0:0:
64,192,77730,1,0,0:0:0:70:drum thing.wav
448,192,77730,128,0,77822:0:0:0:70:cymbal two.wav
320,192,77822,128,0,77914:0:0:0:70:drum thing.wav
64,192,77914,128,0,78006:0:0:0:70:drum thing.wav
192,192,78006,128,0,78097:0:0:0:70:drum thing.wav
448,192,78097,128,0,78189:0:0:0:70:drum thing.wav
320,192,78189,128,0,78281:0:0:0:70:drum thing.wav
64,192,78281,128,0,78556:0:0:0:70:cymbal.wav
192,192,78281,1,0,0:0:0:0:
448,192,78281,1,0,0:0:0:0:
192,192,78556,1,0,0:0:0:0:
320,192,78694,1,0,0:0:0:0:
64,192,78832,1,0,0:0:0:70:snare.wav
448,192,78832,1,0,0:0:0:0:
192,192,78969,1,0,0:0:0:0:
320,192,79107,1,0,0:0:0:0:
64,192,79245,1,0,0:0:0:0:
192,192,79382,1,0,0:0:0:70:kick.wav
448,192,79382,1,0,0:0:0:0:
320,192,79520,1,0,0:0:0:0:
192,192,79657,1,0,0:0:0:0:
448,192,79795,1,0,0:0:0:0:
64,192,79933,1,0,0:0:0:70:snare.wav
320,192,79933,1,0,0:0:0:0:
448,192,80070,1,0,0:0:0:0:
192,192,80208,1,0,0:0:0:0:
320,192,80346,1,0,0:0:0:0:
64,192,80483,1,0,0:0:0:70:cymbal.wav
192,192,80483,1,0,0:0:0:0:
448,192,80483,128,0,80759:0:0:0:0:
320,192,80759,1,0,0:0:0:0:
64,192,80896,1,0,0:0:0:0:
192,192,81034,1,0,0:0:0:70:snare.wav
448,192,81034,1,0,0:0:0:0:
320,192,81172,1,0,0:0:0:0:
192,192,81309,1,0,0:0:0:0:
448,192,81447,1,0,0:0:0:0:
64,192,81585,1,0,0:0:0:70:kick.wav
320,192,81585,1,0,0:0:0:0:
192,192,81722,1,0,0:0:0:0:
320,192,81860,1,0,0:0:0:0:
448,192,81998,1,0,0:0:0:0:
64,192,82135,1,0,0:0:0:70:snare.wav
192,192,82135,1,0,0:0:0:0:
320,192,82273,1,0,0:0:0:0:
448,192,82411,1,0,0:0:0:0:
192,192,82548,1,0,0:0:0:0:
64,192,82686,128,0,87091:0:0:0:70:cymbal.wav
320,192,82686,1,0,0:0:0:0:
448,192,82686,128,0,87091:0:0:0:0:
