osu file format v14

[General]
AudioFilename: audio.mp3
AudioLeadIn: 0
PreviewTime: 54034
Countdown: 0
SampleSet: Soft
StackLeniency: 0.7
Mode: 2
LetterboxInBreaks: 0
WidescreenStoryboard: 0

[Editor]
DistanceSpacing: 1
BeatDivisor: 16
GridSize: 4
TimelineZoom: 3.299999

[Metadata]
Title:BRYNHILDR IN THE DARKNESS -Ver. EJECTED- (TV Size)
TitleUnicode:BRYNHILDR IN THE DARKNESS -Ver. EJECTED- (TV Size)
Artist:Tokisawa Nao
ArtistUnicode:鴇沢直
Creator:Kukkai
Version:OVERDOSE
Source:極黒のブリュンヒルデ
Tags:op opening gokukoku no buryunhirude theme Anime Instrumental Electronic
BeatmapID:3452273
BeatmapSetID:1689353

[Difficulty]
HPDrainRate:6
CircleSize:4.2
OverallDifficulty:9.4
ApproachRate:9.4
SliderMultiplier:2.1
SliderTickRate:2

[Events]
//Background and Video events
0,0,"bgg.jpg",0,0
//Break Periods
//Storyboard Layer 0 (Background)
//Storyboard Layer 1 (Fail)
//Storyboard Layer 2 (Pass)
//Storyboard Layer 3 (Foreground)
//Storyboard Layer 4 (Overlay)
//Storyboard Sound Samples

[TimingPoints]
294,303.030303030303,4,2,1,40,1,0
294,-100,4,2,1,40,0,0
5142,-100,4,2,1,45,0,0
6354,-100,4,2,1,50,0,0
7566,-100,4,2,1,55,0,0
8475,-100,4,2,1,60,0,0
9998,550.45871559633,4,2,1,70,1,0
9998,-100,4,2,1,70,0,0
11098,-58.8235294117647,4,2,1,70,0,0
26511,-58.8235294117647,4,2,1,70,0,0
27612,-58.8235294117647,4,2,1,70,0,0
45227,-66.6666666666667,4,2,1,40,0,0
49631,-62.5,4,2,1,40,0,0
54034,-100,4,2,1,40,0,0
56236,550.45871559633,4,2,1,70,1,0
56236,-58.8235294117647,4,2,1,70,0,1
64217,-30.3030303030303,4,2,1,70,0,1
64492,-58.8235294117647,4,2,1,70,0,1
66694,-41.6666666666667,4,2,1,70,0,1
67245,-58.8235294117647,4,2,1,70,0,1
73850,-100,4,2,1,70,0,0

[Colours]
Combo1 : 139,116,173
Combo2 : 186,181,152
Combo3 : 188,92,109
Combo4 : 133,156,138

[HitObjects]
284,340,294,6,0,L|284:224,1,105,2|0,1:2|0:2,0:2:0:0:
189,231,597,2,0,L|189:91,1,105,2|0,0:2|0:2,0:2:0:0:
284,124,900,2,0,L|388:60,1,105,2|0,0:2|0:2,0:2:0:0:
284,124,1203,2,0,L|180:188,1,105,2|0,0:2|0:2,0:2:0:0:
353,328,1506,6,0,L|353:204,1,105,2|0,0:2|0:2,0:2:0:0:
258,223,1809,2,0,L|143:171,1,105,2|0,0:2|0:2,0:2:0:0:
256,173,2112,2,0,L|256:41,1,105,2|0,0:2|0:2,0:2:0:0:
161,69,2415,2,0,L|42:122,1,105,2|0,0:2|0:2,0:2:0:0:
220,344,2718,6,0,L|364:344,1,105,2|0,0:2|0:2,0:2:0:0:
220,344,3021,2,0,L|220:220,1,105,2|0,0:2|0:2,0:2:0:0:
324,240,3324,2,0,L|200:240,1,105,2|0,0:2|0:2,0:2:0:0:
324,240,3627,2,0,L|324:124,1,105,2|0,0:2|0:2,0:2:0:0:
164,136,3930,6,0,L|48:136,1,105,2|0,0:2|0:2,0:2:0:0:
164,136,4233,2,0,L|276:136,1,105,2|0,0:2|0:2,0:2:0:0:
164,136,4536,2,0,L|164:244,1,105,2|0,0:2|0:2,0:2:0:0:
268,240,4839,2,0,L|268:120,1,105,2|0,0:2|0:2,0:2:0:0:
24,348,5142,6,0,L|136:348,1,105,2|0,0:2|0:2,0:2:0:0:
236,348,5445,2,0,L|236:228,1,105,2|0,0:2|0:2,0:2:0:0:
132,252,5748,2,0,L|248:252,1,105,2|0,0:2|0:2,0:2:0:0:
132,252,6051,2,0,L|132:120,1,105,2|0,0:2|0:2,0:2:0:0:
292,256,6354,6,0,L|404:256,1,105,2|0,0:2|0:2,0:2:0:0:
292,256,6657,2,0,L|180:256,1,105,2|0,0:2|0:2,0:2:0:0:
292,256,6960,2,0,L|292:140,1,105,2|0,0:2|0:2,0:2:0:0:
188,156,7263,2,0,L|188:40,1,105,2|0,0:2|0:2,0:2:0:0:
440,260,7566,6,0,L|324:260,1,105,2|0,0:2|0:2,0:2:0:0:
228,260,7869,2,0,L|228:144,1,105,2|0,0:2|0:2,0:2:0:0:
332,152,8172,1,2,0:2:0:0:
436,152,8324,2,0,L|436:40,1,105,0|2,0:2|0:2,0:2:0:0:
56,240,8703,6,0,L|24:240,4,26.25,0|0|0|0|0,0:1|0:1|0:1|0:1|0:1,0:1:0:0:
160,240,9006,1,0,0:1:0:0:
368,256,9157,5,0,0:1:0:0:
393,256,9194,1,0,0:1:0:0:
417,245,9232,1,0,0:1:0:0:
433,225,9270,1,0,0:1:0:0:
438,199,9308,1,0,0:1:0:0:
430,174,9346,1,0,0:1:0:0:
412,156,9384,1,0,0:1:0:0:
388,147,9422,1,0,0:1:0:0:
362,151,9460,1,0,0:1:0:0:
496,108,9612,2,0,L|496:36,1,52.5,0|0,0:1|0:1,0:1:0:0:
128,204,9998,6,2,L|128:80,1,105,4|2,1:1|0:2,0:2:0:0:
360,208,10548,2,2,L|360:112,1,52.5,2|2,0:2|0:2,0:2:0:0:
152,96,10961,1,2,0:2:0:0:
376,88,11098,6,2,L|472:88,2,89.2500017023087,14|2|2,0:2|0:2|0:2,0:2:0:0:
208,88,11649,1,2,0:2:0:0:
292,88,11786,1,2,0:2:0:0:
376,88,11924,1,2,0:2:0:0:
120,296,12199,6,2,L|328:296,1,178.500003404617,2|2,1:2|0:2,0:2:0:0:
120,296,12750,2,2,L|120:196,1,89.2500017023087,2|2,0:2|0:2,0:2:0:0:
288,212,13163,1,2,0:2:0:0:
32,168,13300,6,2,L|32:52,1,89.2500017023087,14|2,0:2|0:2,0:2:0:0:
116,88,13575,1,2,0:2:0:0:
284,80,13851,1,2,0:2:0:0:
200,80,13988,1,2,0:2:0:0:
116,80,14126,1,2,0:2:0:0:
116,80,14264,1,2,0:2:0:0:
348,336,14401,6,2,L|144:336,1,178.500003404617,2|2,1:2|0:2,0:2:0:0:
348,336,14952,2,2,L|348:244,1,89.2500017023087,2|2,0:2|0:2,0:2:0:0:
180,256,15364,1,2,0:2:0:0:
428,248,15502,6,2,L|428:148,1,89.2500017023087,14|2,0:2|0:2,0:2:0:0:
344,160,15777,1,2,0:2:0:0:
176,160,16053,2,2,L|52:160,2,89.2500017023087,2|2|2,0:2|0:2|0:2,0:2:0:0:
420,356,16603,6,2,P|468:304|408:232,1,178.500003404617,2|2,1:2|0:2,0:2:0:0:
156,244,17153,2,2,P|104:196|168:124,1,178.500003404617,10|2,0:2|0:2,0:2:0:0:
416,244,17704,5,10,0:2:0:0:
156,244,17842,1,8,0:2:0:0:
152,176,17979,1,2,0:2:0:0:
488,76,18254,2,2,L|488:272,1,178.500003404617,10|2,0:2|0:2,0:2:0:0:
32,128,18805,6,0,L|232:128,1,178.500003404617,4|2,1:1|0:2,0:2:0:0:
32,124,19355,2,2,L|32:236,1,89.2500017023087,2|2,0:2|0:2,0:2:0:0:
116,212,19631,1,2,0:2:0:0:
472,212,19906,5,14,0:2:0:0:
388,212,20043,1,2,0:2:0:0:
304,212,20181,1,2,0:2:0:0:
472,212,20456,2,2,L|472:100,1,89.2500017023087,2|2,0:2|0:2,0:2:0:0:
388,128,20731,1,2,0:2:0:0:
140,320,21007,6,2,P|92:256|160:184,1,178.500003404617,2|2,1:2|0:2,0:2:0:0:
316,208,21557,1,2,0:2:0:0:
400,208,21695,2,2,L|400:104,1,89.2500017023087,2|2,0:2|0:2,0:2:0:0:
20,112,22108,5,14,0:2:0:0:
104,112,22245,1,2,0:2:0:0:
188,112,22383,1,2,0:2:0:0:
20,112,22658,2,2,L|20:212,1,89.2500017023087,2|2,0:2|0:2,0:2:0:0:
109,201,22933,2,2,L|9:201,1,89.2500017023087,2|2,0:2|0:2,0:2:0:0:
256,268,23209,6,2,P|304:248|248:172,1,178.500003404617,2|2,1:2|0:2,0:2:0:0:
60,168,23759,2,2,L|60:64,1,89.2500017023087,2|2,0:2|0:2,0:2:0:0:
144,84,24034,1,2,1:2:0:0:
496,216,24309,6,0,L|296:216,1,178.500003404617,14|2,0:2|0:2,0:2:0:0:
232,216,24722,2,0,L|436:216,1,178.500003404617,2|2,0:2|0:2,0:2:0:0:
496,216,25135,1,2,0:2:0:0:
136,120,25410,5,10,1:2:0:0:
376,124,25548,1,8,0:2:0:0:
197,267,25823,1,8,0:2:0:0:
281,267,25961,1,2,1:2:0:0:
197,267,26098,1,0,0:2:0:0:
113,267,26236,2,0,L|112:176,1,89.2500017023087,2|0,0:2|0:2,0:2:0:0:
412,48,26511,6,0,L|436:48,2,22.3125004255772,0|0|0,0:1|0:1|0:1,0:1:0:0:
308,48,26718,1,0,0:1:0:0:
92,340,26855,2,0,L|56:340,4,22.3125004255772,0|0|0|0|0,0:1|0:1|0:1|0:1|0:1,0:1:0:0:
264,316,27061,5,0,0:1:0:0:
292,316,27096,1,0,0:1:0:0:
316,316,27130,1,0,0:1:0:0:
340,316,27164,1,0,0:1:0:0:
368,316,27199,1,0,0:1:0:0:
340,316,27233,1,0,0:1:0:0:
312,316,27268,1,0,0:1:0:0:
156,280,27337,6,0,P|120:240|168:176,1,133.875002553463
346,362,27612,6,0,P|396:288|316:248,1,178.500003404617,4|2,1:1|0:2,0:2:0:0:
80,244,28163,2,2,L|80:136,1,89.2500017023087,10|2,0:2|0:2,0:2:0:0:
292,140,28575,1,2,0:2:0:0:
80,140,28713,6,2,L|80:32,1,89.2500017023087,2|2,1:2|0:2,0:2:0:0:
184,36,28988,1,2,0:2:0:0:
396,36,29264,2,2,L|496:36,2,89.2500017023087,10|2|2,0:2|0:2|0:2,0:2:0:0:
60,304,29814,6,2,L|300:304,1,178.500003404617,2|2,1:2|0:2,0:2:0:0:
60,304,30365,2,2,L|60:184,1,89.2500017023087,10|2,0:2|0:2,0:2:0:0:
268,216,30778,1,2,0:2:0:0:
29,305,30915,6,2,L|28:184,1,89.2500017023087,2|2,1:2|0:2,0:2:0:0:
137,201,31191,1,2,0:2:0:0:
480,212,31466,1,14,0:2:0:0:
375,212,31604,1,2,0:2:0:0:
272,212,31741,1,2,0:2:0:0:
375,212,31879,1,2,0:2:0:0:
144,364,32017,6,2,L|144:144,1,178.500003404617,2|2,1:2|0:2,0:2:0:0:
352,164,32567,2,2,L|468:164,1,89.2500017023087,10|2,0:2|0:2,0:2:0:0:
248,164,32980,1,2,0:2:0:0:
496,108,33118,5,2,1:2:0:0:
391,108,33255,1,2,0:2:0:0:
286,108,33393,1,2,0:2:0:0:
496,104,33667,2,2,L|496:212,1,89.2500017023087,10|2,0:2|0:2,0:2:0:0:
392,212,33942,1,2,0:2:0:0:
28,236,34219,6,2,L|256:236,1,178.500003404617,2|2,1:2|0:2,0:2:0:0:
28,240,34768,2,2,L|28:36,1,178.500003404617,10|2,0:2|0:2,0:2:0:0:
432,352,35320,5,2,0:2:0:0:
327,352,35457,1,2,0:2:0:0:
432,352,35594,2,2,L|432:236,1,89.2500017023087,2|2,0:2|0:2,0:2:0:0:
160,192,35869,1,8,0:2:0:0:
307,191,36007,1,8,0:2:0:0:
160,192,36144,2,0,L|160:84,1,89.2500017023087,8|0,0:2|0:2,0:2:0:0:
360,176,36420,6,0,L|136:176,2,178.500003404617,4|2|10,1:1|0:2|0:2,0:2:0:0:
256,176,37108,1,2,0:2:0:0:
464,176,37383,1,2,0:2:0:0:
252,312,37520,6,2,L|252:176,1,89.2500017023087,2|2,1:2|0:2,0:2:0:0:
356,212,37796,1,2,0:2:0:0:
120,212,38071,2,2,L|-8:212,2,89.2500017023087,10|2|2,0:2|0:2|0:2,0:2:0:0:
496,144,38621,6,2,L|248:144,2,178.500003404617,2|2|10,1:2|0:2|0:2,0:2:0:0:
392,144,39309,1,2,0:2:0:0:
180,140,39585,1,2,0:2:0:0:
392,144,39722,6,2,L|500:144,2,89.2500017023087,2|2|2,1:2|0:2|0:2,0:2:0:0:
20,248,40274,1,14,0:2:0:0:
125,248,40411,1,2,0:2:0:0:
228,248,40549,1,2,0:2:0:0:
123,248,40686,1,2,0:2:0:0:
368,148,40823,6,2,L|152:148,2,178.500003404617,2|2|10,1:2|0:2|0:2,0:2:0:0:
476,148,41511,1,2,0:2:0:0:
260,144,41786,1,2,0:2:0:0:
52,144,41924,6,2,L|52:268,1,89.2500017023087,2|2,1:2|0:2,0:2:0:0:
156,248,42199,1,2,0:2:0:0:
364,244,42475,1,10,0:2:0:0:
468,244,42612,2,2,L|468:136,1,89.2500017023087,2|2,0:2|0:2,0:2:0:0:
64,116,43025,6,2,L|300:116,1,178.500003404617,2|2,1:2|0:2,0:2:0:0:
64,116,43575,2,2,L|64:356,1,178.500003404617,10|2,0:2|0:2,0:2:0:0:
472,324,44126,5,10,0:2:0:0:
232,320,44264,1,8,0:2:0:0:
166,228,44677,1,8,0:2:0:0:
402,232,44814,1,10,0:2:0:0:
444,171,45089,1,8,0:2:0:0:
192,360,45227,6,0,P|72:336|208:120,1,472.500018024445,0|0,1:2|0:2,0:2:0:0:
276,104,46190,1,0,0:2:0:0:
360,104,46328,6,0,L|360:308,1,157.500006008148,0|0,0:2|0:2,0:2:0:0:
276,272,46741,2,0,L|84:272,1,157.500006008148,0|0,0:2|0:2,0:2:0:0:
32,272,47153,1,0,0:2:0:0:
118,272,47291,1,0,0:2:0:0:
276,208,47429,6,0,L|276:100,1,78.7500030040742,2|0,0:2|0:2,0:2:0:0:
192,128,47704,2,0,L|100:128,2,78.7500030040742,0|0|0,0:2|0:2|0:2,0:2:0:0:
344,128,48117,1,0,0:2:0:0:
192,128,48255,2,0,L|192:28,1,78.7500030040742,0|0,0:2|0:2,0:2:0:0:
276,44,48530,6,0,L|372:44,2,78.7500030040742,0|0|0,0:2|0:2|0:2,0:2:0:0:
128,40,48943,1,0,0:2:0:0:
276,44,49081,2,0,L|276:132,1,78.7500030040742,0|0,0:2|0:2,0:2:0:0:
128,40,49356,2,0,L|40:40,1,78.7500030040742,0|0,0:2|0:2,0:2:0:0:
260,280,49631,6,0,L|364:280,1,84,2|0,0:2|0:2,0:2:0:0:
260,280,49906,2,0,L|64:280,1,168,0|0,0:2|0:2,0:2:0:0:
176,280,50318,1,0,0:2:0:0:
320,280,50456,2,0,L|320:184,1,84,0|0,0:2|0:2,0:2:0:0:
196,188,50731,5,0,0:2:0:0:
68,178,50869,2,0,L|68:76,1,84,0|0,0:2|0:2,0:2:0:0:
196,164,51144,1,0,0:2:0:0:
68,168,51282,2,0,L|68:64,1,84,0|0,0:2|0:2,0:2:0:0:
194,185,51557,2,0,L|336:184,1,126,0|0,0:2|0:2,0:2:0:0:
160,288,51833,5,2,0:2:0:0:
112,288,51901,1,0,0:2:0:0:
112,240,51970,1,0,0:2:0:0:
160,236,52039,1,0,0:2:0:0:
208,236,52108,2,0,L|308:236,1,84,0|0,0:2|0:2,0:2:0:0:
72,188,52383,2,0,L|72:96,1,84,0|0,0:2|0:2,0:2:0:0:
292,104,52659,2,0,L|416:104,1,84,0|0,0:2|0:2,0:2:0:0:
120,288,52934,6,0,L|60:288,2,56,0|0|0,0:2|0:2|0:2,0:2:0:0:
296,236,53209,1,0,0:2:0:0:
233,236,53300,1,0,0:2:0:0:
170,236,53392,1,0,0:2:0:0:
344,168,53484,5,0,0:2:0:0:
440,168,53622,1,0,0:2:0:0:
344,168,53760,1,0,0:2:0:0:
248,168,53897,1,0,0:2:0:0:
484,104,54035,5,0,1:2:0:0:
256,192,54172,12,0,55961,0:2:0:0:
376,192,56236,6,0,L|160:192,2,178.500003404617,4|2|2,1:1|0:2|0:2,0:2:0:0:
220,192,56924,1,2,0:2:0:0:
220,297,57061,1,0,0:2:0:0:
324,296,57199,1,2,0:2:0:0:
124,192,57337,5,14,0:2:0:0:
248,192,57474,1,2,0:2:0:0:
124,192,57612,2,0,L|356:192,1,178.500003404617,2|2,0:2|0:2,0:2:0:0:
216,192,58025,1,2,0:2:0:0:
348,188,58163,2,0,L|348:288,1,89.2500017023087,2|0,0:2|0:2,0:2:0:0:
128,300,58438,6,0,L|364:300,1,178.500003404617,0|0,1:2|0:2,0:2:0:0:
216,300,58851,1,0,0:2:0:0:
456,240,58989,1,10,0:2:0:0:
332,240,59126,1,2,0:2:0:0:
204,236,59264,1,2,0:2:0:0:
204,236,59401,1,2,0:2:0:0:
484,128,59539,5,2,1:2:0:0:
379,128,59676,1,2,0:2:0:0:
172,64,59813,1,10,0:2:0:0:
277,64,59952,1,2,0:2:0:0:
64,68,60090,2,2,L|64:184,1,89.2500017023087,2|2,1:2|0:2,0:2:0:0:
168,172,60364,1,2,0:2:0:0:
63,172,60502,1,2,0:2:0:0:
296,352,60639,5,0,1:2:0:0:
322,358,60674,1,0,0:2:0:0:
347,351,60708,1,0,0:2:0:0:
365,333,60742,1,0,0:2:0:0:
372,308,60777,1,0,0:2:0:0:
366,283,60811,1,0,0:2:0:0:
349,264,60846,1,0,0:2:0:0:
324,256,60880,1,0,0:2:0:0:
296,256,60914,2,0,L|120:256,1,133.875002553463,0|0,0:2|0:2,0:2:0:0:
328,176,61190,5,8,0:2:0:0:
353,173,61224,1,0,0:2:0:0:
373,157,61258,1,0,0:2:0:0:
381,132,61293,1,0,0:2:0:0:
373,107,61327,1,0,0:2:0:0:
353,91,61362,1,0,0:2:0:0:
328,89,61396,1,0,0:2:0:0:
158,131,61465,5,0,0:0:0:0:
178,114,61499,1,0,0:0:0:0:
202,103,61533,1,0,0:0:0:0:
228,100,61568,1,0,0:0:0:0:
254,103,61602,1,0,0:0:0:0:
278,112,61637,1,0,0:0:0:0:
299,128,61671,1,0,0:0:0:0:
138,256,61740,5,0,1:2:0:0:
33,256,61878,1,0,0:2:0:0:
244,192,62015,1,0,0:2:0:0:
139,192,62153,1,0,0:2:0:0:
352,116,62291,2,0,L|104:116,1,178.500003404617,10|0,0:2|0:2,0:2:0:0:
83,118,62703,1,0,0:2:0:0:
282,294,62841,6,0,B|386:294|386:294|314:294,1,133.875002553463,2|0,1:2|0:2,0:2:0:0:
112,276,63116,2,0,P|74:250|132:192,1,133.875002553463,8|0,0:2|0:2,0:2:0:0:
292,352,63391,2,0,L|503:353,1,178.500003404617,2|0,1:2|0:2,0:2:0:0:
382,354,63804,1,0,0:2:0:0:
143,353,63942,6,0,L|143:244,1,89.2500017023087,2|0,0:2|0:2,0:2:0:0:
464,244,64217,2,0,B|107:241,1,346.500003304482,8|0,0:2|0:2,0:2:0:0:
97,230,64527,1,0,0:0:0:0:
86,211,64561,1,0,0:0:0:0:
85,186,64596,1,0,0:0:0:0:
88,168,64630,1,0,0:0:0:0:
103,153,64664,1,0,0:0:0:0:
124,144,64699,1,0,0:0:0:0:
336,176,64768,5,0,0:0:0:0:
355,162,64802,1,0,0:0:0:0:
365,144,64836,1,0,0:0:0:0:
369,124,64871,1,0,0:0:0:0:
361,101,64905,1,0,0:0:0:0:
350,84,64940,1,0,0:0:0:0:
331,72,64974,1,0,0:0:0:0:
168,360,65043,5,0,0:2:0:0:
141,360,65077,1,0,0:2:0:0:
116,354,65111,1,0,0:2:0:0:
93,342,65146,1,0,0:2:0:0:
73,324,65180,1,0,0:2:0:0:
59,302,65215,1,0,0:2:0:0:
50,278,65249,1,0,0:2:0:0:
264,264,65318,5,0,0:2:0:0:
290,264,65352,1,0,0:2:0:0:
315,258,65386,1,0,0:2:0:0:
338,246,65421,1,0,0:2:0:0:
358,228,65455,1,0,0:2:0:0:
372,206,65490,1,0,0:2:0:0:
381,182,65524,1,0,0:2:0:0:
196,152,65593,5,4,1:1:0:0:
91,152,65731,1,0,0:2:0:0:
196,152,65869,1,2,0:2:0:0:
301,152,66006,1,0,0:2:0:0:
72,328,66144,5,2,1:2:0:0:
47,319,66178,1,0,0:2:0:0:
29,300,66212,1,0,0:2:0:0:
23,275,66247,1,0,0:2:0:0:
30,250,66281,1,2,0:2:0:0:
47,231,66316,1,0,0:2:0:0:
72,222,66350,1,0,0:2:0:0:
248,200,66419,2,0,B|352:200|352:200|308:200,1,133.875002553463,8|0,0:2|0:0,0:0:0:0:
164,168,66694,5,0,0:2:0:0:
132,168,66729,1,0,0:2:0:0:
164,168,66763,2,0,L|296:168,1,125.999996154785,0|0,0:2|0:2,0:2:0:0:
322,168,66935,1,0,0:2:0:0:
290,168,66969,2,0,L|148:168,1,125.999996154785,0|0,0:2|0:2,0:2:0:0:
132,168,67141,1,0,0:2:0:0:
164,168,67176,1,0,0:2:0:0:
376,208,67245,6,0,P|424:188|364:108,1,178.500003404617,2|0,1:2|0:2,0:2:0:0:
272,108,67658,1,0,0:2:0:0:
56,56,67795,2,0,L|296:56,1,178.500003404617,10|0,0:2|0:2,0:2:0:0:
328,60,68208,1,0,0:2:0:0:
120,316,68346,6,0,P|72:292|136:208,1,178.500003404617,2|0,1:2|0:2,0:2:0:0:
216,208,68757,1,0,0:2:0:0:
464,140,68895,2,0,L|224:140,1,178.500003404617,10|0,0:2|0:2,0:2:0:0:
192,140,69308,1,0,0:2:0:0:
396,280,69447,6,0,L|492:280,2,89.2500017023087,2|0|0,1:2|0:2|0:2,0:2:0:0:
217,280,69996,2,0,L|415:280,1,178.500003404617,8|0,0:2|0:2,0:2:0:0:
128,208,70546,6,0,L|20:208,2,89.2500017023087,2|0|0,1:2|0:2|0:2,0:2:0:0:
312,208,71097,2,0,L|94:208,1,178.500003404617,8|0,0:2|0:2,0:2:0:0:
468,356,71648,6,0,L|468:136,1,178.500003404617,10|0,0:2|0:2,0:2:0:0:
60,352,72198,2,0,L|60:136,1,178.500003404617,8|0,0:2|0:2,0:2:0:0:
464,348,72749,5,10,0:2:0:0:
60,352,73024,1,8,0:2:0:0:
464,348,73299,1,8,0:2:0:0:
254,348,73437,2,0,L|472:348,1,178.500003404617,8|0,0:2|0:2,0:2:0:0:
168,272,73850,5,4,1:1:0:0:
168,146,73988,1,2,0:2:0:0:
273,144,74126,1,2,0:2:0:0:
377,144,74263,1,2,0:2:0:0:
152,100,74401,1,10,0:2:0:0:
256,99,74538,1,2,0:2:0:0:
361,99,74676,1,2,0:2:0:0:
256,99,74813,1,2,0:2:0:0:
476,240,74951,5,2,1:2:0:0:
370,240,75089,1,2,0:2:0:0:
264,240,75227,1,2,0:2:0:0:
370,240,75364,1,2,0:2:0:0:
128,240,75502,1,10,0:2:0:0:
233,240,75639,1,2,0:2:0:0:
132,240,75777,1,2,0:2:0:0:
26,240,75915,1,2,0:2:0:0:
264,160,76053,5,4,1:1:0:0:
368,160,76190,1,2,0:2:0:0:
264,160,76328,1,2,0:2:0:0:
159,164,76465,1,2,0:2:0:0:
400,76,76603,1,10,0:2:0:0:
294,79,76740,1,2,0:2:0:0:
189,76,76877,1,2,0:2:0:0:
83,76,77015,1,2,0:2:0:0:
304,300,77153,5,2,1:2:0:0:
199,300,77290,1,2,0:2:0:0:
93,299,77428,1,2,0:2:0:0:
199,300,77566,1,2,0:2:0:0:
420,216,77703,1,14,0:2:0:0:
314,216,77841,1,2,0:2:0:0:
208,216,77979,1,2,0:2:0:0:
314,216,78116,1,2,0:2:0:0:
76,140,78254,5,4,1:1:0:0:
181,139,78392,1,2,0:2:0:0:
285,139,78529,1,2,0:2:0:0:
390,139,78667,1,2,0:2:0:0:
172,64,78805,1,10,0:2:0:0:
276,61,78942,1,2,0:2:0:0:
172,64,79079,1,2,0:2:0:0:
66,64,79217,1,2,0:2:0:0:
288,300,79354,5,2,1:2:0:0:
393,300,79492,1,2,0:2:0:0:
395,195,79629,1,2,0:2:0:0:
292,184,79767,1,2,0:2:0:0:
48,112,79905,1,10,0:2:0:0:
152,111,80042,1,2,0:2:0:0:
257,111,80180,1,2,0:2:0:0:
362,111,80318,1,2,0:2:0:0:
140,240,80455,5,4,1:1:0:0:
245,240,80593,1,2,0:2:0:0:
350,240,80731,1,2,0:2:0:0:
245,240,80868,1,2,0:2:0:0:
492,168,81006,1,10,0:2:0:0:
386,168,81144,1,2,0:2:0:0:
281,168,81281,1,2,0:2:0:0:
386,168,81419,1,2,0:2:0:0:
140,88,81557,5,2,1:2:0:0:
244,88,81694,1,2,0:2:0:0:
349,89,81832,1,2,0:2:0:0:
454,89,81970,1,2,0:2:0:0:
220,40,82107,1,10,0:2:0:0:
114,40,82245,1,2,0:2:0:0:
336,256,82383,1,2,0:2:0:0:
440,258,82520,1,2,0:2:0:0:
200,192,82658,5,6,0:2:0:0:
256,192,82795,12,0,87061,0:2:0:0:
