osu file format v14

[General]
AudioFilename: audio.mp3
AudioLeadIn: 0
PreviewTime: 53041
Countdown: 0
SampleSet: Soft
StackLeniency: 0.7
Mode: 0
LetterboxInBreaks: 0
WidescreenStoryboard: 0

[Editor]
Bookmarks: 69611
DistanceSpacing: 1
BeatDivisor: 3
GridSize: 4
TimelineZoom: 1

[Metadata]
Title:Spring nicht
TitleUnicode:Spring nicht
Artist:Tokio Hotel
ArtistUnicode:Tokio Hotel
Creator:Regraz
Version:Normal
Source:
Tags:zimmer 483 room don't jump emo
BeatmapID:1439484
BeatmapSetID:680827

[Difficulty]
HPDrainRate:2
CircleSize:3.5
OverallDifficulty:3
ApproachRate:4
SliderMultiplier:2.6
SliderTickRate:1

[Events]
//Background and Video events
0,0,"BG_1366.jpg",0,0
//Break Periods
//Storyboard Layer 0 (Background)
//Storyboard Layer 1 (Fail)
//Storyboard Layer 2 (Pass)
//Storyboard Layer 3 (Foreground)
//Storyboard Sound Samples

[TimingPoints]
1156,1103.95584176633,4,2,1,35,1,0
53041,-100,4,2,1,45,0,0
54145,-100,4,2,1,55,0,1
70705,-100,4,2,1,55,0,0
71809,-100,4,2,1,55,0,1
82848,-100,4,2,1,45,0,0

[Colours]
Combo1 : 67,112,129
Combo2 : 85,61,203
Combo3 : 136,44,17

[HitObjects]
404,261,18819,6,0,P|455:263|505:285,2,86.6666666666667,4|0|0,0:3|0:0|0:0,0:0:0:0:
330,307,19923,1,8,0:0:0:0:
252,268,20291,2,0,P|235:209|246:166,1,86.6666666666667
286,112,21027,2,0,P|201:105|159:140,2,130,4|4|8,0:3|0:3|0:0,0:0:0:0:
362,153,22499,2,0,L|452:143,1,86.6666666666667
480,227,23235,6,0,L|323:246,1,130,4|0,0:3|0:0,0:0:0:0:
248,161,24339,2,0,P|245:93|259:67,2,86.6666666666667
264,246,25443,2,0,P|164:278|114:248,1,130,4|4,0:3|0:3,0:0:0:0:
28,215,26546,2,0,P|14:159|49:87,1,130,8|0,0:0|0:0,0:0:0:0:
170,111,27650,6,0,L|256:120,1,86.6666666666667,4|0,0:3|0:0,0:0:0:0:
309,188,28386,1,0,0:0:0:0:
246,248,28754,2,0,L|159:257,2,86.6666666666667,8|0|0,0:0|0:0|0:0,0:0:0:0:
257,334,29858,2,0,L|114:349,1,130,4|4,0:3|0:3,0:0:0:0:
37,253,30962,2,0,P|29:293|57:350,2,86.6666666666667,8|0|0,0:0|0:0|0:0,0:0:0:0:
94,188,32066,6,0,P|174:170|216:211,1,130,4|0,0:3|0:0,0:0:0:0:
301,285,33170,2,0,P|352:278|387:247,2,86.6666666666667,8|0|0,0:0|0:0|0:0,0:0:0:0:
312,198,34274,2,0,L|300:36,1,130,4|4,0:3|0:3,0:0:0:0:
175,40,35378,2,0,P|132:33|90:42,2,86.6666666666667,8|0|0,0:0|0:0|0:0,0:0:0:0:
229,107,36482,5,4,0:3:0:0:
285,172,36850,2,0,P|327:165|369:174,1,86.6666666666667
423,242,37586,2,0,L|424:13,1,173.333333333333,8|0,0:0|0:0,0:0:0:0:
358,11,38690,2,0,B|320:9|320:9|262:30|262:30|221:27,1,130,4|4,0:3|0:3,0:0:0:0:
118,92,39794,2,0,L|11:90,2,86.6666666666667,8|0|0,0:0|0:0|0:0,0:0:0:0:
167,163,40898,6,0,P|155:225|175:296,1,130,4|0,0:3|0:0,0:0:0:0:
300,302,42002,2,0,L|386:305,2,86.6666666666667,8|0|0,0:0|0:0|0:0,0:0:0:0:
309,215,43106,2,0,P|328:153|316:89,1,130,4|4,0:3|0:3,0:0:0:0:
188,66,44210,2,0,P|152:65|94:26,2,86.6666666666667,8|0|8,0:0|0:0|0:0,0:0:0:0:
271,40,45314,6,0,L|377:50,2,86.6666666666667,4|0|0,0:3|0:0|0:0,0:0:0:0:
188,66,46418,1,8,0:0:0:0:
249,127,46786,2,0,P|276:236|235:294,1,173.333333333333,0|4,0:0|0:3,0:0:0:0:
163,262,47890,2,0,L|61:263,1,86.6666666666667
57,347,48626,2,0,L|143:346,1,86.6666666666667,8|0,0:0|0:0,0:0:0:0:
227,367,49362,1,0,0:0:0:0:
310,344,49730,6,0,B|325:305|325:305|316:187,1,130,4|0,0:3|0:0,0:0:0:0:
238,113,50834,6,0,P|193:99|131:111,2,86.6666666666667
185,181,51937,1,4,0:1:0:0:
341,256,53041,5,8,0:0:0:0:
424,242,53409,1,8,0:0:0:0:
407,156,53777,1,4,0:3:0:0:
323,174,54145,6,0,P|213:159|139:196,1,173.333333333333,4|0,0:0|0:0,0:0:0:0:
80,220,55249,2,0,P|72:176|91:121,2,86.6666666666667,8|0|0,0:0|0:0|0:0,0:0:0:0:
155,263,56353,2,0,P|127:335|37:345,1,173.333333333333,4|0,0:3|0:0,0:0:0:0:
11,264,57457,2,0,B|0:217|0:217|14:145|14:145|2:88,1,173.333333333333,8|0,0:0|0:0,0:0:0:0:
86,67,58561,6,0,L|117:182,2,86.6666666666667,4|0|0,0:0|0:0|0:0,0:0:0:0:
170,47,59665,2,0,B|184:96|184:96|234:151|234:151|248:197,1,173.333333333333,8|0,0:0|0:0,0:0:0:0:
321,244,60769,1,4,0:3:0:0:
390,191,61137,2,0,L|397:96,1,86.6666666666667
329,49,61873,5,8,0:0:0:0:
252,8,62241,1,8,0:0:0:0:
178,53,62609,1,8,0:0:0:0:
109,106,62977,6,0,B|77:158|77:158|120:293,1,173.333333333333,4|0,0:0|0:0,0:0:0:0:
173,325,64081,2,0,P|125:352|64:347,2,86.6666666666667,8|0|0,0:0|0:0|0:0,0:0:0:0:
246,278,65185,2,0,L|401:288,2,130,4|0|8,0:3|0:0|0:0,0:0:0:0:
189,211,66657,2,0,L|89:223,1,86.6666666666667
41,158,67393,6,0,P|23:97|48:32,2,130,4|4|8,0:0|0:3|0:0,0:0:0:0:
126,171,68865,2,0,P|132:214|125:260,1,86.6666666666667
60,313,69601,2,0,P|121:294|181:315,1,130,4|4,0:3|0:3,0:0:0:0:
243,201,70705,1,0,0:0:0:0:
233,114,71073,1,8,0:0:0:0:
319,108,71441,1,8,0:0:0:0:
329,194,71809,6,0,L|506:179,1,173.333333333333,4|0,0:0|0:0,0:0:0:0:
488,265,72913,2,0,L|399:274,1,86.6666666666667,8|0,0:0|0:0,0:0:0:0:
319,301,73649,1,0,0:0:0:0:
245,257,74017,2,0,P|147:251|86:285,1,130,4|4,0:3|0:3,0:0:0:0:
74,139,75121,2,0,P|66:96|171:21,1,173.333333333333,8|0,0:0|0:0,0:0:0:0:
154,105,76224,5,4,0:0:0:0:
221,160,76592,2,0,P|267:170|318:153,1,86.6666666666667,4|4,0:0|0:0,0:0:0:0:
351,234,77328,1,4,0:0:0:0:
303,305,77696,2,0,P|262:295|220:305,1,86.6666666666667,4|4,0:0|0:0,0:0:0:0:
153,361,78432,5,4,0:1:0:0:
256,192,78616,12,4,82848,0:1:0:0:
