osu file format v14

[General]
AudioFilename: audio.mp3
AudioLeadIn: 0
PreviewTime: 53041
Countdown: 0
SampleSet: Soft
StackLeniency: 0.7
Mode: 0
LetterboxInBreaks: 0
WidescreenStoryboard: 0

[Editor]
Bookmarks: 69611
DistanceSpacing: 0.9
BeatDivisor: 6
GridSize: 4
TimelineZoom: 1

[Metadata]
Title:Spring nicht
TitleUnicode:Spring nicht
Artist:Tokio Hotel
ArtistUnicode:Tokio Hotel
Creator:Regraz
Version:Easy
Source:
Tags:zimmer 483 room don't jump emo
BeatmapID:1487270
BeatmapSetID:680827

[Difficulty]
HPDrainRate:2
CircleSize:3
OverallDifficulty:2
ApproachRate:2
SliderMultiplier:1.9
SliderTickRate:1

[Events]
//Background and Video events
0,0,"BG_1366.jpg",0,0
//Break Periods
//Storyboard Layer 0 (Background)
//Storyboard Layer 1 (Fail)
//Storyboard Layer 2 (Pass)
//Storyboard Layer 3 (Foreground)
//Storyboard Sound Samples

[TimingPoints]
1156,1103.95584176633,4,2,1,35,1,0
53041,-100,4,2,1,45,0,0
54145,-100,4,2,1,55,0,1
70705,-100,4,2,1,55,0,0
71809,-100,4,2,1,55,0,1
82848,-100,4,2,1,45,0,0

[Colours]
Combo1 : 67,112,129
Combo2 : 85,61,203
Combo3 : 136,44,17

[HitObjects]
86,54,18819,6,0,P|68:157|94:220,1,126.666666666667,4|0,0:3|0:0,0:0:0:0:
117,211,19923,1,8,0:0:0:0:
253,107,21027,2,0,L|431:111,1,126.666666666667,4|0,0:3|0:0,0:0:0:0:
431,85,22131,2,0,P|410:192|445:251,1,126.666666666667,8|0,0:0|0:0,0:0:0:0:
459,240,23235,6,0,P|449:303|401:363,1,126.666666666667,4|0,0:3|0:0,0:0:0:0:
357,342,24339,1,8,0:0:0:0:
224,233,25443,2,0,P|166:206|112:212,1,95,4|0,0:3|0:0,0:0:0:0:
49,224,26546,1,8,0:0:0:0:
16,55,27650,6,0,P|111:52|154:8,1,126.666666666667,4|0,0:3|0:0,0:0:0:0:
183,7,28754,1,8,0:0:0:0:
337,81,29858,2,0,L|324:262,1,126.666666666667,4|0,0:3|0:0,0:0:0:0:
340,263,30962,2,0,P|250:250|198:273,1,126.666666666667,8|0,0:0|0:0,0:0:0:0:
188,309,32066,5,4,0:3:0:0:
33,238,33170,2,0,L|23:84,1,126.666666666667,8|0,0:0|0:0,0:0:0:0:
2,59,34274,2,0,P|106:84|169:48,1,126.666666666667,4|0,0:3|0:0,0:0:0:0:
173,57,35378,1,8,0:0:0:0:
293,177,36482,6,0,P|253:218|181:228,1,126.666666666667,4|0,0:3|0:0,0:0:0:0:
156,180,37586,1,8,0:0:0:0:
91,338,38690,2,0,L|233:331,1,126.666666666667,4|0,0:3|0:0,0:0:0:0:
272,347,39794,2,0,P|248:258|284:198,1,126.666666666667,8|0,0:0|0:0,0:0:0:0:
310,204,40898,5,4,0:3:0:0:
263,38,42002,2,0,L|108:32,1,126.666666666667,8|0,0:0|0:0,0:0:0:0:
82,16,43106,2,0,P|74:99|83:153,1,126.666666666667,4|0,0:3|0:0,0:0:0:0:
133,164,44210,1,8,0:0:0:0:
223,235,44946,1,8,0:0:0:0:
233,291,45314,6,0,P|321:320|375:302,1,126.666666666667,4|0,0:3|0:0,0:0:0:0:
350,256,46418,2,0,L|340:101,1,126.666666666667,8|0,0:0|0:0,0:0:0:0:
373,81,47522,1,4,0:3:0:0:
205,113,48626,2,0,L|58:99,1,126.666666666667,8|0,0:0|0:0,0:0:0:0:
28,76,49730,6,0,P|42:170|20:221,1,126.666666666667,4|0,0:3|0:0,0:0:0:0:
17,253,50834,2,0,P|113:245|154:272,1,126.666666666667,8|0,0:0|0:0,0:0:0:0:
139,320,51937,1,4,0:0:0:0:
306,283,53041,6,0,L|396:290,2,63.3333333333333,4|8|8,0:3|0:0|0:0,0:0:0:0:
251,260,54145,6,0,P|234:157|261:101,1,126.666666666667,4|0,0:0|0:0,0:0:0:0:
269,89,55249,1,8,0:0:0:0:
383,89,55985,1,0,0:0:0:0:
413,138,56354,2,0,P|421:200|401:259,1,126.666666666667,4|0,0:3|0:0,0:0:0:0:
365,304,57457,2,0,L|199:296,1,126.666666666667,8|0,0:0|0:0,0:0:0:0:
193,333,58561,5,4,0:0:0:0:
87,288,59297,1,0,0:0:0:0:
56,239,59665,2,0,P|40:146|76:96,1,126.666666666667,8|0,0:0|0:0,0:0:0:0:
92,80,60769,2,0,L|254:93,1,126.666666666667,4|0,0:3|0:0,0:0:0:0:
270,112,61873,2,0,L|265:31,2,63.3333333333333,8|8|8,0:0|0:0|0:0,0:0:0:0:
321,137,62977,6,0,L|447:126,1,126.666666666667,4|0,0:0|0:0,0:0:0:0:
503,119,64081,1,8,0:0:0:0:
472,228,64817,1,0,0:0:0:0:
415,235,65185,2,0,L|290:248,1,126.666666666667,4|0,0:3|0:0,0:0:0:0:
239,277,66289,2,0,P|258:196|220:135,1,126.666666666667,8|0,0:0|0:0,0:0:0:0:
186,147,67393,6,0,L|35:163,1,126.666666666667,4|0,0:0|0:0,0:0:0:0:
24,203,68497,1,8,0:0:0:0:
26,316,69233,1,0,0:0:0:0:
64,358,69601,2,0,P|164:341|214:359,1,126.666666666667,4|0,0:3|0:0,0:0:0:0:
236,318,70705,2,0,L|316:324,2,63.3333333333333,8|8|8,0:0|0:0|0:0,0:0:0:0:
199,274,71809,6,0,P|182:188|210:130,1,126.666666666667,4|0,0:0|0:0,0:0:0:0:
210,98,72913,1,8,0:0:0:0:
314,52,73649,1,0,0:0:0:0:
342,101,74017,2,0,L|498:89,1,126.666666666667,4|0,0:3|0:0,0:0:0:0:
486,145,75121,2,0,P|490:234|477:286,1,126.666666666667,8|0,0:0|0:0,0:0:0:0:
434,301,76224,6,0,L|440:380,2,63.3333333333333,4|4|4,0:0|0:0|0:0,0:0:0:0:
383,273,77328,2,0,L|377:194,2,63.3333333333333,4|4|4,0:0|0:0|0:0,0:0:0:0:
334,303,78432,5,4,0:1:0:0:
256,192,78800,12,4,82848,0:1:0:0:
