osu file format v14

[General]
AudioFilename: audio.mp3
AudioLeadIn: 0
PreviewTime: 37660
Countdown: 0
SampleSet: Soft
StackLeniency: 0.7
Mode: 0
LetterboxInBreaks: 0
WidescreenStoryboard: 1

[Editor]
Bookmarks: 4527
DistanceSpacing: 0.6
BeatDivisor: 4
GridSize: 4
TimelineZoom: 1.8

[Metadata]
Title:Heilig
TitleUnicode:Heilig
Artist:Tokio Hotel
ArtistUnicode:Tokio Hotel
Creator:Regraz
Version:Hard
Source:
Tags:Zimmer 483 Room emo tokyo saint Dave Roth Patrick Benzner David Jost Peter Hoffmann Bill Kaulitz German
BeatmapID:1811898
BeatmapSetID:866685

[Difficulty]
HPDrainRate:5
CircleSize:4
OverallDifficulty:5
ApproachRate:6.2
SliderMultiplier:1.6
SliderTickRate:1

[Events]
//Background and Video events
0,0,"Konachan.com - 144165.jpg",0,0
//Break Periods
//Storyboard Layer 0 (Background)
//Storyboard Layer 1 (Fail)
//Storyboard Layer 2 (Pass)
//Storyboard Layer 3 (Foreground)
//Storyboard Sound Samples

[TimingPoints]
292,526.315789473684,4,2,1,40,1,0
35949,-100,4,2,1,20,0,0
36081,-100,4,2,1,40,0,0
38186,-100,4,2,1,57,0,1
54502,-100,4,2,1,57,0,0
55028,-100,4,2,1,57,0,1
67660,-100,4,2,1,57,0,0
69239,-100,4,2,2,44,0,0
70555,-100,4,2,1,35,0,0

[Colours]
Combo1 : 196,202,168
Combo2 : 134,36,166
Combo3 : 204,68,113
Combo4 : 217,13,44

[HitObjects]
195,93,4502,6,0,P|109:75|47:109,2,160,4|8|0,0:1|0:0|0:0,0:0:0:0:
264,133,5818,1,0,0:0:0:0:
315,72,6081,2,0,L|410:82,1,80,8|0,0:0|0:0,0:0:0:0:
467,48,6607,6,0,P|502:123|469:204,1,160,4|8,0:3|0:0,0:0:0:0:
443,264,7397,1,0,0:0:0:0:
377,217,7660,2,0,L|282:222,1,80,0|0,0:0|0:0,0:0:0:0:
240,278,8186,2,0,L|130:285,1,80,8|0,0:0|0:0,0:0:0:0:
101,337,8713,6,0,P|43:289|73:196,1,160,4|8,0:3|0:0,0:0:0:0:
94,142,9502,1,0,0:0:0:0:
158,189,9765,2,0,P|224:198|256:177,1,80,0|0,0:0|0:0,0:0:0:0:
269,121,10292,2,0,L|363:127,1,80,8|0,0:0|0:0,0:0:0:0:
382,53,10818,6,0,P|474:81|497:158,1,160,4|8,0:3|0:0,0:0:0:0:
439,189,11607,1,0,0:0:0:0:
491,249,11871,2,0,L|498:356,1,80,0|0,0:0|0:0,0:0:0:0:
416,334,12397,2,0,P|346:317|315:332,1,80,8|0,0:0|0:0,0:0:0:0:
261,307,12923,6,0,P|193:347|106:294,2,160,4|8|0,0:3|0:0|0:0,0:0:0:0:
216,239,14239,1,0,0:0:0:0:
269,179,14502,2,0,L|260:78,1,80,8|0,0:0|0:0,0:0:0:0:
337,72,15028,6,0,L|356:265,1,160,4|8,0:3|0:0,0:0:0:0:
430,248,15818,1,0,0:0:0:0:
379,310,16081,2,0,P|305:318|279:335,1,80,0|0,0:0|0:0,0:0:0:0:
227,288,16607,2,0,P|181:322|136:324,1,80,8|0,0:0|0:0,0:0:0:0:
96,276,17134,6,0,P|127:213|219:211,1,160,4|8,0:3|0:0,0:0:0:0:
278,245,17923,1,0,0:0:0:0:
322,178,18186,2,0,L|488:191,1,160,0|8,0:0|0:0,0:0:0:0:
483,270,18976,1,0,0:0:0:0:
412,308,19239,6,0,P|349:330|302:317,2,80,4|0|8,0:3|0:0|0:0,0:0:0:0:
483,270,20028,1,4,0:3:0:0:
482,189,20292,2,0,L|488:95,1,80,0|0,0:0|0:0,0:0:0:0:
442,43,20818,2,0,P|394:31|348:45,1,80,8|0,0:0|0:0,0:0:0:0:
290,65,21344,6,0,L|308:232,1,160,4|8,0:3|0:0,0:0:0:0:
360,284,22134,1,0,0:0:0:0:
291,324,22397,2,0,P|226:316|186:328,1,80,0|0,0:0|0:0,0:0:0:0:
147,272,22923,2,0,P|143:213|162:164,1,80,8|0,0:0|0:0,0:0:0:0:
157,113,23449,6,0,P|236:96|293:166,1,160,4|8,0:3|0:0,0:0:0:0:
335,211,24239,1,0,0:0:0:0:
274,262,24502,2,0,L|180:252,1,80,0|0,0:0|0:0,0:0:0:0:
142,314,25028,2,0,L|45:327,1,80,8|0,0:0|0:0,0:0:0:0:
33,249,25555,6,0,B|12:206|12:206|28:68,1,160,4|8,0:3|0:0,0:0:0:0:
92,51,26344,1,0,0:0:0:0:
156,98,26607,2,0,P|161:155|146:189,2,80,0|0|8,0:0|0:0|0:0,0:0:0:0:
217,46,27397,1,0,0:0:0:0:
282,91,27660,6,0,P|337:102|371:84,1,80,4|0,0:3|0:0,0:0:0:0:
422,47,28186,2,0,P|463:72|484:118,1,80,8|0,0:0|0:0,0:0:0:0:
434,165,28713,1,0,0:0:0:0:
470,235,28976,2,0,L|479:328,2,80,0|8|0,0:0|0:0|0:0,0:0:0:0:
434,165,29765,6,0,B|355:149|350:212|251:169,2,160,4|8|0,0:3|0:0|0:0,0:0:0:0:
433,84,31081,1,0,0:0:0:0:
433,84,31344,2,0,P|370:51|332:66,1,80,8|0,0:0|0:0,0:0:0:0:
288,28,31871,6,0,P|224:81|136:61,1,160,4|8,0:3|0:0,0:0:0:0:
79,38,32660,1,0,0:0:0:0:
38,106,32923,2,0,L|62:278,1,160,0|8,0:0|0:0,0:0:0:0:
137,244,33713,1,0,0:0:0:0:
199,293,33976,6,0,P|261:280|298:292,1,80,4|0,0:3|0:0,0:0:0:0:
341,329,34502,2,0,P|403:342|436:331,1,80,8|0,0:0|0:0,0:0:0:0:
460,270,35028,1,0,0:0:0:0:
411,205,35292,2,0,L|422:114,1,80,0|8,0:0|0:0,0:0:0:0:
357,76,35818,2,0,L|298:86,1,40,0|0,0:0|0:0,0:0:0:0:
278,92,36081,5,4,0:2:0:0:
90,180,37397,1,4,0:3:0:0:
33,236,37660,2,0,L|47:341,1,80,8|0,0:0|0:0,0:0:0:0:
181,349,38186,6,0,P|259:332|279:240,1,160,4|8,0:2|0:0,0:0:0:0:
229,204,38976,1,0,0:0:0:0:
289,151,39239,2,0,L|395:164,1,80,0|0,0:0|0:0,0:0:0:0:
382,81,39765,2,0,L|302:71,1,80,8|0,0:0|0:0,0:0:0:0:
239,21,40292,6,0,L|67:40,1,160,4|8,0:3|0:0,0:0:0:0:
49,112,41081,1,0,0:0:0:0:
117,153,41344,2,0,P|113:208|138:238,1,80,0|0,0:0|0:0,0:0:0:0:
200,256,41871,2,0,L|193:348,1,80,8|0,0:0|0:0,0:0:0:0:
273,345,42397,6,0,L|287:165,1,160,4|8,0:3|0:0,0:0:0:0:
338,125,43186,1,0,0:0:0:0:
401,174,43449,2,0,P|461:162|498:177,2,80,0|0|8,0:0|0:0|0:0,0:0:0:0:
338,125,44239,1,0,0:0:0:0:
274,76,44502,6,0,P|204:48|114:82,1,160,4|8,0:3|0:0,0:0:0:0:
71,131,45292,1,0,0:0:0:0:
115,197,45555,1,0,0:0:0:0:
62,257,45818,2,0,L|-8:247,2,40,0|0|8,0:0|0:0|0:0,0:0:0:0:
104,324,46344,1,0,0:0:0:0:
215,257,46607,6,0,L|204:61,1,160,4|8,0:3|0:0,0:0:0:0:
269,48,47397,1,0,0:0:0:0:
334,94,47660,2,0,P|341:149|325:191,1,80,0|0,0:0|0:0,0:0:0:0:
312,248,48186,2,0,P|358:267|406:248,1,80,8|0,0:0|0:0,0:0:0:0:
428,193,48713,6,0,P|493:213|473:307,1,160,4|8,0:3|0:0,0:0:0:0:
427,343,49502,1,0,0:0:0:0:
351,316,49765,2,0,P|274:301|241:311,1,80,0|0,0:0|0:0,0:0:0:0:
210,350,50292,2,0,L|113:346,1,80,8|0,0:0|0:0,0:0:0:0:
50,353,50818,6,0,P|37:293|51:184,1,160,4|8,0:3|0:0,0:0:0:0:
60,116,51607,1,0,0:0:0:0:
38,38,51871,2,0,L|135:28,1,80,0|0,0:0|0:0,0:0:0:0:
185,71,52397,2,0,P|237:84|291:61,1,80,8|0,0:0|0:0,0:0:0:0:
323,27,52923,5,4,0:3:0:0:
368,92,53186,2,0,L|353:153,2,40,0|0|8,0:0|0:0|0:0,0:0:0:0:
437,51,53713,1,0,0:0:0:0:
463,126,53976,2,0,L|466:191,1,40,0|0,0:0|0:0,0:0:0:0:
493,193,54239,1,0,0:0:0:0:
437,250,54502,2,0,P|384:238|345:248,1,80,8|0,0:0|0:0,0:0:0:0:
209,280,55028,6,0,P|131:250|157:160,1,160,4|8,0:2|0:0,0:0:0:0:
177,117,55818,1,0,0:0:0:0:
120,60,56081,2,0,L|13:77,2,80,0|0|8,0:0|0:0|0:0,0:0:0:0:
177,117,56871,1,0,0:0:0:0:
231,58,57134,6,0,P|305:41|392:77,1,160,4|8,0:3|0:0,0:0:0:0:
451,29,57923,1,0,0:0:0:0:
483,102,58186,2,0,L|491:216,1,80,0|0,0:0|0:0,0:0:0:0:
413,210,58713,2,0,P|403:267|424:300,1,80,8|0,0:0|0:0,0:0:0:0:
474,333,59239,6,0,P|394:311|304:345,1,160,4|8,0:3|0:0,0:0:0:0:
266,274,60028,1,0,0:0:0:0:
201,321,60292,2,0,L|97:317,1,80,0|0,0:0|0:0,0:0:0:0:
44,341,60818,2,0,P|38:269|60:239,1,80,8|0,0:0|0:0,0:0:0:0:
75,193,61344,5,4,0:3:0:0:
127,133,61607,2,0,L|122:77,2,40,0|0|8,0:0|0:0|0:0,0:0:0:0:
190,182,62134,1,0,0:0:0:0:
245,239,62397,2,0,P|309:249|353:226,1,80,0|0,0:0|0:0,0:0:0:0:
348,169,62923,2,0,L|335:70,1,80,8|0,0:0|0:0,0:0:0:0:
479,24,63449,6,0,L|465:211,1,160,4|8,0:2|0:0,0:0:0:0:
489,260,64239,1,0,0:0:0:0:
410,242,64502,2,0,P|348:225|304:236,1,80,0|0,0:0|0:0,0:0:0:0:
275,171,65028,2,0,P|220:189|186:234,1,80,8|0,0:0|0:0,0:0:0:0:
157,268,65555,6,0,P|162:186|120:87,1,160,4|8,0:3|0:0,0:0:0:0:
72,66,66344,1,0,0:0:0:0:
13,120,66607,2,0,L|27:214,1,80,0|0,0:0|0:0,0:0:0:0:
92,242,67134,2,0,L|84:344,1,80,8|0,0:0|0:0,0:0:0:0:
253,281,67660,5,4,0:1:0:0:
256,192,67792,12,0,70555,0:0:0:0:
