osu file format v14

[General]
AudioFilename: audio.mp3
AudioLeadIn: 0
PreviewTime:55980
Countdown: 0
SampleSet: Soft
StackLeniency: 0.4
Mode: 0
LetterboxInBreaks: 0
WidescreenStoryboard: 1

[Editor]
DistanceSpacing: 1.3
BeatDivisor: 4
GridSize: 16
TimelineZoom: 1.4

[Metadata]
Title:Komorebi no Yell (TV Size)
TitleUnicode:木漏れ日のエール (TV Size)
Artist:Tokai Teio (CV: Machico), Mejiro McQueen (CV: Onishi Saori)
ArtistUnicode:トウカイテイオー (CV: Machico)、メジロマックイーン (CV: 大西沙織)
Creator:Huzz
Version:Normal
Source:ウマ娘 プリティーダービー Season 2
Tags:tv anime japanese uma musume pretty derby umamusume 2nd season two 2 ending theme ed jpop j-pop pop horse girls animation cygames oonishi toukai teoiu
BeatmapID:3115850
BeatmapSetID:1517624

[Difficulty]
HPDrainRate:4
CircleSize:3.4
OverallDifficulty:4
ApproachRate:5
SliderMultiplier:1.1
SliderTickRate:1

[Events]
//Background and Video events
0,0,"komorebi.jpg",0,0
Video,11948,"ed.mp4"
//Break Periods
//Storyboard Layer 0 (Background)
//Storyboard Layer 1 (Fail)
//Storyboard Layer 2 (Pass)
//Storyboard Layer 3 (Foreground)
//Storyboard Layer 4 (Overlay)
//Storyboard Sound Samples

[TimingPoints]
425,461.538461538462,4,2,1,50,1,0
689,454.545454545455,4,2,3,40,1,0
689,-83.3333333333333,4,2,3,40,0,0
8643,-83.3333333333333,4,2,3,45,0,0
9325,-83.3333333333333,4,2,3,50,0,0
11598,-83.3333333333333,4,2,3,60,0,0
12961,-83.3333333333333,4,2,1,60,0,0
13416,-83.3333333333333,4,2,3,60,0,0
14779,-83.3333333333333,4,2,1,60,0,0
15234,-83.3333333333333,4,2,3,60,0,0
16598,-83.3333333333333,4,2,1,60,0,0
17052,-83.3333333333333,4,2,3,60,0,0
18415,-83.3333333333333,4,2,1,60,0,0
18870,-83.3333333333333,4,2,3,60,0,0
20233,-83.3333333333333,4,2,1,60,0,0
20689,-83.3333333333333,4,2,3,60,0,0
22052,-83.3333333333333,4,2,1,60,0,0
22507,-83.3333333333333,4,2,3,60,0,0
27506,-83.3333333333333,4,2,1,60,0,0
27961,-83.3333333333333,4,2,3,60,0,0
29324,-83.3333333333333,4,2,1,60,0,0
30689,-83.3333333333333,4,2,3,60,0,0
40689,-83.3333333333333,4,2,2,60,0,0
50234,-83.3333333333333,4,2,1,60,0,0
51143,-83.3333333333333,4,2,2,60,0,0
52734,-83.3333333333333,4,2,3,60,0,0
52961,-83.3333333333333,4,2,2,60,0,0
53643,-83.3333333333333,4,2,2,45,0,0
53870,-83.3333333333333,4,2,2,48,0,0
54097,-83.3333333333333,4,2,2,51,0,0
54325,-83.3333333333333,4,2,2,54,0,0
54552,-83.3333333333333,4,2,2,57,0,0
55006,-83.3333333333333,4,2,3,60,0,0
55234,-83.3333333333333,4,2,2,60,0,0
55574,-83.3333333333333,4,2,3,60,0,0
56143,-83.3333333333333,4,2,2,60,0,0
57052,-83.3333333333333,4,2,2,60,0,1
71370,-83.3333333333333,4,2,3,60,0,1
71598,-83.3333333333333,4,2,2,60,0,1
82279,-83.3333333333333,4,2,3,60,0,1
82507,-83.3333333333333,4,2,2,60,0,1
85007,-83.3333333333333,4,2,3,60,0,1
85461,-83.3333333333333,4,2,2,60,0,1
85916,-83.3333333333333,4,2,2,60,0,0
86143,-83.3333333333333,4,2,2,30,0,0
87961,-83.3333333333333,4,2,69,5,0,0

[Colours]
Combo1 : 251,189,227
Combo2 : 222,149,247
Combo3 : 243,135,112
Combo4 : 135,200,248

[HitObjects]
327,109,689,6,0,B|456:130|390:155|511:174,2,198,2|2|0,2:0|2:0|2:0,2:0:0:0:
263,143,2279,1,2,2:0:0:0:
177,260,2734,2,0,P|140:274|102:270,1,66,0|0,2:0|2:0,2:0:0:0:
51,235,3189,1,2,2:0:0:0:
72,91,3643,2,0,B|132:66|132:66,1,66,0|0,2:0|2:0,2:0:0:0:
204,77,4098,1,2,2:0:0:0:
248,134,4325,6,0,P|297:152|372:110,1,132,2|0,2:0|2:0,2:0:0:0:
382,48,5007,1,2,2:0:0:0:
501,129,5461,2,0,P|493:162|487:194,1,66,0|0,2:0|2:0,2:0:0:0:
463,262,5916,2,0,B|426:267|398:242|398:242|362:234|334:249,1,132,2|0,2:0|2:0,2:0:0:0:
314,316,6598,1,2,2:0:0:0:
182,376,7052,1,2,2:0:0:0:
95,259,7507,2,0,P|102:224|111:180,1,66,2|0,2:0|2:0,2:0:0:0:
161,145,7961,6,0,B|240:131|219:170|290:159,1,132,2|0,2:0|2:0,2:0:0:0:
345,112,8643,2,0,P|348:66|261:25,1,132,2|0,2:0|2:0,2:0:0:0:
216,48,9325,1,2,2:0:0:0:
105,267,10689,5,2,2:0:0:0:
30,239,10916,1,2,2:0:0:0:
256,192,11598,5,2,3:2:0:0:
393,271,12052,2,0,P|457:269|503:224,2,132,0|8|2,2:0|2:0|2:0,2:0:0:0:
324,231,13189,1,0,2:0:0:0:
257,273,13416,1,2,2:0:0:0:
114,203,13870,1,0,3:0:0:0:
0,314,14325,2,0,B|83:328|43:353|118:365,1,132,8|2,2:0|2:0,2:0:0:0:
237,259,15234,6,0,P|249:191|270:102,1,132,2|0,3:2|2:0,2:0:0:0:
210,70,15916,1,0,2:0:0:0:
137,100,16143,1,10,2:0:0:0:
14,0,16598,2,0,P|4:39|-2:78,1,66,2|0,2:0|2:0,2:0:0:0:
33,136,17052,1,2,2:0:0:0:
95,281,17507,2,0,P|127:285|159:276,1,66,0|0,3:0|2:0,2:0:0:0:
237,259,17961,2,0,P|304:274|377:288,1,132,10|2,2:0|2:0,2:0:0:0:
510,223,18870,5,2,3:2:0:0:
398,110,19325,2,0,P|352:124|325:133,1,66,0|0,2:0|2:0,2:0:0:0:
259,153,19779,2,0,P|203:125|187:53,1,132,8|2,2:0|2:0,2:0:0:0:
235,0,20461,1,0,2:0:0:0:
307,33,20689,1,2,2:0:0:0:
461,0,21143,2,0,B|475:26|499:42|499:42|476:135,1,132,0|8,3:0|2:0,2:0:0:0:
511,269,22052,1,2,2:0:0:0:
354,243,22507,6,0,B|247:223|276:284|160:264,1,198,2|0,3:2|2:0,2:0:0:0:
112,202,23416,1,8,2:0:0:0:
160,139,23643,2,0,P|196:145|238:155,2,66,0|0|8,2:0|2:0|2:0,2:0:0:0:
106,80,24325,1,10,2:0:0:0:
2,197,24779,1,0,3:2:0:0:
79,334,25234,1,10,2:0:0:0:
234,301,25689,1,2,2:0:0:0:
387,383,26143,5,2,3:2:0:0:
472,263,26598,2,0,P|463:228|451:193,1,66,0|0,2:0|2:0,2:0:0:0:
413,131,27052,2,0,P|462:97|461:14,1,132,8|2,2:0|2:0,2:0:0:0:
394,0,27734,1,0,2:0:0:0:
322,33,27961,2,0,P|253:16|180:5,1,132,2|2,2:0|3:2,2:0:0:0:
51,79,28870,2,0,B|54:103|59:124|59:124|43:162|43:162|49:182|52:207,1,132,10|2,2:0|2:0,2:0:0:0:
0,355,29779,6,0,P|50:317|123:329,1,132,0|0,3:2|2:0,2:0:0:0:
174,377,30461,1,0,2:0:0:0:
246,344,30689,2,0,P|262:273|275:203,1,132,10|0,2:0|2:0,2:0:0:0:
320,151,31370,2,0,B|426:125|415:197|511:172,1,198,2|2,2:0|3:2,2:0:0:0:
451,25,32507,1,10,2:0:0:0:
298,66,32961,2,0,P|259:56|219:49,1,66,2|0,2:0|2:0,2:0:0:0:
167,7,33416,6,0,B|132:7|107:32|107:32|72:38|42:20,1,132,2|0,3:2|2:0,2:0:0:0:
0,87,34098,2,0,P|19:145|40:227,1,132,2|2,2:0|2:0,2:0:0:0:
113,352,35007,1,0,3:0:0:0:
174,302,35234,2,0,B|208:265|267:281|267:281|286:311,1,132,2|8,2:0|2:0,2:0:0:0:
422,384,36143,1,10,2:0:0:0:
493,242,36598,1,2,2:0:0:0:
393,119,37052,6,0,B|366:106|334:97|334:97|315:117|288:137|288:137|251:122|216:137,1,198,2|2,3:2|2:0,2:0:0:0:
70,199,38189,2,0,P|60:237|53:277,2,66,2|2|10,2:0|2:0|2:0,2:0:0:0:
107,129,38870,2,0,P|95:64|80:0,2,132,2|0|2,3:2|2:0|2:0,2:0:0:0:
216,244,40234,1,2,2:0:0:0:
349,157,40689,6,0,P|393:143|477:204,1,132,4|2,3:0|3:0,2:0:0:0:
509,245,41370,1,2,2:0:0:0:
455,303,41598,2,0,P|416:310|376:319,1,66,2|2,3:0|2:0,2:0:0:0:
332,370,42052,2,0,P|299:362|267:356,1,66,2|2,3:0|2:0,2:0:0:0:
191,380,42507,1,0,3:0:0:0:
59,292,42961,1,0,3:0:0:0:
144,158,43416,2,0,B|174:140|190:110|190:110|219:130|251:135,1,132,2|10,3:0|2:0,2:0:0:0:
395,73,44325,6,0,P|379:140|367:202,1,132,2|0,3:0|3:0,2:0:0:0:
401,273,45007,1,2,2:0:0:0:
448,336,45234,2,0,P|482:328|515:326,2,66,2|2|2,3:0|2:0|3:0,2:0:0:0:
377,371,45916,2,0,P|323:378|257:321,1,132,2|0,2:0|2:0,2:0:0:0:
244,257,46598,1,2,3:0:0:0:
121,157,47052,2,0,B|75:173|36:183|36:183|18:169|-1:160,1,132,2|8,3:0|2:0,2:0:0:0:
61,15,47961,6,0,P|126:-1|182:35,1,132,6|0,3:0|3:0,2:0:0:0:
261,166,48870,1,0,3:0:0:0:
332,131,49098,2,0,P|363:139|396:146,2,66,2|2|2,2:0|3:0|2:0,2:0:0:0:
315,53,49779,1,0,3:0:0:0:
472,34,50234,2,0,B|460:114|494:85|485:162,1,132,2|2,3:0|3:0,2:0:0:0:
361,261,51143,1,8,2:0:0:0:
471,374,51598,6,0,P|501:337|478:251,2,132,2|2|2,3:0|3:0|3:0,2:0:0:0:
395,350,52734,2,0,P|359:341|316:333,1,66,10|10,3:0|2:0,2:0:0:0:
260,372,53189,1,2,3:0:0:0:
174,239,53643,1,8,2:0:0:0:
134,307,53870,2,0,P|104:320|70:316,1,66,8|8,2:0|2:0,2:0:0:0:
2,277,54325,2,0,P|11:238|18:198,1,66,8|8,2:0|2:0,2:0:0:0:
77,162,54779,2,0,P|69:129|62:90,1,66,8|4,2:0|2:3,2:0:0:0:
87,21,55234,6,0,P|39:20|0:48,2,99,10|10|6,2:0|3:0|3:0,2:0:0:0:
159,56,56143,1,10,2:0:0:0:
389,292,57052,6,0,P|422:283|456:277,1,66,6|0,3:0|2:0,2:0:0:0:
510,212,57507,1,10,2:0:0:0:
468,137,57734,2,0,P|409:110|347:130,1,132,2|2,2:0|2:0,2:0:0:0:
285,189,58416,2,0,P|251:180|217:174,1,66,8|2,2:0|2:0,2:0:0:0:
136,156,58870,1,2,3:0:0:0:
37,296,59325,1,10,2:0:0:0:
112,336,59552,2,0,B|187:315|153:299|228:277,1,132,2|2,2:0|2:0,2:0:0:0:
299,325,60234,2,0,P|338:332|377:341,1,66,8|2,2:0|2:0,2:0:0:0:
433,287,60689,6,0,P|473:279|511:270,2,66,2|0|10,3:0|2:0|2:0,2:0:0:0:
365,233,61370,1,2,2:0:0:0:
275,86,61825,2,0,P|274:53|286:22,1,66,2|8,2:0|2:0,2:0:0:0:
369,3,62279,1,2,2:0:0:0:
446,39,62507,2,0,B|459:65|478:87|478:87|458:158,1,132,2|10,3:0|2:0,2:0:0:0:
397,219,63189,2,0,P|344:184|282:199,1,132,2|2,2:0|2:0,2:0:0:0:
248,278,63870,2,0,P|256:316|264:356,1,66,8|2,2:0|2:0,2:0:0:0:
182,378,64325,5,6,3:0:0:0:
59,257,64779,1,10,2:0:0:0:
133,214,65007,2,0,P|142:174|149:135,1,66,2|0,2:0|3:0,2:0:0:0:
80,95,65461,2,0,P|58:69|54:33,1,66,2|8,2:0|2:0,2:0:0:0:
132,4,65916,1,2,2:0:0:0:
198,58,66143,2,0,B|273:41|259:75|327:61,1,132,6|10,3:0|2:0,2:0:0:0:
393,5,66825,2,0,P|438:-4|499:72,1,132,2|0,2:0|2:0,2:0:0:0:
458,126,67507,2,0,P|466:164|473:204,1,66,10|2,2:0|2:0,2:0:0:0:
487,274,67961,5,6,3:0:0:0:
342,363,68416,1,10,2:0:0:0:
290,294,68643,2,0,P|252:285|211:277,1,66,2|0,2:0|3:0,2:0:0:0:
154,327,69098,1,2,2:0:0:0:
83,375,69325,2,0,P|52:382|20:373,1,66,10|2,2:0|2:0,2:0:0:0:
1,288,69779,2,0,P|14:220|30:147,1,132,2|8,3:0|2:0,2:0:0:0:
160,49,70689,2,0,P|194:57|223:87,1,66,8|8,2:0|2:0,2:0:0:0:
287,126,71143,2,0,P|311:100|352:89,1,66,10|4,2:0|3:0,2:0:0:0:
415,129,71598,6,0,L|493:112,2,66,6|0|10,3:0|2:0|2:0,2:0:0:0:
363,197,72279,1,2,2:0:0:0:
492,310,72734,1,2,2:0:0:0:
428,367,72961,2,0,P|396:376|364:372,1,66,8|2,2:0|2:0,2:0:0:0:
301,312,73416,2,0,P|232:331|161:349,1,132,2|10,3:0|2:0,2:0:0:0:
92,373,74098,1,2,2:0:0:0:
1,227,74552,1,2,2:0:0:0:
77,189,74779,2,0,P|117:196|155:205,1,66,8|2,2:0|2:0,2:0:0:0:
221,168,75234,6,0,P|236:139|262:118,2,66,2|2|10,3:0|2:0|2:0,2:0:0:0:
250,248,75916,2,0,P|266:315|279:388,1,132,2|2,2:0|2:0,2:0:0:0:
363,382,76598,2,0,P|390:377|422:345,1,66,8|2,2:0|2:0,2:0:0:0:
430,267,77052,1,2,3:0:0:0:
350,114,77507,1,10,2:0:0:0:
412,55,77734,2,0,P|460:54|509:131,1,132,2|2,2:0|2:0,2:0:0:0:
453,181,78416,2,0,P|414:188|374:197,1,66,8|10,2:0|2:0,2:0:0:0:
335,261,78870,5,6,3:0:0:0:
187,172,79325,1,10,2:0:0:0:
156,252,79552,2,0,P|116:268|82:272,1,66,2|0,2:0|3:0,2:0:0:0:
41,203,80007,2,0,P|47:160|60:128,1,66,2|8,2:0|2:0,2:0:0:0:
128,94,80461,1,2,2:0:0:0:
201,49,80689,1,6,3:0:0:0:
323,168,81143,1,10,2:0:0:0:
397,123,81370,2,0,B|430:88|430:88|413:6,1,132,2|0,2:0|2:3,2:0:0:0:
326,6,82052,2,0,P|292:20|261:23,1,66,8|6,2:0|3:0,2:0:0:0:
179,44,82507,6,0,P|151:19|121:8,2,66,6|2|10,3:0|2:0|2:0,2:0:0:0:
219,119,83189,2,0,P|202:190|189:259,1,132,2|0,2:0|2:0,2:0:0:0:
226,325,83870,2,0,P|263:350|298:350,1,66,8|2,2:0|2:0,2:0:0:0:
354,303,84325,1,2,3:0:0:0:
491,200,84779,1,10,2:0:0:0:
439,131,85007,2,0,P|406:123|374:116,1,66,10|0,3:0|2:0,2:0:0:0:
306,169,85461,2,0,P|273:174|227:185,1,66,10|10,2:0|2:0,2:0:0:0:
157,160,85916,5,2,3:0:0:0:
256,192,86143,12,0,87961,2:0:0:0:
