osu file format v14

[General]
AudioFilename: audio.mp3
AudioLeadIn: 0
PreviewTime: 55980
Countdown: 0
SampleSet: Soft
StackLeniency: 0.4
Mode: 0
LetterboxInBreaks: 0
WidescreenStoryboard: 0

[Editor]
DistanceSpacing: 0.9
BeatDivisor: 4
GridSize: 16
TimelineZoom: 1.4

[Metadata]
Title:Komorebi no Yell (TV Size)
TitleUnicode:木漏れ日のエール (TV Size)
Artist:Tokai Teio (CV: Machico), Mejiro McQueen (CV: Onishi Saori)
ArtistUnicode:トウカイテイオー (CV: Machico)、メジロマックイーン (CV: 大西沙織)
Creator:Huzz
Version:Kanarazu, kitto.
Source:ウマ娘 プリティーダービー Season 2
Tags:tv anime japanese uma musume pretty derby umamusume 2nd season two 2 ending theme ed jpop j-pop pop horse girls animation cygames oonishi toukai teoiu
BeatmapID:3106782
BeatmapSetID:1517624

[Difficulty]
HPDrainRate:6
CircleSize:4.2
OverallDifficulty:8
ApproachRate:8.5
SliderMultiplier:1.6
SliderTickRate:1

[Events]
//Background and Video events
0,0,"komorebi.jpg",0,0
Video,11948,"ed.mp4"
//Break Periods
//Storyboard Layer 0 (Background)
//Storyboard Layer 1 (Fail)
//Storyboard Layer 2 (Pass)
//Storyboard Layer 3 (Foreground)
//Storyboard Layer 4 (Overlay)
//Storyboard Sound Samples

[TimingPoints]
425,461.538461538462,4,2,2,30,1,0
425,-125,4,2,2,30,0,0
689,454.545454545455,4,2,11,40,1,0
689,-125,4,2,11,40,0,0
916,-125,4,2,12,40,0,0
1143,-125,4,2,13,40,0,0
1370,-125,4,2,14,40,0,0
1824,-125,4,2,12,40,0,0
2052,-125,4,2,13,40,0,0
2279,-125,4,2,15,40,0,0
2733,-125,4,2,12,40,0,0
2961,-125,4,2,13,40,0,0
3189,-125,4,2,16,40,0,0
3643,-125,4,2,12,40,0,0
3870,-125,4,2,13,40,0,0
4098,-125,4,2,18,40,0,0
4325,-125,4,2,17,40,0,0
4552,-125,4,2,12,40,0,0
4779,-125,4,2,13,40,0,0
5007,-100,4,2,19,40,0,0
5461,-100,4,2,12,40,0,0
5689,-100,4,2,13,40,0,0
5916,-100,4,2,20,40,0,0
6370,-100,4,2,12,40,0,0
6598,-100,4,2,13,40,0,0
6825,-100,4,2,21,40,0,0
7279,-100,4,2,12,40,0,0
7507,-111.111111111111,4,2,13,40,0,0
7847,-111.111111111111,4,2,69,5,0,0
7961,-90.9090909090909,4,2,22,40,0,0
8301,-90.9090909090909,4,2,69,5,0,0
8416,-90.9090909090909,4,2,1,40,0,0
8643,-76.9230769230769,4,2,23,45,0,0
8983,-76.9230769230769,4,2,69,5,0,0
9098,-76.9230769230769,4,2,1,45,0,0
9325,-181.818181818182,4,2,24,50,0,0
10461,-181.818181818182,4,2,24,40,0,0
10689,-181.818181818182,4,2,25,40,0,0
10916,-181.818181818182,4,2,26,40,0,0
11598,-133.333333333334,4,2,31,60,0,0
12507,-133.333333333334,4,2,1,60,0,0
13416,-133.333333333334,4,2,32,60,0,0
13870,-133.333333333334,4,2,1,60,0,0
15234,-133.333333333334,4,2,33,60,0,0
16143,-133.333333333334,4,2,1,60,0,0
16483,-133.333333333334,4,2,69,5,0,0
16598,-133.333333333334,4,2,1,60,0,0
17052,-133.333333333334,4,2,34,60,0,0
17506,-133.333333333334,4,2,1,60,0,0
17961,-133.333333333334,4,2,35,60,0,0
18415,-133.333333333334,4,2,1,60,0,0
18870,-133.333333333334,4,2,36,60,0,0
19779,-133.333333333334,4,2,1,60,0,0
20689,-133.333333333334,4,2,37,60,0,0
21143,-133.333333333334,4,2,1,60,0,0
22507,-133.333333333334,4,2,38,60,0,0
23416,-133.333333333334,4,2,1,60,0,0
24325,-133.333333333334,4,2,39,60,0,0
24779,-133.333333333334,4,2,40,60,0,0
25007,-133.333333333334,4,2,41,60,0,0
25234,-105.263157894737,4,2,42,60,0,0
25461,-105.263157894737,4,2,1,60,0,0
25689,-95.2380952380952,4,2,43,60,0,0
25916,-95.2380952380952,4,2,1,60,0,0
26143,-105.263157894737,4,2,44,60,0,0
27052,-117.64705882353,4,2,1,60,0,0
27961,-117.64705882353,4,2,45,60,0,0
28301,-117.64705882353,4,2,69,5,0,0
28416,-95.2380952380954,4,2,46,60,0,0
28756,-95.2380952380954,4,2,69,5,0,0
28870,-86.9565217391304,4,2,47,60,0,0
29324,-86.9565217391304,4,2,1,60,0,0
29779,-105.263157894737,4,2,48,60,0,0
30233,-105.263157894737,4,2,49,60,0,0
30461,-105.263157894737,4,2,50,60,0,0
30689,-117.647058823529,4,2,51,60,0,0
31029,-117.647058823529,4,2,69,5,0,0
31143,-117.647058823529,4,2,1,60,0,0
31370,-117.647058823529,4,2,52,60,0,0
32052,-95.238095238095,4,2,53,60,0,0
32507,-105.263157894737,4,2,54,60,0,0
32961,-105.263157894737,4,2,55,60,0,0
33416,-95.2380952380954,4,2,56,60,0,0
34098,-117.64705882353,4,2,56,60,0,0
34325,-117.64705882353,4,2,1,60,0,0
34552,-105.263157894737,4,2,1,60,0,0
35234,-105.263157894737,4,2,56,60,0,0
35688,-105.263157894737,4,2,1,60,0,0
36143,-105.263157894737,4,2,57,60,0,0
36598,-105.263157894737,4,2,58,60,0,0
37052,-105.263157894737,4,2,59,60,0,0
37734,-105.263157894737,4,2,60,60,0,0
37961,-105.263157894737,4,2,1,60,0,0
38189,-105.263157894737,4,2,61,60,0,0
38416,-105.263157894737,4,2,62,60,0,0
38643,-105.263157894737,4,2,63,60,0,0
38870,-133.333333333334,4,2,64,60,0,0
39779,-117.64705882353,4,2,2,60,0,0
40119,-117.64705882353,4,2,69,5,0,0
40234,-105.263157894737,4,2,2,60,0,0
40689,-100,4,2,2,60,0,0
44325,-90.9090909090909,4,2,2,60,0,0
46598,-100,4,2,2,60,0,0
47847,-100,4,2,69,5,0,0
47961,-90.9090909090909,4,2,2,60,0,0
49779,-100,4,2,2,60,0,0
50234,-100,4,2,1,60,0,0
51143,-100,4,2,2,60,0,0
51598,-90.9090909090909,4,2,2,60,0,0
51938,-90.9090909090909,4,2,69,5,0,0
52052,-90.9090909090909,4,2,2,60,0,0
52392,-90.9090909090909,4,2,69,5,0,0
52507,-90.9090909090909,4,2,2,60,0,0
52734,-90.9090909090909,4,2,3,60,0,0
52961,-90.9090909090909,4,2,2,60,0,0
53643,-90.9090909090909,4,2,2,45,0,0
53870,-90.9090909090909,4,2,2,48,0,0
54098,-90.9090909090909,4,2,2,51,0,0
54325,-90.9090909090909,4,2,2,54,0,0
54552,-90.9090909090909,4,2,2,57,0,0
54893,-90.9090909090909,4,2,3,60,0,0
55120,-90.9090909090909,4,2,4,60,0,0
55234,-90.9090909090909,4,2,2,60,0,0
55461,-90.9090909090909,4,2,69,5,0,0
55575,-90.9090909090909,4,2,3,60,0,0
55802,-90.9090909090909,4,2,4,60,0,0
55916,-90.9090909090909,4,2,3,60,0,0
56143,-90.9090909090909,4,2,2,60,0,0
57052,-90.9090909090909,4,2,2,60,0,1
57734,-80,4,2,2,60,0,1
59210,-80,4,2,69,5,0,1
59325,-80,4,2,2,60,0,1
62847,-80,4,2,69,5,0,1
62961,-80,4,2,2,60,0,1
64665,-80,4,2,69,5,0,1
64779,-80,4,2,2,60,0,1
68301,-80,4,2,69,5,0,1
68416,-80,4,2,2,60,0,1
69779,-74.0740740740741,4,2,2,60,0,1
70119,-74.0740740740741,4,2,69,5,0,1
70234,-74.0740740740741,4,2,2,60,0,1
71257,-74.0740740740741,4,2,3,60,0,1
71483,-74.0740740740741,4,2,4,60,0,1
71598,-80,4,2,2,60,0,1
73756,-80,4,2,69,5,0,1
73870,-80,4,2,2,60,0,1
77392,-80,4,2,69,5,0,1
77507,-80,4,2,2,60,0,1
79210,-80,4,2,69,5,0,1
79325,-80,4,2,2,60,0,1
82165,-80,4,2,3,60,0,1
82392,-80,4,2,4,60,0,1
82507,-80,4,2,2,60,0,1
84665,-80,4,2,69,5,0,1
84779,-80,4,2,2,60,0,1
85007,-80,4,2,3,60,0,1
85348,-80,4,2,2,60,0,1
85916,-80,4,2,2,60,0,0
86143,-80,4,2,2,30,0,0
87961,-80,4,2,69,5,0,0

[Colours]
Combo1 : 251,189,227
Combo2 : 222,149,247
Combo3 : 243,135,112
Combo4 : 135,200,248

[HitObjects]
145,83,425,6,0,P|142:70|136:52,2,21.3333333333333,2|2|2,2:0|2:0|2:0,2:0:0:0:
164,108,689,6,0,P|172:73|184:30,2,64,2|2|2,2:0|2:0|2:0,2:0:0:0:
252,208,1370,2,0,P|287:225|370:186,1,128,2|2,2:0|2:0,2:0:0:0:
364,194,2052,1,2,2:0:0:0:
146,215,2279,6,0,P|95:249|39:296,1,128,2|2,2:0|2:0,2:0:0:0:
43,291,2961,1,2,2:0:0:0:
226,384,3189,6,0,B|302:362|259:343|335:322,1,128,2|2,2:0|2:0,2:0:0:0:
335,321,3870,1,2,2:0:0:0:
401,374,4098,1,2,2:0:0:0:
500,279,4325,6,0,P|507:245|515:200,1,64,2|2,2:0|2:0,2:0:0:0:
481,108,4779,1,2,2:0:0:0:
368,209,5007,6,0,B|338:227|296:223|275:194|275:194|302:207|331:199,1,160,2|2,2:0|2:0,2:0:0:0:
330,199,5689,1,2,2:0:0:0:
418,38,5916,6,0,B|375:21|331:13|331:13|306:40|270:40,1,160,2|2,2:0|2:0,2:0:0:0:
269,40,6598,1,2,2:0:0:0:
93,0,6825,6,0,P|148:27|136:131,1,160,2|2,2:0|2:0,2:0:0:0:
4,160,7507,2,0,B|27:139|54:142|54:142|59:166|84:187,1,108,2|0,2:0|2:0,2:0:0:0:
93,193,7961,6,0,P|78:262|65:334,1,132,2|0,2:0|2:0,2:0:0:0:
72,330,8416,1,0,2:0:0:0:
206,149,8643,6,0,P|189:225|175:303,1,156,2|0,2:0|2:0,2:0:0:0:
181,310,9098,1,0,2:0:0:0:
322,112,9325,6,0,P|298:222|278:333,1,220,2|0,2:0|2:0,2:0:0:0:
412,384,10689,5,2,2:0:0:0:
169,218,10916,1,2,2:0:0:0:
169,218,11598,6,0,B|102:233|132:254|62:268,1,119.999999999999,2|0,3:2|2:0,2:0:0:0:
0,204,12279,1,0,2:0:0:0:
185,309,12507,6,0,P|248:322|325:341,1,119.999999999999,8|2,2:0|2:0,2:0:0:0:
378,285,13189,1,0,2:0:0:0:
287,158,13416,5,2,2:0:0:0:
387,293,13870,2,0,P|396:326|402:355,1,59.9999999999997,0|0,3:0|2:0,2:0:0:0:
281,148,14325,2,0,P|296:90|311:23,1,119.999999999999,8|2,2:0|2:0,2:0:0:0:
512,194,15234,6,0,B|479:184|446:177|446:177|428:198|401:203,1,119.999999999999,2|0,3:2|2:0,2:0:0:0:
382,126,15916,1,0,2:0:0:0:
279,245,16143,2,0,P|233:269|190:250,1,89.9999999999996,8|0,2:0|2:0,2:0:0:0:
193,252,16598,1,2,2:0:0:0:
160,181,16825,1,0,2:0:0:0:
38,287,17052,6,0,P|53:227|68:162,1,119.999999999999,2|0,2:0|3:0,2:0:0:0:
16,113,17734,1,2,2:0:0:0:
150,17,17961,2,0,B|224:40|194:49|261:69,1,119.999999999999,10|2,2:0|2:0,2:0:0:0:
421,207,18870,5,2,3:2:0:0:
421,207,19325,2,0,P|386:213|342:222,1,59.9999999999997,0|0,2:0|2:0,2:0:0:0:
452,83,19779,2,0,P|474:109|504:143,1,59.9999999999997,8|0,2:0|2:0,2:0:0:0:
330,114,20234,1,2,2:0:0:0:
368,46,20461,1,0,2:0:0:0:
508,235,20689,6,0,P|490:298|477:359,2,119.999999999999,2|0|8,2:0|3:0|2:0,2:0:0:0:
356,299,22052,1,2,2:0:0:0:
356,299,22507,6,0,P|325:324|240:316,1,119.999999999999,2|0,3:2|2:0,2:0:0:0:
216,249,23189,1,0,2:0:0:0:
265,188,23416,1,8,2:0:0:0:
175,33,23643,2,0,P|143:24|112:17,2,59.9999999999997,0|0|8,2:0|2:0|2:0,2:0:0:0:
294,95,24325,6,0,P|229:109|169:125,1,119.999999999999,10|2,2:0|3:2,2:0:0:0:
98,102,25007,1,2,2:0:0:0:
0,223,25234,2,0,P|6:193|20:144,1,75.9999999999999,10|2,2:0|2:0,2:0:0:0:
90,272,25689,2,0,P|124:247|160:227,1,84,2|2,2:0|2:0,2:0:0:0:
316,373,26143,6,0,P|241:357|166:343,1,152,2|0,3:2|2:0,2:0:0:0:
291,272,26825,1,0,2:0:0:0:
412,380,27052,2,0,P|448:344|435:255,1,135.999999999999,8|2,2:0|2:0,2:0:0:0:
381,212,27734,1,0,2:0:0:0:
482,173,27961,6,0,B|426:155|456:145|393:125,1,101.999999999999,2|0,2:0|2:0,2:0:0:0:
347,125,28416,2,0,P|404:111|470:91,1,126,2|0,3:2|2:0,2:0:0:0:
512,95,28870,2,0,P|514:43|396:29,1,184,10|2,2:0|2:0,2:0:0:0:
353,117,29552,1,0,2:0:0:0:
256,47,29779,6,0,P|183:26|110:7,1,152,2|2,3:2|2:0,2:0:0:0:
24,65,30461,1,2,2:0:0:0:
131,200,30689,2,0,P|185:184|250:168,1,102,10|0,2:0|2:0,2:0:0:0:
246,176,31143,1,0,2:0:0:0:
24,65,31370,6,0,B|44:102|49:140|49:140|29:163|25:190,1,136,2|0,2:0|2:0,2:0:0:0:
194,376,32052,2,0,P|233:348|254:311,1,84.0000000000002,2|0,3:2|2:0,2:0:0:0:
68,307,32507,2,0,P|68:344|83:379,1,75.9999999999999,10|0,2:0|2:0,2:0:0:0:
188,229,32961,2,0,P|144:208|102:208,1,75.9999999999999,2|0,2:0|2:0,2:0:0:0:
332,357,33416,6,0,B|372:319|427:308|427:308|446:332|475:339,1,168,2|0,3:2|2:0,2:0:0:0:
512,217,34098,2,0,P|479:207|446:199,1,67.9999999999997,0|8,2:0|2:0,2:0:0:0:
350,240,34552,2,0,P|314:250|277:259,1,75.9999999999999,0|0,2:0|2:0,2:0:0:0:
188,229,35007,1,0,3:0:0:0:
247,59,35234,6,0,B|342:81|294:99|384:119,1,152,2|8,2:0|2:0,2:0:0:0:
473,34,36143,1,10,2:0:0:0:
249,152,36598,1,2,2:0:0:0:
462,295,37052,6,0,P|479:220|499:147,1,152,2|0,3:2|2:0,2:0:0:0:
371,91,37734,2,0,P|382:132|390:168,1,75.9999999999999,2|8,2:0|2:0,2:0:0:0:
364,239,38189,1,2,2:0:0:0:
292,272,38416,1,2,2:0:0:0:
221,234,38643,1,10,2:0:0:0:
86,269,38870,6,0,P|103:330|123:408,1,119.999999999999,2|0,3:2|2:0,2:0:0:0:
0,173,39779,6,0,P|30:133|78:118,1,101.999999999999,2|0,2:0|2:0,2:0:0:0:
120,176,40234,2,0,P|90:153|77:117,1,75.9999999999999,2|0,2:0|2:0,2:0:0:0:
124,55,40575,1,0,2:0:0:0:
124,55,40689,6,0,P|162:44|201:37,1,80,6|0,3:0|2:0,2:0:0:0:
378,58,41143,1,2,3:0:0:0:
433,0,41370,1,2,2:0:0:0:
295,56,41598,5,2,3:0:0:0:
442,109,41825,1,2,2:0:0:0:
407,182,42052,1,2,3:0:0:0:
328,199,42279,1,2,2:0:0:0:
206,128,42507,6,0,B|228:164|236:211|236:211|209:238|208:274,1,160,0|0,3:0|3:0,2:0:0:0:
246,345,43189,1,0,2:0:0:0:
374,296,43416,2,0,P|335:288|296:278,1,80,2|0,3:0|2:0,2:0:0:0:
165,372,43870,2,0,P|203:361|242:352,1,80,10|0,2:0|2:0,2:0:0:0:
87,227,44325,6,0,P|32:262|70:370,1,176,2|0,3:0|3:0,2:0:0:0:
157,276,45007,1,2,2:0:0:0:
16,159,45234,1,2,3:0:0:0:
100,117,45461,1,2,2:0:0:0:
178,173,45689,1,2,3:0:0:0:
297,0,45916,6,0,P|288:42|282:86,2,88,2|0|0,2:0|3:0|2:0,2:0:0:0:
452,129,46598,2,0,P|445:90|436:50,1,80,2|0,3:0|2:0,2:0:0:0:
343,207,47052,2,0,P|349:167|357:128,1,80,2|0,3:0|2:0,2:0:0:0:
510,257,47507,2,0,B|472:234|472:234|431:245|422:286,1,120,10|0,2:0|2:0,2:0:0:0:
429,318,47961,6,0,B|380:297|329:298|329:298|311:334|274:345,1,176,6|0,3:0|3:0,2:0:0:0:
112,296,48643,1,0,2:0:0:0:
160,227,48870,1,0,3:0:0:0:
240,256,49098,5,2,2:0:0:0:
157,384,49325,1,2,3:0:0:0:
26,332,49552,1,2,2:0:0:0:
49,241,49779,6,0,P|39:203|28:164,1,80,0|0,3:0|2:0,2:0:0:0:
128,139,50234,2,0,P|157:111|184:82,1,80,2|2,3:0|2:0,2:0:0:0:
253,148,50575,1,2,2:0:0:0:
264,156,50689,2,0,P|302:167|341:176,1,80,2|2,3:0|2:0,2:0:0:0:
440,131,51029,1,2,2:0:0:0:
452,123,51143,2,0,P|470:88|466:48,1,80,8|0,2:0|2:0,2:0:0:0:
351,173,51598,6,0,P|367:230|385:303,1,132,2|0,3:0|2:0,2:0:0:0:
445,352,52052,2,0,P|432:325|328:324,1,132,2|0,3:0|2:0,2:0:0:0:
280,366,52507,5,2,3:0:0:0:
148,218,52734,5,10,3:0:0:0:
260,271,52961,1,10,2:0:0:0:
106,384,53189,1,2,3:0:0:0:
106,384,53643,5,8,2:0:0:0:
39,341,53870,1,8,2:0:0:0:
17,259,54098,1,8,2:0:0:0:
65,159,54325,1,8,2:0:0:0:
190,125,54552,1,8,2:0:0:0:
344,242,54779,5,10,2:0:0:0:
395,253,54893,1,10,3:0:0:0:
445,237,55007,1,6,3:0:0:0:
476,194,55120,1,6,3:0:0:0:
481,140,55234,6,0,P|464:99|445:59,1,88,10|0,2:0|2:0,2:0:0:0:
248,238,55575,2,0,P|260:196|275:155,1,88,10|4,3:0|3:0,2:0:0:0:
439,321,55916,2,0,P|427:295|415:276,1,44,6|0,3:0|2:0,2:0:0:0:
177,134,56143,5,10,2:0:0:0:
177,134,56598,2,0,P|185:113|193:93,3,44,2|2|2|2,2:0|2:0|2:0|2:0,2:0:0:0:
142,15,57052,5,6,3:0:0:0:
286,158,57279,1,2,2:0:0:0:
398,53,57507,1,10,2:0:0:0:
197,242,57734,2,0,P|186:193|172:146,1,100,2|0,2:0|3:0,2:0:0:0:
355,324,58189,2,0,P|365:275|380:227,1,100,2|8,2:0|2:0,2:0:0:0:
258,67,58643,1,2,2:0:0:0:
14,193,58870,6,0,B|107:222|65:238|147:262,1,150,2|0,3:0|2:0,2:0:0:0:
160,265,59325,1,10,2:0:0:0:
26,384,59552,2,0,B|17:363|0:348|0:348|4:314|11:294,1,100,2|0,2:0|3:0,2:0:0:0:
251,176,60007,2,0,B|260:197|277:212|277:212|273:246|265:265,1,100,2|8,2:0|2:0,2:0:0:0:
132,353,60461,1,2,2:0:0:0:
338,130,60689,5,2,3:0:0:0:
160,265,60916,1,2,2:0:0:0:
323,384,61143,1,10,2:0:0:0:
245,164,61370,2,0,P|195:150|147:140,1,100,2|0,2:0|3:0,2:0:0:0:
415,252,61825,2,0,P|463:241|512:228,1,100,2|8,2:0|2:0,2:0:0:0:
338,130,62279,1,2,2:0:0:0:
338,130,62393,1,2,2:0:0:0:
338,130,62507,6,0,B|354:220|306:189|324:290,1,150,2|0,3:0|2:0,2:0:0:0:
329,293,62961,1,10,2:0:0:0:
132,368,63189,2,0,B|187:343|248:340|248:340|268:376|312:385,1,200,2|2,2:0|2:0,2:0:0:0:
415,252,63870,1,8,2:0:0:0:
244,169,64098,1,2,2:0:0:0:
244,169,64211,1,2,2:0:0:0:
244,169,64325,6,0,B|155:203|202:213|119:247,1,150,6|0,3:0|2:0,2:0:0:0:
110,251,64779,1,10,2:0:0:0:
10,109,65007,2,0,P|57:124|100:150,1,100,2|0,2:0|3:0,2:0:0:0:
253,21,65461,2,0,P|205:36|162:62,1,100,2|8,2:0|2:0,2:0:0:0:
11,204,65916,1,2,2:0:0:0:
262,263,66143,6,0,B|293:137|293:137|269:164|233:171,1,200,6|10,3:0|2:0,2:0:0:0:
90,355,66825,2,0,B|117:310|174:310|174:310|201:358|260:361,1,200,2|0,2:0|2:0,2:0:0:0:
503,209,67507,1,10,2:0:0:0:
474,167,67620,1,2,2:0:0:0:
422,155,67734,1,2,2:0:0:0:
378,177,67848,1,2,2:0:0:0:
360,225,67961,6,0,P|377:298|390:374,1,150,6|0,3:0|2:0,2:0:0:0:
385,384,68416,1,10,2:0:0:0:
179,196,68643,2,0,P|222:171|275:177,1,100,2|0,2:0|3:0,2:0:0:0:
462,289,69098,1,2,2:0:0:0:
256,344,69325,1,10,2:0:0:0:
360,225,69552,1,2,2:0:0:0:
185,49,69779,6,0,B|160:91|150:141|150:141|175:163|178:196,1,162,2|0,3:0|2:0,2:0:0:0:
59,271,70234,2,0,P|21:226|30:160,1,108,10|0,2:0|2:0,2:0:0:0:
101,203,70575,1,8,2:0:0:0:
101,203,70689,1,10,2:0:0:0:
288,354,70916,1,8,2:0:0:0:
352,379,71029,1,8,2:0:0:0:
415,349,71143,1,10,2:0:0:0:
434,282,71257,1,8,3:0:0:0:
398,223,71370,2,0,P|365:229|340:237,1,54,4|4,3:0|3:0,2:0:0:0:
146,384,71598,6,0,P|158:336|172:288,1,100,6|0,3:0|2:0,2:0:0:0:
263,137,72052,1,10,2:0:0:0:
100,9,72279,2,0,P|58:37|44:94,1,100,2|0,2:0|3:0,2:0:0:0:
263,137,72734,2,0,P|259:86|217:46,1,100,2|8,2:0|2:0,2:0:0:0:
4,204,73189,1,2,2:0:0:0:
4,204,73302,1,2,2:0:0:0:
4,204,73416,6,0,P|76:183|149:166,1,150,2|0,3:0|2:0,2:0:0:0:
162,169,73870,1,10,2:0:0:0:
325,262,74098,2,0,P|376:276|433:289,1,100,2|0,2:0|3:0,2:0:0:0:
343,89,74552,2,0,P|305:125|265:169,1,100,2|8,2:0|2:0,2:0:0:0:
248,328,75007,1,2,2:0:0:0:
394,186,75234,5,2,3:0:0:0:
223,240,75461,1,2,2:0:0:0:
158,85,75689,1,10,2:0:0:0:
325,262,75916,2,0,P|340:313|352:370,1,100,2|0,2:0|3:0,2:0:0:0:
93,274,76370,2,0,P|103:225|118:177,1,100,2|8,2:0|2:0,2:0:0:0:
253,363,76825,1,2,2:0:0:0:
253,363,76939,1,2,2:0:0:0:
253,363,77052,6,0,B|214:338|170:335|170:335|148:359|119:367,1,150,2|0,3:0|2:0,2:0:0:0:
105,370,77507,1,10,2:0:0:0:
0,201,77734,2,0,P|48:190|96:176,1,100,2|0,2:0|3:0,2:0:0:0:
193,55,78189,1,2,2:0:0:0:
339,231,78416,5,8,2:0:0:0:
410,208,78529,5,8,2:0:0:0:
411,133,78643,5,10,2:0:0:0:
340,108,78757,5,8,2:0:0:0:
294,168,78870,6,0,P|316:245|332:323,1,150,6|0,3:0|2:0,2:0:0:0:
333,328,79325,1,10,2:0:0:0:
136,298,79552,2,0,P|191:266|239:276,1,100,2|0,2:0|3:0,2:0:0:0:
422,356,80007,2,0,P|367:324|319:334,1,100,2|8,2:0|2:0,2:0:0:0:
213,384,80461,1,2,2:0:0:0:
453,265,80689,6,0,B|430:221|454:173|454:173|461:169|461:169|486:123|461:78,1,200,6|10,3:0|2:0,2:0:0:0:
372,0,81370,1,2,2:0:0:0:
246,155,81598,2,0,P|291:141|343:130,1,100,0|2,3:0|2:3,2:3:0:0:
364,119,81939,1,8,2:0:0:0:
364,119,82052,2,0,P|333:112|301:103,1,50,8|8,2:0|3:0,2:0:0:0:
165,49,82279,2,0,P|189:42|213:37,1,50,6|4,3:0|3:0,2:0:0:0:
351,225,82507,5,6,3:0:0:0:
154,292,82734,1,2,2:0:0:0:
63,155,82961,1,10,2:0:0:0:
242,332,83189,2,0,P|251:282|264:234,1,100,2|0,2:0|3:0,2:0:0:0:
79,384,83643,2,0,P|69:334|56:286,1,100,0|8,2:0|2:0,2:0:0:0:
165,149,84098,1,2,2:0:0:0:
165,149,84211,1,2,2:0:0:0:
165,149,84325,6,0,P|232:167|302:104,1,150,2|0,3:0|2:0,2:0:0:0:
299,111,84779,1,10,2:0:0:0:
99,0,85007,2,0,P|84:52|71:108,1,100,10|0,3:0|2:0,2:0:0:0:
73,123,85348,1,8,2:0:0:0:
73,123,85461,2,0,P|67:98|61:74,1,50,10|0,2:0|2:0,2:0:0:0:
193,0,85689,1,10,2:0:0:0:
0,187,85916,5,2,3:0:0:0:
256,192,86029,12,0,87961,2:0:0:0:
