osu file format v14

[General]
AudioFilename: audio.mp3
AudioLeadIn: 0
PreviewTime:55980
Countdown: 0
SampleSet: Soft
StackLeniency: 0.7
Mode: 0
LetterboxInBreaks: 0
WidescreenStoryboard: 1

[Editor]
DistanceSpacing: 1.5
BeatDivisor: 4
GridSize: 16
TimelineZoom: 1.4

[Metadata]
Title:Komorebi no Yell (TV Size)
TitleUnicode:木漏れ日のエール (TV Size)
Artist:Tokai Teio (CV: Machico), Mejiro McQueen (CV: Onishi Saori)
ArtistUnicode:トウカイテイオー (CV: Machico)、メジロマックイーン (CV: 大西沙織)
Creator:Huzz
Version:Hard
Source:ウマ娘 プリティーダービー Season 2
Tags:tv anime japanese uma musume pretty derby umamusume 2nd season two 2 ending theme ed jpop j-pop pop horse girls animation cygames oonishi toukai teoiu
BeatmapID:3118519
BeatmapSetID:1517624

[Difficulty]
HPDrainRate:5
CircleSize:4
OverallDifficulty:6
ApproachRate:7
SliderMultiplier:1.2
SliderTickRate:1

[Events]
//Background and Video events
0,0,"komorebi.jpg",0,0
Video,11948,"ed.mp4"
//Break Periods
//Storyboard Layer 0 (Background)
//Storyboard Layer 1 (Fail)
//Storyboard Layer 2 (Pass)
//Storyboard Layer 3 (Foreground)
//Storyboard Layer 4 (Overlay)
//Storyboard Sound Samples

[TimingPoints]
425,461.538461538462,4,2,1,50,1,0
689,454.545454545455,4,2,3,40,1,0
7507,-125,4,2,3,40,0,0
7847,-125,4,2,69,5,0,0
7961,-111.111111111111,4,2,3,40,0,0
8643,-100,4,2,3,45,0,0
9325,-125,4,2,3,50,0,0
11598,-125,4,2,3,60,0,0
12052,-100,4,2,3,60,0,0
12961,-100,4,2,1,60,0,0
13416,-100,4,2,3,60,0,0
14779,-100,4,2,1,60,0,0
15234,-100,4,2,3,60,0,0
16597,-100,4,2,1,60,0,0
17052,-100,4,2,3,60,0,0
18415,-100,4,2,1,60,0,0
18870,-100,4,2,3,60,0,0
20233,-100,4,2,1,60,0,0
20689,-100,4,2,3,60,0,0
22052,-100,4,2,1,60,0,0
22507,-100,4,2,3,60,0,0
27506,-100,4,2,1,60,0,0
27961,-100,4,2,3,60,0,0
28301,-100,4,2,69,5,0,0
28416,-90.9090909090909,4,2,3,60,0,0
28756,-90.9090909090909,4,2,69,5,0,0
28870,-71.4285714285714,4,2,3,60,0,0
29324,-71.4285714285714,4,2,1,60,0,0
29779,-100,4,2,1,60,0,0
30689,-100,4,2,3,60,0,0
32052,-90.9090909090909,4,2,3,60,0,0
32507,-100,4,2,3,60,0,0
36825,-100,4,2,1,60,0,0
37052,-100,4,2,3,60,0,0
40689,-83.3333333333333,4,2,2,60,0,0
50234,-83.3333333333333,4,2,1,60,0,0
51143,-83.3333333333333,4,2,2,60,0,0
52734,-83.3333333333333,4,2,3,60,0,0
52961,-83.3333333333333,4,2,2,60,0,0
53189,-76.9230769230769,4,2,2,60,0,0
53643,-76.9230769230769,4,2,2,45,0,0
53870,-83.3333333333333,4,2,2,48,0,0
54097,-83.3333333333333,4,2,2,51,0,0
54325,-83.3333333333333,4,2,2,54,0,0
54552,-83.3333333333333,4,2,2,57,0,0
54892,-83.3333333333333,4,2,3,60,0,0
55119,-83.3333333333333,4,2,4,60,0,0
55234,-83.3333333333333,4,2,2,60,0,0
55574,-83.3333333333333,4,2,3,60,0,0
56143,-83.3333333333333,4,2,2,60,0,0
57052,-74.0740740740741,4,2,2,60,0,1
69779,-68.9655172413793,4,2,2,60,0,1
71256,-68.9655172413793,4,2,3,60,0,1
71483,-68.9655172413793,4,2,4,60,0,1
71598,-68.9655172413793,4,2,2,60,0,1
72279,-74.0740740740741,4,2,2,60,0,1
78870,-68.9655172413793,4,2,2,60,0,1
79552,-74.0740740740741,4,2,2,60,0,1
80689,-68.9655172413793,4,2,2,60,0,1
81370,-74.0740740740741,4,2,2,60,0,1
82165,-74.0740740740741,4,2,3,60,0,1
82392,-74.0740740740741,4,2,4,60,0,1
82507,-74.0740740740741,4,2,2,60,0,1
85007,-74.0740740740741,4,2,3,60,0,1
85348,-74.0740740740741,4,2,2,60,0,1
85916,-74.0740740740741,4,2,2,60,0,0
86143,-74.0740740740741,4,2,2,30,0,0
87961,-74.0740740740741,4,2,69,5,0,0

[Colours]
Combo1 : 251,189,227
Combo2 : 222,149,247
Combo3 : 243,135,112
Combo4 : 135,200,248

[HitObjects]
58,195,689,6,0,P|28:187|0:182,2,59.99999999999999,2|0|0,2:0|2:0|2:0,2:0:0:0:
121,258,1370,2,0,P|179:259|222:220,1,119.99999999999999,2|0,2:0|2:0,2:0:0:0:
231,126,2052,1,0,2:0:0:0:
231,126,2279,2,0,B|305:140|271:160|340:173,1,119.99999999999999,2|0,2:0|2:0,2:0:0:0:
442,156,2961,1,0,2:0:0:0:
442,156,3189,2,0,P|428:214|416:273,1,119.99999999999999,2|0,2:0|2:0,2:0:0:0:
457,349,3870,2,0,P|480:370|515:377,1,59.99999999999999,0|0,2:0|2:0,2:0:0:0:
415,273,4325,6,0,B|385:267|358:286|358:286|337:311|303:312,1,119.99999999999999,2|0,2:0|2:0,2:0:0:0:
207,274,5007,2,0,B|185:267|167:249|167:249|100:276,1,119.99999999999999,2|0,2:0|2:0,2:0:0:0:
11,222,5689,1,0,2:0:0:0:
11,222,5916,2,0,P|22:173|101:154,1,119.99999999999999,2|0,2:0|2:0,2:0:0:0:
182,171,6598,1,0,2:0:0:0:
182,171,6825,2,0,P|194:112|206:54,1,119.99999999999999,2|0,2:0|2:0,2:0:0:0:
307,45,7507,2,0,P|317:95|326:133,1,72,2|0,2:0|2:0,2:0:0:0:
329,132,7961,6,0,P|383:146|433:118,1,108.00000000000013,2|0,2:0|2:0,2:0:0:0:
417,0,8643,2,0,P|372:-13|300:36,1,119.99999999999999,2|0,2:0|2:0,2:0:0:0:
230,96,9325,2,0,B|186:110|145:85|145:85|98:73|60:109|60:109|89:96|117:105,1,240.00000000000006,2|0,2:0|2:0,2:0:0:0:
94,183,10689,1,2,2:0:0:0:
130,62,10916,5,2,2:0:0:0:
184,320,11598,5,2,3:2:0:0:
291,249,12052,2,0,P|319:242|348:248,1,59.99999999999999,0|0,2:0|2:0,2:0:0:0:
422,315,12507,2,0,P|439:246|457:183,1,119.99999999999999,8|2,2:0|2:0,2:0:0:0:
512,123,13189,1,0,2:0:0:0:
431,42,13416,2,0,P|372:28|323:58,2,119.99999999999999,2|0|8,2:0|3:0|2:0,2:0:0:0:
340,157,14779,1,2,2:0:0:0:
210,65,15234,6,0,B|145:57|162:88|93:79,1,119.99999999999999,2|0,3:2|2:0,2:0:0:0:
26,29,15916,1,0,2:0:0:0:
0,134,16143,2,0,P|14:192|25:251,1,119.99999999999999,10|2,2:0|2:0,2:0:0:0:
44,331,16825,1,0,2:0:0:0:
132,276,17052,2,0,P|189:265|233:302,1,119.99999999999999,2|0,2:0|3:0,2:0:0:0:
265,378,17734,1,0,2:0:0:0:
354,328,17961,2,0,B|365:307|383:291|383:291|365:220,1,119.99999999999999,10|2,2:0|2:0,2:0:0:0:
292,52,18870,5,2,3:2:0:0:
435,146,19325,2,0,P|469:149|496:137,1,59.99999999999999,0|0,2:0|2:0,2:0:0:0:
503,18,19779,2,0,P|457:1|386:52,1,119.99999999999999,8|2,2:0|2:0,2:0:0:0:
355,105,20461,1,0,2:0:0:0:
257,42,20689,2,0,P|193:26|131:15,2,119.99999999999999,2|0|8,2:0|3:0|2:0,2:0:0:0:
319,188,22052,1,2,2:0:0:0:
156,251,22507,6,0,P|110:228|104:152,1,119.99999999999999,2|0,3:2|2:0,2:0:0:0:
162,102,23189,1,0,2:0:0:0:
240,146,23416,1,8,2:0:0:0:
319,188,23643,2,0,P|353:194|392:204,2,59.99999999999999,0|0|8,2:0|2:0|2:0,2:0:0:0:
240,250,24325,2,0,B|253:290|258:325|258:325|238:341|232:358,1,119.99999999999999,10|0,2:0|3:2,2:0:0:0:
150,384,25007,1,2,2:0:0:0:
66,341,25234,2,0,P|59:309|52:278,1,59.99999999999999,10|0,2:0|2:0,2:0:0:0:
136,224,25689,2,0,P|141:253|148:282,1,59.99999999999999,2|0,2:0|2:0,2:0:0:0:
13,193,26143,6,0,P|37:145|117:132,1,119.99999999999999,2|0,3:2|2:0,2:0:0:0:
186,153,26825,1,0,2:0:0:0:
282,97,27052,2,0,B|304:40|304:40|261:-1,1,119.99999999999999,8|2,2:0|2:0,2:0:0:0:
175,12,27734,1,0,2:0:0:0:
129,87,27961,2,0,P|140:131|149:175,1,90,2|0,2:0|2:0,2:0:0:0:
153,190,28416,2,0,P|202:171|264:197,1,99.00000000000001,2|0,3:2|2:0,2:0:0:0:
259,194,28870,2,0,B|284:232|271:287|226:309|226:309|211:300|197:295,1,168.00000000000006,10|2,2:0|2:0,2:0:0:0:
337,384,29779,6,0,P|350:326|361:266,1,119.99999999999999,0|0,3:2|2:0,2:0:0:0:
432,210,30461,1,0,2:0:0:0:
499,267,30689,2,0,P|485:208|473:149,1,119.99999999999999,10|0,2:0|2:0,2:0:0:0:
497,54,31370,2,0,B|429:40|445:76|379:65,1,119.99999999999999,2|0,2:0|2:0,2:0:0:0:
275,23,32052,2,0,P|244:12|212:2,1,65.99999999999999,2|0,3:2|2:0,2:0:0:0:
169,93,32507,2,0,P|143:114|119:136,1,59.99999999999999,10|0,2:0|2:0,2:0:0:0:
207,190,32961,2,0,P|213:222|220:254,1,59.99999999999999,2|0,2:0|2:0,2:0:0:0:
115,350,33416,6,0,P|76:364|8:324,1,119.99999999999999,2|0,3:2|2:0,2:0:0:0:
75,252,34098,2,0,P|107:258|152:271,1,59.99999999999999,2|8,2:0|2:0,2:0:0:0:
199,332,34552,2,0,P|228:324|257:318,1,59.99999999999999,2|0,2:0|2:0,2:0:0:0:
330,260,35007,1,0,3:0:0:0:
282,160,35234,2,0,P|238:137|158:176,1,119.99999999999999,2|8,2:0|2:0,2:0:0:0:
9,22,36143,2,0,B|87:44|42:58|117:81,1,119.99999999999999,10|2,2:0|2:0,2:0:0:0:
207,41,36825,1,2,2:0:0:0:
207,41,36939,1,2,2:0:0:0:
207,41,37052,6,0,P|267:29|339:12,1,119.99999999999999,2|0,3:2|2:0,2:0:0:0:
429,43,37734,1,10,2:0:0:0:
482,112,37961,1,2,2:0:0:0:
466,199,38189,2,0,P|459:228|454:257,2,59.99999999999999,2|8|2,2:0|2:0|2:0,2:0:0:0:
349,275,38870,2,0,B|361:318|366:349|366:349|349:361|342:385,1,119.99999999999999,2|0,3:2|2:0,2:0:0:0:
168,219,39779,2,0,P|165:189|175:161,1,59.99999999999999,2|0,2:0|2:0,2:0:0:0:
261,209,40234,2,0,P|263:238|253:266,1,59.99999999999999,2|2,2:0|2:0,2:0:0:0:
249,289,40575,1,2,2:0:0:0:
249,289,40689,6,0,B|221:289|196:300|196:300|176:331|176:331|150:333|124:342,1,144.00000000000006,4|2,3:0|3:0,2:0:0:0:
26,268,41370,1,2,2:0:0:0:
97,180,41598,2,0,P|114:222|123:254,1,72.00000000000003,2|2,3:0|2:0,2:0:0:0:
0,168,42052,2,0,P|10:133|23:99,1,72.00000000000003,2|2,3:0|2:0,2:0:0:0:
107,27,42507,6,0,P|135:65|228:76,1,144.00000000000006,0|0,3:0|3:0,2:0:0:0:
298,15,43189,1,0,2:0:0:0:
351,101,43416,2,0,P|322:139|308:166,1,72.00000000000003,2|0,3:0|2:0,2:0:0:0:
364,240,43870,1,10,2:0:0:0:
465,177,44098,1,2,2:0:0:0:
465,177,44211,1,2,2:0:0:0:
465,177,44325,6,0,P|450:112|435:36,1,144.00000000000006,2|0,3:0|3:0,2:0:0:0:
348,0,45007,1,2,2:0:0:0:
275,63,45234,2,0,P|242:78|206:76,1,72.00000000000003,2|2,3:0|2:0,2:0:0:0:
139,19,45689,1,2,3:0:0:0:
37,70,45916,6,0,P|30:35|20:-8,2,72.00000000000003,2|0|0,2:0|3:0|2:0,2:0:0:0:
0,165,46598,2,0,P|42:159|87:184,1,72.00000000000003,2|0,3:0|2:0,2:0:0:0:
147,229,47052,2,0,P|199:240|234:226,1,72.00000000000003,2|0,3:0|2:0,2:0:0:0:
228,135,47507,2,0,P|176:124|141:138,1,72.00000000000003,8|0,2:0|2:0,2:0:0:0:
26,244,47961,6,0,P|43:318|55:384,2,144.00000000000006,6|0|0,3:0|3:0|3:0,2:0:0:0:
93,181,49098,1,2,2:0:0:0:
167,242,49325,1,2,3:0:0:0:
288,192,49552,6,0,P|327:176|366:166,2,72.00000000000003,2|0|0,2:0|3:0|2:0,2:0:0:0:
354,276,50234,2,0,P|388:286|421:299,1,72.00000000000003,2|2,3:0|2:0,2:0:0:0:
441,315,50575,1,2,2:0:0:0:
441,315,50689,1,2,3:0:0:0:
366,382,50916,1,2,2:0:0:0:
272,345,51143,2,0,P|264:307|255:266,1,72.00000000000003,8|0,2:0|2:0,2:0:0:0:
362,150,51598,6,0,B|450:166|411:197|490:210,1,144.00000000000006,2|2,3:0|3:0,2:0:0:0:
502,121,52279,1,0,2:0:0:0:
415,66,52507,1,2,3:0:0:0:
351,153,52734,2,0,P|310:160|272:169,1,72.00000000000003,10|10,3:0|2:0,2:0:0:0:
120,98,53189,6,0,B|106:66|120:27|155:12|155:12|133:37|134:60,1,156.00000000000003,2|8,3:0|2:0,2:0:0:0:
195,153,53870,2,0,P|186:188|180:223,1,72.00000000000003,8|8,2:0|2:0,2:0:0:0:
191,317,54325,1,8,2:0:0:0:
96,372,54552,1,8,2:0:0:0:
18,301,54779,2,0,P|12:277|8:256,3,36.000000000000014,8|8|4|4,2:0|2:3|2:3|2:3,2:0:0:0:
0,218,55234,6,0,P|62:213|100:175,2,108.00000000000006,10|10|6,2:0|3:0|3:0,2:0:0:0:
23,134,56143,1,10,2:0:0:0:
23,134,56598,2,0,L|13:87,3,36.000000000000014,2|2|2|2,2:0|2:0|2:0|2:0,2:0:0:0:
14,54,57052,6,0,B|51:44|68:17|68:17|121:29|156:50,1,161.99999999999994,6|10,3:0|2:0,2:0:0:0:
295,133,57734,2,0,P|334:122|373:115,1,80.99999999999997,2|0,2:0|3:0,2:0:0:0:
330,17,58189,2,0,P|290:9|251:0,1,80.99999999999997,2|8,2:0|2:0,2:0:0:0:
118,126,58643,1,2,2:0:0:0:
219,226,58870,6,0,P|238:310|255:398,1,161.99999999999994,2|10,3:0|2:0,2:0:0:0:
373,367,59552,2,0,P|380:326|389:280,1,80.99999999999997,2|0,2:0|3:0,2:0:0:0:
507,336,60007,2,0,P|499:295|489:252,1,80.99999999999997,2|8,2:0|2:0,2:0:0:0:
422,131,60461,1,2,2:0:0:0:
315,229,60689,6,0,B|232:250|250:197|157:221,1,161.99999999999994,2|10,3:0|2:0,2:0:0:0:
18,306,61370,2,0,P|5:349|0:387,1,80.99999999999997,2|0,2:0|3:0,2:0:0:0:
185,365,61825,2,0,P|153:332|123:308,1,80.99999999999997,2|8,2:0|2:0,2:0:0:0:
6,204,62279,1,2,2:0:0:0:
6,204,62393,1,2,2:0:0:0:
6,204,62507,6,0,P|79:178|99:103,1,161.99999999999994,2|10,3:0|2:0,2:0:0:0:
52,2,63189,2,0,P|19:25|0:60,1,80.99999999999997,2|0,2:0|3:0,2:0:0:0:
212,111,63643,2,0,P|207:70|188:35,1,80.99999999999997,2|8,2:0|2:0,2:0:0:0:
99,103,64098,1,2,2:0:0:0:
207,214,64325,6,0,B|256:232|302:235|302:235|324:211|360:206,1,161.99999999999994,6|10,3:0|2:0,2:0:0:0:
493,246,65007,2,0,P|502:291|512:339,1,80.99999999999997,2|0,2:0|3:0,2:0:0:0:
364,384,65461,2,0,P|373:338|383:290,1,80.99999999999997,2|8,2:0|2:0,2:0:0:0:
445,162,65916,1,2,2:0:0:0:
299,126,66143,6,0,P|249:76|284:-4,1,161.99999999999994,6|10,3:0|2:0,2:0:0:0:
434,40,66825,2,0,B|449:61|468:79|468:79|361:56,1,161.99999999999994,2|0,2:0|2:0,2:0:0:0:
215,77,67507,2,0,P|187:81|152:90,3,40.499999999999986,10|2|2|2,2:0|2:0|2:0|2:0,2:0:0:0:
128,61,67961,6,0,P|117:106|108:154,1,80.99999999999997,6|0,3:0|2:0,2:0:0:0:
178,228,68416,1,10,2:0:0:0:
57,319,68643,2,0,P|49:279|39:239,1,80.99999999999997,2|0,2:0|3:0,2:0:0:0:
110,148,69098,1,2,2:0:0:0:
186,238,69325,2,0,P|222:254|262:251,1,80.99999999999997,10|2,2:0|2:0,2:0:0:0:
361,134,69779,6,0,B|269:111,1,87.00000000000001,2|0,3:0|2:0,2:0:0:0:
422,220,70234,2,0,P|457:193|471:138,1,87.00000000000001,8|0,2:0|2:0,2:0:0:0:
471,123,70575,1,8,2:0:0:0:
471,123,70689,1,8,2:0:0:0:
406,42,70916,1,8,2:0:0:0:
406,42,71029,1,8,2:0:0:0:
406,42,71143,2,0,L|353:30,3,43.50000000000001,10|8|4|4,2:0|3:0|3:0|3:0,2:0:0:0:
322,47,71598,6,0,P|273:56|228:66,1,87.00000000000001,6|0,3:0|2:0,2:0:0:0:
138,17,72052,1,10,2:0:0:0:
44,97,72279,2,0,P|32:141|23:187,1,80.99999999999997,2|0,2:0|3:0,2:0:0:0:
170,229,72734,2,0,P|162:189|151:150,1,80.99999999999997,2|8,2:0|2:0,2:0:0:0:
48,284,73189,1,2,2:0:0:0:
48,284,73302,1,2,2:0:0:0:
48,284,73416,6,0,P|94:331|190:310,1,161.99999999999994,2|10,3:0|2:0,2:0:0:0:
353,245,74098,2,0,P|392:254|431:265,1,80.99999999999997,2|0,2:0|3:0,2:0:0:0:
291,384,74552,2,0,P|283:341|271:290,1,80.99999999999997,2|8,2:0|2:0,2:0:0:0:
249,194,75007,1,2,2:0:0:0:
379,135,75234,6,0,P|335:126|285:115,1,80.99999999999997,2|2,3:0|2:0,2:0:0:0:
219,49,75689,1,10,2:0:0:0:
150,172,75916,2,0,B|97:190|50:194|50:194|30:168|1:162,1,161.99999999999994,2|2,2:0|2:0,2:0:0:0:
113,78,76598,1,8,2:0:0:0:
249,194,76825,1,2,2:0:0:0:
249,194,76939,1,2,2:0:0:0:
249,194,77052,6,0,P|328:209|407:227,1,161.99999999999994,2|10,3:0|2:0,2:0:0:0:
512,94,77734,2,0,P|434:71|395:150,1,161.99999999999994,2|2,2:0|2:0,2:0:0:0:
511,228,78416,1,8,2:0:0:0:
511,228,78529,1,8,2:0:0:0:
511,228,78643,1,10,2:0:0:0:
511,228,78757,1,8,2:0:0:0:
511,228,78870,6,0,B|486:343|486:343|476:319|461:294,1,174.00000000000003,6|10,3:0|2:0,2:0:0:0:
276,279,79552,2,0,P|249:314|225:351,1,80.99999999999997,2|0,2:0|3:0,2:0:0:0:
401,384,80007,2,0,P|383:343|363:304,1,80.99999999999997,2|8,2:0|2:0,2:0:0:0:
249,194,80461,1,2,2:0:0:0:
130,303,80689,6,0,B|91:308|64:285|64:285|30:269|-2:290|-2:290|16:290|30:295,1,174.00000000000003,6|10,3:0|2:0,2:0:0:0:
127,212,81370,2,0,B|139:184|158:165|158:165|135:55,1,161.99999999999994,2|0,2:0|2:3,2:0:0:0:
133,46,81939,1,8,2:0:0:0:
133,46,82052,2,0,L|179:55,3,40.499999999999986,8|8|6|4,2:0|3:0|3:0|3:0,2:0:0:0:
216,43,82507,6,0,P|263:31|309:23,1,80.99999999999997,6|2,3:0|2:0,2:0:0:0:
469,89,82961,1,10,2:0:0:0:
346,160,83189,2,0,P|354:117|365:66,1,80.99999999999997,2|0,2:0|3:0,2:0:0:0:
450,0,83643,2,0,P|458:39|466:79,1,80.99999999999997,0|8,2:0|2:0,2:0:0:0:
499,197,84098,1,2,2:0:0:0:
376,289,84325,6,0,P|313:291|257:211,1,161.99999999999994,2|10,3:0|2:0,2:0:0:0:
263,62,85007,2,0,P|242:95|206:112,1,80.99999999999997,10|0,3:0|2:0,2:0:0:0:
171,112,85348,1,8,2:0:0:0:
171,112,85461,1,10,2:0:0:0:
87,65,85689,1,10,2:0:0:0:
0,164,85916,5,2,3:0:0:0:
256,192,86029,12,0,87961,2:0:0:0:
