osu file format v14

[General]
AudioFilename: audio.mp3
AudioLeadIn: 0
PreviewTime:55980
Countdown: 0
SampleSet: Soft
StackLeniency: 0.4
Mode: 0
LetterboxInBreaks: 0
WidescreenStoryboard: 1

[Editor]
DistanceSpacing: 1
BeatDivisor: 4
GridSize: 16
TimelineZoom: 1.4

[Metadata]
Title:Komorebi no Yell (TV Size)
TitleUnicode:木漏れ日のエール (TV Size)
Artist:Tokai Teio (CV: Machico), Mejiro McQueen (CV: Onishi Saori)
ArtistUnicode:トウカイテイオー (CV: Machico)、メジロマックイーン (CV: 大西沙織)
Creator:Huzz
Version:Easy
Source:ウマ娘 プリティーダービー Season 2
Tags:tv anime japanese uma musume pretty derby umamusume 2nd season two 2 ending theme ed jpop j-pop pop horse girls animation cygames oonishi toukai teoiu
BeatmapID:3118619
BeatmapSetID:1517624

[Difficulty]
HPDrainRate:3
CircleSize:3
OverallDifficulty:3
ApproachRate:4
SliderMultiplier:1
SliderTickRate:1

[Events]
//Background and Video events
0,0,"komorebi.jpg",0,0
Video,11948,"ed.mp4"
//Break Periods
//Storyboard Layer 0 (Background)
//Storyboard Layer 1 (Fail)
//Storyboard Layer 2 (Pass)
//Storyboard Layer 3 (Foreground)
//Storyboard Layer 4 (Overlay)
//Storyboard Sound Samples

[TimingPoints]
425,461.538461538462,4,2,1,50,1,0
689,454.545454545455,4,2,3,40,1,0
8642,-100,4,2,3,45,0,0
9324,-100,4,2,3,50,0,0
11598,-100,4,2,3,60,0,0
12961,-100,4,2,1,60,0,0
13416,-100,4,2,3,60,0,0
14779,-100,4,2,1,60,0,0
15234,-100,4,2,3,60,0,0
16598,-100,4,2,1,60,0,0
17052,-100,4,2,3,60,0,0
18415,-100,4,2,1,60,0,0
18870,-100,4,2,3,60,0,0
20234,-100,4,2,1,60,0,0
20689,-100,4,2,3,60,0,0
22052,-100,4,2,1,60,0,0
22507,-100,4,2,3,60,0,0
27506,-100,4,2,1,60,0,0
27961,-100,4,2,3,60,0,0
29324,-100,4,2,1,60,0,0
29779,-100,4,2,3,60,0,0
30689,-100,4,2,3,60,0,0
40689,-100,4,2,2,60,0,0
50233,-100,4,2,1,60,0,0
51143,-100,4,2,2,60,0,0
53870,-100,4,2,2,48,0,0
54325,-100,4,2,2,54,0,0
54779,-100,4,2,2,57,0,0
55234,-100,4,2,2,60,0,0
57052,-100,4,2,2,60,0,1
85916,-100,4,2,2,60,0,0
86143,-100,4,2,2,30,0,0
87961,-100,4,2,69,5,0,0

[Colours]
Combo1 : 251,189,227
Combo2 : 222,149,247
Combo3 : 243,135,112
Combo4 : 135,200,248

[HitObjects]
24,236,689,6,0,P|7:190|69:98,1,150,2|2,2:0|2:0,2:0:0:0:
145,71,1825,1,0,2:0:0:0:
232,118,2279,2,0,P|287:104|341:94,1,100,2|0,2:0|2:0,2:0:0:0:
416,46,3189,2,0,B|426:81|454:98|454:98|450:138|437:182,1,150,2|0,2:0|2:0,2:0:0:0:
457,278,4325,6,0,P|413:256|330:298,1,150,2|2,2:0|2:0,2:0:0:0:
238,341,5461,1,0,2:0:0:0:
151,382,5916,2,0,P|99:370|3:353,1,150,2|0,2:0|2:0,2:0:0:0:
0,253,7052,1,0,2:0:0:0:
77,190,7507,1,2,2:0:0:0:
159,246,7961,6,0,B|247:259|223:215|304:227,2,150,2|2|2,2:0|2:0|2:0,2:0:0:0:
194,67,10689,2,0,L|204:115,1,50,2|2,2:0|2:0,2:0:0:0:
304,227,11598,6,0,P|355:237|402:247,2,100,2|0|8,3:2|2:0|2:0,2:0:0:0:
215,273,12961,1,2,2:0:0:0:
140,205,13416,2,0,L|116:95,1,100,2|0,2:0|3:0,2:0:0:0:
96,9,14325,2,0,P|40:-2|-8:27,1,100,8|2,2:0|2:0,2:0:0:0:
0,116,15234,6,0,P|22:213|43:319,1,200,2|10,3:2|2:0,2:0:0:0:
106,384,16598,1,2,2:0:0:0:
175,312,17052,2,0,P|234:303|279:337,1,100,2|0,2:0|3:0,2:0:0:0:
358,363,17961,2,0,P|401:370|452:334,1,100,10|2,2:0|2:0,2:0:0:0:
474,245,18870,5,2,3:2:0:0:
391,189,19325,2,0,L|281:165,2,100,2|10|2,2:0|2:0|2:0,2:0:0:0:
475,134,20689,1,2,2:0:0:0:
472,34,21143,1,2,3:0:0:0:
375,6,21598,2,0,B|320:15|343:27|281:39,1,100,10|2,2:0|2:0,2:0:0:0:
188,0,22507,6,0,P|120:8|111:124,1,200,2|8,3:2|2:0,2:0:0:0:
177,191,23870,1,2,2:0:0:0:
261,136,24325,2,0,P|270:83|284:26,2,100,10|0|10,2:0|3:2|2:0,2:0:0:0:
300,227,25689,1,2,2:0:0:0:
346,315,26143,6,0,P|386:338|451:327,1,100,2|0,3:2|2:0,2:0:0:0:
489,261,27052,2,0,P|495:210|503:150,1,100,8|2,2:0|2:0,2:0:0:0:
420,102,27961,1,2,2:0:0:0:
333,152,28416,1,2,3:2:0:0:
246,102,28870,2,0,P|234:52|222:-8,1,100,10|2,2:0|2:0,2:0:0:0:
125,20,29779,6,0,P|113:76|104:131,1,100,2|0,3:2|2:0,2:0:0:0:
175,190,30689,1,10,2:0:0:0:
316,139,31370,2,0,P|372:183|361:268,1,150,2|2,2:0|3:2,2:0:0:0:
312,339,32507,1,10,2:0:0:0:
217,372,32961,1,2,2:0:0:0:
135,313,33416,6,0,P|147:260|158:203,1,100,0|0,3:2|2:0,2:0:0:0:
119,121,34325,2,0,P|172:103|218:79,1,100,8|0,2:0|2:0,2:0:0:0:
280,10,35234,2,0,B|348:24|348:24|406:1|406:1|475:15,1,200,2|10,2:0|2:0,2:0:0:0:
504,109,36598,1,2,2:0:0:0:
416,157,37052,6,0,P|371:186|377:279,1,150,2|2,3:2|2:0,2:0:0:0:
408,368,38189,2,0,B|332:390|337:342|260:365,1,150,2|2,2:0|3:2,2:0:0:0:
61,380,39779,2,0,P|21:348|20:288,1,100,2|2,2:0|2:0,2:0:0:0:
95,241,40689,6,0,P|106:184|118:131,1,100,4|2,3:0|3:0,2:0:0:0:
108,43,41598,1,2,3:0:0:0:
203,12,42052,1,2,3:0:0:0:
278,77,42507,2,0,P|336:80|372:59,1,100,0|0,3:0|3:0,2:0:0:0:
453,2,43416,2,0,B|465:20|483:34|483:34|470:96,1,100,2|10,3:0|2:0,2:0:0:0:
414,169,44325,6,0,P|427:220|437:278,1,100,2|0,3:0|3:0,2:0:0:0:
387,354,45234,1,2,3:0:0:0:
292,319,45689,1,2,3:0:0:0:
196,349,46143,2,0,P|151:367|90:348,2,100,0|2|2,3:0|3:0|3:0,2:0:0:0:
215,250,47507,1,8,2:0:0:0:
123,212,47961,6,0,P|81:135|167:66,1,200,6|0,3:0|3:0,2:0:0:0:
238,116,49325,1,2,3:0:0:0:
321,61,49779,2,0,P|371:53|422:88,1,100,0|2,3:0|3:0,2:0:0:0:
447,169,50689,2,0,P|433:223|423:278,1,100,2|8,3:0|2:0,2:0:0:0:
413,365,51598,6,0,B|469:371|453:349|511:356,2,100,2|2|2,3:0|3:0|3:0,2:0:0:0:
286,284,53189,2,0,P|231:262|151:326,1,150,2|8,3:0|2:0,2:0:0:0:
73,336,54325,1,8,2:0:0:0:
51,248,54779,1,8,2:0:0:0:
31,159,55234,2,0,B|64:146|87:130|87:130|138:125|175:168|167:216,1,200,10|10,2:0|2:0,2:0:0:0:
321,179,57052,6,0,P|301:146|311:77,1,100,6|10,3:0|2:0,2:0:0:0:
400,30,57961,1,0,3:0:0:0:
477,108,58416,1,8,2:0:0:0:
418,199,58870,6,0,L|308:175,1,100,2|10,3:0|2:0,2:0:0:0:
251,92,59779,2,0,B|193:79|224:68|156:53,1,100,0|8,3:0|2:0,2:0:0:0:
59,99,60689,6,0,P|71:147|80:196,1,100,2|10,3:0|2:0,2:0:0:0:
24,291,61598,1,0,3:0:0:0:
115,351,62052,1,8,2:0:0:0:
213,302,62507,2,0,P|266:296|336:367,2,150,2|2|8,3:0|2:0|2:0,2:0:0:0:
136,222,64325,6,0,L|159:112,1,100,6|10,3:0|2:0,2:0:0:0:
236,48,65234,1,0,3:0:0:0:
335,94,65689,1,8,2:0:0:0:
428,36,66143,2,0,P|479:42|514:78,1,100,6|10,3:0|2:0,2:0:0:0:
471,178,67052,2,0,P|458:227|447:287,1,100,0|10,3:0|2:0,2:0:0:0:
398,373,67961,5,6,3:0:0:0:
299,324,68416,1,10,2:0:0:0:
198,367,68870,2,0,P|149:379|96:353,1,100,0|10,3:0|2:0,2:0:0:0:
89,251,69779,2,0,P|129:220|190:225,1,100,2|8,3:0|2:0,2:0:0:0:
263,287,70689,1,8,2:0:0:0:
370,264,71143,1,10,2:0:0:0:
478,241,71598,6,0,P|487:186|501:131,1,100,6|10,3:0|2:0,2:0:0:0:
422,62,72507,1,0,3:0:0:0:
323,109,72961,1,8,2:0:0:0:
231,47,73416,2,0,P|175:34|118:24,1,100,2|10,3:0|2:0,2:0:0:0:
23,24,74325,2,0,P|-2:58|7:122,1,100,0|8,3:0|2:0,2:0:0:0:
70,200,75234,5,2,3:0:0:0:
9,291,75689,1,10,2:0:0:0:
75,379,76143,2,0,P|126:365|184:355,1,100,0|8,3:0|2:0,2:0:0:0:
249,278,77052,2,0,B|257:245|278:224|278:224|270:175|249:141,2,150,2|2|8,3:0|2:0|2:0,2:0:0:0:
306,372,78870,5,6,3:0:0:0:
411,339,79325,1,10,2:0:0:0:
390,231,79779,2,0,P|399:181|413:121,1,100,0|8,3:0|2:0,2:0:0:0:
385,25,80689,2,0,B|444:32|430:9|484:16,2,100,6|10|0,3:0|2:0|3:0,2:0:0:0:
277,2,82052,1,8,2:0:0:0:
216,93,82507,6,0,P|172:116|123:114,1,100,6|10,3:0|2:0,2:0:0:0:
14,96,83416,2,0,P|27:149|37:205,1,100,0|8,3:0|2:0,2:0:0:0:
63,300,84325,2,0,B|103:300|129:269|129:269|142:307|182:325,1,150,2|2,3:0|2:0,2:0:0:0:
284,296,85461,1,10,2:0:0:0:
366,368,85916,1,2,3:0:0:0:
256,192,86143,12,0,87961,2:0:0:0:
