osu file format v14

[General]
AudioFilename: audio.mp3
AudioLeadIn: 0
PreviewTime: 56154
Countdown: 0
SampleSet: Soft
StackLeniency: 0.7
Mode: 3
LetterboxInBreaks: 0
SpecialStyle: 0
WidescreenStoryboard: 0

[Editor]
Bookmarks: 700,11609,26154,39790,56154,71609
DistanceSpacing: 1.5
BeatDivisor: 4
GridSize: 32
TimelineZoom: 2.000006

[Metadata]
Title:Komorebi no Yell (TV Size)
TitleUnicode:木漏れ日のエール (TV Size)
Artist:Tokai Teio (CV: Machico), Mejiro McQueen (CV: Onishi Saori)
ArtistUnicode:トウカイテイオー (CV: Machico)、メジロマックイーン (CV: 大西沙織)
Creator:Drum-Hitnormal
Version:Fapu's Hard
Source:ウマ娘 プリティーダービー Season 2
Tags:faputa Japanese Anime j Pop jpop j-pop cygames dudehacker uma musume umamusume pretty derby Animation ending ed vol.2 original soundtrack ost LACM-24087
BeatmapID:3035623
BeatmapSetID:1465254

[Difficulty]
HPDrainRate:7.5
CircleSize:4
OverallDifficulty:7.5
ApproachRate:5
SliderMultiplier:1.4
SliderTickRate:1

[Events]
//Background and Video events
0,0,"hard.jpg",0,0
//Break Periods
//Storyboard Layer 0 (Background)
//Storyboard Layer 1 (Fail)
//Storyboard Layer 2 (Pass)
//Storyboard Layer 3 (Foreground)
//Storyboard Layer 4 (Overlay)
//Storyboard Sound Samples
Sample,52063,0,"HHOpen.wav",70
Sample,52518,0,"HHOpen.wav",70

[TimingPoints]
700,454.545454545455,4,2,1,20,1,0
40700,-100,4,3,1,70,0,0
57063,-100,4,3,1,70,0,1
85927,-100,4,3,1,70,0,0

[HitObjects]
448,192,700,5,0,0:0:0:0:
64,192,927,1,0,0:0:0:0:
192,192,1154,1,0,0:0:0:0:
320,192,1381,1,0,0:0:0:0:
448,192,1381,1,0,0:0:0:0:
64,192,1836,1,0,0:0:0:0:
192,192,2063,1,0,0:0:0:0:
320,192,2290,1,0,0:0:0:0:
192,192,2745,1,0,0:0:0:0:
320,192,2972,1,0,0:0:0:0:
64,192,3200,1,0,0:0:0:0:
192,192,3200,1,0,0:0:0:0:
192,192,3654,1,0,0:0:0:0:
320,192,3881,1,0,0:0:0:0:
64,192,4109,1,0,0:0:0:0:
192,192,4336,1,0,0:0:0:0:
448,192,4563,1,0,0:0:0:0:
320,192,4790,1,0,0:0:0:0:
64,192,5018,1,0,0:0:0:0:
192,192,5018,1,0,0:0:0:0:
448,192,5472,1,0,0:0:0:0:
320,192,5700,1,0,0:0:0:0:
192,192,5927,1,0,0:0:0:0:
320,192,6381,1,0,0:0:0:0:
192,192,6609,1,0,0:0:0:0:
320,192,6836,1,0,0:0:0:0:
448,192,6836,1,0,0:0:0:0:
320,192,7290,1,0,0:0:0:0:
192,192,7518,1,0,0:0:0:0:
448,192,7745,1,0,0:0:0:0:
64,192,7972,1,0,0:0:0:0:
192,192,7972,1,0,0:0:0:0:
64,192,8654,1,0,0:0:0:0:
320,192,8654,1,0,0:0:0:0:
192,192,9336,1,0,0:0:0:0:
448,192,9336,1,0,0:0:0:0:
320,192,10700,1,0,0:0:0:0:
448,192,10700,1,0,0:0:0:0:
320,192,10927,1,0,0:0:0:0:
448,192,10927,1,0,0:0:0:0:
192,192,11609,1,0,0:0:0:20:drum-hitwhistle.wav
64,192,11609,1,0,0:0:0:0:
320,192,12063,128,0,12290:0:0:0:0:
64,192,12290,1,0,0:0:0:0:
192,192,12518,1,0,0:0:0:40:LR_Clap Fast Low.wav
320,192,12518,128,0,12972:0:0:0:0:
448,192,12972,128,0,13200:0:0:0:0:
192,192,13200,128,0,13654:0:0:0:0:
448,192,13427,1,0,0:0:0:0:
64,192,13881,128,0,14336:0:0:0:20:drum-hitwhistle.wav
192,192,13881,1,0,0:0:0:0:
320,192,14109,1,0,0:0:0:0:
192,192,14336,1,0,0:0:0:40:LR_Clap Fast Low.wav
448,192,14336,128,0,14790:0:0:0:0:
320,192,14790,128,0,15245:0:0:0:0:
64,192,15245,1,0,0:0:0:20:drum-hitwhistle.wav
448,192,15245,128,0,15700:0:0:0:0:
64,192,15700,1,0,0:0:0:0:
192,192,15927,1,0,0:0:0:0:
320,192,16154,1,0,0:0:0:40:LR_Clap Fast Low.wav
448,192,16154,128,0,16609:0:0:0:0:
192,192,16609,128,0,16836:0:0:0:0:
64,192,16836,128,0,17972:0:0:0:0:
320,192,17063,1,0,0:0:0:0:
192,192,17518,1,0,0:0:0:20:drum-hitwhistle.wav
448,192,17518,1,0,0:0:0:0:
448,192,17745,1,0,0:0:0:0:
192,192,17972,1,0,0:0:0:40:LR_Clap Fast Low.wav
320,192,17972,1,0,0:0:0:0:
64,192,18427,1,0,0:0:0:0:
192,192,18881,1,0,0:0:0:20:drum-hitwhistle.wav
448,192,18881,1,0,0:0:0:0:
320,192,19336,128,0,19563:0:0:0:0:
64,192,19563,1,0,0:0:0:0:
320,192,19790,128,0,20245:0:0:0:40:LR_Clap Fast Low.wav
448,192,19790,1,0,0:0:0:0:
448,192,20245,128,0,20472:0:0:0:0:
64,192,20472,128,0,20927:0:0:0:0:
320,192,20700,1,0,0:0:0:0:
192,192,21154,128,0,21609:0:0:0:20:drum-hitwhistle.wav
320,192,21154,1,0,0:0:0:0:
448,192,21381,1,0,0:0:0:0:
64,192,21609,1,0,0:0:0:40:LR_Clap Fast Low.wav
320,192,21609,128,0,22063:0:0:0:0:
448,192,22063,128,0,22290:0:0:0:0:
192,192,22518,1,0,0:0:0:20:drum-hitwhistle.wav
448,192,22518,128,0,22972:0:0:0:0:
192,192,22972,1,0,0:0:0:0:
64,192,23200,1,0,0:0:0:0:
320,192,23427,1,0,0:0:0:40:LR_Clap Fast Low.wav
448,192,23427,1,0,0:0:0:0:
192,192,23654,128,0,23881:0:0:0:0:
448,192,23881,128,0,24109:0:0:0:0:
64,192,24109,128,0,25245:0:0:0:0:
192,192,24109,1,0,0:0:0:0:
320,192,24336,1,0,0:0:0:20:drum-hitwhistle.wav
448,192,24336,1,0,0:0:0:0:
192,192,24790,1,0,0:0:0:20:drum-hitwhistle.wav
320,192,24790,1,0,0:0:0:0:
448,192,25018,1,0,0:0:0:0:
192,192,25245,1,0,0:0:0:40:LR_Clap Fast Low.wav
320,192,25245,1,0,0:0:0:0:
320,192,25472,1,0,0:0:0:40:LR_Clap Fast Low.wav
448,192,25472,1,0,0:0:0:0:
64,192,25700,1,0,0:0:0:30:HHOpen.wav
192,192,25700,1,0,0:0:0:0:
192,192,25927,1,0,0:0:0:40:LR_Clap Fast Low.wav
320,192,25927,1,0,0:0:0:0:
64,192,26154,1,0,0:0:0:20:drum-hitwhistle.wav
448,192,26154,1,0,0:0:0:20:drum-hitfinish.wav
192,192,26609,128,0,26836:0:0:0:0:
320,192,26836,128,0,27063:0:0:0:0:
192,192,27063,128,0,27518:0:0:0:40:LR_Clap Fast Low.wav
448,192,27063,1,0,0:0:0:0:
64,192,27518,128,0,27745:0:0:0:0:
320,192,27745,128,0,28427:0:0:0:0:
192,192,27972,1,0,0:0:0:20:drum-hitfinish.wav
64,192,28427,1,0,0:0:0:20:drum-hitwhistle.wav
448,192,28427,128,0,28881:0:0:0:0:
192,192,28654,1,0,0:0:0:0:
64,192,28881,128,0,29109:0:0:0:0:
320,192,28881,1,0,0:0:0:0:
192,192,29109,1,0,0:0:0:0:
320,192,29336,128,0,29563:0:0:0:0:
448,192,29563,1,0,0:0:0:0:
192,192,29790,128,0,30245:0:0:0:20:drum-hitfinish.wav
320,192,29790,1,0,0:0:0:0:
448,192,30245,1,0,0:0:0:0:
320,192,30472,1,0,0:0:0:0:
64,192,30700,128,0,30927:0:0:0:20:drum-hitfinish.wav
192,192,30700,1,0,0:0:0:0:
448,192,31154,128,0,31381:0:0:0:0:
64,192,31381,1,0,0:0:0:20:drum-hitfinish.wav
192,192,31381,128,0,32518:0:0:0:0:
64,192,31836,1,0,0:0:0:0:
320,192,32063,1,0,0:0:0:20:drum-hitwhistle.wav
448,192,32063,1,0,0:0:0:0:
64,192,32518,1,0,0:0:0:40:LR_Clap Fast Low.wav
320,192,32518,1,0,0:0:0:0:
64,192,32972,128,0,33200:0:0:0:0:
192,192,33200,128,0,33427:0:0:0:0:
320,192,33427,128,0,33881:0:0:0:20:drum-hitwhistle.wav
448,192,33427,1,0,0:0:0:20:drum-hitfinish.wav
192,192,33881,128,0,34109:0:0:0:0:
320,192,34109,128,0,34336:0:0:0:0:
64,192,34336,1,0,0:0:0:40:LR_Clap Fast Low.wav
192,192,34336,1,0,0:0:0:0:
448,192,34563,128,0,34790:0:0:0:0:
64,192,34790,1,0,0:0:0:0:
192,192,35018,128,0,35245:0:0:0:20:drum-hitwhistle.wav
64,192,35245,1,0,0:0:0:0:
448,192,35245,1,0,0:0:0:0:
320,192,35700,1,0,0:0:0:20:drum-hitwhistle.wav
448,192,35700,1,0,0:0:0:0:
64,192,36154,128,0,36381:0:0:0:20:drum-hitfinish.wav
320,192,36154,1,0,0:0:0:0:
192,192,36381,1,0,0:0:0:0:
64,192,36609,128,0,36836:0:0:0:0:
320,192,36836,1,0,0:0:0:0:
192,192,37063,1,0,0:0:0:20:drum-hitfinish.wav
448,192,37063,128,0,38881:0:0:0:0:
64,192,37518,1,0,0:0:0:0:
192,192,37745,1,0,0:0:0:0:
320,192,37745,1,0,0:0:0:0:
64,192,37972,1,0,0:0:0:40:LR_Clap Fast Low.wav
320,192,37972,1,0,0:0:0:0:
192,192,38200,1,0,0:0:0:0:
320,192,38427,1,0,0:0:0:0:
64,192,38654,1,0,0:0:0:0:
192,192,38654,1,0,0:0:0:0:
192,192,38881,1,0,0:0:0:20:drum-hitwhistle.wav
320,192,38881,1,0,0:0:0:0:
64,192,39336,1,0,0:0:0:0:
192,192,39790,128,0,40245:0:0:0:0:
320,192,40245,1,0,0:0:0:0:
192,192,40472,1,0,0:0:0:0:
320,192,40586,1,0,0:0:0:0:
64,192,40700,1,2,0:0:0:0:
192,192,40700,1,4,0:0:0:0:
448,192,40700,128,0,40927:0:0:0:0:
64,192,41154,1,2,0:0:0:0:
448,192,41154,128,0,41381:0:0:0:0:
320,192,41381,128,0,41609:0:0:0:0:
64,192,41609,1,2,0:0:0:0:
448,192,41609,128,0,41836:0:0:0:0:
192,192,41836,128,0,42063:0:0:0:0:
64,192,42063,1,2,0:0:0:0:
320,192,42063,128,0,42290:0:0:0:0:
448,192,42290,128,0,42972:0:0:0:0:
192,192,42518,1,2,0:0:0:0:
64,192,42745,1,0,0:0:0:0:
192,192,42972,128,2,43086:0:0:0:0:
320,192,43200,1,0,0:0:0:0:
64,192,43427,128,2,43881:0:0:0:0:
448,192,43427,128,0,43540:0:0:0:0:
320,192,43654,1,0,0:0:0:0:
192,192,43881,128,8,43995:0:0:0:0:
448,192,43881,1,2,0:0:0:0:
320,192,44109,1,0,0:0:0:0:
192,192,44222,1,0,0:0:0:0:
64,192,44336,128,2,44790:0:0:0:0:
448,192,44336,128,0,44450:0:0:0:0:
192,192,44563,1,0,0:0:0:0:
320,192,44790,1,2,0:0:0:0:
64,192,45018,128,0,45245:0:0:0:0:
192,192,45245,128,2,45472:0:0:0:0:
448,192,45245,128,0,45359:0:0:0:0:
64,192,45472,128,0,45700:0:0:0:0:
192,192,45700,1,2,0:0:0:0:
448,192,45700,128,0,45927:0:0:0:0:
64,192,45927,128,0,46040:0:0:0:70:HHOpen.wav
320,192,45927,128,0,46381:0:0:0:0:
448,192,46154,1,2,0:0:0:0:
64,192,46381,1,0,0:0:0:0:
192,192,46609,1,2,0:0:0:0:
448,192,46609,128,0,47063:0:0:0:0:
64,192,46836,1,0,0:0:0:0:
192,192,46950,1,0,0:0:0:0:
64,192,47063,1,2,0:0:0:0:
320,192,47063,128,0,47518:0:0:0:0:
448,192,47290,1,0,0:0:0:0:
64,192,47518,1,8,0:0:0:0:
192,192,47518,128,2,47972:0:0:0:0:
448,192,47518,1,0,0:0:0:70:HHOpen.wav
64,192,47972,128,2,48654:0:0:0:0:
320,192,47972,1,4,0:0:0:0:
448,192,47972,1,0,0:0:0:0:
448,192,48427,1,2,0:0:0:0:
192,192,48654,1,0,0:0:0:0:
448,192,48881,1,2,0:0:0:0:
192,192,49109,128,0,49336:0:0:0:0:
448,192,49336,128,2,49563:0:0:0:0:
192,192,49563,1,0,0:0:0:70:HHOpen.wav
320,192,49563,128,0,50245:0:0:0:0:
64,192,49790,1,2,0:0:0:0:
64,192,50245,1,2,0:0:0:0:
448,192,50245,128,0,50700:0:0:0:0:
192,192,50472,1,0,0:0:0:0:
64,192,50700,128,2,51154:0:0:0:0:
320,192,50700,1,0,0:0:0:0:
192,192,50927,1,0,0:0:0:0:
320,192,51154,128,2,51609:0:0:0:0:
448,192,51154,1,8,0:0:0:0:
64,192,51609,1,2,0:0:0:0:
448,192,51609,128,0,52518:0:0:0:70:HHOpen.wav
192,192,51950,1,0,0:0:0:70:HHOpen.wav
64,192,52063,1,2,0:0:0:0:
320,192,52290,1,0,0:0:0:0:
192,192,52404,1,0,0:0:0:70:HHOpen.wav
64,192,52518,1,2,0:0:0:0:
320,192,52745,128,2,52972:0:0:0:0:
448,192,52745,1,0,0:0:0:0:
64,192,52972,128,8,53200:0:0:0:0:
192,192,52972,1,0,0:0:0:0:
192,192,53200,128,2,53654:0:0:0:0:
320,192,53200,1,4,0:0:0:0:
448,192,53200,1,0,0:0:0:0:
320,192,53654,1,2,0:0:0:0:
448,192,53654,1,0,0:0:0:0:
320,192,53881,1,8,0:0:0:0:
448,192,53881,1,2,0:0:0:0:
64,192,54109,1,8,0:0:0:0:
192,192,54109,1,2,0:0:0:0:
64,192,54336,1,8,0:0:0:0:
192,192,54336,1,2,0:0:0:0:
320,192,54563,1,8,0:0:0:0:
448,192,54563,1,2,0:0:0:0:
320,192,54790,1,8,0:0:0:0:
448,192,54790,1,2,0:0:0:0:
64,192,54904,1,2,0:0:0:0:
192,192,55018,1,2,0:0:0:0:
320,192,55131,1,2,0:0:0:0:
64,192,55245,1,2,0:0:0:0:
192,192,55245,1,8,0:0:0:0:
448,192,55245,1,4,0:0:0:0:
192,192,55586,1,2,0:0:0:0:
448,192,55586,1,0,0:0:0:0:
64,192,55813,1,0,0:0:0:0:
192,192,55927,1,2,0:0:0:0:
448,192,55927,1,0,0:0:0:0:
64,192,56154,128,8,56609:0:0:0:0:
192,192,56154,1,2,0:0:0:0:
320,192,56154,1,0,0:0:0:0:
192,192,56609,1,0,0:0:0:0:
448,192,56722,1,0,0:0:0:0:
320,192,56836,1,0,0:0:0:0:
192,192,56950,1,0,0:0:0:0:
64,192,57063,1,2,0:0:0:0:
320,192,57063,1,4,0:0:0:0:
448,192,57063,128,0,57290:0:0:0:0:
192,192,57290,128,0,57518:0:0:0:0:
64,192,57518,128,8,57745:0:0:0:0:
320,192,57518,1,2,0:0:0:0:
192,192,57745,128,0,57972:0:0:0:70:HHOpen.wav
448,192,57972,1,2,0:0:0:0:
64,192,58200,128,0,58427:0:0:0:70:HHOpen.wav
320,192,58427,1,2,0:0:0:0:
448,192,58427,1,8,0:0:0:0:
192,192,58654,128,0,58881:0:0:0:70:HHOpen.wav
320,192,58881,128,2,59109:0:0:0:0:
192,192,59109,1,0,0:0:0:70:HHOpen.wav
64,192,59336,1,2,0:0:0:0:
448,192,59336,128,8,59563:0:0:0:0:
320,192,59563,128,0,59790:0:0:0:70:HHOpen.wav
64,192,59790,1,2,0:0:0:0:
192,192,60018,128,0,60245:0:0:0:70:HHOpen.wav
320,192,60245,1,2,0:0:0:0:
448,192,60245,1,8,0:0:0:0:
64,192,60472,128,0,60700:0:0:0:70:HHOpen.wav
448,192,60700,128,2,60927:0:0:0:0:
320,192,60927,128,0,61154:0:0:0:70:HHOpen.wav
64,192,61154,1,2,0:0:0:0:
192,192,61154,128,8,61381:0:0:0:0:
320,192,61381,128,0,61609:0:0:0:70:HHOpen.wav
64,192,61609,1,2,0:0:0:0:
448,192,61836,128,0,62063:0:0:0:70:HHOpen.wav
64,192,62063,1,8,0:0:0:0:
192,192,62063,1,2,0:0:0:0:
320,192,62290,128,0,62518:0:0:0:70:HHOpen.wav
192,192,62518,128,2,62745:0:0:0:0:
448,192,62745,1,0,0:0:0:70:HHOpen.wav
64,192,62972,128,8,63200:0:0:0:0:
320,192,62972,1,2,0:0:0:0:
192,192,63200,128,0,63427:0:0:0:70:HHOpen.wav
448,192,63427,1,2,0:0:0:0:
64,192,63654,128,0,63881:0:0:0:70:HHOpen.wav
192,192,63881,1,2,0:0:0:0:
320,192,63881,1,8,0:0:0:0:
448,192,64109,128,0,64336:0:0:0:70:HHOpen.wav
64,192,64336,1,4,0:0:0:0:
192,192,64336,1,2,0:0:0:0:
320,192,64336,128,0,64563:0:0:0:0:
448,192,64563,1,0,0:0:0:70:HHOpen.wav
64,192,64790,1,2,0:0:0:0:
320,192,64790,128,8,65018:0:0:0:0:
192,192,65018,128,0,65245:0:0:0:70:HHOpen.wav
448,192,65245,1,2,0:0:0:0:
64,192,65472,128,0,65700:0:0:0:70:HHOpen.wav
192,192,65700,1,2,0:0:0:0:
448,192,65700,1,8,0:0:0:0:
320,192,65927,128,0,66154:0:0:0:70:HHOpen.wav
64,192,66154,1,2,0:0:0:0:
192,192,66154,128,4,66381:0:0:0:0:
448,192,66154,1,0,0:0:0:0:
320,192,66381,1,0,0:0:0:70:HHOpen.wav
64,192,66609,128,8,66836:0:0:0:0:
192,192,66609,1,2,0:0:0:0:
448,192,66836,128,0,67290:0:0:0:70:HHOpen.wav
320,192,67063,1,2,0:0:0:0:
64,192,67290,1,0,0:0:0:70:HHOpen.wav
192,192,67518,1,2,0:0:0:0:
320,192,67518,1,8,0:0:0:0:
64,192,67631,1,0,0:0:0:0:
192,192,67745,1,0,0:0:0:70:HHOpen.wav
320,192,67859,1,0,0:0:0:0:
64,192,67972,128,2,68200:0:0:0:0:
192,192,67972,1,4,0:0:0:0:
448,192,67972,1,0,0:0:0:0:
320,192,68200,1,0,0:0:0:70:HHOpen.wav
192,192,68427,128,8,68654:0:0:0:0:
448,192,68427,1,2,0:0:0:0:
64,192,68654,128,0,68881:0:0:0:70:HHOpen.wav
448,192,68881,1,2,0:0:0:0:
320,192,69109,128,0,69336:0:0:0:70:HHOpen.wav
64,192,69336,128,8,69563:0:0:0:0:
192,192,69336,1,2,0:0:0:0:
448,192,69563,128,0,70018:0:0:0:70:HHOpen.wav
64,192,69790,128,2,69904:0:0:0:0:
192,192,69790,1,0,0:0:0:0:
320,192,70018,1,0,0:0:0:70:HHOpen.wav
64,192,70245,1,8,0:0:0:0:
192,192,70245,1,2,0:0:0:0:
448,192,70245,1,4,0:0:0:0:
320,192,70472,1,0,0:0:0:0:
64,192,70586,1,8,0:0:0:0:
192,192,70586,1,0,0:0:0:0:
320,192,70700,1,2,0:0:0:0:
320,192,70927,1,8,0:0:0:0:
448,192,70927,1,0,0:0:0:0:
192,192,71040,1,8,0:0:0:0:
64,192,71154,1,2,0:0:0:0:
320,192,71268,1,2,0:0:0:0:
448,192,71381,1,2,0:0:0:0:
192,192,71495,1,2,0:0:0:0:
64,192,71609,128,2,71836:0:0:0:0:
320,192,71609,1,4,0:0:0:0:
448,192,71609,1,0,0:0:0:0:
192,192,71836,128,0,72063:0:0:0:0:
64,192,72063,128,8,72290:0:0:0:0:
448,192,72063,1,2,0:0:0:0:
320,192,72290,128,0,72518:0:0:0:70:HHOpen.wav
192,192,72518,1,2,0:0:0:0:
64,192,72745,128,0,72972:0:0:0:70:HHOpen.wav
320,192,72972,1,2,0:0:0:0:
448,192,72972,1,8,0:0:0:0:
192,192,73200,128,0,73427:0:0:0:70:HHOpen.wav
320,192,73427,128,2,73654:0:0:0:0:
64,192,73654,1,0,0:0:0:70:HHOpen.wav
192,192,73881,1,8,0:0:0:0:
448,192,73881,128,2,74109:0:0:0:0:
320,192,74109,128,0,74336:0:0:0:70:HHOpen.wav
192,192,74336,1,2,0:0:0:0:
64,192,74563,128,0,74790:0:0:0:70:HHOpen.wav
320,192,74790,1,2,0:0:0:0:
448,192,74790,1,8,0:0:0:0:
192,192,75018,128,0,75245:0:0:0:70:HHOpen.wav
64,192,75245,128,2,75472:0:0:0:0:
192,192,75472,128,0,75700:0:0:0:70:HHOpen.wav
64,192,75700,1,2,0:0:0:0:
448,192,75700,128,8,75927:0:0:0:0:
320,192,75927,128,0,76154:0:0:0:70:HHOpen.wav
192,192,76154,1,2,0:0:0:0:
64,192,76381,128,0,76609:0:0:0:70:HHOpen.wav
320,192,76609,1,8,0:0:0:0:
448,192,76609,1,2,0:0:0:0:
192,192,76836,128,0,77063:0:0:0:70:HHOpen.wav
320,192,77063,128,2,77290:0:0:0:0:
64,192,77290,1,0,0:0:0:70:HHOpen.wav
192,192,77518,128,2,77745:0:0:0:0:
320,192,77518,1,8,0:0:0:0:
448,192,77745,128,0,77972:0:0:0:70:HHOpen.wav
64,192,77972,1,2,0:0:0:0:
320,192,78200,128,0,78427:0:0:0:70:HHOpen.wav
64,192,78427,1,2,0:0:0:0:
192,192,78427,1,8,0:0:0:0:
448,192,78540,1,8,0:0:0:0:
320,192,78654,1,8,0:0:0:0:
192,192,78768,1,8,0:0:0:0:
64,192,78881,128,2,79109:0:0:0:0:
320,192,78881,1,4,0:0:0:0:
448,192,78881,1,0,0:0:0:0:
64,192,79336,128,2,79563:0:0:0:0:
192,192,79336,1,8,0:0:0:0:
448,192,79563,128,0,79790:0:0:0:70:HHOpen.wav
192,192,79790,1,2,0:0:0:0:
320,192,80018,128,0,80245:0:0:0:70:HHOpen.wav
64,192,80245,1,8,0:0:0:0:
192,192,80245,1,2,0:0:0:0:
448,192,80472,128,0,80700:0:0:0:70:HHOpen.wav
64,192,80700,1,2,0:0:0:0:
192,192,80700,1,4,0:0:0:0:
320,192,80700,128,0,80927:0:0:0:0:
448,192,80927,1,0,0:0:0:70:HHOpen.wav
64,192,81154,1,8,0:0:0:0:
192,192,81154,128,2,81381:0:0:0:0:
320,192,81381,128,0,81836:0:0:0:70:HHOpen.wav
448,192,81609,1,2,0:0:0:0:
64,192,81836,1,0,0:0:0:70:HHOpen.wav
192,192,81950,1,8,0:0:0:0:
320,192,82063,1,2,0:0:0:0:
448,192,82063,1,8,0:0:0:0:
192,192,82177,1,2,0:0:0:0:
64,192,82290,1,2,0:0:0:0:
320,192,82404,1,2,0:0:0:0:
64,192,82518,128,2,82745:0:0:0:0:
192,192,82518,1,4,0:0:0:0:
448,192,82518,1,0,0:0:0:0:
448,192,82745,128,0,82972:0:0:0:0:
64,192,82972,1,8,0:0:0:0:
320,192,82972,128,2,83200:0:0:0:0:
192,192,83200,128,0,83654:0:0:0:70:HHOpen.wav
64,192,83427,1,2,0:0:0:0:
320,192,83654,1,0,0:0:0:70:HHOpen.wav
192,192,83881,1,8,0:0:0:0:
448,192,83881,1,2,0:0:0:0:
320,192,84109,128,0,84336:0:0:0:70:HHOpen.wav
64,192,84336,128,2,84563:0:0:0:0:
192,192,84563,1,0,0:0:0:70:HHOpen.wav
320,192,84790,1,8,0:0:0:0:
448,192,84790,128,2,85018:0:0:0:0:
192,192,85018,1,2,0:0:0:0:
320,192,85131,1,0,0:0:0:0:
64,192,85245,1,2,0:0:0:0:
192,192,85359,1,8,0:0:0:0:
320,192,85472,1,8,0:0:0:0:
448,192,85472,1,0,0:0:0:0:
64,192,85700,1,2,0:0:0:0:
192,192,85700,1,8,0:0:0:0:
64,192,85927,128,2,87972:0:0:0:0:
448,192,85927,128,0,87972:0:0:0:0:
