osu file format v14

[General]
AudioFilename: audio.mp3
AudioLeadIn: 0
PreviewTime: 205928
Countdown: 0
SampleSet: Soft
StackLeniency: 0.7
Mode: 0
LetterboxInBreaks: 0
WidescreenStoryboard: 1

[Editor]
Bookmarks: 18882,47973,78882,106155,133428,166155,198882,210701,231610,258882
DistanceSpacing: 1.6
BeatDivisor: 4
GridSize: 32
TimelineZoom: 1

[Metadata]
Title:Komorebi no Yell
TitleUnicode:木漏れ日のエール
Artist:Tokai Teio (CV: Machico), Mejiro McQueen (CV: Onishi Saori)
ArtistUnicode:トウカイテイオー (CV: Machico)、メジロマックイーン (CV: 大西沙織)
Creator:Sekai
Version:Duet
Source:ウマ娘 プリティーダービー Season 2
Tags:Sekaii Sekai-nyan umamusume uma musume pretty derby anime ed ending japanese pop jpop oonishi no_dap no dap shioi moeka momoka full ver
BeatmapID:3999998
BeatmapSetID:1935449

[Difficulty]
HPDrainRate:5.5
CircleSize:4
OverallDifficulty:7
ApproachRate:8
SliderMultiplier:1.6
SliderTickRate:1

[Events]
//Background and Video events
0,0,"yuri.jpg",0,0
//Break Periods
//Storyboard Layer 0 (Background)
//Storyboard Layer 1 (Fail)
//Storyboard Layer 2 (Pass)
//Storyboard Layer 3 (Foreground)
//Storyboard Layer 4 (Overlay)
//Storyboard Sound Samples

[TimingPoints]
701,454.545454545455,4,2,1,30,1,0
701,-133.333333333333,4,2,1,30,0,0
15246,-133.333333333333,4,2,1,33,0,0
15928,-133.333333333333,4,2,1,36,0,0
16610,-133.333333333333,4,2,1,39,0,0
17973,-133.333333333333,4,2,1,42,0,0
18882,-111.111111111111,4,2,1,33,0,0
33428,-111.111111111111,4,2,1,36,0,0
47973,-100,4,2,2,42,0,0
55246,-100,4,2,2,45,0,0
60473,-100,4,2,2,48,0,0
62519,-62.5,4,2,2,51,0,0
63428,-50,4,2,2,51,0,0
64337,-90.9090909090909,4,2,2,57,0,1
78882,-90.9090909090909,4,2,2,60,0,1
93428,-90.9090909090909,4,2,2,57,0,1
102746,-125,4,2,2,57,0,0
104110,-125,4,2,2,57,0,0
105473,-66.6666666666667,4,2,2,57,0,0
105701,-100,4,2,2,57,0,0
106155,-100,4,2,1,42,0,0
120701,-100,4,2,2,45,0,0
142519,-100,4,2,2,48,0,0
147746,-83.3333333333333,4,2,2,51,0,0
149791,-66.6666666666667,4,2,2,54,0,0
150701,-50,4,2,2,54,0,0
151610,-90.9090909090909,4,2,2,60,0,1
166155,-90.9090909090909,4,2,2,63,0,1
180701,-111.111111111111,4,2,2,60,0,0
181382,-111.111111111111,4,2,2,60,0,0
182745,-111.111111111111,4,2,2,60,0,0
182973,-111.111111111111,4,2,2,60,0,0
184337,-99.9999999999999,4,2,2,60,0,0
185246,-99.9999999999999,4,2,2,60,0,0
185473,-99.9999999999999,4,2,2,60,0,0
185928,-100,4,2,2,60,0,0
187519,-100,4,2,2,60,0,0
187632,-100,4,2,2,60,0,0
187973,-100,4,2,2,57,0,0
195473,-100,4,2,2,57,0,0
195701,-100,4,2,2,57,0,0
197178,-100,4,2,2,57,0,0
198882,-133.333333333333,4,2,1,36,0,0
205928,-117.647058823529,4,2,1,42,0,0
206155,-117.647058823529,4,2,2,45,0,0
207970,-117.647058823529,4,2,2,48,0,0
209791,-117.647058823529,4,2,2,51,0,0
211610,-100,4,2,2,54,0,0
213201,-100,4,2,2,57,0,0
215246,-66.6666666666667,4,2,2,57,0,0
216155,-50,4,2,2,57,0,0
217064,-90.9090909090909,4,2,2,63,0,1
231610,-90.9090909090909,4,2,2,66,0,1
249564,-90.9090909090909,4,2,2,66,0,1
249791,-133.333333333333,4,2,2,42,0,0
252291,-285.714285714284,4,2,2,42,0,0
258428,-125,4,2,2,39,0,0
258882,-125,4,2,2,36,0,0
269791,444.444444444445,4,2,1,40,1,0
270679,468.75,4,2,1,40,1,0
273491,451.127819548873,4,2,1,40,1,0
273491,-133.333333333333,4,2,1,40,0,0
277100,540.540540540541,4,2,1,40,1,0
277100,-133.333333333333,4,2,1,40,0,0
278721,576.923076923077,4,2,1,40,1,0
279297,625,4,2,1,40,1,0
279922,540.540540540541,4,2,1,40,1,0
281003,625.000000000001,4,2,1,40,1,0
282878,952.380952380955,4,2,1,40,1,0
283354,895.522388059704,4,2,1,40,1,0
283801,714.285714285716,4,2,1,40,1,0
284515,454.545454545455,4,2,1,40,1,0
284742,689.655172413795,4,2,1,40,1,0
285086,600.000000000001,4,2,1,40,1,0
285386,550.458715596331,4,2,1,40,1,0
285661,487.804878048781,4,2,1,40,1,0
286148,487.804878048781,4,2,1,40,1,0
290538,-100,4,2,1,5,0,0

[Colours]
Combo1 : 79,167,255
Combo2 : 255,155,106
Combo3 : 252,82,86
Combo4 : 183,133,250

[HitObjects]
134,121,701,5,2,0:0:0:0:
152,223,928,1,0,0:0:0:0:
66,191,1155,1,0,0:0:0:0:
134,121,1382,2,0,P|207:125|278:129,1,120.000004577637,2|0,0:0|0:0,0:0:0:0:
343,145,2064,1,0,0:0:0:0:
259,183,2291,2,0,P|248:139|262:116,1,60.0000022888184,2|0,0:0|0:0,0:0:0:0:
347,229,2746,5,0,0:0:0:0:
280,305,2973,1,0,0:0:0:0:
382,279,3201,2,0,P|360:249|342:221,1,60.0000022888184,2|0,0:0|0:0,0:0:0:0:
435,346,3655,1,0,0:0:0:0:
382,279,3882,1,0,0:0:0:0:
430,214,4110,1,0,0:0:0:0:
512,231,4337,38,0,P|511:252|493:276,1,60.0000022888184,2|0,0:0|0:0,0:0:0:0:
435,346,4791,1,0,0:0:0:0:
435,346,5019,2,0,B|366:357|375:317|316:327,1,120.000004577637,2|0,0:0|0:0,0:0:0:0:
231,360,5701,1,0,0:0:0:0:
188,284,5928,6,0,P|195:245|210:163,1,120.000004577637,2|0,0:0|0:0,0:0:0:0:
164,69,6610,1,0,0:0:0:0:
70,151,6837,2,0,P|118:146|141:144,1,60.0000022888184,2|0,0:0|0:0,0:0:0:0:
209,165,7291,1,0,0:0:0:0:
164,69,7519,1,0,0:0:0:0:
129,144,7746,1,0,0:0:0:0:
239,82,7973,38,0,P|245:50|228:16,1,60.0000022888184,6|0,0:0|0:0,0:0:0:0:
333,95,8428,1,0,0:0:0:0:
266,182,8655,2,0,P|228:170|196:161,1,60.0000022888184,2|0,0:0|0:0,0:0:0:0:
256,277,9110,2,0,P|287:270|324:260,1,60.0000022888184
431,341,9564,6,0,B|398:301|398:301|416:216,1,120.000004577637,2|0,0:0|0:0,0:0:0:0:
469,112,10246,1,0,0:0:0:0:
352,136,10473,2,0,P|402:129|476:111,1,120.000004577637,2|0,0:0|0:0,0:0:0:0:
308,49,11155,1,0,0:0:0:0:
352,136,11382,1,0,0:0:0:0:
203,113,11610,38,0,P|176:81|156:65,1,60.0000022888184,2|0,0:0|0:0,0:0:0:0:
94,162,12064,1,0,0:0:0:0:
190,222,12291,2,0,P|217:206|263:202,1,60.0000022888184,2|0,0:0|0:0,0:0:0:0:
209,350,12746,2,0,P|217:318|237:283,1,60.0000022888184
418,328,13201,2,0,P|354:335|285:343,1,120.000004577637,2|0,0:0|0:0,0:0:0:0:
324,233,13882,1,0,0:0:0:0:
324,233,14110,2,0,P|343:193|380:115,1,120.000004577637,2|0,0:0|0:0,0:0:0:0:
330,52,14791,5,2,0:0:0:0:
304,36,14904,1,2,0:0:0:0:
275,31,15018,1,2,0:0:0:0:
245,38,15131,1,2,0:0:0:0:
221,61,15246,38,0,P|167:52|96:39,1,120.000004577637,2|0,0:0|0:0,0:0:0:0:
34,107,15928,1,2,0:0:0:0:
91,271,16610,1,2,0:0:0:0:
91,271,17973,5,2,0:0:0:0:
59,181,18201,1,2,0:0:0:0:
59,181,18882,38,0,B|139:168|110:227|208:210,1,143.999995605469,4|2,3:2|0:0,0:0:0:0:
279,172,19564,1,0,0:0:0:0:
265,293,19791,2,0,P|310:279|407:247,1,143.999995605469,10|2,0:0|0:0,0:0:0:0:
492,194,20473,1,2,0:0:0:0:
396,46,20701,6,0,P|372:96|411:169,1,143.999995605469,2|2,0:0|3:2,0:0:0:0:
286,39,21382,1,0,0:0:0:0:
286,39,21610,2,0,P|257:63|220:88,1,71.9999978027344,10|0,0:0|0:0,0:0:0:0:
81,55,22064,2,0,P|117:89|120:123,1,71.9999978027344,2|0,0:0|0:0,0:0:0:0:
76,227,22519,38,0,P|118:209|209:165,1,143.999995605469,2|0,3:2|0:0,0:0:0:0:
349,101,23201,1,2,0:0:0:0:
329,180,23428,2,0,P|282:151|281:59,1,143.999995605469,10|2,0:0|0:0,0:0:0:0:
329,180,24110,1,2,0:0:0:0:
396,285,24337,6,0,P|350:277|246:257,1,143.999995605469,2|0,0:0|3:0,0:0:0:0:
308,362,25019,1,0,0:0:0:0:
396,285,25246,2,0,P|409:238|397:211,1,71.9999978027344,10|0,0:0|0:0,0:0:0:0:
323,209,25701,2,0,P|304:251|321:280,1,71.9999978027344
342,93,26155,38,0,P|305:82|268:64,1,71.9999978027344,2|0,3:2|0:0,0:0:0:0:
148,11,26610,2,0,B|182:55|182:55|133:159,1,143.999995605469,2|10,0:0|0:0,0:0:0:0:
90,212,27291,1,0,0:0:0:0:
80,117,27519,2,0,P|121:116|147:139,1,71.9999978027344,2|2,0:0|0:0,0:0:0:0:
231,240,27973,6,0,P|177:230|79:209,1,143.999995605469,2|2,0:0|3:2,0:0:0:0:
138,309,28655,1,0,0:0:0:0:
231,240,28882,2,0,P|244:204|262:169,1,71.9999978027344,10|0,0:0|0:0,0:0:0:0:
399,236,29337,2,0,P|364:222|324:235,1,71.9999978027344,2|0,0:0|0:0,0:0:0:0:
476,149,29791,38,0,P|479:210|482:304,1,143.999995605469,2|0,3:2|0:0,0:0:0:0:
475,148,30473,2,0,P|442:136|409:121,1,71.9999978027344,0|10,0:0|0:0,0:0:0:0:
315,17,30928,1,2,0:0:0:0:
315,17,31155,2,0,B|332:56|332:56|319:85,1,71.9999978027344,2|2,0:0|0:0,0:0:0:0:
114,21,31610,6,0,B|200:8|157:65|261:54,1,143.999995605469,2|0,0:0|3:0,0:0:0:0:
138,106,32291,1,0,0:0:0:0:
114,21,32519,2,0,P|70:17|39:11,1,71.9999978027344,8|2,0:0|0:0,0:0:0:0:
75,141,32973,2,0,P|107:120|143:104,1,71.9999978027344,10|2,0:0|0:0,0:0:0:0:
285,250,33428,38,0,P|220:218|154:188,1,143.999995605469,6|2,3:2|0:0,0:0:0:0:
185,301,34110,1,2,0:0:0:0:
285,250,34337,2,0,P|308:217|309:178,1,71.9999978027344,10|0,0:0|0:0,0:0:0:0:
384,69,34791,2,0,P|378:108|407:139,1,71.9999978027344,2|2,0:0|0:0,0:0:0:0:
512,247,35246,6,0,B|459:224|459:224|376:270,1,143.999995605469,2|2,0:0|3:2,0:0:0:0:
322,342,35928,1,0,0:0:0:0:
322,342,36155,2,0,P|288:285|309:209,1,143.999995605469,10|2,0:0|0:0,0:0:0:0:
252,127,36837,1,0,0:0:0:0:
184,224,37064,38,0,P|119:209|36:192,1,143.999995605469,2|0,3:2|0:0,0:0:0:0:
44,95,37746,1,0,0:0:0:0:
43,193,37973,2,0,P|96:181|193:160,1,143.999995605469,10|2,0:0|0:0,0:0:0:0:
356,100,38655,6,0,B|303:81|303:81|290:47|290:47|241:29,1,143.999995605469,2|0,3:2|0:0,0:0:0:0:
366,19,39337,2,0,B|407:34|407:34|422:63,1,71.9999978027344,2|0,3:2|0:0,0:0:0:0:
363,163,39791,2,0,P|345:127|366:91,1,71.9999978027344,10|0,0:0|0:0,0:0:0:0:
440,142,40246,1,2,0:0:0:0:
321,227,40473,1,2,0:0:0:0:
414,283,40701,38,0,P|423:234|440:138,1,143.999995605469,2|2,3:2|0:0,0:0:0:0:
414,283,41382,2,0,P|370:267|336:254,1,71.9999978027344,2|10,0:0|0:0,0:0:0:0:
241,197,41836,2,0,P|265:230|258:272,1,71.9999978027344,2|0,0:0|0:0,0:0:0:0:
300,338,42291,1,2,0:0:0:0:
113,374,42519,6,0,P|140:333|197:243,1,143.999995605469,2|0,0:0|3:0,0:0:0:0:
25,228,43201,1,0,0:0:0:0:
81,163,43428,2,0,P|106:190|104:235,1,71.9999978027344,10|0,0:0|0:0,0:0:0:0:
179,61,43882,2,0,P|173:102|167:140,1,71.9999978027344,2|0,0:0|0:0,0:0:0:0:
380,76,44337,38,0,B|291:71|340:120|232:112,1,143.999995605469,2|0,3:2|0:0,0:0:0:0:
364,164,45019,1,2,3:2:0:0:
380,76,45246,2,0,P|423:85|459:89,1,71.9999978027344,10|2,0:0|0:0,0:0:0:0:
434,176,45701,2,0,P|391:166|355:163,1,71.9999978027344,2|2,0:0|3:2,0:0:0:0:
411,297,46155,6,0,P|454:237|415:161,1,143.999995605469,6|0,3:2|0:0,0:0:0:0:
256,284,47064,1,2,0:0:0:0:
411,297,47519,1,2,0:0:0:0:
224,195,47746,5,2,0:0:0:0:
224,195,47860,1,2,0:0:0:0:
224,195,47973,2,0,P|234:116|243:30,1,160,6|2,1:2|1:2,0:0:0:0:
242,36,48655,1,2,0:0:0:0:
42,58,48882,2,0,P|35:95|32:139,1,80,2|2,1:2|0:0,0:0:0:0:
140,194,49337,2,0,P|147:154|149:114,1,80,2|2,1:2|0:0,0:0:0:0:
61,249,49791,6,0,P|107:281|222:241,2,160,0|0|2,1:0|1:0|1:2,0:0:0:0:
197,360,50928,1,0,0:0:0:0:
280,218,51155,2,0,P|292:287|313:340,1,120,10|0,1:2|0:0,0:0:0:0:
334,353,51610,38,0,P|419:344|491:305,1,160,2|0,1:2|1:0,0:0:0:0:
360,190,52291,1,2,0:0:0:0:
454,237,52519,1,2,1:2:0:0:
487,97,52746,2,0,P|446:113|408:119,1,80,2|2,0:0|1:2,0:0:0:0:
275,28,53201,6,0,P|230:59|221:161,1,160,6|0,0:0|0:0,0:0:0:0:
324,291,53882,2,0,P|319:245|310:205,1,80,2|0,1:2|0:0,0:0:0:0:
194,282,54337,2,0,P|185:321|181:360,1,80,2|0,1:2|0:0,0:0:0:0:
38,217,54791,2,0,P|121:221|155:193,1,120,14|0,1:2|0:0,0:0:0:0:
172,168,55246,38,0,P|157:88|139:7,2,160,6|0|0,1:2|1:0|1:0,0:0:0:0:
122,337,56382,1,2,0:0:0:0:
225,237,56610,1,2,1:2:0:0:
303,355,56837,6,0,P|359:316|356:225,1,160,6|0,0:0|0:0,0:0:0:0:
282,153,57519,2,0,P|290:109|294:71,1,80,2|0,1:2|0:0,0:0:0:0:
139,212,57973,2,0,P|178:220|217:226,1,80,2|0,1:2|0:0,0:0:0:0:
175,67,58428,1,10,1:2:0:0:
11,36,58655,1,2,0:0:0:0:
11,36,58769,1,2,0:0:0:0:
11,36,58882,38,0,P|28:98|41:215,1,160,2|0,1:2|1:0,0:0:0:0:
31,346,59564,1,2,0:0:0:0:
31,346,59678,1,2,0:0:0:0:
31,346,59791,1,2,1:2:0:0:
224,258,60019,1,8,0:3:0:0:
118,163,60246,1,10,0:0:0:0:
146,354,60473,6,0,P|229:348|325:335,1,160,6|8,1:2|1:2,0:0:0:0:
378,151,61155,1,8,1:2:0:0:
410,290,61382,1,8,1:2:0:0:
286,95,61610,1,8,1:2:0:0:
237,268,61837,1,8,1:2:0:0:
85,142,62064,1,8,0:0:0:0:
76,113,62177,1,8,0:3:0:0:
84,84,62291,1,4,0:3:0:0:
106,64,62404,1,0,1:0:0:0:
135,58,62519,38,0,P|190:67|250:113,1,128,14|0,0:2|0:0,0:0:0:0:
250,183,62860,2,0,L|226:340,1,128,10|4,0:3|0:3,0:0:0:0:
296,351,63201,2,0,P|366:358|452:328,1,128,6|10,0:3|0:0,0:0:0:0:
405,87,64337,6,0,P|358:99|308:103,1,88.000002685547,6|2,1:2|0:0,0:0:0:0:
161,66,64791,1,10,0:0:0:0:
52,150,65019,2,0,P|52:199|66:251,1,88.000002685547,2|0,0:0|1:0,0:0:0:0:
217,267,65473,2,0,P|217:223|208:180,1,88.000002685547,2|8,0:0|0:0,0:0:0:0:
97,334,65928,1,2,0:0:0:0:
97,334,66041,1,2,0:0:0:0:
97,334,66155,38,0,B|153:323|183:353|183:353|231:359|271:327,1,176.000005371094,2|10,1:2|0:0,0:0:0:0:
383,332,66837,2,0,P|433:309|451:275,1,88.000002685547,2|0,0:0|1:0,0:0:0:0:
353,224,67291,2,0,P|364:165|355:125,1,88.000002685547,2|8,0:0|0:0,0:0:0:0:
105,209,67746,1,2,0:0:0:0:
105,209,67860,1,2,0:0:0:0:
105,209,67973,5,2,1:2:0:0:
264,148,68201,1,2,0:0:0:0:
165,58,68428,1,10,0:0:0:0:
237,241,68655,2,0,P|286:241|324:231,1,88.000002685547,2|0,0:0|1:0,0:0:0:0:
461,126,69110,2,0,P|418:115|374:116,1,88.000002685547,2|8,0:0|0:0,0:0:0:0:
390,304,69564,1,2,0:0:0:0:
150,239,69791,38,0,P|157:293|240:324,1,132.00000402832,2|0,1:2|0:0,0:0:0:0:
262,313,70246,1,10,0:0:0:0:
136,144,70473,2,0,P|91:170|65:209,1,88.000002685547,2|0,0:0|1:0,0:0:0:0:
203,77,70928,2,0,P|156:54|109:54,1,88.000002685547,2|8,0:0|0:0,0:0:0:0:
284,213,71382,1,2,0:0:0:0:
181,355,71610,6,0,P|173:284|158:186,1,132.00000402832,6|0,1:2|0:0,0:0:0:0:
136,144,72064,1,10,0:0:0:0:
47,267,72291,2,0,P|93:261|143:245,1,88.000002685547,2|0,0:0|1:0,0:0:0:0:
289,332,72746,2,0,P|243:326|193:310,1,88.000002685547,2|8,0:0|0:0,0:0:0:0:
367,145,73201,1,2,0:0:0:0:
392,249,73428,38,0,P|324:245|265:148,1,176.000005371094,6|10,1:2|0:0,0:0:0:0:
128,27,74110,2,0,P|145:112|158:216,1,176.000005371094,2|0,0:0|0:0,0:0:0:0:
70,345,74791,1,8,0:0:0:0:
238,263,75019,1,2,0:0:0:0:
125,112,75246,6,0,P|78:161|118:257,1,176.000005371094,6|10,1:2|0:0,0:0:0:0:
250,140,75928,2,0,P|205:157|166:192,1,88.000002685547,2|0,0:0|1:0,0:0:0:0:
380,337,76382,1,2,0:0:0:0:
249,228,76610,1,10,0:0:0:0:
226,367,76837,1,2,0:0:0:0:
399,239,77064,38,0,P|395:194|380:139,1,88.000002685547,0|0,1:0|0:0,0:0:0:0:
169,63,77519,2,0,P|221:72|275:52,1,88.000002685547,14|0,0:0|0:0,0:0:0:0:
285,34,77860,1,8,0:0:0:0:
285,34,77973,1,8,1:3:0:0:
193,201,78201,5,8,0:0:0:0:
193,230,78314,1,8,0:0:0:0:
206,256,78428,1,8,0:3:0:0:
230,272,78541,1,8,0:3:0:0:
258,278,78655,1,4,0:3:0:0:
286,271,78769,1,4,0:3:0:0:
308,251,78882,6,0,P|299:193|293:156,1,88.000002685547,6|2,1:2|0:0,0:0:0:0:
451,209,79337,1,10,0:0:0:0:
381,354,79564,2,0,P|325:346|205:332,1,176.000005371094,2|2,0:0|0:0,0:0:0:0:
34,357,80246,1,8,0:0:0:0:
115,197,80473,5,2,0:0:0:0:
115,197,80587,1,2,0:0:0:0:
115,197,80701,2,0,B|132:244|132:244|110:282,1,88.000002685547,2|0,1:2|0:0,0:0:0:0:
229,178,81155,1,10,0:0:0:0:
71,105,81382,2,0,P|115:89|156:73,1,88.000002685547,2|0,0:0|1:0,0:0:0:0:
324,4,81837,2,0,P|296:41|312:88,1,88.000002685547,2|8,0:0|0:0,0:0:0:0:
229,178,82291,1,2,0:0:0:0:
377,58,82519,37,2,1:2:0:0:
339,230,82746,1,2,0:0:0:0:
482,105,82973,1,10,0:0:0:0:
460,333,83201,2,0,P|440:263|407:152,1,176.000005371094,2|2,0:0|0:0,0:0:0:0:
347,339,83882,1,8,0:0:0:0:
207,213,84110,5,2,0:0:0:0:
207,213,84223,1,2,0:0:0:0:
207,213,84337,2,0,P|249:195|292:212,1,88.000002685547,2|0,1:2|0:0,0:0:0:0:
147,74,84791,1,10,0:0:0:0:
81,196,85019,2,0,P|109:255|163:356,1,176.000005371094,2|2,0:0|0:0,0:0:0:0:
211,130,85701,37,8,0:0:0:0:
186,94,85814,1,8,0:0:0:0:
147,74,85928,1,10,0:0:0:0:
103,74,86041,1,8,0:0:0:0:
65,95,86155,6,0,P|53:50|76:10,1,88.000002685547,6|0,1:2|0:0,0:0:0:0:
211,130,86610,1,10,0:0:0:0:
81,196,86837,2,0,P|19:184|-13:177,1,88.000002685547,2|0,0:0|1:0,0:0:0:0:
70,359,87291,2,0,B|52:320|52:320|72:269,1,88.000002685547,2|8,0:0|0:0,0:0:0:0:
255,280,87746,37,2,0:0:0:0:
255,280,87860,1,2,0:0:0:0:
255,280,87973,2,0,P|215:269|173:309,1,88.000002685547,6|0,1:2|0:0,0:0:0:0:
296,383,88428,1,10,0:0:0:0:
390,249,88655,2,0,P|345:218|237:145,1,176.000005371094,2|0,0:0|0:0,0:0:0:0:
398,22,89337,5,8,0:0:0:0:
376,59,89450,1,8,0:3:0:0:
377,103,89564,1,4,0:3:0:0:
400,139,89677,1,4,0:3:0:0:
439,159,89791,37,6,1:2:0:0:
401,333,90019,1,2,0:0:0:0:
281,175,90246,1,10,0:0:0:0:
242,334,90473,2,0,B|277:289|277:289|327:283|327:283|373:231,1,176.000005371094,2|2,0:0|0:0,0:0:0:0:
372,231,91041,1,2,0:0:0:0:
372,231,91155,1,10,0:0:0:0:
209,225,91382,1,2,0:0:0:0:
325,43,91610,6,0,B|342:88|342:88|321:125,1,88.000002685547,2|0,1:2|0:0,0:0:0:0:
413,10,92064,1,10,0:0:0:0:
251,85,92291,1,8,0:3:0:0:
209,98,92404,1,8,0:3:0:0:
167,111,92518,1,0,1:0:0:0:
124,123,92631,1,8,0:0:0:0:
82,135,92745,1,8,0:0:0:0:
121,343,92973,37,8,1:2:0:0:
156,317,93086,1,8,0:3:0:0:
173,277,93200,1,4,0:3:0:0:
169,234,93313,1,4,0:3:0:0:
144,198,93428,6,0,P|216:208|279:217,1,132.00000402832,6|0,1:2|0:0,0:0:0:0:
275,216,93882,1,8,0:0:0:0:
377,361,94110,1,0,0:0:0:0:
430,248,94337,2,0,B|310:235|383:310|242:301,1,176.000005371094,2|8,1:2|0:0,0:0:0:0:
410,329,95019,1,2,0:0:0:0:
416,151,95246,38,0,P|433:112|411:76,1,88.000002685547,0|0,1:0|0:0,0:0:0:0:
326,77,95701,2,0,P|304:124|322:152,1,88.000002685547,8|0,0:0|0:0,0:0:0:0:
200,53,96155,2,0,B|155:39|155:39|104:60,1,88.000002685547,0|2,1:0|0:0,0:0:0:0:
120,142,96610,2,0,B|165:156|165:156|216:135,1,88.000002685547,10|2,0:0|0:0,0:0:0:0:
248,217,96951,5,2,0:0:0:0:
248,217,97064,2,0,B|190:242|190:242|169:280|169:280|94:299,1,176.000005371094,2|8,1:2|0:0,0:0:0:0:
264,376,97746,2,0,P|241:333|255:296,1,88.000002685547,2|2,0:0|1:2,0:0:0:0:
401,282,98201,2,0,P|360:314|323:343,1,88.000002685547,0|8,0:0|0:0,0:0:0:0:
487,336,98655,1,2,0:0:0:0:
352,138,98882,38,0,B|336:187|336:187|364:226,1,88.000002685547,2|0,1:2|0:0,0:0:0:0:
441,89,99337,2,0,P|394:65|312:22,1,132.00000402832,12|0,0:0|0:0,0:0:0:0:
243,14,99791,6,0,P|231:46|236:72,1,44.0000013427735,8|8,0:0|0:3,0:0:0:0:
234,143,100019,2,0,P|193:130|178:117,1,44.0000013427735,4|4,0:3|0:3,0:0:0:0:
100,51,100246,37,8,0:3:0:0:
102,94,100359,1,8,0:3:0:0:
106,138,100473,1,4,0:3:0:0:
110,182,100586,1,4,0:3:0:0:
115,226,100701,6,0,P|71:220|26:213,1,88.000002685547,6|2,1:2|1:2,0:0:0:0:
104,355,101155,1,10,0:0:0:0:
255,205,101382,2,0,P|280:121|222:51,1,176.000005371094,6|4,1:2|0:3,0:0:0:0:
192,129,101951,1,4,0:3:0:0:
192,129,102064,1,6,1:2:0:0:
346,49,102291,1,2,0:0:0:0:
255,290,102519,37,8,0:0:0:0:
230,55,102746,1,6,1:2:0:0:
256,192,102973,12,2,104337,0:0:0:0:
413,136,104791,5,2,0:0:0:0:
413,136,105019,1,2,0:0:0:0:
413,136,105246,1,2,0:0:0:0:
413,136,105473,38,0,L|388:191,1,60.0000022888184,8|0,0:0|0:0,0:0:0:0:
329,320,105701,1,12,0:0:0:0:
54,28,106155,38,0,P|65:113|80:186,1,160,4|10,3:2|0:0,0:0:0:0:
156,248,106837,1,2,0:0:0:0:
156,248,107064,2,0,L|138:332,1,80,2|0,0:0|3:0,0:0:0:0:
278,339,107519,1,10,0:0:0:0:
256,233,107746,1,2,0:0:0:0:
341,168,107973,38,0,P|394:197|385:292,1,160,2|10,3:2|0:0,0:0:0:0:
256,233,108655,1,0,0:0:0:0:
184,328,108882,1,2,3:2:0:0:
184,328,109110,1,0,3:0:0:0:
79,255,109337,2,0,P|67:201|90:163,1,80,10|0,0:0|0:0,0:0:0:0:
169,97,109791,6,0,P|250:80|353:62,2,160,2|10|2,3:2|0:0|0:0,0:0:0:0:
176,203,110928,1,0,3:0:0:0:
277,149,111155,2,0,P|296:193|299:232,1,80,10|2,0:0|0:0,0:0:0:0:
211,353,111610,38,0,P|218:311|228:264,1,80,0|0,3:0|0:0,0:0:0:0:
112,305,112064,2,0,P|72:298|33:290,1,80,10|0,0:0|0:0,0:0:0:0:
140,192,112519,1,0,3:0:0:0:
140,192,112746,1,0,3:0:0:0:
44,98,112973,2,0,P|83:91|122:83,1,80,8|0,0:0|0:0,0:0:0:0:
244,21,113428,6,0,P|296:86|280:155,1,160,2|10,3:2|0:0,0:0:0:0:
213,236,114110,1,2,0:0:0:0:
213,236,114337,2,0,L|221:328,1,80,2|0,0:0|3:0,0:0:0:0:
357,222,114791,1,10,0:0:0:0:
306,319,115019,1,2,0:0:0:0:
455,347,115246,38,0,L|434:179,1,160,2|10,3:2|0:0,0:0:0:0:
151,91,116155,1,2,3:2:0:0:
151,91,116382,1,0,3:0:0:0:
214,177,116610,2,0,P|201:238|197:308,1,120,10|0,0:0|0:0,0:0:0:0:
213,336,117064,6,0,P|134:290|48:261,2,160,2|10|0,3:2|0:0|0:0,0:0:0:0:
160,186,118201,1,2,3:2:0:0:
257,251,118428,2,0,P|301:244|349:228,1,80,10|2,0:0|0:0,0:0:0:0:
399,131,118882,37,0,3:0:0:0:
399,131,119110,1,0,3:0:0:0:
281,22,119337,2,0,P|290:62|293:105,1,80,10|2,0:0|0:0,0:0:0:0:
282,143,119678,1,2,0:0:0:0:
282,143,119791,1,4,3:2:0:0:
136,87,120019,1,8,0:3:0:0:
71,225,120246,1,10,0:0:0:0:
71,225,120360,1,10,0:0:0:0:
71,225,120473,1,4,0:3:0:0:
206,304,120701,6,0,P|203:210|137:178,1,160,4|10,1:2|0:0,0:0:0:0:
115,339,121382,1,2,0:0:0:0:
315,264,121610,2,0,P|320:306|328:350,1,80,2|0,1:2|1:0,0:0:0:0:
176,232,122064,2,0,P|182:192|187:152,1,80,10|2,0:0|0:0,0:0:0:0:
371,102,122519,38,0,P|292:116|230:41,2,160,2|10|2,1:2|0:0|1:2,0:0:0:0:
496,17,123655,1,0,1:0:0:0:
485,172,123882,2,0,P|472:236|461:308,1,120,10|0,0:0|0:0,0:0:0:0:
387,320,124337,6,0,B|342:299|312:325|312:325|276:351|228:318,1,160,6|8,1:2|0:0,0:0:0:0:
94,29,125246,2,0,P|180:69|190:143,1,160,2|10,1:2|0:0,0:0:0:0:
66,316,125928,2,0,P|77:225|96:133,1,160,6|0,1:2|1:0,0:0:0:0:
244,220,126610,38,0,P|199:228|147:230,1,80,10|0,0:0|0:0,0:0:0:0:
377,90,127064,2,0,P|337:82|297:79,1,80,2|0,1:2|1:0,0:0:0:0:
326,260,127519,1,10,0:0:0:0:
326,260,127746,1,2,0:0:0:0:
196,136,127973,6,0,P|150:200|157:278,1,160,6|10,1:2|0:0,0:0:0:0:
108,72,128655,2,0,P|64:77|7:88,1,80,2|0,0:0|1:0,0:0:0:0:
196,136,129110,2,0,P|213:95|232:40,1,80,2|8,1:2|0:0,0:0:0:0:
387,158,129564,1,2,0:0:0:0:
284,264,129791,38,0,P|270:164|323:113,2,160,2|14|2,1:2|0:0|1:2,0:0:0:0:
387,158,130928,1,0,1:0:0:0:
367,274,131155,1,10,1:2:0:0:
242,161,131382,1,8,1:2:0:0:
438,236,131610,6,0,P|445:313|374:364,1,160,6|0,1:2|0:0,0:0:0:0:
282,290,132291,1,0,1:0:0:0:
209,364,132519,2,0,P|202:321|191:272,1,80,8|0,0:0|0:0,0:0:0:0:
183,253,132860,1,8,0:3:0:0:
183,253,132973,1,0,0:0:0:0:
80,142,133201,1,4,0:3:0:0:
29,287,133428,6,0,P|62:256|93:225,1,80,4|0,1:2|0:0,0:0:0:0:
268,115,133882,1,0,1:0:0:0:
155,142,134110,1,8,1:2:0:0:
183,253,134337,1,10,1:2:0:0:
295,225,134564,1,8,1:2:0:0:
155,142,134791,5,10,1:2:0:0:
140,105,134904,1,8,0:3:0:0:
143,65,135018,1,4,0:3:0:0:
163,30,135131,1,4,0:3:0:0:
195,8,135246,38,0,P|236:26|273:41,1,80,6|0,1:2|0:0,0:0:0:0:
434,79,135701,1,0,1:0:0:0:
286,176,135928,1,2,0:0:0:0:
364,211,136155,2,0,P|377:162|366:135,1,80,2|2,1:2|0:0,0:0:0:0:
448,253,136610,1,2,1:2:0:0:
286,176,136837,6,0,B|184:165|245:238|121:228,1,160,2|0,0:0|0:0,0:0:0:0:
50,346,137519,2,0,P|73:307|62:270,1,80,0|2,1:0|0:0,0:0:0:0:
65,275,137860,1,2,0:0:0:0:
65,275,137973,1,2,1:2:0:0:
196,297,138201,1,0,0:0:0:0:
149,153,138428,2,0,P|139:117|160:78,1,80,10|2,1:2|0:0,0:0:0:0:
157,80,138769,37,2,0:0:0:0:
157,80,138882,2,0,P|213:84|323:92,1,160,2|0,1:2|1:0,0:0:0:0:
393,149,139564,1,2,0:0:0:0:
288,231,139791,1,2,1:2:0:0:
316,91,140019,1,2,0:0:0:0:
386,248,140246,1,2,1:2:0:0:
512,91,140473,6,0,P|457:79|393:157,1,160,6|0,0:0|0:0,0:0:0:0:
494,236,141155,2,0,P|482:197|472:150,1,80,2|2,1:2|0:0,0:0:0:0:
473,158,141496,1,2,0:0:0:0:
473,158,141610,1,2,1:2:0:0:
386,248,141837,1,8,0:0:0:0:
386,248,141951,1,8,0:0:0:0:
386,248,142064,1,10,0:0:0:0:
316,91,142291,37,4,0:3:0:0:
316,91,142405,1,4,0:3:0:0:
316,91,142519,2,0,P|275:75|236:56,1,80,6|0,1:2|0:0,0:0:0:0:
102,194,142973,2,0,P|146:165|184:171,1,80,0|0,1:0|0:0,0:0:0:0:
292,311,143428,2,0,B|272:272|272:272|288:226,1,80,0|2,1:0|0:0,0:0:0:0:
164,241,143882,1,10,1:2:0:0:
240,364,144110,6,0,P|310:326|383:292,1,160,2|0,0:0|0:0,0:0:0:0:
454,137,144791,2,0,P|417:125|380:140,1,80,2|0,1:2|0:0,0:0:0:0:
384,218,145246,2,0,P|421:230|458:215,1,80,2|0,1:2|0:0,0:0:0:0:
380,139,145587,1,8,0:0:0:0:
380,139,145701,2,0,L|336:125,1,40,10|8,0:0|0:3,0:0:0:0:
274,226,145928,2,0,L|313:201,1,40,4|0,0:3|1:0,0:0:0:0:
171,97,146155,37,14,0:0:0:0:
145,307,146382,1,0,1:0:0:0:
145,307,146610,1,0,1:0:0:0:
60,132,146837,5,12,0:0:0:0:
254,277,147064,1,0,1:0:0:0:
254,277,147291,1,2,1:2:0:0:
52,254,147519,37,10,0:0:0:0:
171,97,147746,2,0,B|277:91|219:174|347:155,1,191.999994140625,6|0,1:2|1:0,0:0:0:0:
462,298,148428,1,8,0:0:0:0:
480,129,148655,1,8,0:0:0:0:
480,129,148769,1,8,0:0:0:0:
480,129,148882,1,8,0:0:0:0:
343,275,149110,6,0,L|374:228,1,47.9999985351563,8|8,0:0|0:0,0:0:0:0:
207,363,149337,1,8,0:3:0:0:
232,322,149450,1,8,0:3:0:0:
237,275,149564,1,4,0:3:0:0:
221,230,149677,1,4,0:3:0:0:
188,196,149791,38,0,B|146:168|146:168|121:217|163:242,1,120.000004577637,12|0,1:2|0:0,0:0:0:0:
331,198,150132,2,0,B|373:170|373:170|398:219|356:244,1,120.000004577637,8|4,0:3|0:3,0:0:0:0:
258,362,150473,1,4,0:3:0:0:
331,198,150701,1,10,0:0:0:0:
150,232,150928,5,10,0:0:0:0:
141,210,151041,1,2,0:0:0:0:
120,200,151155,1,0,1:2:0:0:
98,207,151268,1,2,0:0:0:0:
86,228,151382,1,2,0:0:0:0:
91,251,151496,1,2,0:0:0:0:
109,263,151610,38,0,P|114:316|111:358,1,88.000002685547,6|2,1:2|0:0,0:0:0:0:
261,176,152064,1,10,0:0:0:0:
308,348,152291,2,0,P|270:319|232:290,1,88.000002685547,2|0,0:0|1:0,0:0:0:0:
267,98,152746,2,0,P|246:135|264:178,1,88.000002685547,2|8,0:0|0:0,0:0:0:0:
119,16,153201,5,2,0:0:0:0:
119,16,153314,1,2,0:0:0:0:
119,16,153428,1,2,1:2:0:0:
136,195,153655,1,0,0:0:0:0:
222,20,153882,1,10,0:0:0:0:
34,195,154110,2,0,B|15:153|15:153|39:108,1,88.000002685547,2|0,0:0|1:0,0:0:0:0:
135,116,154564,2,0,B|154:152|154:152|135:194,1,88.000002685547,2|8,0:0|0:0,0:0:0:0:
310,77,155019,1,2,0:0:0:0:
321,275,155246,37,2,1:2:0:0:
135,194,155473,1,2,0:0:0:0:
340,155,155701,1,10,0:0:0:0:
199,278,155928,2,0,P|180:316|197:355,1,88.000002685547,2|0,0:0|1:0,0:0:0:0:
283,353,156382,2,0,P|300:314|281:276,1,88.000002685547,2|8,0:0|0:0,0:0:0:0:
171,105,156837,5,2,0:0:0:0:
171,105,156951,1,2,0:0:0:0:
171,105,157064,2,0,P|222:120|282:141,1,88.000002685547,2|0,1:2|0:0,0:0:0:0:
191,4,157519,1,10,0:0:0:0:
56,91,157746,2,0,P|78:175|93:262,1,176.000005371094,2|2,0:0|0:0,0:0:0:0:
202,363,158428,1,8,0:0:0:0:
349,230,158655,37,2,0:0:0:0:
349,230,158769,1,2,0:0:0:0:
349,230,158882,2,0,P|281:218|255:213,1,88.000002685547,6|0,1:2|0:0,0:0:0:0:
402,82,159337,1,10,0:0:0:0:
323,43,159564,2,0,B|304:87|304:87|325:121,1,88.000002685547,2|0,0:0|1:0,0:0:0:0:
137,35,160019,2,0,P|187:26|219:49,1,88.000002685547,2|8,0:0|0:0,0:0:0:0:
131,277,160473,5,2,0:0:0:0:
131,277,160587,1,2,0:0:0:0:
131,277,160701,2,0,P|141:218|164:95,1,176.000005371094,6|10,1:2|0:0,0:0:0:0:
348,5,161382,2,0,B|401:39|401:39|337:147,1,176.000005371094,2|0,0:0|0:0,0:0:0:0:
458,295,162064,37,10,0:0:0:0:
427,263,162177,1,2,0:0:0:0:
385,250,162291,1,2,0:0:0:0:
343,259,162404,1,2,0:0:0:0:
310,287,162519,6,0,P|259:297|210:307,1,88.000002685547,6|0,1:2|0:0,0:0:0:0:
116,375,162973,1,10,0:0:0:0:
82,197,163201,2,0,P|150:210|170:214,1,88.000002685547,2|0,0:0|1:0,0:0:0:0:
0,300,163655,1,2,0:0:0:0:
86,110,163882,1,10,0:0:0:0:
109,296,164110,1,2,0:0:0:0:
86,110,164337,38,0,P|128:101|165:126,1,88.000002685547,0|0,1:0|0:0,0:0:0:0:
352,143,164791,2,0,P|307:122|291:82,1,88.000002685547,12|8,0:0|0:0,0:0:0:0:
291,88,165132,1,8,0:0:0:0:
291,88,165246,1,2,1:2:0:0:
459,166,165473,5,8,0:0:0:0:
459,166,165587,1,8,0:0:0:0:
459,166,165701,2,0,L|443:209,1,44.0000013427735,10|8,0:0|0:3,0:0:0:0:
356,329,165928,2,0,L|340:287,1,44.0000013427735,4|4,0:3|0:3,0:0:0:0:
235,194,166155,6,0,P|193:207|150:214,1,88.000002685547,6|2,1:2|0:0,0:0:0:0:
45,120,166610,1,10,0:0:0:0:
138,31,166837,2,0,P|151:77|168:113,1,88.000002685547,2|0,0:0|1:0,0:0:0:0:
314,133,167291,2,0,P|356:121|396:102,1,88.000002685547,2|8,0:0|0:0,0:0:0:0:
244,45,167746,1,2,0:0:0:0:
92,192,167973,6,0,P|115:248|242:238,1,176.000005371094,2|10,1:2|0:0,0:0:0:0:
297,125,168655,2,0,P|301:79|301:17,1,88.000002685547,2|0,0:0|1:0,0:0:0:0:
375,255,169110,2,0,P|421:259|483:259,1,88.000002685547,2|8,0:0|0:0,0:0:0:0:
239,317,169564,37,2,0:0:0:0:
239,317,169678,1,2,0:0:0:0:
239,317,169791,2,0,P|232:263|220:198,1,88.000002685547,2|2,1:2|0:0,0:0:0:0:
118,106,170246,1,10,0:0:0:0:
26,231,170473,2,0,P|70:219|119:215,1,88.000002685547,2|0,0:0|1:0,0:0:0:0:
299,126,170928,2,0,P|256:114|212:110,1,88.000002685547,2|8,0:0|0:0,0:0:0:0:
360,342,171382,5,2,0:0:0:0:
360,342,171496,1,2,0:0:0:0:
360,342,171610,2,0,P|414:290|390:212,1,132.00000402832,2|0,1:2|0:0,0:0:0:0:
370,172,172064,1,10,0:0:0:0:
201,290,172291,2,0,P|153:282|109:278,1,88.000002685547,2|0,0:0|1:0,0:0:0:0:
33,151,172746,1,2,0:0:0:0:
173,42,172973,1,8,0:0:0:0:
205,37,173086,1,8,0:0:0:0:
236,48,173200,1,10,0:0:0:0:
259,71,173313,1,8,0:0:0:0:
269,102,173428,38,0,P|343:129|396:99,1,132.00000402832,6|0,1:2|0:0,0:0:0:0:
431,38,173882,1,10,0:0:0:0:
285,204,174110,2,0,P|238:194|183:187,1,88.000002685547,2|0,0:0|1:0,0:0:0:0:
416,333,174564,2,0,P|409:289|400:246,1,88.000002685547,2|8,0:0|0:0,0:0:0:0:
229,335,175019,1,2,0:0:0:0:
108,193,175246,6,0,P|58:231|55:309,1,132.00000402832,6|0,1:2|0:0,0:0:0:0:
94,360,175701,1,10,0:0:0:0:
206,210,175928,2,0,P|198:161|194:112,1,88.000002685547,2|0,0:0|1:0,0:0:0:0:
303,282,176382,1,0,0:0:0:0:
303,282,176496,1,10,0:0:0:0:
303,282,176610,2,0,P|332:275|373:265,1,44.0000013427735,8|8,0:0|0:3,0:0:0:0:
399,196,176837,2,0,P|377:190|356:186,1,44.0000013427735,4|4,0:3|0:3,0:0:0:0:
288,104,177064,38,0,P|334:96|388:77,1,88.000002685547,6|2,1:2|0:0,0:0:0:0:
184,38,177519,1,10,0:0:0:0:
132,198,177746,2,0,P|50:185|31:104,1,176.000005371094,2|0,0:0|0:0,0:0:0:0:
209,117,178428,1,8,0:0:0:0:
289,261,178655,1,2,0:0:0:0:
289,261,178769,1,2,0:0:0:0:
289,261,178882,6,0,L|399:249,1,88.000002685547,6|0,1:2|0:0,0:0:0:0:
413,274,179223,1,8,0:0:0:0:
413,274,179337,1,10,0:0:0:0:
367,103,179564,1,10,0:0:0:0:
367,103,179678,1,8,0:0:0:0:
367,103,179791,1,8,1:3:0:0:
210,35,180019,37,8,0:0:0:0:
181,42,180132,1,8,0:0:0:0:
159,61,180246,1,8,0:3:0:0:
145,86,180359,1,8,0:3:0:0:
142,115,180473,1,4,0:3:0:0:
151,143,180587,1,4,0:3:0:0:
171,165,180701,6,0,P|165:213|154:259,2,71.9999978027344,6|2|2,1:2|0:0|0:0,0:0:0:0:
70,248,181382,2,0,P|90:294|189:321,1,143.999995605469,6|2,1:2|0:0,0:0:0:0:
388,208,182291,2,0,P|318:224|263:184,1,143.999995605469,6|0,1:2|0:0,0:0:0:0:
281,93,182973,1,8,0:3:0:0:
281,93,183201,2,0,P|206:111|120:138,1,143.999995605469,8|4,0:3|0:3,0:0:0:0:
66,259,183882,1,8,0:0:0:0:
202,332,184110,1,2,0:0:0:0:
202,332,184223,1,4,0:3:0:0:
202,332,184337,38,0,P|196:275|186:221,1,80,6|2,1:2|1:2,0:0:0:0:
113,139,184791,1,10,0:0:0:0:
250,32,185019,2,0,P|244:71|240:111,1,80,6|0,1:2|0:0,0:0:0:0:
356,264,185473,2,0,P|409:228|389:112,1,160,12|6,0:3|1:2,0:0:0:0:
122,132,186837,5,8,0:3:0:0:
122,132,186951,1,8,0:3:0:0:
122,132,187064,1,8,0:3:0:0:
71,271,187291,1,0,0:0:0:0:
219,330,187519,1,12,0:0:0:0:
216,310,187632,1,0,0:0:0:0:
214,290,187746,1,0,0:0:0:0:
212,270,187859,1,0,0:0:0:0:
210,250,187973,38,0,P|216:164|287:154,2,160,6|8|0,1:2|0:0|1:0,0:0:0:0:
351,208,189110,1,2,1:2:0:0:
296,346,189337,1,10,0:0:0:0:
471,272,189564,6,0,P|457:191|438:97,1,160,6|0,1:2|1:0,0:0:0:0:
305,44,190246,2,0,P|269:61|232:77,1,80,10|0,0:0|0:0,0:0:0:0:
108,28,190701,1,2,1:2:0:0:
108,28,190928,1,0,1:0:0:0:
42,168,191155,2,0,P|89:171|130:181,1,80,10|0,0:0|0:0,0:0:0:0:
154,207,191496,1,0,0:0:0:0:
154,207,191610,38,0,P|142:290|136:381,2,160,6|8|0,1:2|0:0|1:0,0:0:0:0:
295,139,192746,1,0,1:0:0:0:
181,43,192973,1,8,0:0:0:0:
241,235,193201,6,0,P|328:249|392:180,1,160,6|0,1:2|1:0,0:0:0:0:
170,166,193882,2,0,P|152:207|149:248,1,80,10|0,0:0|0:0,0:0:0:0:
260,112,194337,1,2,1:2:0:0:
260,112,194451,1,8,0:0:0:0:
260,112,194564,2,0,P|251:83|248:52,1,40,8|8,0:0|0:0,0:0:0:0:
156,34,194791,2,0,P|162:52|166:72,1,40,8|8,0:3|0:3,0:0:0:0:
106,136,195019,1,4,0:3:0:0:
106,136,195132,1,4,0:3:0:0:
106,136,195246,38,0,P|57:132|9:122,1,80,6|0,1:2|0:0,0:0:0:0:
98,281,195701,2,0,P|137:274|177:271,1,80,8|0,0:0|1:0,0:0:0:0:
322,168,196155,1,8,0:0:0:0:
363,304,196382,1,0,0:0:0:0:
332,329,196495,1,8,0:0:0:0:
293,337,196609,1,10,1:2:0:0:
255,326,196722,1,8,0:0:0:0:
226,299,196836,1,8,0:0:0:0:
214,261,196950,1,8,0:0:0:0:
220,222,197063,1,6,1:2:0:0:
256,192,197178,12,4,198428,3:0:0:0:
169,283,198882,22,0,B|224:281|256:356|256:356|289:283|354:284,1,240.000009155274,6|2,0:0|0:0,0:0:0:0:
286,208,200246,1,2,0:0:0:0:
306,111,200473,2,0,B|284:104|261:117|261:117|212:89|190:114|169:156|171:190|255:230|255:230|286:208,1,300.000011444092,2|2,0:0|0:0,0:0:0:0:
306,111,202064,1,2,0:0:0:0:
370,40,202291,1,2,0:0:0:0:
427,148,202519,6,0,B|453:164|492:149|492:149|447:205|481:257,1,180.000006866455,2|2,0:0|0:0,0:0:0:0:
447,362,203428,2,0,P|414:326|366:269,1,120.000004577637,2|2,0:0|0:0,0:0:0:0:
292,215,204110,2,0,B|271:216|256:248|256:248|235:204|133:190|128:130|161:79|192:44|263:85|263:85|296:65|329:76,1,420.000016021729,2|0,0:0|0:0,0:0:0:0:
471,126,205928,37,4,0:3:0:0:
471,126,206041,1,4,0:3:0:0:
471,126,206155,2,0,P|435:135|397:153,1,68.0000012969971,6|0,1:2|0:0,0:0:0:0:
346,254,206610,2,0,P|323:234|290:214,1,68.0000012969971,2|2,1:2|0:0,0:0:0:0:
435,302,207064,2,0,B|449:270|449:270|436:239,1,68.0000012969971,0|2,1:0|0:0,0:0:0:0:
406,147,207519,2,0,B|392:115|392:115|405:84,1,68.0000012969971,0|2,1:0|0:0,0:0:0:0:
223,47,207973,22,0,P|256:35|297:54,1,68.0000012969971,2|0,1:2|0:0,0:0:0:0:
288,128,208428,2,0,P|255:140|214:121,1,68.0000012969971,2|2,1:2|0:0,0:0:0:0:
222,254,208882,2,0,B|256:242|256:242|288:254,1,68.0000012969971,0|2,1:0|0:0,0:0:0:0:
290,338,209223,1,0,0:0:0:0:
290,338,209337,2,0,B|256:350|256:350|223:337,1,68.0000012969971,0|2,1:0|0:0,0:0:0:0:
89,282,209791,21,10,1:2:0:0:
49,203,210019,1,0,0:0:0:0:
181,175,210246,2,0,P|159:206|135:239,1,68.0000012969971,2|2,1:2|0:0,0:0:0:0:
49,203,210701,5,0,1:0:0:0:
143,91,210929,1,2,0:0:0:0:
18,88,211155,2,0,P|45:107|77:131,1,68.0000012969971,0|10,1:0|0:0,0:0:0:0:
331,126,211610,37,8,1:2:0:0:
209,48,211837,1,8,0:0:0:0:
257,196,212064,1,8,1:2:0:0:
305,26,212291,1,10,0:0:0:0:
187,185,212519,5,10,1:2:0:0:
245,330,212747,1,8,1:3:0:0:
390,271,212974,1,4,1:3:0:0:
331,126,213201,38,0,P|396:130|431:190,1,120,6|0,1:2|0:0,0:0:0:0:
357,197,213655,1,8,0:0:0:0:
255,29,213882,1,4,1:3:0:0:
224,206,214110,1,0,0:0:0:0:
224,206,214223,1,8,0:0:0:0:
224,206,214337,1,8,0:0:0:0:
293,41,214564,6,0,P|252:28|240:25,1,40,8|8,0:3|0:0,0:0:0:0:
153,131,214791,2,0,P|194:118|206:115,1,40,8|8,0:0|0:3,0:0:0:0:
113,39,215019,2,0,P|72:26|60:23,1,40,4|0,0:3|1:0,0:0:0:0:
51,151,215246,38,0,P|34:198|68:258,1,120.000004577637,14|0,0:0|0:0,0:0:0:0:
76,348,215587,2,0,B|122:328|122:328|143:299|143:299|190:279,1,120.000004577637,12|0,0:3|0:0,0:0:0:0:
264,261,215928,2,0,B|274:294|274:294|256:326,1,60.0000022888184,12|0,0:3|0:0,0:0:0:0:
181,208,216155,5,10,0:0:0:0:
181,208,216610,37,2,0:0:0:0:
211,183,216723,1,2,0:0:0:0:
250,177,216837,1,2,0:0:0:0:
287,192,216950,1,2,0:0:0:0:
311,223,217064,6,0,P|332:177|319:133,1,88.000002685547,6|2,1:2|0:0,0:0:0:0:
238,17,217519,1,10,0:0:0:0:
416,12,217746,2,0,P|379:36|343:62,1,88.000002685547,2|0,0:0|1:0,0:0:0:0:
311,223,218201,2,0,P|347:198|383:172,1,88.000002685547,2|8,0:0|0:0,0:0:0:0:
186,104,218655,37,2,0:0:0:0:
186,104,218769,1,2,0:0:0:0:
186,104,218882,1,2,1:2:0:0:
130,275,219110,1,0,0:0:0:0:
54,115,219337,1,10,0:0:0:0:
254,219,219564,2,0,P|206:198|165:217,1,88.000002685547,2|0,0:0|1:0,0:0:0:0:
63,318,220019,2,0,P|107:309|131:266,1,88.000002685547,2|8,0:0|0:0,0:0:0:0:
257,353,220473,1,2,0:0:0:0:
376,176,220701,6,0,P|368:225|353:273,1,88.000002685547,2|2,1:2|0:0,0:0:0:0:
491,287,221155,1,10,0:0:0:0:
501,135,221382,2,0,P|483:95|468:53,1,88.000002685547,2|0,0:0|1:0,0:0:0:0:
255,37,221837,2,0,P|306:42|338:84,1,88.000002685547,2|8,0:0|0:0,0:0:0:0:
72,38,222291,37,2,0:0:0:0:
72,38,222405,1,2,0:0:0:0:
72,38,222519,2,0,P|97:69|125:109,1,88.000002685547,2|0,1:2|0:0,0:0:0:0:
35,192,222973,1,10,0:0:0:0:
142,293,223201,2,0,P|169:259|267:152,1,176.000005371094,2|2,0:0|0:0,0:0:0:0:
402,170,223882,1,8,0:0:0:0:
319,334,224110,5,2,0:0:0:0:
319,334,224223,1,2,0:0:0:0:
319,334,224337,2,0,P|301:296|328:252,1,88.000002685547,6|0,1:2|0:0,0:0:0:0:
402,170,224791,1,10,0:0:0:0:
257,84,225019,2,0,P|275:122|257:160,1,88.000002685547,2|0,0:0|1:0,0:0:0:0:
152,162,225473,2,0,P|134:123|152:85,1,88.000002685547,2|8,0:0|0:0,0:0:0:0:
27,300,225928,37,2,0:0:0:0:
27,300,226041,1,2,0:0:0:0:
27,300,226155,2,0,P|71:270|154:314,1,132.00000402832,6|0,1:2|0:0,0:0:0:0:
91,352,226610,1,10,0:0:0:0:
253,287,226837,2,0,P|235:235|198:116,1,176.000005371094,2|0,0:0|0:0,0:0:0:0:
303,10,227519,6,0,P|291:29|296:60,1,44.0000013427735,10|2,0:0|0:0,0:0:0:0:
352,124,227746,2,0,P|365:96|362:67,1,44.0000013427735,2|2,0:0|0:0,0:0:0:0:
468,30,227973,2,0,P|447:68|455:110,1,88.000002685547,6|0,1:2|0:0,0:0:0:0:
500,262,228428,1,10,0:0:0:0:
369,297,228655,2,0,P|323:294|292:248,1,88.000002685547,2|0,0:0|1:0,0:0:0:0:
184,146,229110,1,2,0:0:0:0:
128,299,229337,2,0,P|165:272|204:247,1,88.000002685547,10|2,0:0|0:0,0:0:0:0:
35,115,229791,5,4,1:2:0:0:
184,146,230019,1,10,0:0:0:0:
184,146,230132,1,2,0:0:0:0:
184,146,230246,2,0,L|178:94,1,44.0000013427735,10|10,0:0|0:0,0:0:0:0:
109,15,230473,2,0,L|103:58,1,44.0000013427735,8|10,0:3|0:0,0:0:0:0:
230,12,230701,37,8,0:0:0:0:
273,4,230814,1,8,0:0:0:0:
314,16,230928,1,8,0:0:0:0:
347,45,231041,1,2,0:0:0:0:
364,85,231155,2,0,L|412:75,1,44.0000013427735,8|10,0:3|0:0,0:0:0:0:
481,206,231382,2,0,L|428:189,1,44.0000013427735,8|8,0:0|0:0,0:0:0:0:
340,277,231610,22,0,L|234:289,1,88.000002685547,6|2,1:2|0:0,0:0:0:0:
60,302,232064,1,10,0:0:0:0:
124,172,232291,2,0,P|119:100|107:52,1,88.000002685547,2|0,0:0|1:0,0:0:0:0:
244,268,232746,2,0,P|237:311|235:355,1,88.000002685547,2|8,0:0|0:0,0:0:0:0:
367,147,233201,1,2,0:0:0:0:
367,147,233314,1,2,0:0:0:0:
367,147,233428,6,0,P|316:160|250:167,1,88.000002685547,2|0,1:2|0:0,0:0:0:0:
198,72,233882,1,10,0:0:0:0:
415,52,234110,2,0,P|458:101|441:227,1,176.000005371094,2|2,0:0|0:0,0:0:0:0:
212,209,234791,1,8,0:0:0:0:
261,330,235019,37,2,0:0:0:0:
261,330,235132,1,2,0:0:0:0:
261,330,235246,1,2,1:2:0:0:
338,230,235473,1,2,0:0:0:0:
179,132,235701,1,10,0:0:0:0:
72,293,235928,2,0,P|117:283|174:274,1,88.000002685547,2|0,0:0|1:0,0:0:0:0:
265,148,236382,2,0,P|222:138|178:131,1,88.000002685547,2|8,0:0|0:0,0:0:0:0:
315,263,236837,1,2,0:0:0:0:
181,38,237064,6,0,P|113:61|85:147,1,132.00000402832,2|0,1:2|0:0,0:0:0:0:
103,197,237519,1,10,0:0:0:0:
286,344,237746,2,0,L|261:145,1,176.000005371094,2|2,0:0|0:0,0:0:0:0:
75,209,238428,1,8,0:0:0:0:
50,231,238541,1,8,0:0:0:0:
40,262,238655,1,10,0:0:0:0:
43,294,238768,1,8,0:0:0:0:
62,320,238882,38,0,P|117:321|184:330,1,88.000002685547,6|0,1:2|0:0,0:0:0:0:
286,344,239337,1,2,1:2:0:0:
308,145,239564,2,0,P|207:211|220:289,1,176.000005371094,14|10,0:0|0:0,0:0:0:0:
245,326,240132,1,8,0:0:0:0:
245,326,240246,2,0,L|298:319,1,44.0000013427735,8|8,0:3|0:3,0:0:0:0:
348,240,240473,2,0,L|295:233,1,44.0000013427735,4|4,0:3|0:3,0:0:0:0:
215,159,240701,6,0,P|229:77|235:18,1,132.00000402832,6|0,1:2|0:0,0:0:0:0:
234,28,241155,1,2,1:2:0:0:
85,218,241382,2,0,B|145:240|172:208|172:208|226:201|257:267,1,176.000005371094,14|8,0:0|0:0,0:0:0:0:
116,118,242064,1,8,0:0:0:0:
116,118,242178,1,8,0:0:0:0:
116,118,242291,1,10,0:0:0:0:
116,118,242405,1,8,0:0:0:0:
116,118,242519,38,0,P|111:70|104:20,1,88.000002685547,6|2,1:2|0:0,0:0:0:0:
5,204,242973,1,10,0:0:0:0:
114,314,243201,2,0,L|220:292,1,88.000002685547,2|0,0:0|1:0,0:0:0:0:
390,262,243655,1,0,0:0:0:0:
231,172,243882,1,8,0:0:0:0:
289,340,244110,1,2,0:0:0:0:
331,137,244337,6,0,P|294:77|209:62,1,132.00000402832,6|0,1:2|0:0,0:0:0:0:
163,82,244791,1,2,1:2:0:0:
284,248,245019,1,10,0:0:0:0:
284,248,245132,1,8,0:0:0:0:
284,248,245246,2,0,L|292:170,1,44.0000013427735,8|8,0:0|0:0,0:0:0:0:
182,190,245473,2,0,L|138:194,1,44.0000013427735,8|8,0:3|0:3,0:0:0:0:
237,342,245701,2,0,L|280:346,1,44.0000013427735,8|8,0:3|0:3,0:0:0:0:
147,286,245928,1,4,0:3:0:0:
147,286,246041,1,4,0:3:0:0:
147,286,246155,38,0,B|84:278|36:313|36:313|1:278|17:234,1,176.000005371094,4|0,1:2|1:0,0:0:0:0:
15,89,246837,1,0,0:0:0:0:
113,175,247064,2,0,P|182:167|290:140,1,176.000005371094,0|0,1:0|1:0,0:0:0:0:
304,150,247633,1,2,0:0:0:0:
320,166,247747,1,2,0:0:0:0:
329,186,247860,1,2,0:0:0:0:
332,207,247973,6,0,P|292:305|211:288,1,176.000005371094,6|0,1:2|1:0,0:0:0:0:
209,32,248882,2,0,P|199:77|195:123,1,88.000002685547,8|0,1:3|0:0,0:0:0:0:
213,163,249223,1,8,0:3:0:0:
213,163,249337,1,8,0:3:0:0:
107,88,249564,1,4,0:3:0:0:
36,248,249791,38,0,P|103:237|181:233,1,120.000004577637,2|2,0:0|0:0,0:0:0:0:
234,306,250473,2,0,P|301:304|337:246,1,120.000004577637,2|0,0:0|0:0,0:0:0:0:
259,51,251382,1,2,0:0:0:0:
259,51,251610,6,0,P|252:110|246:182,1,120.000004577637,2|2,0:0|0:0,0:0:0:0:
150,251,252291,1,2,0:0:0:0:
150,251,252746,2,0,P|119:175|177:78,1,195.999994018555,2|0,0:0|0:0,0:0:0:0:
246,170,254791,1,2,0:0:0:0:
256,192,255246,12,2,258428,0:0:0:0:
419,262,258882,6,0,P|357:263|324:321,2,128,2|2|2,0:0|0:0|0:0,0:0:0:0:
470,151,260246,1,2,0:0:0:0:
256,31,262519,5,2,0:0:0:0:
256,31,263882,1,2,0:0:0:0:
256,31,266155,38,0,B|180:33|223:77|123:71,2,128,2|2|2,0:0|0:0|0:0,0:0:0:0:
316,137,267519,1,2,0:0:0:0:
100,329,269337,5,2,0:0:0:0:
256,234,269791,1,2,0:0:0:0:
102,223,270679,1,2,0:0:0:0:
168,292,271147,1,2,0:0:0:0:
137,147,272554,5,2,0:0:0:0:
50,263,273491,2,0,B|179:259|101:344|284:333,2,240.000009155274,2|2|2,0:0|0:0|0:0,0:0:0:0:
18,136,275746,2,0,P|56:120|126:165,1,120.000004577637,2|2,0:0|0:0,0:0:0:0:
158,52,276648,1,2,0:0:0:0:
340,84,277100,6,0,B|189:77|260:169|110:153,1,240.000009155274,2|2,0:0|0:0,0:0:0:0:
191,264,278721,1,2,0:0:0:0:
256,192,279297,12,0,290538,0:0:0:0:
