osu file format v14

[General]
AudioFilename: audio.mp3
AudioLeadIn: 0
PreviewTime: 51767
Countdown: 0
SampleSet: Normal
StackLeniency: 0.7
Mode: 1
LetterboxInBreaks: 0
WidescreenStoryboard: 0

[Editor]
DistanceSpacing: 1.1
BeatDivisor: 4
GridSize: 32
TimelineZoom: 2.799999

[Metadata]
Title:winning the soul (TV Size)
TitleUnicode:winning the soul (TV Size)
Artist:Tokai Teio (CV: Machico)
ArtistUnicode:トウカイテイオー (CV: Machico)
Creator:_Rise
Version:Oni
Source:ウマ娘 プリティーダービー Season 2
Tags:uma musume pretty derby animation vol.3 cygames 宮崎誠 miyazaki makoto anime japanese ed ending original sound track ost jpop j-pop jrock j-rock video game
BeatmapID:2972288
BeatmapSetID:1444972

[Difficulty]
HPDrainRate:6
CircleSize:5
OverallDifficulty:6
ApproachRate:5
SliderMultiplier:1.4
SliderTickRate:1

[Events]
//Background and Video events
0,0,"bg.jpg",0,25
//Break Periods
2,49125,51672
//Storyboard Layer 0 (Background)
//Storyboard Layer 1 (Fail)
//Storyboard Layer 2 (Pass)
//Storyboard Layer 3 (Foreground)
//Storyboard Layer 4 (Overlay)
//Storyboard Sound Samples

[TimingPoints]
452.378047374838,315.789473684211,4,1,0,40,1,0
4833,-100,4,1,0,80,0,8
5505,315.789473684211,4,1,0,80,1,8
6136,315.789473684211,4,1,0,80,1,0
16201,-100,4,1,0,75,0,0
45333,-100,4,1,0,70,0,0
47623,-100,4,1,0,75,0,0
49044,-100,4,1,0,70,0,0
51886,-100,4,1,0,80,0,0
52872,-100,4,1,0,80,0,1
62978,-100,4,1,0,80,0,0
63017,-100,4,1,0,75,0,0
67991,-100,4,1,0,80,0,0
68030,-100,4,1,0,80,0,1
76872,-100,4,1,0,80,0,0
86938,-100,4,1,0,70,0,0
88517,-100,4,1,0,75,0,0
99886,-100,4,1,0,80,0,0
99925,-100,4,1,0,80,0,1
109714,-100,4,1,0,80,0,0
109754,-100,4,1,0,75,0,0
114728,-100,4,1,0,80,0,0
114767,-100,4,1,0,80,0,1
122346,-100,4,1,0,80,0,0
123570,-100,4,1,0,75,0,0

[HitObjects]
256,192,452,12,0,4557,0:0:0:0:
260,213,4873,5,12,0:0:0:0:
258,207,5347,1,0,0:0:0:0:
258,207,5426,1,0,0:0:0:0:
258,207,5505,1,8,0:0:0:0:
258,207,5583,1,0,0:0:0:0:
258,207,5662,1,0,0:0:0:0:
258,207,5741,1,0,0:0:0:0:
258,207,5820,1,8,0:0:0:0:
247,194,6136,1,4,0:0:0:0:
258,207,6451,1,8,0:0:0:0:
258,207,6609,1,8,0:0:0:0:
258,207,6767,1,0,0:0:0:0:
247,200,7004,1,0,0:0:0:0:
267,204,7083,1,8,0:0:0:0:
267,204,7241,1,8,0:0:0:0:
267,204,7399,1,0,0:0:0:0:
230,192,7557,1,0,0:0:0:0:
230,192,7636,1,0,0:0:0:0:
230,192,7714,1,8,0:0:0:0:
221,196,7872,1,0,0:0:0:0:
236,197,8030,1,8,0:0:0:0:
256,207,8109,1,8,0:0:0:0:
256,207,8188,1,0,0:0:0:0:
256,207,8346,1,8,0:0:0:0:
256,207,8504,1,8,0:0:0:0:
256,207,8662,1,0,0:0:0:0:
242,210,8820,1,8,0:0:0:0:
242,210,8899,1,8,0:0:0:0:
256,207,8978,1,8,0:0:0:0:
251,211,9136,1,0,0:0:0:0:
236,193,9214,1,8,0:0:0:0:
242,210,9293,1,8,0:0:0:0:
237,227,9451,1,0,0:0:0:0:
242,196,9609,1,8,0:0:0:0:
242,201,9925,1,0,0:0:0:0:
252,203,10083,1,0,0:0:0:0:
254,212,10241,1,8,0:0:0:0:
256,203,10399,1,0,0:0:0:0:
238,206,10478,1,8,0:0:0:0:
238,206,10557,1,0,0:0:0:0:
261,207,10636,1,8,0:0:0:0:
261,207,10714,1,0,0:0:0:0:
252,203,10872,1,8,0:0:0:0:
252,203,11030,1,8,0:0:0:0:
252,203,11109,1,8,0:0:0:0:
252,203,11188,1,0,0:0:0:0:
243,179,11504,1,8,0:0:0:0:
243,179,11662,1,8,0:0:0:0:
243,179,11820,1,0,0:0:0:0:
243,179,12057,1,0,0:0:0:0:
243,179,12136,1,8,0:0:0:0:
243,179,12293,1,8,0:0:0:0:
243,179,12451,1,0,0:0:0:0:
258,196,12609,1,0,0:0:0:0:
258,196,12688,1,0,0:0:0:0:
258,196,12767,1,8,0:0:0:0:
258,196,12925,1,0,0:0:0:0:
258,196,13083,1,8,0:0:0:0:
258,196,13162,1,8,0:0:0:0:
258,196,13241,1,0,0:0:0:0:
258,196,13399,1,8,0:0:0:0:
258,196,13557,1,8,0:0:0:0:
277,206,13714,1,4,0:0:0:0:
265,201,14030,1,8,0:0:0:0:
265,201,14188,1,4,0:0:0:0:
265,201,14504,1,8,0:0:0:0:
265,201,14662,1,4,0:0:0:0:
264,206,14978,1,8,0:0:0:0:
264,206,15136,1,8,0:0:0:0:
264,210,15293,1,0,0:0:0:0:
260,190,15451,1,8,0:0:0:0:
258,201,15530,1,0,0:0:0:0:
258,201,15609,1,8,0:0:0:0:
258,201,15688,1,8,0:0:0:0:
258,201,15767,1,0,0:0:0:0:
258,201,15925,1,12,0:0:0:0:
258,201,16083,1,12,0:0:0:0:
256,203,17504,1,4,0:0:0:0:
256,203,17820,1,8,0:0:0:0:
256,203,18293,1,0,0:0:0:0:
256,203,18451,1,8,0:0:0:0:
257,208,18767,1,0,0:0:0:0:
257,208,19083,1,8,0:0:0:0:
257,208,19241,1,0,0:0:0:0:
257,208,19557,1,0,0:0:0:0:
257,208,19714,1,8,0:0:0:0:
239,195,19872,1,0,0:0:0:0:
239,195,19951,1,0,0:0:0:0:
251,191,20030,1,0,0:0:0:0:
251,191,20188,1,0,0:0:0:0:
251,191,20346,1,8,0:0:0:0:
257,175,20504,1,0,0:0:0:0:
251,191,20820,1,0,0:0:0:0:
251,191,20978,1,8,0:0:0:0:
249,185,21136,1,8,0:0:0:0:
249,185,21214,1,8,0:0:0:0:
249,185,21293,1,0,0:0:0:0:
249,185,21451,1,0,0:0:0:0:
249,185,21609,1,8,0:0:0:0:
249,185,21767,1,0,0:0:0:0:
260,183,22083,1,0,0:0:0:0:
260,183,22162,1,0,0:0:0:0:
260,183,22241,1,8,0:0:0:0:
265,185,22399,1,0,0:0:0:0:
265,185,22478,1,0,0:0:0:0:
261,174,22557,1,0,0:0:0:0:
249,185,22714,1,0,0:0:0:0:
261,174,22872,1,8,0:0:0:0:
261,174,23346,1,0,0:0:0:0:
261,174,23504,1,8,0:0:0:0:
265,180,23820,1,0,0:0:0:0:
265,180,24136,1,8,0:0:0:0:
265,180,24293,1,0,0:0:0:0:
271,171,24609,1,0,0:0:0:0:
271,171,24767,1,8,0:0:0:0:
246,182,24925,1,0,0:0:0:0:
246,182,25004,1,0,0:0:0:0:
246,182,25083,1,0,0:0:0:0:
262,187,25241,1,0,0:0:0:0:
262,187,25399,1,8,0:0:0:0:
262,187,25557,1,0,0:0:0:0:
262,187,25636,1,0,0:0:0:0:
262,187,25714,1,8,0:0:0:0:
265,201,25872,1,0,0:0:0:0:
265,201,26030,1,8,0:0:0:0:
265,201,26188,1,8,0:0:0:0:
249,212,26267,1,8,0:0:0:0:
265,201,26346,1,0,0:0:0:0:
270,203,26504,1,0,0:0:0:0:
265,201,26662,1,8,0:0:0:0:
253,194,26820,1,0,0:0:0:0:
237,192,27136,1,0,0:0:0:0:
253,175,27214,1,0,0:0:0:0:
253,175,27293,1,8,0:0:0:0:
237,185,27451,1,8,0:0:0:0:
220,174,27530,1,8,0:0:0:0:
220,174,27609,1,0,0:0:0:0:
232,187,27767,1,0,0:0:0:0:
239,181,28083,1,0,0:0:0:0:
244,185,28241,1,8,0:0:0:0:
244,185,28399,1,0,0:0:0:0:
249,190,28557,1,8,0:0:0:0:
249,190,28714,1,0,0:0:0:0:
256,208,29030,1,8,0:0:0:0:
262,209,29188,1,0,0:0:0:0:
262,209,29346,1,0,0:0:0:0:
255,201,29504,1,8,0:0:0:0:
255,201,29662,1,0,0:0:0:0:
255,201,29741,1,0,0:0:0:0:
255,201,29820,1,8,0:0:0:0:
255,201,29978,1,8,0:0:0:0:
255,201,30136,1,0,0:0:0:0:
245,204,30293,1,0,0:0:0:0:
245,204,30609,1,0,0:0:0:0:
245,204,30767,1,8,0:0:0:0:
245,204,30925,1,0,0:0:0:0:
220,203,31083,1,8,0:0:0:0:
250,211,31241,1,0,0:0:0:0:
250,211,31557,1,0,0:0:0:0:
251,211,31636,1,0,0:0:0:0:
251,212,31714,1,0,0:0:0:0:
254,212,31872,1,0,0:0:0:0:
256,213,31951,1,0,0:0:0:0:
229,196,32030,1,8,0:0:0:0:
259,220,32188,1,0,0:0:0:0:
259,220,32346,1,12,0:0:0:0:
263,203,32662,1,4,0:0:0:0:
238,202,32978,1,0,0:0:0:0:
238,202,33293,1,0,0:0:0:0:
255,206,33609,1,0,0:0:0:0:
244,183,33925,1,8,0:0:0:0:
239,196,34241,1,8,0:0:0:0:
239,196,34557,1,0,0:0:0:0:
257,199,34872,1,8,0:0:0:0:
257,199,35030,1,8,0:0:0:0:
257,199,35109,1,8,0:0:0:0:
257,199,35188,1,0,0:0:0:0:
267,196,35504,1,8,0:0:0:0:
251,192,35662,1,8,0:0:0:0:
251,192,35820,1,0,0:0:0:0:
251,192,35978,1,0,0:0:0:0:
251,192,36136,1,8,0:0:0:0:
265,221,36293,1,0,0:0:0:0:
265,221,36372,1,0,0:0:0:0:
247,195,36451,1,8,0:0:0:0:
239,201,36609,1,8,0:0:0:0:
239,201,36767,1,0,0:0:0:0:
222,168,36846,1,0,0:0:0:0:
239,201,36925,1,0,0:0:0:0:
269,193,37083,1,0,0:0:0:0:
269,193,37241,1,12,0:0:0:0:
252,202,37714,1,4,0:0:0:0:
258,216,38030,1,0,0:0:0:0:
258,216,38346,1,8,0:0:0:0:
267,228,38662,1,0,0:0:0:0:
267,228,38820,1,8,0:0:0:0:
267,231,38978,1,0,0:0:0:0:
250,222,39136,1,0,0:0:0:0:
282,243,39293,1,0,0:0:0:0:
256,208,39609,1,8,0:0:0:0:
249,220,39767,1,0,0:0:0:0:
276,216,39846,1,0,0:0:0:0:
249,220,39925,1,8,0:0:0:0:
256,208,40083,1,8,0:0:0:0:
271,223,40241,1,0,0:0:0:0:
271,223,40399,1,0,0:0:0:0:
271,223,40557,1,0,0:0:0:0:
271,223,40872,1,8,0:0:0:0:
271,223,41188,1,0,0:0:0:0:
277,232,41346,1,8,0:0:0:0:
277,232,41504,1,0,0:0:0:0:
268,233,41662,1,8,0:0:0:0:
258,203,41741,1,8,0:0:0:0:
276,239,41820,1,8,0:0:0:0:
276,239,41978,1,0,0:0:0:0:
289,231,42136,1,8,0:0:0:0:
289,231,42293,1,0,0:0:0:0:
262,168,42372,1,0,0:0:0:0:
258,239,42451,1,8,0:0:0:0:
289,231,42609,1,8,0:0:0:0:
289,230,42767,1,0,0:0:0:0:
264,214,42925,1,0,0:0:0:0:
264,214,43083,1,0,0:0:0:0:
264,214,43399,1,8,0:0:0:0:
260,207,43636,1,0,0:0:0:0:
265,228,43714,1,8,0:0:0:0:
266,220,43872,1,8,0:0:0:0:
266,220,44030,1,0,0:0:0:0:
264,214,44188,1,8,0:0:0:0:
264,199,44267,1,8,0:0:0:0:
264,199,44346,1,8,0:0:0:0:
280,199,44504,1,0,0:0:0:0:
266,220,44662,1,8,0:0:0:0:
272,171,44741,1,8,0:0:0:0:
266,220,44820,1,0,0:0:0:0:
266,220,44978,1,8,0:0:0:0:
253,206,45136,1,0,0:0:0:0:
253,206,45214,1,0,0:0:0:0:
262,196,45293,1,8,0:0:0:0:
266,220,46557,1,8,0:0:0:0:
273,218,47662,1,0,0:0:0:0:
273,218,47741,1,0,0:0:0:0:
262,212,47820,5,8,0:0:0:0:
262,212,47978,1,0,0:0:0:0:
262,212,48057,1,0,0:0:0:0:
262,212,48136,1,0,0:0:0:0:
262,212,48293,1,8,0:0:0:0:
262,212,48451,1,0,0:0:0:0:
262,212,48530,1,0,0:0:0:0:
262,212,48609,1,0,0:0:0:0:
262,212,48767,1,12,0:0:0:0:
255,202,48925,1,12,0:0:0:0:
256,193,52872,5,4,0:0:0:0:
256,193,53030,1,0,0:0:0:0:
256,193,53109,1,0,0:0:0:0:
256,193,53188,1,8,0:0:0:0:
256,193,53346,1,8,0:0:0:0:
256,193,53504,1,0,0:0:0:0:
236,202,53662,1,8,0:0:0:0:
236,202,53741,1,0,0:0:0:0:
233,183,53820,1,8,0:0:0:0:
233,183,53978,1,8,0:0:0:0:
236,202,54057,1,8,0:0:0:0:
236,202,54136,1,0,0:0:0:0:
263,192,54293,1,0,0:0:0:0:
263,192,54451,1,8,0:0:0:0:
260,203,54609,1,0,0:0:0:0:
282,223,54767,1,8,0:0:0:0:
282,223,54846,1,8,0:0:0:0:
282,223,54925,1,0,0:0:0:0:
282,223,55004,1,0,0:0:0:0:
282,223,55083,1,8,0:0:0:0:
282,223,55241,1,8,0:0:0:0:
282,223,55399,1,0,0:0:0:0:
260,203,55636,1,0,0:0:0:0:
267,216,55714,1,8,0:0:0:0:
285,217,55872,1,8,0:0:0:0:
282,223,55951,1,8,0:0:0:0:
282,223,56030,1,0,0:0:0:0:
282,223,56188,1,0,0:0:0:0:
282,223,56346,1,8,0:0:0:0:
267,216,56504,1,0,0:0:0:0:
285,217,56583,1,8,0:0:0:0:
285,217,56662,1,0,0:0:0:0:
285,217,56820,1,0,0:0:0:0:
269,207,56899,1,0,0:0:0:0:
285,217,56978,1,8,0:0:0:0:
287,191,57057,1,8,0:0:0:0:
285,217,57136,1,0,0:0:0:0:
285,217,57293,1,8,0:0:0:0:
267,216,57451,1,0,0:0:0:0:
269,212,57609,1,8,0:0:0:0:
269,212,57767,1,8,0:0:0:0:
260,201,57846,1,8,0:0:0:0:
269,212,57925,1,0,0:0:0:0:
278,213,58083,1,0,0:0:0:0:
278,213,58241,1,8,0:0:0:0:
278,213,58557,1,0,0:0:0:0:
279,213,58714,1,0,0:0:0:0:
286,223,58872,1,8,0:0:0:0:
286,223,59030,1,8,0:0:0:0:
286,223,59109,1,8,0:0:0:0:
286,223,59188,1,0,0:0:0:0:
245,201,59346,1,8,0:0:0:0:
245,201,59425,1,0,0:0:0:0:
286,223,59504,1,8,0:0:0:0:
255,212,59662,1,0,0:0:0:0:
255,212,59820,1,8,0:0:0:0:
255,212,59899,1,8,0:0:0:0:
255,212,59978,1,0,0:0:0:0:
255,212,60057,1,0,0:0:0:0:
286,223,60136,1,8,0:0:0:0:
256,216,60293,1,8,0:0:0:0:
286,223,60451,1,0,0:0:0:0:
269,220,60609,1,0,0:0:0:0:
269,220,60688,1,0,0:0:0:0:
269,220,60767,1,8,0:0:0:0:
259,221,60925,1,0,0:0:0:0:
259,221,61004,1,0,0:0:0:0:
260,219,61083,1,0,0:0:0:0:
259,221,61241,1,0,0:0:0:0:
259,221,61399,1,8,0:0:0:0:
259,221,61557,1,4,0:0:0:0:
259,221,61872,1,0,0:0:0:0:
259,221,62030,1,8,0:0:0:0:
256,216,62188,1,8,0:0:0:0:
246,221,62267,1,8,0:0:0:0:
246,221,62346,1,0,0:0:0:0:
263,212,62425,1,8,0:0:0:0:
263,212,62504,1,0,0:0:0:0:
250,216,62583,1,0,0:0:0:0:
256,216,62662,1,8,0:0:0:0:
256,216,62820,1,8,0:0:0:0:
256,216,62899,1,8,0:0:0:0:
256,216,62978,1,0,0:0:0:0:
258,234,63293,1,0,0:0:0:0:
258,234,63451,1,0,0:0:0:0:
258,234,63609,1,8,0:0:0:0:
277,230,63767,1,0,0:0:0:0:
258,234,63925,1,8,0:0:0:0:
258,234,64083,1,0,0:0:0:0:
271,234,64399,1,8,0:0:0:0:
271,233,64557,1,0,0:0:0:0:
271,233,64714,1,0,0:0:0:0:
264,223,64872,1,8,0:0:0:0:
264,223,65030,1,0,0:0:0:0:
264,223,65188,1,8,0:0:0:0:
253,209,65346,1,8,0:0:0:0:
264,223,65504,1,0,0:0:0:0:
248,229,65820,1,8,0:0:0:0:
248,229,65978,1,8,0:0:0:0:
241,216,66136,1,8,0:0:0:0:
241,216,66293,1,0,0:0:0:0:
293,252,66451,1,8,0:0:0:0:
273,234,66767,1,8,0:0:0:0:
262,230,66925,1,0,0:0:0:0:
262,230,67004,1,0,0:0:0:0:
262,230,67083,1,0,0:0:0:0:
273,234,67241,1,0,0:0:0:0:
273,234,67320,1,0,0:0:0:0:
276,185,67399,1,8,0:0:0:0:
273,234,67557,1,0,0:0:0:0:
273,234,67714,1,12,0:0:0:0:
251,203,68030,1,4,0:0:0:0:
258,217,68346,1,8,0:0:0:0:
279,219,68504,1,0,0:0:0:0:
279,219,68583,1,0,0:0:0:0:
279,219,68662,1,8,0:0:0:0:
279,219,68820,1,0,0:0:0:0:
279,219,68978,1,8,0:0:0:0:
291,218,69136,1,8,0:0:0:0:
291,218,69214,1,8,0:0:0:0:
291,218,69293,1,0,0:0:0:0:
272,202,69451,1,0,0:0:0:0:
272,202,69609,1,8,0:0:0:0:
229,229,69767,1,0,0:0:0:0:
229,229,69846,1,0,0:0:0:0:
229,229,69925,1,8,0:0:0:0:
289,225,70004,1,8,0:0:0:0:
289,225,70083,1,0,0:0:0:0:
289,225,70241,1,8,0:0:0:0:
266,245,70557,1,0,0:0:0:0:
249,223,70714,1,8,0:0:0:0:
249,223,70793,1,8,0:0:0:0:
249,223,70872,1,8,0:0:0:0:
249,223,71030,1,0,0:0:0:0:
249,223,71188,1,8,0:0:0:0:
249,223,71267,1,8,0:0:0:0:
249,223,71346,1,0,0:0:0:0:
249,223,71504,1,8,0:0:0:0:
258,207,71662,1,8,0:0:0:0:
258,207,71820,1,0,0:0:0:0:
258,207,71978,1,0,0:0:0:0:
258,207,72057,1,0,0:0:0:0:
258,207,72136,1,8,0:0:0:0:
287,234,72293,1,0,0:0:0:0:
242,199,72451,1,8,0:0:0:0:
277,210,72530,1,0,0:0:0:0:
242,199,72609,1,0,0:0:0:0:
242,199,72688,1,0,0:0:0:0:
242,199,72767,1,8,0:0:0:0:
242,199,72925,1,8,0:0:0:0:
242,199,73004,1,8,0:0:0:0:
242,199,73083,1,0,0:0:0:0:
274,227,73399,5,0,0:0:0:0:
274,227,73557,1,0,0:0:0:0:
274,227,73714,1,0,0:0:0:0:
274,227,73872,1,0,0:0:0:0:
274,227,74030,1,0,0:0:0:0:
274,227,74188,1,0,0:0:0:0:
274,227,74346,1,8,0:0:0:0:
264,224,74504,1,8,0:0:0:0:
264,224,74662,1,8,0:0:0:0:
200,163,74820,1,8,0:0:0:0:
247,199,74978,1,12,0:0:0:0:
247,199,75136,1,12,0:0:0:0:
247,199,75293,1,12,0:0:0:0:
247,199,75451,1,12,0:0:0:0:
244,218,75767,5,0,0:0:0:0:
249,194,75925,1,8,0:0:0:0:
249,194,76004,1,0,0:0:0:0:
249,194,76083,1,0,0:0:0:0:
249,194,76162,1,0,0:0:0:0:
249,194,76241,1,8,0:0:0:0:
256,189,76399,1,0,0:0:0:0:
256,189,76557,1,8,0:0:0:0:
256,189,76714,1,8,0:0:0:0:
256,189,76793,1,8,0:0:0:0:
256,189,76872,1,0,0:0:0:0:
261,198,77188,1,0,0:0:0:0:
261,198,77346,1,8,0:0:0:0:
260,224,77504,1,0,0:0:0:0:
260,223,77662,1,0,0:0:0:0:
260,223,77741,1,0,0:0:0:0:
260,223,77820,1,8,0:0:0:0:
260,223,77978,1,0,0:0:0:0:
261,198,78136,1,8,0:0:0:0:
261,198,78293,1,0,0:0:0:0:
261,198,78372,1,0,0:0:0:0:
260,199,78451,1,0,0:0:0:0:
260,199,78609,1,8,0:0:0:0:
273,210,78767,1,0,0:0:0:0:
273,210,78846,1,0,0:0:0:0:
273,210,78925,1,0,0:0:0:0:
273,210,79083,1,8,0:0:0:0:
267,194,79399,1,8,0:0:0:0:
274,203,79557,1,0,0:0:0:0:
264,203,79714,1,0,0:0:0:0:
264,203,79872,1,8,0:0:0:0:
264,203,80030,1,0,0:0:0:0:
264,203,80188,1,0,0:0:0:0:
264,203,80267,1,0,0:0:0:0:
264,203,80346,1,8,0:0:0:0:
264,203,80504,1,0,0:0:0:0:
264,212,80662,1,8,0:0:0:0:
264,212,80820,1,0,0:0:0:0:
264,212,80899,1,0,0:0:0:0:
264,212,80978,1,0,0:0:0:0:
264,212,81136,1,8,0:0:0:0:
264,212,81293,1,0,0:0:0:0:
264,212,81372,1,0,0:0:0:0:
264,212,81451,1,0,0:0:0:0:
264,212,81609,1,8,0:0:0:0:
264,212,81688,1,8,0:0:0:0:
264,212,81767,1,8,0:0:0:0:
264,212,81846,1,8,0:0:0:0:
264,212,81925,1,8,0:0:0:0:
273,210,82241,1,0,0:0:0:0:
273,210,82399,1,8,0:0:0:0:
270,197,82557,1,0,0:0:0:0:
254,190,82714,1,0,0:0:0:0:
249,190,82793,1,0,0:0:0:0:
270,197,82872,1,8,0:0:0:0:
270,197,83030,1,0,0:0:0:0:
257,191,83188,1,8,0:0:0:0:
257,191,83346,1,0,0:0:0:0:
256,174,83425,1,0,0:0:0:0:
269,175,83504,1,0,0:0:0:0:
269,175,83662,1,8,0:0:0:0:
265,207,83820,1,0,0:0:0:0:
267,208,83899,1,0,0:0:0:0:
260,181,83978,1,0,0:0:0:0:
260,181,84136,1,8,0:0:0:0:
260,181,84293,1,0,0:0:0:0:
273,192,84451,1,8,0:0:0:0:
253,189,84609,1,0,0:0:0:0:
253,189,84767,1,8,0:0:0:0:
253,189,84925,1,0,0:0:0:0:
249,192,85004,1,0,0:0:0:0:
260,208,85083,1,8,0:0:0:0:
260,208,85241,1,0,0:0:0:0:
260,208,85399,1,8,0:0:0:0:
260,208,85557,1,0,0:0:0:0:
267,214,85636,1,0,0:0:0:0:
267,214,85714,1,8,0:0:0:0:
267,214,85793,1,8,0:0:0:0:
267,214,85872,1,0,0:0:0:0:
231,174,85951,1,0,0:0:0:0:
267,214,86030,1,8,0:0:0:0:
265,196,86188,1,0,0:0:0:0:
260,208,86267,1,0,0:0:0:0:
265,196,86346,1,8,0:0:0:0:
245,201,86504,1,8,0:0:0:0:
245,201,86583,1,8,0:0:0:0:
245,201,86662,1,8,0:0:0:0:
240,195,86820,1,8,0:0:0:0:
249,193,89504,5,4,0:0:0:0:
243,203,90136,1,8,0:0:0:0:
243,203,90293,1,4,0:0:0:0:
243,203,90767,1,4,0:0:0:0:
267,214,91241,1,0,0:0:0:0:
267,214,91320,1,0,0:0:0:0:
267,214,91399,1,0,0:0:0:0:
267,214,91557,1,0,0:0:0:0:
247,181,91714,1,12,0:0:0:0:
262,215,92030,1,4,0:0:0:0:
262,215,92346,1,8,0:0:0:0:
262,215,92504,1,4,0:0:0:0:
262,215,92820,1,0,0:0:0:0:
262,215,92978,1,12,0:0:0:0:
265,225,93451,1,8,0:0:0:0:
262,206,93530,1,0,0:0:0:0:
262,206,93609,1,8,0:0:0:0:
262,206,93688,1,8,0:0:0:0:
262,206,93767,1,0,0:0:0:0:
262,206,93925,1,8,0:0:0:0:
242,204,94083,1,0,0:0:0:0:
242,204,94162,1,0,0:0:0:0:
242,204,94241,1,8,0:0:0:0:
242,204,94399,1,8,0:0:0:0:
256,203,94557,1,4,0:0:0:0:
256,203,94872,1,0,0:0:0:0:
256,203,95188,1,0,0:0:0:0:
276,216,95504,1,0,0:0:0:0:
276,216,95662,1,8,0:0:0:0:
263,203,95820,1,0,0:0:0:0:
261,186,96136,1,8,0:0:0:0:
263,183,96451,1,0,0:0:0:0:
263,183,96609,1,0,0:0:0:0:
263,183,96767,1,8,0:0:0:0:
263,183,96925,1,8,0:0:0:0:
263,183,97004,1,8,0:0:0:0:
263,183,97083,1,0,0:0:0:0:
267,200,97241,1,0,0:0:0:0:
273,186,97320,1,0,0:0:0:0:
273,186,97399,1,8,0:0:0:0:
273,186,97478,1,8,0:0:0:0:
263,183,97557,1,0,0:0:0:0:
259,196,97714,1,8,0:0:0:0:
267,203,97872,1,8,0:0:0:0:
267,199,98030,1,8,0:0:0:0:
258,202,98188,1,12,0:0:0:0:
252,202,98504,1,0,0:0:0:0:
258,191,98583,1,0,0:0:0:0:
252,202,98662,1,8,0:0:0:0:
264,208,98820,1,0,0:0:0:0:
264,208,98978,1,8,0:0:0:0:
264,208,99136,1,0,0:0:0:0:
258,202,99214,1,0,0:0:0:0:
258,198,99293,1,8,0:0:0:0:
241,199,99372,1,8,0:0:0:0:
265,211,99451,1,8,0:0:0:0:
258,198,99530,1,8,0:0:0:0:
264,201,99609,1,0,0:0:0:0:
269,190,99767,1,0,0:0:0:0:
264,201,99925,1,12,0:0:0:0:
264,211,100241,1,8,0:0:0:0:
264,211,100399,1,0,0:0:0:0:
264,211,100478,1,0,0:0:0:0:
264,211,100557,1,8,0:0:0:0:
283,203,100714,1,0,0:0:0:0:
283,203,100872,1,8,0:0:0:0:
266,187,100951,1,8,0:0:0:0:
283,203,101030,1,0,0:0:0:0:
283,203,101188,1,8,0:0:0:0:
264,205,101346,1,0,0:0:0:0:
264,211,101425,1,0,0:0:0:0:
264,211,101504,1,8,0:0:0:0:
264,211,101583,1,8,0:0:0:0:
264,207,101662,1,0,0:0:0:0:
264,207,101820,1,8,0:0:0:0:
264,207,101978,1,0,0:0:0:0:
274,230,102136,1,8,0:0:0:0:
240,218,102372,1,0,0:0:0:0:
240,218,102451,1,8,0:0:0:0:
240,218,102609,1,8,0:0:0:0:
240,218,102767,1,0,0:0:0:0:
252,210,102925,1,0,0:0:0:0:
252,210,103004,1,0,0:0:0:0:
252,210,103083,1,8,0:0:0:0:
252,210,103241,1,0,0:0:0:0:
252,210,103399,1,8,0:0:0:0:
256,214,103478,1,0,0:0:0:0:
256,214,103557,1,0,0:0:0:0:
256,214,103714,1,8,0:0:0:0:
274,225,103872,1,0,0:0:0:0:
274,225,104030,1,8,0:0:0:0:
278,191,104109,1,8,0:0:0:0:
274,225,104188,1,0,0:0:0:0:
262,203,104267,1,0,0:0:0:0:
262,219,104346,1,8,0:0:0:0:
279,226,104504,1,8,0:0:0:0:
262,219,104583,1,8,0:0:0:0:
279,226,104662,1,8,0:0:0:0:
262,219,104820,1,0,0:0:0:0:
262,219,104978,1,8,0:0:0:0:
257,232,105293,1,8,0:0:0:0:
257,232,105451,1,0,0:0:0:0:
290,216,105530,1,0,0:0:0:0:
257,232,105609,1,8,0:0:0:0:
257,232,105767,1,0,0:0:0:0:
257,232,105925,1,8,0:0:0:0:
265,227,106004,1,8,0:0:0:0:
251,241,106083,1,0,0:0:0:0:
233,205,106241,1,8,0:0:0:0:
262,207,106399,1,0,0:0:0:0:
258,201,106478,1,0,0:0:0:0:
258,201,106557,1,8,0:0:0:0:
258,201,106636,1,8,0:0:0:0:
235,199,106714,1,0,0:0:0:0:
261,205,106872,1,8,0:0:0:0:
216,211,107030,1,0,0:0:0:0:
251,222,107188,1,8,0:0:0:0:
251,222,107346,1,0,0:0:0:0:
251,222,107425,1,0,0:0:0:0:
251,222,107504,1,8,0:0:0:0:
262,236,107662,1,0,0:0:0:0:
249,196,107741,1,8,0:0:0:0:
279,214,107820,1,0,0:0:0:0:
279,214,107978,1,0,0:0:0:0:
262,208,108136,1,8,0:0:0:0:
276,214,108293,1,4,0:0:0:0:
270,229,108609,1,0,0:0:0:0:
270,229,108767,1,8,0:0:0:0:
269,210,108925,1,0,0:0:0:0:
269,210,109004,1,8,0:0:0:0:
269,210,109083,1,0,0:0:0:0:
269,210,109162,1,0,0:0:0:0:
269,210,109241,1,8,0:0:0:0:
269,210,109320,1,0,0:0:0:0:
269,210,109399,1,8,0:0:0:0:
267,205,109557,1,8,0:0:0:0:
267,205,109636,1,8,0:0:0:0:
267,207,109714,1,0,0:0:0:0:
283,233,110030,1,0,0:0:0:0:
283,233,110188,1,0,0:0:0:0:
283,233,110346,1,8,0:0:0:0:
283,233,110504,1,0,0:0:0:0:
284,223,110662,1,8,0:0:0:0:
284,223,110820,1,0,0:0:0:0:
258,221,111136,1,8,0:0:0:0:
258,221,111293,1,0,0:0:0:0:
259,221,111451,1,0,0:0:0:0:
259,221,111609,1,8,0:0:0:0:
259,221,111767,1,0,0:0:0:0:
258,221,111925,1,8,0:0:0:0:
240,222,112083,1,8,0:0:0:0:
258,221,112241,1,0,0:0:0:0:
282,232,112557,1,8,0:0:0:0:
282,232,112714,1,8,0:0:0:0:
282,232,112872,1,8,0:0:0:0:
282,232,113030,1,0,0:0:0:0:
282,232,113188,1,8,0:0:0:0:
270,208,113504,1,8,0:0:0:0:
264,203,113662,1,0,0:0:0:0:
264,203,113741,1,0,0:0:0:0:
264,203,113820,1,0,0:0:0:0:
264,223,113978,1,0,0:0:0:0:
264,223,114057,1,0,0:0:0:0:
264,223,114136,1,8,0:0:0:0:
264,223,114293,1,0,0:0:0:0:
264,223,114451,1,12,0:0:0:0:
268,237,114767,1,4,0:0:0:0:
258,217,115083,1,8,0:0:0:0:
279,219,115241,1,0,0:0:0:0:
279,219,115320,1,0,0:0:0:0:
279,219,115399,1,8,0:0:0:0:
279,219,115557,1,0,0:0:0:0:
279,219,115714,1,8,0:0:0:0:
278,222,115872,1,8,0:0:0:0:
264,192,115951,1,8,0:0:0:0:
271,208,116030,1,0,0:0:0:0:
272,202,116188,1,0,0:0:0:0:
272,202,116346,1,8,0:0:0:0:
254,214,116504,1,0,0:0:0:0:
254,214,116583,1,0,0:0:0:0:
254,214,116662,1,8,0:0:0:0:
254,214,116741,1,8,0:0:0:0:
254,214,116820,1,0,0:0:0:0:
254,214,116978,1,8,0:0:0:0:
266,245,117293,1,0,0:0:0:0:
249,223,117451,1,8,0:0:0:0:
249,223,117530,1,8,0:0:0:0:
249,223,117609,1,8,0:0:0:0:
249,223,117767,1,0,0:0:0:0:
249,223,117925,1,8,0:0:0:0:
249,223,118004,1,8,0:0:0:0:
249,223,118083,1,0,0:0:0:0:
249,223,118241,1,8,0:0:0:0:
273,214,118399,1,8,0:0:0:0:
258,207,118557,1,0,0:0:0:0:
258,207,118714,1,0,0:0:0:0:
258,207,118793,1,0,0:0:0:0:
258,207,118872,1,8,0:0:0:0:
287,234,119030,1,0,0:0:0:0:
242,199,119188,1,8,0:0:0:0:
277,210,119267,1,0,0:0:0:0:
242,199,119346,1,0,0:0:0:0:
242,199,119425,1,0,0:0:0:0:
242,199,119504,1,8,0:0:0:0:
242,199,119662,1,8,0:0:0:0:
242,199,119741,1,8,0:0:0:0:
242,199,119820,1,0,0:0:0:0:
274,227,120136,5,0,0:0:0:0:
274,227,120293,1,0,0:0:0:0:
274,227,120451,1,0,0:0:0:0:
274,227,120609,1,0,0:0:0:0:
274,227,120767,1,0,0:0:0:0:
274,227,120925,1,0,0:0:0:0:
274,227,121083,1,8,0:0:0:0:
264,224,121241,1,8,0:0:0:0:
264,224,121399,1,8,0:0:0:0:
200,163,121557,1,8,0:0:0:0:
243,199,121714,1,12,0:0:0:0:
247,199,121872,1,12,0:0:0:0:
247,199,122030,1,12,0:0:0:0:
247,199,122188,1,12,0:0:0:0:
265,213,123609,5,4,0:0:0:0:
265,213,123767,1,0,0:0:0:0:
261,214,124083,1,0,0:0:0:0:
261,214,124241,1,8,0:0:0:0:
265,213,124399,1,0,0:0:0:0:
254,230,124557,1,8,0:0:0:0:
254,231,124714,1,0,0:0:0:0:
261,214,125030,1,8,0:0:0:0:
261,214,125188,1,0,0:0:0:0:
265,213,125346,1,0,0:0:0:0:
265,213,125425,1,0,0:0:0:0:
265,213,125504,1,8,0:0:0:0:
257,208,125662,1,0,0:0:0:0:
261,214,125820,1,8,0:0:0:0:
261,214,125978,1,8,0:0:0:0:
261,214,126136,1,0,0:0:0:0:
273,230,126293,1,0,0:0:0:0:
267,223,126609,1,0,0:0:0:0:
267,223,126767,1,8,0:0:0:0:
267,223,126925,1,0,0:0:0:0:
267,224,127083,1,8,0:0:0:0:
264,187,127399,1,8,0:0:0:0:
271,232,127557,1,0,0:0:0:0:
271,232,127636,1,0,0:0:0:0:
271,232,127714,1,0,0:0:0:0:
271,232,127872,1,0,0:0:0:0:
271,232,127951,1,0,0:0:0:0:
271,232,128030,1,8,0:0:0:0:
271,232,128188,1,0,0:0:0:0:
271,232,128346,1,12,0:0:0:0:
260,213,128662,1,4,0:0:0:0:
260,213,128820,1,0,0:0:0:0:
262,210,129136,1,0,0:0:0:0:
262,210,129293,1,8,0:0:0:0:
260,213,129451,1,0,0:0:0:0:
260,213,129609,1,8,0:0:0:0:
260,213,129767,1,0,0:0:0:0:
262,210,130083,1,8,0:0:0:0:
262,210,130241,1,0,0:0:0:0:
260,213,130399,1,0,0:0:0:0:
271,207,130478,1,0,0:0:0:0:
276,216,130557,1,8,0:0:0:0:
276,216,130714,1,0,0:0:0:0:
278,189,130872,1,8,0:0:0:0:
278,189,130951,1,8,0:0:0:0:
278,189,131030,1,8,0:0:0:0:
278,189,131109,1,8,0:0:0:0:
278,189,131188,1,0,0:0:0:0:
288,214,131346,1,0,0:0:0:0:
278,206,131662,1,0,0:0:0:0:
278,205,131820,1,8,0:0:0:0:
278,205,131978,1,0,0:0:0:0:
278,205,132136,1,8,0:0:0:0:
278,222,132293,1,0,0:0:0:0:
278,222,132372,1,0,0:0:0:0:
278,222,132451,1,0,0:0:0:0:
278,222,132609,5,8,0:0:0:0:
263,199,132688,1,8,0:0:0:0:
263,201,132767,1,8,0:0:0:0:
278,205,132925,1,8,0:0:0:0:
278,205,133083,1,8,0:0:0:0:
278,205,133162,1,8,0:0:0:0:
273,205,133241,1,0,0:0:0:0:
273,205,133320,1,0,0:0:0:0:
271,216,133399,1,8,0:0:0:0:
261,222,133478,1,8,0:0:0:0:
272,216,133557,1,0,0:0:0:0:
271,216,133714,1,12,0:0:0:0:
271,216,134030,1,12,0:0:0:0:
266,221,134346,1,12,0:0:0:0:
276,216,134504,1,0,0:0:0:0:
266,221,134662,1,12,0:0:0:0:
