osu file format v14

[General]
AudioFilename: audio.mp3
AudioLeadIn: 0
PreviewTime: 51767
Countdown: 0
SampleSet: Normal
StackLeniency: 0.7
Mode: 1
LetterboxInBreaks: 0
WidescreenStoryboard: 0

[Editor]
DistanceSpacing: 1
BeatDivisor: 4
GridSize: 32
TimelineZoom: 2.799999

[Metadata]
Title:winning the soul (TV Size)
TitleUnicode:winning the soul (TV Size)
Artist:Tokai Teio (CV: Machico)
ArtistUnicode:トウカイテイオー (CV: Machico)
Creator:_Rise
Version:Muzukashii
Source:ウマ娘 プリティーダービー Season 2
Tags:uma musume pretty derby animation vol.3 cygames 宮崎誠 miyazaki makoto anime japanese ed ending original sound track ost jpop j-pop jrock j-rock video game
BeatmapID:2976197
BeatmapSetID:1444972

[Difficulty]
HPDrainRate:6.5
CircleSize:5
OverallDifficulty:5
ApproachRate:5
SliderMultiplier:1.4
SliderTickRate:1

[Events]
//Background and Video events
0,0,"bg.jpg",0,25
//Break Periods
2,49125,51672
//Storyboard Layer 0 (Background)
//Storyboard Layer 1 (Fail)
//Storyboard Layer 2 (Pass)
//Storyboard Layer 3 (Foreground)
//Storyboard Layer 4 (Overlay)
//Storyboard Sound Samples

[TimingPoints]
452.378047374838,315.789473684211,4,1,0,40,1,0
4833,-100,4,1,0,80,0,8
5505,315.789473684211,4,1,0,80,1,8
6136,315.789473684211,4,1,0,80,1,0
16201,-100,4,1,0,75,0,0
45333,-100,4,1,0,70,0,0
47623,-100,4,1,0,75,0,0
49044,-100,4,1,0,70,0,0
51886,-100,4,1,0,80,0,0
52872,-100,4,1,0,80,0,1
62978,-100,4,1,0,80,0,0
63017,-100,4,1,0,75,0,0
67991,-100,4,1,0,80,0,0
68030,-100,4,1,0,80,0,1
76872,-100,4,1,0,80,0,0
86938,-100,4,1,0,70,0,0
88517,-100,4,1,0,75,0,0
99886,-100,4,1,0,80,0,0
99925,-100,4,1,0,80,0,1
109714,-100,4,1,0,80,0,0
109754,-100,4,1,0,75,0,0
114728,-100,4,1,0,80,0,0
114767,-100,4,1,0,80,0,1
122346,-100,4,1,0,80,0,0
123570,-100,4,1,0,75,0,0

[HitObjects]
256,192,452,12,0,4557,0:0:0:0:
249,203,4873,5,12,0:0:0:0:
269,204,5347,1,8,0:0:0:0:
269,204,5426,1,8,0:0:0:0:
269,204,5505,1,8,0:0:0:0:
258,201,5662,1,0,0:0:0:0:
258,201,5820,1,8,0:0:0:0:
259,219,6136,1,4,0:0:0:0:
258,201,6767,1,0,0:0:0:0:
262,207,7083,1,8,0:0:0:0:
255,216,7241,1,8,0:0:0:0:
255,216,7399,1,0,0:0:0:0:
262,207,7714,1,0,0:0:0:0:
238,222,7872,1,8,0:0:0:0:
238,222,8030,1,0,0:0:0:0:
238,222,8188,1,0,0:0:0:0:
238,222,8346,1,8,0:0:0:0:
238,222,8662,1,0,0:0:0:0:
233,203,8820,1,0,0:0:0:0:
252,212,8978,1,8,0:0:0:0:
256,196,9136,1,8,0:0:0:0:
256,196,9293,1,0,0:0:0:0:
256,196,9609,1,8,0:0:0:0:
238,201,9925,1,0,0:0:0:0:
238,201,10083,1,0,0:0:0:0:
239,196,10241,1,8,0:0:0:0:
264,202,10399,1,0,0:0:0:0:
264,202,10478,1,0,0:0:0:0:
264,202,10557,1,0,0:0:0:0:
264,202,10714,1,0,0:0:0:0:
264,202,10872,1,8,0:0:0:0:
252,200,11188,1,4,0:0:0:0:
252,200,11820,1,0,0:0:0:0:
268,186,12136,1,8,0:0:0:0:
252,200,12293,1,8,0:0:0:0:
252,200,12451,1,0,0:0:0:0:
268,186,12767,1,0,0:0:0:0:
252,200,12925,1,8,0:0:0:0:
252,200,13083,1,0,0:0:0:0:
252,200,13241,1,0,0:0:0:0:
252,200,13399,1,8,0:0:0:0:
244,206,13714,1,4,0:0:0:0:
244,205,14030,1,8,0:0:0:0:
244,205,14188,1,4,0:0:0:0:
244,206,14504,1,8,0:0:0:0:
244,206,14662,1,4,0:0:0:0:
237,209,14978,1,8,0:0:0:0:
237,209,15136,1,8,0:0:0:0:
237,209,15293,1,0,0:0:0:0:
257,218,15372,1,0,0:0:0:0:
257,218,15451,1,0,0:0:0:0:
261,210,15609,1,8,0:0:0:0:
261,210,15925,1,12,0:0:0:0:
261,210,16083,1,12,0:0:0:0:
262,201,17504,1,4,0:0:0:0:
279,205,17820,1,8,0:0:0:0:
278,204,18293,1,0,0:0:0:0:
278,204,18451,1,8,0:0:0:0:
275,219,18767,1,0,0:0:0:0:
275,219,19083,1,8,0:0:0:0:
275,219,19241,1,0,0:0:0:0:
275,219,19557,1,0,0:0:0:0:
275,219,19714,1,8,0:0:0:0:
263,210,20030,1,0,0:0:0:0:
263,210,20188,1,0,0:0:0:0:
263,210,20346,1,8,0:0:0:0:
263,210,20820,1,0,0:0:0:0:
263,210,20978,1,8,0:0:0:0:
273,219,21136,1,0,0:0:0:0:
273,219,21214,1,0,0:0:0:0:
273,219,21293,1,0,0:0:0:0:
273,219,21451,1,0,0:0:0:0:
273,219,21609,1,8,0:0:0:0:
273,219,21767,1,0,0:0:0:0:
271,223,22083,1,0,0:0:0:0:
271,223,22241,1,8,0:0:0:0:
264,223,22557,1,0,0:0:0:0:
264,223,22872,1,8,0:0:0:0:
264,223,23346,1,0,0:0:0:0:
264,223,23504,1,8,0:0:0:0:
268,225,23820,1,0,0:0:0:0:
268,225,24136,1,8,0:0:0:0:
268,225,24293,1,0,0:0:0:0:
268,225,24609,1,0,0:0:0:0:
268,225,24767,1,8,0:0:0:0:
268,225,25083,1,0,0:0:0:0:
268,225,25241,1,0,0:0:0:0:
268,225,25399,1,8,0:0:0:0:
251,207,25714,1,0,0:0:0:0:
251,207,26030,1,8,0:0:0:0:
251,207,26188,1,8,0:0:0:0:
251,207,26346,1,0,0:0:0:0:
260,212,26504,1,0,0:0:0:0:
260,212,26662,1,8,0:0:0:0:
260,212,26820,1,0,0:0:0:0:
267,225,27136,1,8,0:0:0:0:
267,225,27214,1,8,0:0:0:0:
267,225,27293,1,8,0:0:0:0:
267,225,27451,1,8,0:0:0:0:
267,225,27609,1,4,0:0:0:0:
279,213,28083,1,0,0:0:0:0:
279,213,28241,1,8,0:0:0:0:
287,225,28557,1,8,0:0:0:0:
287,225,28714,1,0,0:0:0:0:
289,225,29030,1,8,0:0:0:0:
289,225,29188,1,0,0:0:0:0:
287,225,29346,1,0,0:0:0:0:
287,225,29504,1,8,0:0:0:0:
287,225,29662,1,0,0:0:0:0:
289,225,29820,1,8,0:0:0:0:
289,225,30136,1,4,0:0:0:0:
287,225,30609,1,0,0:0:0:0:
289,225,30767,1,8,0:0:0:0:
256,211,31083,1,8,0:0:0:0:
262,197,31241,1,0,0:0:0:0:
233,193,31557,1,0,0:0:0:0:
253,192,31636,1,0,0:0:0:0:
253,192,31714,1,0,0:0:0:0:
255,201,31872,1,0,0:0:0:0:
249,192,32030,1,8,0:0:0:0:
270,186,32188,1,0,0:0:0:0:
270,186,32346,1,12,0:0:0:0:
274,210,32662,1,4,0:0:0:0:
256,191,32978,1,0,0:0:0:0:
256,191,33293,1,0,0:0:0:0:
256,191,33609,1,0,0:0:0:0:
256,191,33925,1,8,0:0:0:0:
256,191,34241,1,8,0:0:0:0:
256,191,34557,1,0,0:0:0:0:
256,191,34872,1,8,0:0:0:0:
245,190,35030,1,8,0:0:0:0:
256,191,35188,1,0,0:0:0:0:
279,209,35504,1,8,0:0:0:0:
271,202,35662,1,0,0:0:0:0:
277,205,35820,1,8,0:0:0:0:
261,212,35978,1,0,0:0:0:0:
279,209,36136,1,8,0:0:0:0:
264,213,36451,1,8,0:0:0:0:
270,214,36609,1,8,0:0:0:0:
264,204,36767,1,0,0:0:0:0:
256,219,36846,1,0,0:0:0:0:
264,204,36925,1,0,0:0:0:0:
264,204,37083,1,0,0:0:0:0:
279,219,37241,1,12,0:0:0:0:
279,219,37714,1,4,0:0:0:0:
271,194,38188,1,0,0:0:0:0:
271,194,38346,1,8,0:0:0:0:
269,202,38662,1,0,0:0:0:0:
269,202,38820,1,8,0:0:0:0:
269,202,38978,1,0,0:0:0:0:
269,202,39136,1,0,0:0:0:0:
269,202,39293,1,0,0:0:0:0:
261,203,39609,1,8,0:0:0:0:
234,172,39925,1,8,0:0:0:0:
261,203,40083,1,8,0:0:0:0:
261,203,40241,1,0,0:0:0:0:
274,194,40714,1,0,0:0:0:0:
267,207,40872,1,8,0:0:0:0:
280,196,41188,1,8,0:0:0:0:
280,196,41346,1,8,0:0:0:0:
280,196,41504,1,0,0:0:0:0:
280,196,41662,1,8,0:0:0:0:
280,196,41820,1,0,0:0:0:0:
262,190,42136,1,8,0:0:0:0:
289,201,42451,1,8,0:0:0:0:
262,190,42609,1,8,0:0:0:0:
258,190,42767,5,0,0:0:0:0:
258,190,43241,1,0,0:0:0:0:
258,190,43399,1,8,0:0:0:0:
262,190,43714,1,0,0:0:0:0:
258,190,43872,1,8,0:0:0:0:
262,190,44030,1,0,0:0:0:0:
258,190,44188,1,0,0:0:0:0:
249,185,44346,1,0,0:0:0:0:
267,189,44662,1,8,0:0:0:0:
252,196,44978,1,0,0:0:0:0:
236,191,45136,1,0,0:0:0:0:
262,201,45293,5,8,0:0:0:0:
259,197,46557,1,8,0:0:0:0:
259,197,47662,1,8,0:0:0:0:
259,197,47741,1,8,0:0:0:0:
259,197,47820,5,8,0:0:0:0:
259,197,47978,1,0,0:0:0:0:
259,197,48136,1,0,0:0:0:0:
259,197,48293,1,8,0:0:0:0:
259,197,48451,1,0,0:0:0:0:
259,197,48609,1,0,0:0:0:0:
251,194,48767,1,12,0:0:0:0:
259,197,48925,1,12,0:0:0:0:
260,190,52872,5,4,0:0:0:0:
250,190,53188,1,8,0:0:0:0:
260,201,53662,1,0,0:0:0:0:
260,201,53820,1,8,0:0:0:0:
260,201,54136,1,0,0:0:0:0:
260,201,54293,1,0,0:0:0:0:
265,203,54451,1,8,0:0:0:0:
265,203,54767,1,0,0:0:0:0:
260,201,54846,1,0,0:0:0:0:
265,203,54925,1,0,0:0:0:0:
265,203,55083,1,8,0:0:0:0:
265,203,55241,1,8,0:0:0:0:
265,203,55399,1,0,0:0:0:0:
265,203,55714,1,8,0:0:0:0:
265,203,55872,1,0,0:0:0:0:
265,203,56188,1,0,0:0:0:0:
265,203,56346,1,8,0:0:0:0:
270,213,56662,1,0,0:0:0:0:
271,214,56820,1,0,0:0:0:0:
271,214,56978,1,8,0:0:0:0:
271,214,57057,1,8,0:0:0:0:
271,214,57136,1,8,0:0:0:0:
271,214,57293,1,0,0:0:0:0:
276,216,57451,1,0,0:0:0:0:
253,210,57609,1,8,0:0:0:0:
244,212,57925,1,0,0:0:0:0:
247,212,58241,1,8,0:0:0:0:
238,214,58714,1,0,0:0:0:0:
238,214,58872,1,8,0:0:0:0:
284,207,59188,1,0,0:0:0:0:
238,199,59346,1,0,0:0:0:0:
264,220,59504,1,8,0:0:0:0:
259,205,59820,1,0,0:0:0:0:
259,205,59899,1,0,0:0:0:0:
259,205,59978,1,0,0:0:0:0:
259,205,60136,1,8,0:0:0:0:
259,205,60293,1,8,0:0:0:0:
259,205,60451,1,0,0:0:0:0:
256,198,60767,1,8,0:0:0:0:
259,205,60925,1,8,0:0:0:0:
259,205,61004,1,8,0:0:0:0:
256,198,61083,1,8,0:0:0:0:
256,198,61241,1,0,0:0:0:0:
259,205,61399,1,8,0:0:0:0:
259,205,61557,1,4,0:0:0:0:
266,192,61872,1,0,0:0:0:0:
266,192,62030,1,8,0:0:0:0:
266,192,62188,1,0,0:0:0:0:
266,196,62267,1,0,0:0:0:0:
266,196,62346,1,0,0:0:0:0:
266,196,62504,1,0,0:0:0:0:
266,192,62662,1,8,0:0:0:0:
254,187,62978,1,4,0:0:0:0:
254,192,63451,1,0,0:0:0:0:
254,192,63609,1,8,0:0:0:0:
258,199,63925,1,8,0:0:0:0:
258,199,64083,1,0,0:0:0:0:
265,203,64399,1,8,0:0:0:0:
265,203,64557,1,0,0:0:0:0:
265,203,64714,1,0,0:0:0:0:
265,203,64872,1,8,0:0:0:0:
260,196,65188,1,8,0:0:0:0:
260,196,65346,1,8,0:0:0:0:
260,196,65504,1,0,0:0:0:0:
260,196,65978,1,0,0:0:0:0:
260,196,66136,1,8,0:0:0:0:
249,174,66451,1,8,0:0:0:0:
236,168,66767,1,8,0:0:0:0:
236,173,66925,1,0,0:0:0:0:
245,194,67004,1,0,0:0:0:0:
245,194,67083,1,0,0:0:0:0:
260,202,67241,1,0,0:0:0:0:
261,188,67399,1,8,0:0:0:0:
253,204,67557,1,0,0:0:0:0:
260,202,67714,1,12,0:0:0:0:
260,202,68030,1,4,0:0:0:0:
249,196,68346,1,8,0:0:0:0:
249,196,68662,1,0,0:0:0:0:
249,196,68820,1,0,0:0:0:0:
249,196,68978,1,8,0:0:0:0:
280,199,69293,1,0,0:0:0:0:
280,199,69451,1,0,0:0:0:0:
280,199,69609,1,8,0:0:0:0:
271,198,69767,1,0,0:0:0:0:
271,198,69846,1,0,0:0:0:0:
271,198,69925,1,0,0:0:0:0:
271,198,70083,1,0,0:0:0:0:
271,198,70241,1,8,0:0:0:0:
273,202,70557,1,0,0:0:0:0:
273,202,70872,1,8,0:0:0:0:
266,198,71030,1,8,0:0:0:0:
271,198,71188,1,0,0:0:0:0:
247,198,71267,1,0,0:0:0:0:
247,198,71346,1,0,0:0:0:0:
264,205,71504,1,8,0:0:0:0:
266,198,71820,1,0,0:0:0:0:
403,295,71978,1,0,0:0:0:0:
262,226,72136,1,8,0:0:0:0:
282,218,72293,1,8,0:0:0:0:
282,218,72372,1,8,0:0:0:0:
267,196,72451,1,8,0:0:0:0:
256,208,72609,1,0,0:0:0:0:
274,208,72767,1,8,0:0:0:0:
267,196,73083,1,0,0:0:0:0:
249,200,73714,1,0,0:0:0:0:
249,200,73872,1,0,0:0:0:0:
256,190,74030,1,0,0:0:0:0:
256,190,74188,1,0,0:0:0:0:
256,190,74346,1,8,0:0:0:0:
256,190,74504,1,8,0:0:0:0:
256,190,74662,1,8,0:0:0:0:
256,190,74820,1,8,0:0:0:0:
253,194,74978,1,12,0:0:0:0:
256,190,75293,1,12,0:0:0:0:
256,190,75767,5,8,0:0:0:0:
269,195,75925,1,0,0:0:0:0:
249,191,76004,1,0,0:0:0:0:
249,191,76083,1,0,0:0:0:0:
249,191,76241,1,8,0:0:0:0:
249,191,76399,1,0,0:0:0:0:
249,191,76557,1,8,0:0:0:0:
263,216,76872,1,4,0:0:0:0:
263,216,77346,1,8,0:0:0:0:
263,216,77662,1,0,0:0:0:0:
263,216,77820,1,8,0:0:0:0:
266,212,78136,1,8,0:0:0:0:
257,204,78293,1,0,0:0:0:0:
257,204,78451,1,0,0:0:0:0:
257,204,78609,1,8,0:0:0:0:
224,212,78767,1,0,0:0:0:0:
224,212,78925,1,0,0:0:0:0:
224,212,79083,1,8,0:0:0:0:
224,212,79399,1,8,0:0:0:0:
224,212,79714,1,0,0:0:0:0:
224,212,79872,1,8,0:0:0:0:
224,212,80188,1,0,0:0:0:0:
224,212,80346,1,8,0:0:0:0:
251,216,80662,1,8,0:0:0:0:
251,216,80820,1,0,0:0:0:0:
251,216,80978,1,0,0:0:0:0:
251,216,81136,1,8,0:0:0:0:
251,216,81293,1,0,0:0:0:0:
251,216,81451,1,0,0:0:0:0:
267,211,81609,1,8,0:0:0:0:
267,211,81688,1,8,0:0:0:0:
267,211,81767,1,8,0:0:0:0:
267,211,81925,1,8,0:0:0:0:
271,219,82399,1,8,0:0:0:0:
271,219,82714,1,0,0:0:0:0:
271,219,82872,1,8,0:0:0:0:
232,204,83188,1,8,0:0:0:0:
250,213,83346,1,0,0:0:0:0:
250,213,83504,1,0,0:0:0:0:
250,213,83662,1,8,0:0:0:0:
250,213,83820,1,0,0:0:0:0:
250,213,83978,1,0,0:0:0:0:
250,213,84136,1,8,0:0:0:0:
254,207,84451,1,8,0:0:0:0:
254,207,84609,1,0,0:0:0:0:
254,207,84767,1,8,0:0:0:0:
254,207,84925,1,0,0:0:0:0:
254,207,85083,1,8,0:0:0:0:
254,207,85241,1,0,0:0:0:0:
254,207,85399,1,8,0:0:0:0:
268,204,85714,1,8,0:0:0:0:
268,204,85872,1,0,0:0:0:0:
268,204,86030,1,8,0:0:0:0:
251,189,86188,1,0,0:0:0:0:
252,190,86346,1,8,0:0:0:0:
254,201,86425,1,8,0:0:0:0:
260,196,86504,1,8,0:0:0:0:
252,190,86662,1,8,0:0:0:0:
256,212,86741,1,8,0:0:0:0:
256,212,86820,1,8,0:0:0:0:
219,197,89504,5,4,0:0:0:0:
264,200,90136,1,8,0:0:0:0:
264,200,90293,1,4,0:0:0:0:
264,200,90767,1,4,0:0:0:0:
258,205,91241,1,0,0:0:0:0:
258,205,91320,1,0,0:0:0:0:
258,205,91399,1,0,0:0:0:0:
258,205,91557,1,0,0:0:0:0:
260,174,91714,1,12,0:0:0:0:
258,205,92030,1,4,0:0:0:0:
255,219,92346,1,8,0:0:0:0:
255,219,92504,1,4,0:0:0:0:
255,219,92820,1,0,0:0:0:0:
255,219,92978,1,12,0:0:0:0:
264,221,93451,1,8,0:0:0:0:
264,221,93609,1,8,0:0:0:0:
264,221,93767,1,8,0:0:0:0:
264,221,93846,1,8,0:0:0:0:
264,221,93925,1,8,0:0:0:0:
264,221,94083,1,0,0:0:0:0:
264,221,94241,1,8,0:0:0:0:
256,199,94557,1,4,0:0:0:0:
263,211,94872,1,0,0:0:0:0:
263,211,95188,1,0,0:0:0:0:
263,211,95504,1,0,0:0:0:0:
263,211,95662,1,8,0:0:0:0:
263,211,95820,1,0,0:0:0:0:
274,211,96136,1,8,0:0:0:0:
274,217,96451,1,0,0:0:0:0:
274,217,96609,1,0,0:0:0:0:
274,217,96767,1,8,0:0:0:0:
274,217,96925,1,8,0:0:0:0:
277,213,97083,1,0,0:0:0:0:
277,213,97399,1,0,0:0:0:0:
277,213,97557,1,0,0:0:0:0:
277,213,97714,1,8,0:0:0:0:
266,203,97793,1,8,0:0:0:0:
277,213,97872,1,8,0:0:0:0:
282,213,98030,1,8,0:0:0:0:
266,203,98188,1,12,0:0:0:0:
282,191,98504,1,0,0:0:0:0:
269,204,98662,1,8,0:0:0:0:
280,216,98820,1,0,0:0:0:0:
282,213,98978,1,0,0:0:0:0:
261,174,99057,1,0,0:0:0:0:
280,216,99136,1,0,0:0:0:0:
280,216,99293,1,8,0:0:0:0:
267,192,99372,1,8,0:0:0:0:
276,201,99451,1,8,0:0:0:0:
276,201,99609,1,0,0:0:0:0:
260,188,99925,1,12,0:0:0:0:
264,215,100399,1,0,0:0:0:0:
264,215,100557,1,8,0:0:0:0:
264,215,100872,1,8,0:0:0:0:
264,215,101030,1,0,0:0:0:0:
264,215,101188,1,8,0:0:0:0:
257,196,101504,1,8,0:0:0:0:
257,196,101583,1,8,0:0:0:0:
257,196,101662,1,8,0:0:0:0:
257,196,101820,1,8,0:0:0:0:
257,196,101978,1,0,0:0:0:0:
257,196,102136,1,8,0:0:0:0:
260,200,102451,1,8,0:0:0:0:
260,200,102609,1,0,0:0:0:0:
260,200,102925,1,0,0:0:0:0:
260,200,103083,1,8,0:0:0:0:
257,199,103399,1,8,0:0:0:0:
257,199,103557,1,0,0:0:0:0:
257,199,103714,1,8,0:0:0:0:
255,217,103872,1,0,0:0:0:0:
255,217,103951,1,0,0:0:0:0:
248,196,104030,1,0,0:0:0:0:
269,203,104188,1,0,0:0:0:0:
269,203,104346,1,8,0:0:0:0:
265,203,104504,1,8,0:0:0:0:
265,203,104583,1,8,0:0:0:0:
265,203,104662,1,8,0:0:0:0:
261,203,104820,1,0,0:0:0:0:
261,203,104978,1,8,0:0:0:0:
265,193,105451,1,0,0:0:0:0:
265,193,105609,1,8,0:0:0:0:
265,192,105925,1,8,0:0:0:0:
265,193,106083,1,0,0:0:0:0:
265,193,106241,1,8,0:0:0:0:
265,193,106557,1,8,0:0:0:0:
265,192,106714,1,0,0:0:0:0:
265,192,106872,1,8,0:0:0:0:
265,193,107030,1,8,0:0:0:0:
265,193,107109,1,8,0:0:0:0:
265,193,107188,1,8,0:0:0:0:
284,186,107346,1,0,0:0:0:0:
284,186,107504,1,8,0:0:0:0:
273,194,107662,1,0,0:0:0:0:
273,194,107741,1,0,0:0:0:0:
273,194,107820,1,0,0:0:0:0:
273,192,107978,1,0,0:0:0:0:
273,192,108136,1,8,0:0:0:0:
273,192,108293,1,4,0:0:0:0:
262,187,108609,1,0,0:0:0:0:
258,186,108767,1,8,0:0:0:0:
258,203,108925,1,0,0:0:0:0:
258,203,109004,1,0,0:0:0:0:
258,203,109083,1,0,0:0:0:0:
258,203,109241,1,0,0:0:0:0:
258,203,109399,1,8,0:0:0:0:
258,203,109714,1,4,0:0:0:0:
260,210,110188,1,0,0:0:0:0:
260,210,110346,1,8,0:0:0:0:
260,210,110662,1,8,0:0:0:0:
260,210,110820,1,0,0:0:0:0:
234,179,111136,1,8,0:0:0:0:
234,179,111293,1,0,0:0:0:0:
260,210,111451,1,0,0:0:0:0:
260,210,111609,1,8,0:0:0:0:
256,194,111925,1,8,0:0:0:0:
256,194,112083,1,8,0:0:0:0:
256,194,112241,1,0,0:0:0:0:
249,199,112714,1,0,0:0:0:0:
258,225,112872,1,8,0:0:0:0:
258,225,113188,1,8,0:0:0:0:
274,228,113504,1,8,0:0:0:0:
277,220,113662,1,0,0:0:0:0:
265,214,113741,1,0,0:0:0:0:
265,214,113820,1,0,0:0:0:0:
272,231,113978,1,0,0:0:0:0:
262,212,114136,1,8,0:0:0:0:
267,228,114293,1,0,0:0:0:0:
274,228,114451,1,12,0:0:0:0:
274,228,114767,1,4,0:0:0:0:
274,207,115083,1,8,0:0:0:0:
274,207,115399,1,0,0:0:0:0:
274,207,115557,1,0,0:0:0:0:
274,207,115714,1,8,0:0:0:0:
274,207,116030,1,0,0:0:0:0:
274,207,116188,1,0,0:0:0:0:
274,207,116346,1,8,0:0:0:0:
274,207,116504,1,0,0:0:0:0:
274,207,116583,1,0,0:0:0:0:
274,207,116662,1,0,0:0:0:0:
274,207,116820,1,0,0:0:0:0:
274,207,116978,1,8,0:0:0:0:
274,207,117293,1,0,0:0:0:0:
274,207,117609,1,8,0:0:0:0:
263,193,117767,1,8,0:0:0:0:
274,207,117925,1,0,0:0:0:0:
269,205,118004,1,0,0:0:0:0:
269,205,118083,1,0,0:0:0:0:
274,207,118241,1,8,0:0:0:0:
274,207,118557,1,0,0:0:0:0:
263,193,118714,1,0,0:0:0:0:
263,193,118872,1,8,0:0:0:0:
263,193,119030,1,8,0:0:0:0:
263,193,119109,1,8,0:0:0:0:
264,194,119188,1,8,0:0:0:0:
263,193,119346,1,0,0:0:0:0:
263,193,119504,1,8,0:0:0:0:
263,193,119820,1,0,0:0:0:0:
263,193,120451,1,0,0:0:0:0:
263,193,120609,1,0,0:0:0:0:
263,193,120767,1,0,0:0:0:0:
263,193,120925,1,0,0:0:0:0:
263,193,121083,1,8,0:0:0:0:
263,193,121241,1,8,0:0:0:0:
263,193,121399,1,8,0:0:0:0:
263,193,121557,1,8,0:0:0:0:
263,193,121714,1,12,0:0:0:0:
263,193,122030,1,12,0:0:0:0:
260,212,123609,5,4,0:0:0:0:
263,196,124083,1,0,0:0:0:0:
263,196,124241,1,8,0:0:0:0:
263,196,124557,1,8,0:0:0:0:
263,196,124714,1,0,0:0:0:0:
263,196,125030,1,8,0:0:0:0:
263,196,125188,1,0,0:0:0:0:
263,196,125346,1,0,0:0:0:0:
263,196,125504,1,8,0:0:0:0:
241,210,125662,1,0,0:0:0:0:
263,196,125820,1,8,0:0:0:0:
263,196,126136,1,0,0:0:0:0:
273,206,126293,1,0,0:0:0:0:
256,203,126609,1,0,0:0:0:0:
256,203,126767,1,8,0:0:0:0:
258,187,126925,1,0,0:0:0:0:
256,203,127083,1,8,0:0:0:0:
242,215,127399,1,8,0:0:0:0:
247,201,127557,1,0,0:0:0:0:
262,200,127636,1,0,0:0:0:0:
248,201,127714,1,0,0:0:0:0:
242,215,127872,1,0,0:0:0:0:
233,177,128030,1,8,0:0:0:0:
251,206,128188,1,0,0:0:0:0:
242,215,128346,1,12,0:0:0:0:
242,215,128662,1,4,0:0:0:0:
250,194,129136,1,0,0:0:0:0:
250,194,129293,1,8,0:0:0:0:
250,194,129609,1,8,0:0:0:0:
250,194,129767,1,0,0:0:0:0:
253,202,130083,1,8,0:0:0:0:
253,202,130241,1,0,0:0:0:0:
256,207,130399,1,0,0:0:0:0:
254,202,130557,1,8,0:0:0:0:
276,193,130714,1,0,0:0:0:0:
269,211,130872,1,8,0:0:0:0:
269,211,131188,1,0,0:0:0:0:
282,195,131346,5,0,0:0:0:0:
282,195,131662,1,0,0:0:0:0:
282,195,131820,1,8,0:0:0:0:
282,195,131978,1,0,0:0:0:0:
282,195,132136,1,8,0:0:0:0:
264,190,132451,5,0,0:0:0:0:
271,196,132609,1,8,0:0:0:0:
271,196,132688,1,8,0:0:0:0:
271,196,132767,1,8,0:0:0:0:
271,196,132925,1,8,0:0:0:0:
271,196,133083,1,8,0:0:0:0:
255,184,133241,1,8,0:0:0:0:
264,190,133399,1,0,0:0:0:0:
254,192,133714,5,12,0:0:0:0:
254,192,134030,1,12,0:0:0:0:
254,192,134346,1,12,0:0:0:0:
254,192,134662,1,12,0:0:0:0:
