osu file format v14

[General]
AudioFilename: audio.mp3
AudioLeadIn: 0
PreviewTime: 51767
Countdown: 0
SampleSet: Normal
StackLeniency: 0.7
Mode: 1
LetterboxInBreaks: 0
WidescreenStoryboard: 0

[Editor]
DistanceSpacing: 1
BeatDivisor: 4
GridSize: 32
TimelineZoom: 2.799999

[Metadata]
Title:winning the soul (TV Size)
TitleUnicode:winning the soul (TV Size)
Artist:Tokai Teio (CV: Machico)
ArtistUnicode:トウカイテイオー (CV: Machico)
Creator:_Rise
Version:Kantan
Source:ウマ娘 プリティーダービー Season 2
Tags:uma musume pretty derby animation vol.3 cygames 宮崎誠 miyazaki makoto anime japanese ed ending original sound track ost jpop j-pop jrock j-rock video game
BeatmapID:2986821
BeatmapSetID:1444972

[Difficulty]
HPDrainRate:7.5
CircleSize:5
OverallDifficulty:3
ApproachRate:5
SliderMultiplier:1.4
SliderTickRate:1

[Events]
//Background and Video events
0,0,"bg.jpg",0,25
//Break Periods
2,48967,51672
//Storyboard Layer 0 (Background)
//Storyboard Layer 1 (Fail)
//Storyboard Layer 2 (Pass)
//Storyboard Layer 3 (Foreground)
//Storyboard Layer 4 (Overlay)
//Storyboard Sound Samples

[TimingPoints]
452.378047374838,315.789473684211,4,1,0,40,1,0
4833,-100,4,1,0,80,0,8
5505,315.789473684211,4,1,0,80,1,8
6136,315.789473684211,4,1,0,80,1,0
16201,-100,4,1,0,75,0,0
45333,-100,4,1,0,70,0,0
47623,-100,4,1,0,75,0,0
49044,-100,4,1,0,70,0,0
51886,-100,4,1,0,80,0,0
52872,-100,4,1,0,80,0,1
62978,-100,4,1,0,80,0,0
63017,-100,4,1,0,75,0,0
67991,-100,4,1,0,80,0,0
68030,-100,4,1,0,80,0,1
76872,-100,4,1,0,80,0,0
86938,-100,4,1,0,70,0,0
88517,-100,4,1,0,75,0,0
99886,-100,4,1,0,80,0,0
99925,-100,4,1,0,80,0,1
109714,-100,4,1,0,80,0,0
109754,-100,4,1,0,75,0,0
114728,-100,4,1,0,80,0,0
114767,-100,4,1,0,80,0,1
122346,-100,4,1,0,80,0,0
123570,-100,4,1,0,75,0,0

[HitObjects]
256,192,452,12,0,4241,0:0:0:0:
241,217,4873,5,12,0:0:0:0:
224,193,6136,1,4,0:0:0:0:
235,183,6767,1,0,0:0:0:0:
251,197,7399,1,8,0:0:0:0:
254,187,7714,1,8,0:0:0:0:
251,197,8030,1,8,0:0:0:0:
252,190,8662,1,0,0:0:0:0:
254,187,8978,1,0,0:0:0:0:
252,190,9293,1,8,0:0:0:0:
254,187,9925,1,0,0:0:0:0:
264,210,11188,1,4,0:0:0:0:
249,194,11820,1,0,0:0:0:0:
263,209,12451,1,8,0:0:0:0:
249,194,12767,1,8,0:0:0:0:
263,209,13083,1,8,0:0:0:0:
266,230,13714,1,4,0:0:0:0:
266,199,14188,1,4,0:0:0:0:
260,208,14662,1,4,0:0:0:0:
266,199,15136,1,4,0:0:0:0:
258,218,15609,1,12,0:0:0:0:
258,218,16083,1,12,0:0:0:0:
245,201,17504,1,4,0:0:0:0:
246,216,18767,1,8,0:0:0:0:
246,216,19241,1,8,0:0:0:0:
246,216,20030,1,0,0:0:0:0:
273,201,20346,1,0,0:0:0:0:
260,209,20662,1,0,0:0:0:0:
251,194,21293,1,8,0:0:0:0:
251,194,21767,1,8,0:0:0:0:
254,210,22557,1,0,0:0:0:0:
246,216,23820,1,8,0:0:0:0:
246,216,24293,1,8,0:0:0:0:
250,202,25083,1,0,0:0:0:0:
250,194,25399,1,0,0:0:0:0:
250,202,25714,1,0,0:0:0:0:
257,201,26346,1,8,0:0:0:0:
270,188,26820,1,8,0:0:0:0:
263,214,27609,1,4,0:0:0:0:
253,199,28241,1,0,0:0:0:0:
251,205,28872,1,8,0:0:0:0:
251,205,30136,1,4,0:0:0:0:
254,196,30767,1,0,0:0:0:0:
258,199,31399,1,8,0:0:0:0:
251,199,32662,1,4,0:0:0:0:
260,194,33293,1,0,0:0:0:0:
257,203,33925,1,0,0:0:0:0:
257,203,34557,1,8,0:0:0:0:
267,203,34872,1,8,0:0:0:0:
257,203,35188,1,0,0:0:0:0:
260,197,35820,1,0,0:0:0:0:
260,197,36451,1,8,0:0:0:0:
261,198,37714,1,4,0:0:0:0:
255,204,38346,1,8,0:0:0:0:
251,203,39609,1,8,0:0:0:0:
257,208,39925,1,8,0:0:0:0:
251,203,40241,1,0,0:0:0:0:
251,203,40872,1,8,0:0:0:0:
256,192,42136,1,0,0:0:0:0:
257,210,42451,1,0,0:0:0:0:
260,187,42767,1,8,0:0:0:0:
260,187,43399,1,0,0:0:0:0:
258,186,44662,1,0,0:0:0:0:
257,210,44978,1,0,0:0:0:0:
258,186,45293,1,8,0:0:0:0:
254,195,47820,1,12,0:0:0:0:
254,195,48293,1,12,0:0:0:0:
254,195,48767,1,12,0:0:0:0:
258,195,52872,5,4,0:0:0:0:
249,209,53820,1,8,0:0:0:0:
249,209,54136,1,0,0:0:0:0:
242,187,54451,1,8,0:0:0:0:
256,197,55083,1,8,0:0:0:0:
256,197,55399,1,0,0:0:0:0:
261,195,55872,1,8,0:0:0:0:
279,188,56346,1,8,0:0:0:0:
261,195,56662,1,0,0:0:0:0:
261,195,56978,1,0,0:0:0:0:
261,195,57293,1,8,0:0:0:0:
260,211,57925,1,0,0:0:0:0:
254,217,58872,1,8,0:0:0:0:
254,217,59188,1,0,0:0:0:0:
261,219,59504,1,8,0:0:0:0:
249,227,60136,1,8,0:0:0:0:
258,222,60451,1,0,0:0:0:0:
269,211,61557,1,12,0:0:0:0:
269,211,62346,1,8,0:0:0:0:
269,211,62662,1,8,0:0:0:0:
258,222,62978,1,4,0:0:0:0:
259,207,63609,1,8,0:0:0:0:
259,207,64557,1,0,0:0:0:0:
276,221,64872,1,8,0:0:0:0:
264,220,65504,1,0,0:0:0:0:
259,208,66136,1,8,0:0:0:0:
264,199,66451,1,8,0:0:0:0:
263,206,67714,1,8,0:0:0:0:
263,219,68030,1,4,0:0:0:0:
249,212,68662,1,8,0:0:0:0:
267,221,69293,1,0,0:0:0:0:
267,222,69609,1,0,0:0:0:0:
267,221,69925,1,8,0:0:0:0:
274,207,70241,1,8,0:0:0:0:
267,222,70557,1,0,0:0:0:0:
274,205,71188,1,8,0:0:0:0:
274,205,71820,1,0,0:0:0:0:
264,186,72767,1,8,0:0:0:0:
274,205,73083,1,0,0:0:0:0:
274,205,73714,1,0,0:0:0:0:
274,205,74346,1,8,0:0:0:0:
274,205,74978,1,12,0:0:0:0:
274,205,75293,1,12,0:0:0:0:
258,202,76241,1,8,0:0:0:0:
258,202,76557,1,8,0:0:0:0:
251,200,76872,1,4,0:0:0:0:
239,210,78136,1,0,0:0:0:0:
246,219,78609,1,0,0:0:0:0:
246,219,79083,1,0,0:0:0:0:
258,205,79399,1,8,0:0:0:0:
246,219,80662,1,8,0:0:0:0:
246,219,81136,1,8,0:0:0:0:
246,219,81609,1,8,0:0:0:0:
246,219,81925,1,0,0:0:0:0:
249,212,83188,1,0,0:0:0:0:
249,212,83662,1,0,0:0:0:0:
249,212,84136,1,0,0:0:0:0:
249,212,84451,1,8,0:0:0:0:
249,212,85083,1,8,0:0:0:0:
253,196,85714,5,8,0:0:0:0:
253,196,86030,1,8,0:0:0:0:
253,196,86346,1,8,0:0:0:0:
253,196,86662,1,8,0:0:0:0:
247,192,89504,1,4,0:0:0:0:
257,193,90767,1,4,0:0:0:0:
254,194,92030,1,12,0:0:0:0:
254,194,92504,1,12,0:0:0:0:
254,194,92978,1,12,0:0:0:0:
247,193,94557,1,4,0:0:0:0:
249,201,95188,1,0,0:0:0:0:
247,193,95820,1,0,0:0:0:0:
250,205,96451,1,0,0:0:0:0:
259,196,97083,1,8,0:0:0:0:
259,196,97399,1,8,0:0:0:0:
259,196,97714,1,8,0:0:0:0:
260,190,98188,1,12,0:0:0:0:
260,173,99609,1,0,0:0:0:0:
251,191,99925,1,12,0:0:0:0:
255,209,100557,1,8,0:0:0:0:
264,212,100872,1,0,0:0:0:0:
244,202,101188,1,8,0:0:0:0:
251,207,101820,1,8,0:0:0:0:
256,205,102136,1,0,0:0:0:0:
255,210,102609,1,8,0:0:0:0:
256,205,103083,1,8,0:0:0:0:
269,214,103399,1,0,0:0:0:0:
268,205,103714,1,0,0:0:0:0:
255,210,104030,1,8,0:0:0:0:
255,210,104662,1,0,0:0:0:0:
263,200,104978,1,8,0:0:0:0:
264,209,105609,1,8,0:0:0:0:
258,201,105925,1,0,0:0:0:0:
258,201,106241,1,8,0:0:0:0:
253,209,106872,1,8,0:0:0:0:
244,193,107188,1,0,0:0:0:0:
245,212,108293,1,12,0:0:0:0:
250,204,109083,1,8,0:0:0:0:
263,221,109399,1,8,0:0:0:0:
250,204,109714,1,4,0:0:0:0:
257,209,110346,1,8,0:0:0:0:
258,199,111293,1,0,0:0:0:0:
247,201,111609,1,8,0:0:0:0:
247,201,112241,1,0,0:0:0:0:
247,212,112872,1,8,0:0:0:0:
247,212,113188,1,8,0:0:0:0:
252,194,114451,1,8,0:0:0:0:
263,219,114767,1,4,0:0:0:0:
249,212,115399,1,8,0:0:0:0:
267,221,116030,1,0,0:0:0:0:
267,222,116346,1,0,0:0:0:0:
267,221,116662,1,8,0:0:0:0:
284,219,116978,1,8,0:0:0:0:
267,222,117293,1,0,0:0:0:0:
274,205,117925,1,8,0:0:0:0:
274,205,118557,1,0,0:0:0:0:
266,202,119504,1,8,0:0:0:0:
274,205,119820,1,0,0:0:0:0:
274,205,120451,1,0,0:0:0:0:
274,205,121083,1,8,0:0:0:0:
274,205,121714,1,12,0:0:0:0:
274,205,122030,1,12,0:0:0:0:
231,179,123609,1,4,0:0:0:0:
251,206,124241,1,8,0:0:0:0:
249,189,125188,1,0,0:0:0:0:
240,179,125504,1,8,0:0:0:0:
237,199,126136,1,0,0:0:0:0:
236,193,126767,1,8,0:0:0:0:
246,195,127399,1,0,0:0:0:0:
245,205,128030,1,8,0:0:0:0:
251,200,128346,1,8,0:0:0:0:
251,200,129293,1,8,0:0:0:0:
251,200,129609,1,8,0:0:0:0:
248,197,130557,1,8,0:0:0:0:
256,195,130872,1,8,0:0:0:0:
248,197,131820,1,0,0:0:0:0:
254,210,132451,1,8,0:0:0:0:
251,205,132767,1,8,0:0:0:0:
257,203,133083,1,0,0:0:0:0:
257,203,133714,1,12,0:0:0:0:
257,203,134030,1,12,0:0:0:0:
257,203,134346,1,12,0:0:0:0:
257,203,134662,1,12,0:0:0:0:
