osu file format v14

[General]
AudioFilename: audio.mp3
AudioLeadIn: 0
PreviewTime: 51767
Countdown: 0
SampleSet: Normal
StackLeniency: 0.7
Mode: 1
LetterboxInBreaks: 0
WidescreenStoryboard: 0

[Editor]
DistanceSpacing: 1
BeatDivisor: 4
GridSize: 32
TimelineZoom: 2.799999

[Metadata]
Title:winning the soul (TV Size)
TitleUnicode:winning the soul (TV Size)
Artist:Tokai Teio (CV: Machico)
ArtistUnicode:トウカイテイオー (CV: Machico)
Creator:_Rise
Version:Futsuu
Source:ウマ娘 プリティーダービー Season 2
Tags:uma musume pretty derby animation vol.3 cygames 宮崎誠 miyazaki makoto anime japanese ed ending original sound track ost jpop j-pop jrock j-rock video game
BeatmapID:2985524
BeatmapSetID:1444972

[Difficulty]
HPDrainRate:7
CircleSize:5
OverallDifficulty:4
ApproachRate:5
SliderMultiplier:1.4
SliderTickRate:1

[Events]
//Background and Video events
0,0,"bg.jpg",0,25
//Break Periods
2,49125,51672
//Storyboard Layer 0 (Background)
//Storyboard Layer 1 (Fail)
//Storyboard Layer 2 (Pass)
//Storyboard Layer 3 (Foreground)
//Storyboard Layer 4 (Overlay)
//Storyboard Sound Samples

[TimingPoints]
452.378047374838,315.789473684211,4,1,0,40,1,0
4833,-100,4,1,0,80,0,8
5505,315.789473684211,4,1,0,80,1,8
6136,315.789473684211,4,1,0,80,1,0
16201,-100,4,1,0,75,0,0
45333,-100,4,1,0,70,0,0
47623,-100,4,1,0,75,0,0
49044,-100,4,1,0,70,0,0
51886,-100,4,1,0,80,0,0
52872,-100,4,1,0,80,0,1
62978,-100,4,1,0,80,0,0
63017,-100,4,1,0,75,0,0
67991,-100,4,1,0,80,0,0
68030,-100,4,1,0,80,0,1
76872,-100,4,1,0,80,0,0
86938,-100,4,1,0,70,0,0
88517,-100,4,1,0,75,0,0
99886,-100,4,1,0,80,0,0
99925,-100,4,1,0,80,0,1
109714,-100,4,1,0,80,0,0
109754,-100,4,1,0,75,0,0
114728,-100,4,1,0,80,0,0
114767,-100,4,1,0,80,0,1
122346,-100,4,1,0,80,0,0
123570,-100,4,1,0,75,0,0

[HitObjects]
256,192,452,12,0,4557,0:0:0:0:
244,196,4873,5,12,0:0:0:0:
244,196,5505,1,8,0:0:0:0:
244,196,5662,1,0,0:0:0:0:
244,196,5820,1,8,0:0:0:0:
244,196,6136,1,4,0:0:0:0:
255,190,6767,1,0,0:0:0:0:
255,190,7083,1,8,0:0:0:0:
242,195,7399,1,0,0:0:0:0:
242,195,7714,1,0,0:0:0:0:
242,195,8030,1,8,0:0:0:0:
248,200,8188,1,8,0:0:0:0:
248,200,8346,1,0,0:0:0:0:
244,213,8662,1,8,0:0:0:0:
254,205,8978,1,8,0:0:0:0:
256,201,9293,1,0,0:0:0:0:
256,201,9609,1,8,0:0:0:0:
280,221,9925,1,0,0:0:0:0:
247,204,10083,1,0,0:0:0:0:
280,221,10241,1,8,0:0:0:0:
261,214,10557,1,0,0:0:0:0:
261,214,10872,1,8,0:0:0:0:
261,214,11188,1,4,0:0:0:0:
267,210,11820,1,0,0:0:0:0:
261,208,12136,1,8,0:0:0:0:
261,208,12451,1,0,0:0:0:0:
247,207,12767,1,0,0:0:0:0:
248,206,13083,1,8,0:0:0:0:
262,212,13241,1,8,0:0:0:0:
262,212,13399,1,0,0:0:0:0:
247,207,13714,1,4,0:0:0:0:
247,207,14188,1,4,0:0:0:0:
247,207,14662,1,4,0:0:0:0:
247,207,14978,1,8,0:0:0:0:
247,207,15136,1,8,0:0:0:0:
247,207,15293,1,0,0:0:0:0:
255,214,15609,1,8,0:0:0:0:
244,218,15925,1,12,0:0:0:0:
244,218,16083,1,12,0:0:0:0:
259,210,17504,1,4,0:0:0:0:
253,202,17820,1,8,0:0:0:0:
253,202,18451,1,8,0:0:0:0:
253,202,18767,1,0,0:0:0:0:
258,198,19083,1,8,0:0:0:0:
258,198,19557,1,0,0:0:0:0:
258,199,19714,1,8,0:0:0:0:
258,198,20030,1,0,0:0:0:0:
258,198,20346,1,8,0:0:0:0:
258,198,20978,1,8,0:0:0:0:
258,198,21293,1,0,0:0:0:0:
251,209,21609,1,8,0:0:0:0:
251,209,21767,1,0,0:0:0:0:
251,209,22083,1,0,0:0:0:0:
251,209,22241,1,8,0:0:0:0:
251,209,22557,1,0,0:0:0:0:
251,209,22872,1,8,0:0:0:0:
251,209,23504,1,8,0:0:0:0:
239,201,23820,1,0,0:0:0:0:
239,201,24136,1,8,0:0:0:0:
239,201,24609,1,0,0:0:0:0:
239,201,24767,1,8,0:0:0:0:
226,203,25083,1,0,0:0:0:0:
231,203,25399,1,8,0:0:0:0:
255,203,25714,1,0,0:0:0:0:
255,203,25872,1,0,0:0:0:0:
251,224,26030,1,8,0:0:0:0:
251,224,26346,1,0,0:0:0:0:
251,224,26662,1,8,0:0:0:0:
258,218,26820,1,0,0:0:0:0:
259,221,27136,1,8,0:0:0:0:
258,221,27609,1,4,0:0:0:0:
258,221,28241,1,8,0:0:0:0:
260,216,28714,1,0,0:0:0:0:
259,210,29030,1,8,0:0:0:0:
259,210,29188,1,0,0:0:0:0:
254,214,29504,1,8,0:0:0:0:
249,205,29662,1,0,0:0:0:0:
248,201,29820,1,8,0:0:0:0:
242,196,30136,1,4,0:0:0:0:
248,202,30767,1,8,0:0:0:0:
227,186,31241,1,0,0:0:0:0:
248,202,31557,1,8,0:0:0:0:
248,202,31714,1,0,0:0:0:0:
248,202,32030,1,0,0:0:0:0:
240,200,32188,1,0,0:0:0:0:
212,173,32346,1,12,0:0:0:0:
253,187,32662,1,4,0:0:0:0:
275,205,33293,1,0,0:0:0:0:
268,212,33609,1,0,0:0:0:0:
268,212,33925,1,8,0:0:0:0:
268,212,34241,1,8,0:0:0:0:
268,212,34557,1,0,0:0:0:0:
267,202,34872,1,8,0:0:0:0:
267,202,35188,1,0,0:0:0:0:
251,210,35504,1,0,0:0:0:0:
252,210,35820,1,8,0:0:0:0:
252,210,36136,1,0,0:0:0:0:
238,209,36451,1,8,0:0:0:0:
238,209,36609,1,8,0:0:0:0:
238,209,36767,1,0,0:0:0:0:
246,203,37083,1,0,0:0:0:0:
246,203,37241,1,12,0:0:0:0:
249,192,37714,1,4,0:0:0:0:
259,184,38346,1,8,0:0:0:0:
266,206,38662,1,0,0:0:0:0:
259,184,38820,1,8,0:0:0:0:
259,184,39136,1,0,0:0:0:0:
266,206,39293,1,0,0:0:0:0:
266,206,39609,1,8,0:0:0:0:
266,206,39925,1,8,0:0:0:0:
266,206,40241,1,0,0:0:0:0:
266,206,40872,1,8,0:0:0:0:
266,206,41188,1,0,0:0:0:0:
266,206,41346,1,8,0:0:0:0:
266,206,41662,1,8,0:0:0:0:
266,206,41820,1,0,0:0:0:0:
266,206,42136,1,8,0:0:0:0:
270,207,42451,1,8,0:0:0:0:
270,207,42609,1,8,0:0:0:0:
270,207,42767,1,0,0:0:0:0:
270,207,43399,1,8,0:0:0:0:
270,207,43714,1,0,0:0:0:0:
274,197,43872,1,8,0:0:0:0:
270,207,44188,1,0,0:0:0:0:
270,207,44346,1,0,0:0:0:0:
270,207,44662,1,8,0:0:0:0:
270,207,44978,1,0,0:0:0:0:
270,207,45293,1,8,0:0:0:0:
249,201,46557,1,8,0:0:0:0:
249,201,47820,1,8,0:0:0:0:
242,169,47978,1,0,0:0:0:0:
249,201,48293,1,8,0:0:0:0:
257,183,48451,1,0,0:0:0:0:
257,183,48767,1,12,0:0:0:0:
257,183,48925,1,12,0:0:0:0:
231,195,52872,5,4,0:0:0:0:
249,216,53188,1,8,0:0:0:0:
249,213,53820,1,8,0:0:0:0:
269,210,54136,1,0,0:0:0:0:
253,186,54293,1,0,0:0:0:0:
269,210,54451,1,8,0:0:0:0:
269,210,54767,1,0,0:0:0:0:
276,205,55083,1,8,0:0:0:0:
276,205,55241,1,8,0:0:0:0:
276,205,55399,1,0,0:0:0:0:
275,207,55714,1,8,0:0:0:0:
276,205,55872,1,0,0:0:0:0:
276,205,56188,1,0,0:0:0:0:
276,205,56346,1,8,0:0:0:0:
262,192,56662,1,0,0:0:0:0:
262,192,56978,1,0,0:0:0:0:
258,176,57136,1,0,0:0:0:0:
262,192,57293,1,8,0:0:0:0:
277,183,57609,1,8,0:0:0:0:
250,200,57925,1,0,0:0:0:0:
265,179,58241,1,8,0:0:0:0:
251,190,58872,1,8,0:0:0:0:
251,190,59188,1,0,0:0:0:0:
262,185,59346,1,0,0:0:0:0:
251,190,59504,1,8,0:0:0:0:
262,185,59820,1,0,0:0:0:0:
262,185,60136,1,8,0:0:0:0:
262,185,60293,1,8,0:0:0:0:
262,185,60451,1,0,0:0:0:0:
267,207,60767,1,8,0:0:0:0:
267,207,61083,1,0,0:0:0:0:
267,207,61399,1,8,0:0:0:0:
267,207,61557,1,4,0:0:0:0:
267,207,62030,1,8,0:0:0:0:
226,187,62346,1,8,0:0:0:0:
271,208,62504,1,0,0:0:0:0:
271,208,62662,1,8,0:0:0:0:
271,208,62978,1,4,0:0:0:0:
242,210,63609,1,8,0:0:0:0:
244,189,63925,1,0,0:0:0:0:
242,194,64083,1,0,0:0:0:0:
242,194,64399,1,8,0:0:0:0:
242,194,64557,1,0,0:0:0:0:
242,194,64872,1,8,0:0:0:0:
242,194,65188,1,8,0:0:0:0:
242,194,65504,1,0,0:0:0:0:
229,197,66136,1,8,0:0:0:0:
231,236,66451,1,0,0:0:0:0:
236,236,66767,1,8,0:0:0:0:
240,221,66925,1,0,0:0:0:0:
217,204,67241,1,0,0:0:0:0:
254,206,67399,1,0,0:0:0:0:
254,206,67714,1,12,0:0:0:0:
254,206,68030,1,4,0:0:0:0:
267,205,68346,1,8,0:0:0:0:
267,205,68662,1,0,0:0:0:0:
267,205,68978,1,8,0:0:0:0:
267,205,69293,1,0,0:0:0:0:
267,205,69609,1,0,0:0:0:0:
267,205,69767,1,0,0:0:0:0:
267,205,69925,1,8,0:0:0:0:
267,205,70241,1,8,0:0:0:0:
267,205,70557,1,0,0:0:0:0:
267,205,71188,1,0,0:0:0:0:
267,205,71504,1,8,0:0:0:0:
267,205,71820,1,0,0:0:0:0:
246,198,71978,1,0,0:0:0:0:
267,205,72136,1,8,0:0:0:0:
239,171,72451,1,0,0:0:0:0:
253,193,72609,1,8,0:0:0:0:
244,188,72767,1,8,0:0:0:0:
244,188,73083,1,0,0:0:0:0:
262,193,73714,1,0,0:0:0:0:
262,193,73872,1,0,0:0:0:0:
262,193,74030,1,0,0:0:0:0:
262,180,74346,1,8,0:0:0:0:
262,180,74504,1,8,0:0:0:0:
262,180,74662,1,8,0:0:0:0:
256,190,74978,1,12,0:0:0:0:
256,190,75293,1,12,0:0:0:0:
255,208,75925,1,0,0:0:0:0:
255,209,76241,1,8,0:0:0:0:
255,208,76399,1,0,0:0:0:0:
255,208,76557,1,8,0:0:0:0:
255,208,76872,1,4,0:0:0:0:
255,208,77346,1,8,0:0:0:0:
255,208,77820,1,8,0:0:0:0:
255,208,78136,1,8,0:0:0:0:
262,207,78451,1,0,0:0:0:0:
262,207,78609,1,8,0:0:0:0:
262,207,78925,1,0,0:0:0:0:
262,207,79083,1,8,0:0:0:0:
262,207,79399,1,8,0:0:0:0:
262,207,79872,1,8,0:0:0:0:
262,207,80346,1,8,0:0:0:0:
252,186,80662,1,8,0:0:0:0:
267,218,80978,1,0,0:0:0:0:
260,214,81136,1,8,0:0:0:0:
260,212,81451,1,0,0:0:0:0:
260,212,81609,1,8,0:0:0:0:
265,223,81925,1,8,0:0:0:0:
265,223,82399,1,8,0:0:0:0:
265,223,82872,1,8,0:0:0:0:
262,230,83188,1,8,0:0:0:0:
262,230,83504,1,0,0:0:0:0:
262,230,83662,1,8,0:0:0:0:
262,230,83978,1,0,0:0:0:0:
262,230,84136,1,8,0:0:0:0:
268,218,84451,1,8,0:0:0:0:
265,216,85083,1,8,0:0:0:0:
268,218,85399,1,8,0:0:0:0:
271,215,85714,1,8,0:0:0:0:
282,228,85872,1,8,0:0:0:0:
246,219,86030,1,0,0:0:0:0:
270,210,86346,1,8,0:0:0:0:
271,215,86504,1,8,0:0:0:0:
271,215,86662,1,8,0:0:0:0:
270,210,86820,1,8,0:0:0:0:
251,201,89504,5,4,0:0:0:0:
242,181,90136,1,8,0:0:0:0:
264,202,90293,1,4,0:0:0:0:
252,192,90767,1,4,0:0:0:0:
260,196,91399,1,0,0:0:0:0:
260,196,91557,1,0,0:0:0:0:
260,196,91714,1,12,0:0:0:0:
260,196,92030,1,4,0:0:0:0:
256,207,92504,1,4,0:0:0:0:
256,207,92978,1,12,0:0:0:0:
240,196,93609,1,8,0:0:0:0:
240,196,93767,1,8,0:0:0:0:
240,196,93925,1,8,0:0:0:0:
240,196,94241,1,8,0:0:0:0:
240,196,94557,1,4,0:0:0:0:
242,208,95188,1,0,0:0:0:0:
242,208,95504,1,0,0:0:0:0:
240,206,95820,1,0,0:0:0:0:
257,210,96136,1,8,0:0:0:0:
227,205,96451,1,0,0:0:0:0:
240,206,96767,1,8,0:0:0:0:
242,208,96925,1,8,0:0:0:0:
259,211,97083,1,0,0:0:0:0:
259,211,97399,1,0,0:0:0:0:
262,205,97714,1,8,0:0:0:0:
251,199,97872,1,8,0:0:0:0:
251,199,98188,1,12,0:0:0:0:
272,212,98662,1,8,0:0:0:0:
272,212,98820,1,0,0:0:0:0:
272,212,98978,1,0,0:0:0:0:
272,212,99293,1,8,0:0:0:0:
272,212,99609,1,0,0:0:0:0:
272,212,99925,1,12,0:0:0:0:
255,219,100557,1,8,0:0:0:0:
255,219,100872,1,8,0:0:0:0:
255,219,101030,1,0,0:0:0:0:
255,219,101188,1,8,0:0:0:0:
255,219,101504,1,0,0:0:0:0:
255,219,101820,1,8,0:0:0:0:
255,219,101978,1,8,0:0:0:0:
255,219,102136,1,0,0:0:0:0:
255,219,102451,1,8,0:0:0:0:
255,219,102609,1,0,0:0:0:0:
255,219,102925,1,0,0:0:0:0:
255,219,103083,1,8,0:0:0:0:
247,215,103399,1,8,0:0:0:0:
265,211,103714,1,8,0:0:0:0:
265,211,103872,1,0,0:0:0:0:
265,211,104030,1,8,0:0:0:0:
265,211,104346,1,8,0:0:0:0:
265,211,104662,1,0,0:0:0:0:
265,211,104978,1,8,0:0:0:0:
263,192,105609,1,8,0:0:0:0:
263,192,105925,1,8,0:0:0:0:
263,192,106083,1,0,0:0:0:0:
263,192,106241,1,8,0:0:0:0:
263,192,106557,1,0,0:0:0:0:
263,192,106872,1,8,0:0:0:0:
263,192,107030,1,8,0:0:0:0:
263,192,107188,1,0,0:0:0:0:
263,192,107504,1,8,0:0:0:0:
263,192,107820,1,0,0:0:0:0:
263,192,108136,1,8,0:0:0:0:
263,192,108293,1,4,0:0:0:0:
251,198,108767,1,8,0:0:0:0:
251,198,109083,1,0,0:0:0:0:
251,198,109241,1,0,0:0:0:0:
251,198,109399,1,8,0:0:0:0:
251,198,109714,1,4,0:0:0:0:
247,205,110346,1,8,0:0:0:0:
247,204,110662,1,0,0:0:0:0:
247,205,110820,1,0,0:0:0:0:
247,205,111136,1,8,0:0:0:0:
247,205,111293,1,0,0:0:0:0:
260,203,111609,1,8,0:0:0:0:
260,203,111925,1,8,0:0:0:0:
260,202,112241,1,0,0:0:0:0:
260,203,112872,1,8,0:0:0:0:
260,202,113188,1,0,0:0:0:0:
260,203,113504,1,8,0:0:0:0:
270,216,113662,1,0,0:0:0:0:
270,216,113978,1,0,0:0:0:0:
260,202,114136,1,0,0:0:0:0:
260,203,114451,1,12,0:0:0:0:
254,206,114767,1,4,0:0:0:0:
267,205,115083,1,8,0:0:0:0:
267,205,115399,1,0,0:0:0:0:
267,205,115714,1,8,0:0:0:0:
267,205,116030,1,0,0:0:0:0:
267,205,116346,1,0,0:0:0:0:
267,205,116504,1,0,0:0:0:0:
267,205,116662,1,8,0:0:0:0:
267,205,116978,1,8,0:0:0:0:
267,205,117293,1,0,0:0:0:0:
267,205,117925,1,0,0:0:0:0:
267,205,118241,1,8,0:0:0:0:
259,193,118557,1,0,0:0:0:0:
260,193,118714,1,0,0:0:0:0:
251,197,118872,1,8,0:0:0:0:
246,172,119188,1,0,0:0:0:0:
242,172,119346,1,8,0:0:0:0:
244,188,119504,1,8,0:0:0:0:
244,188,119820,1,0,0:0:0:0:
262,193,120451,1,0,0:0:0:0:
262,193,120609,1,0,0:0:0:0:
262,193,120767,1,0,0:0:0:0:
262,180,121083,1,8,0:0:0:0:
262,180,121241,1,8,0:0:0:0:
262,180,121399,1,8,0:0:0:0:
256,190,121714,1,12,0:0:0:0:
256,190,122030,1,12,0:0:0:0:
257,199,123609,1,4,0:0:0:0:
257,199,124241,1,8,0:0:0:0:
257,199,124557,1,0,0:0:0:0:
257,199,124714,1,0,0:0:0:0:
257,199,125030,1,8,0:0:0:0:
257,199,125188,1,0,0:0:0:0:
268,217,125504,1,8,0:0:0:0:
268,217,125820,1,8,0:0:0:0:
268,217,126136,1,0,0:0:0:0:
261,213,126767,1,8,0:0:0:0:
260,217,127083,1,0,0:0:0:0:
276,206,127399,1,8,0:0:0:0:
253,194,127557,1,0,0:0:0:0:
271,205,127872,1,0,0:0:0:0:
271,205,128030,1,0,0:0:0:0:
271,205,128346,1,12,0:0:0:0:
271,205,128662,1,4,0:0:0:0:
265,217,129293,1,8,0:0:0:0:
266,213,129609,1,0,0:0:0:0:
265,217,129767,1,0,0:0:0:0:
265,217,130083,1,8,0:0:0:0:
265,217,130241,1,0,0:0:0:0:
266,213,130557,1,8,0:0:0:0:
265,217,130872,1,8,0:0:0:0:
258,219,131188,1,0,0:0:0:0:
253,220,131820,1,8,0:0:0:0:
258,219,132136,1,8,0:0:0:0:
258,202,132451,1,0,0:0:0:0:
258,202,132609,1,8,0:0:0:0:
258,202,132767,1,8,0:0:0:0:
253,207,133083,1,8,0:0:0:0:
253,207,133241,1,8,0:0:0:0:
253,207,133399,1,0,0:0:0:0:
253,207,133714,1,12,0:0:0:0:
253,207,134030,1,12,0:0:0:0:
253,207,134346,1,12,0:0:0:0:
253,207,134662,1,12,0:0:0:0:
