osu file format v14

[General]
AudioFilename: audio.mp3
AudioLeadIn: 0
PreviewTime: 52104
Countdown: 0
SampleSet: Soft
StackLeniency: 0.7
Mode: 3
LetterboxInBreaks: 0
SpecialStyle: 0
WidescreenStoryboard: 1

[Editor]
Bookmarks: 17683,27788,32841,37893,49262,58104,63157,89683,109893,123788
DistanceSpacing: 1.1
BeatDivisor: 4
GridSize: 8
TimelineZoom: 1.5

[Metadata]
Title:winning the soul (TV Size)
TitleUnicode:winning the soul (TV Size)
Artist:Tokai Teio (CV: Machico)
ArtistUnicode:トウカイテイオー (CV: Machico)
Creator:ML-ysg
Version:DH's Insane
Source:ウマ娘 プリティーダービー Season 2
Tags:Drum-hitnormal Dudehacker video game japanese j-pop jpop pop j-rock rock jrock anime uma musume team Umamusume: Pretty Derby ユメヲカケル! Yume o Kakeru! 宮崎 誠 Miyazaki makoto ANIMATION Season 2 vol.3 Original Sound Track Toukai Teiou cygames
BeatmapID:3252816
BeatmapSetID:1590788

[Difficulty]
HPDrainRate:8
CircleSize:4
OverallDifficulty:8
ApproachRate:5
SliderMultiplier:1.4
SliderTickRate:1

[Events]
//Background and Video events
0,0,"teio2.jpg",0,0
//Break Periods
//Storyboard Layer 0 (Background)
//Storyboard Layer 1 (Fail)
//Storyboard Layer 2 (Pass)
//Storyboard Layer 3 (Foreground)
//Storyboard Layer 4 (Overlay)
//Storyboard Sound Samples
Sample,29051,0,"Ride.wav",40
Sample,73420,0,"Tom3.wav",50
Sample,76262,0,"Tom2.wav",50
Sample,120157,0,"Tom3.wav",50

[TimingPoints]
631,315.789473684211,4,2,1,60,1,0
6315,315.789473684211,4,2,1,60,1,0
53051,-100.0,4,2,1,60,0,1
75788,-100.0,4,2,1,60,0,0
100104,-100.0,4,2,1,60,0,1
122525,-100.0,4,2,1,60,0,0

[HitObjects]
448,192,631,128,0,946:0:0:0:0:
192,192,788,128,0,946:0:0:0:0:
320,192,946,128,0,1262:0:0:0:0:
64,192,1104,128,0,1262:0:0:0:0:
192,192,1262,128,0,1578:0:0:0:0:
448,192,1420,128,0,1578:0:0:0:0:
64,192,1578,128,0,1894:0:0:0:0:
320,192,1736,128,0,1894:0:0:0:0:
448,192,1894,128,0,2209:0:0:0:0:
320,192,2052,128,0,2209:0:0:0:0:
192,192,2209,128,0,2525:0:0:0:0:
64,192,2367,128,0,2525:0:0:0:0:
320,192,2525,128,0,2841:0:0:0:0:
448,192,2683,128,0,2841:0:0:0:0:
64,192,2841,128,0,3157:0:0:0:0:
192,192,2999,128,0,3157:0:0:0:0:
448,192,3157,128,0,3473:0:0:0:0:
192,192,3315,128,0,3473:0:0:0:0:
320,192,3473,128,0,3788:0:0:0:0:
64,192,3631,128,0,3788:0:0:0:0:
192,192,3788,128,0,4104:0:0:0:0:
448,192,3946,128,0,4104:0:0:0:0:
64,192,4104,128,0,4420:0:0:0:0:
320,192,4262,128,0,4420:0:0:0:0:
448,192,4420,128,0,4736:0:0:0:0:
320,192,4578,128,0,4736:0:0:0:0:
64,192,4736,128,0,5052:0:0:0:0:
192,192,4894,128,0,5052:0:0:0:0:
448,192,5052,128,0,5367:0:0:0:0:
320,192,5131,128,0,5367:0:0:0:0:
192,192,5209,128,0,5367:0:0:0:0:
320,192,5525,1,2,0:0:0:0:
448,192,5525,1,0,0:0:0:0:
192,192,5604,1,2,0:0:0:0:
64,192,5683,1,8,0:0:0:0:
320,192,5683,1,0,0:0:0:0:
448,192,5683,1,0,0:0:0:0:
192,192,5762,1,0,0:0:0:50:Tom1.wav
448,192,5841,1,0,0:0:0:50:Tom2.wav
320,192,5920,1,0,0:0:0:50:Tom3.wav
64,192,5999,1,8,0:0:0:0:
192,192,5999,128,0,6236:0:0:0:0:
448,192,5999,1,0,0:0:0:0:
320,192,6078,128,0,6236:0:0:0:0:
64,192,6315,1,2,0:0:0:0:
320,192,6315,1,0,0:0:0:50:Splash.wav
448,192,6315,1,0,0:0:0:0:
192,192,6472,1,0,0:0:0:0:
64,192,6630,1,2,0:0:0:0:
192,192,6630,1,8,0:0:0:0:
448,192,6630,1,0,0:0:0:0:
320,192,6788,1,0,0:0:0:30:Hat Open.wav
64,192,6946,1,2,0:0:0:0:
320,192,6946,1,0,0:0:0:0:
448,192,7104,1,0,0:0:0:30:Hat Open.wav
192,192,7262,1,8,0:0:0:0:
320,192,7262,1,2,0:0:0:0:
448,192,7262,1,0,0:0:0:0:
64,192,7420,1,0,0:0:0:30:Hat Open.wav
64,192,7578,1,2,0:0:0:0:
320,192,7578,1,0,0:0:0:0:
448,192,7736,1,0,0:0:0:30:Hat Open.wav
64,192,7893,1,8,0:0:0:0:
320,192,7893,1,2,0:0:0:0:
448,192,7893,1,0,0:0:0:0:
192,192,8051,1,0,0:0:0:30:Hat Open.wav
64,192,8209,1,2,0:0:0:0:
192,192,8209,1,0,0:0:0:0:
320,192,8367,1,0,0:0:0:30:Hat Open.wav
192,192,8525,1,2,0:0:0:0:
320,192,8525,1,8,0:0:0:0:
448,192,8525,1,0,0:0:0:0:
64,192,8683,1,0,0:0:0:30:Hat Open.wav
64,192,8841,1,2,0:0:0:0:
448,192,8841,1,0,0:0:0:0:
320,192,8999,1,0,0:0:0:30:Hat Open.wav
64,192,9157,1,8,0:0:0:0:
320,192,9157,1,2,0:0:0:0:
448,192,9157,1,0,0:0:0:0:
192,192,9315,1,0,0:0:0:30:Hat Open.wav
192,192,9472,1,2,0:0:0:0:
448,192,9472,1,0,0:0:0:0:
64,192,9630,1,0,0:0:0:30:Hat Open.wav
64,192,9788,1,8,0:0:0:0:
192,192,9788,1,2,0:0:0:0:
320,192,9788,1,0,0:0:0:0:
448,192,9946,1,0,0:0:0:30:Hat Open.wav
320,192,10104,1,0,0:0:0:50:Tom1.wav
448,192,10104,1,0,0:0:0:0:
64,192,10183,1,0,0:0:0:50:Tom1.wav
192,192,10262,1,2,0:0:0:0:
320,192,10341,1,0,0:0:0:50:Tom2.wav
64,192,10420,1,8,0:0:0:0:
192,192,10420,1,0,0:0:0:0:
448,192,10578,1,0,0:0:0:50:Tom1.wav
192,192,10657,1,0,0:0:0:50:Tom1.wav
320,192,10736,1,0,0:0:0:50:Tom1.wav
448,192,10736,1,0,0:0:0:0:
192,192,10893,1,2,0:0:0:0:
320,192,10893,1,0,0:0:0:0:
64,192,11051,1,8,0:0:0:0:
192,192,11051,1,2,0:0:0:0:
448,192,11051,1,0,0:0:0:50:Splash.wav
320,192,11209,1,8,0:0:0:0:
192,192,11262,1,8,0:0:0:0:
320,192,11315,1,8,0:0:0:0:
64,192,11367,1,2,0:0:0:0:
192,192,11367,1,0,0:0:0:50:Splash.wav
448,192,11367,1,0,0:0:0:0:
320,192,11525,1,0,0:0:0:0:
64,192,11683,1,2,0:0:0:0:
320,192,11683,1,8,0:0:0:0:
448,192,11683,1,0,0:0:0:0:
192,192,11841,1,0,0:0:0:30:Hat Open.wav
192,192,11999,1,2,0:0:0:0:
448,192,11999,1,0,0:0:0:0:
64,192,12157,1,0,0:0:0:30:Hat Open.wav
64,192,12315,1,2,0:0:0:0:
192,192,12315,1,8,0:0:0:0:
320,192,12315,1,0,0:0:0:0:
448,192,12472,1,0,0:0:0:30:Hat Open.wav
64,192,12630,1,2,0:0:0:0:
448,192,12630,1,0,0:0:0:0:
192,192,12788,1,0,0:0:0:30:Hat Open.wav
64,192,12946,1,8,0:0:0:0:
192,192,12946,1,2,0:0:0:0:
448,192,12946,1,0,0:0:0:0:
320,192,13104,1,0,0:0:0:30:Hat Open.wav
320,192,13262,1,2,0:0:0:0:
448,192,13262,1,0,0:0:0:0:
64,192,13420,1,0,0:0:0:30:Hat Open.wav
64,192,13578,1,8,0:0:0:0:
192,192,13578,1,2,0:0:0:0:
320,192,13578,1,0,0:0:0:0:
448,192,13736,1,0,0:0:0:30:Hat Open.wav
64,192,13893,1,2,0:0:0:0:
192,192,13893,1,0,0:0:0:50:Splash.wav
448,192,13893,1,0,0:0:0:0:
320,192,14051,1,0,0:0:0:30:Hat Open.wav
64,192,14209,1,8,0:0:0:0:
320,192,14209,1,0,0:0:0:0:
448,192,14209,1,0,0:0:0:0:
64,192,14367,1,2,0:0:0:0:
192,192,14367,1,0,0:0:0:50:Splash.wav
448,192,14367,1,0,0:0:0:0:
64,192,14683,1,8,0:0:0:0:
320,192,14683,1,0,0:0:0:0:
448,192,14683,1,0,0:0:0:0:
64,192,14841,1,2,0:0:0:0:
192,192,14841,1,0,0:0:0:50:Splash.wav
448,192,14841,1,0,0:0:0:0:
192,192,14999,1,0,0:0:0:0:
64,192,15157,1,8,0:0:0:0:
320,192,15157,1,0,0:0:0:0:
448,192,15157,1,0,0:0:0:0:
64,192,15315,1,8,0:0:0:0:
192,192,15315,1,2,0:0:0:0:
448,192,15315,1,0,0:0:0:0:
320,192,15472,1,0,0:0:0:50:Tom1.wav
448,192,15472,1,0,0:0:0:0:
64,192,15551,1,0,0:0:0:50:Tom1.wav
192,192,15630,1,0,0:0:0:50:Tom2.wav
320,192,15709,1,0,0:0:0:50:Tom2.wav
64,192,15788,1,8,0:0:0:0:
192,192,15788,1,0,0:0:0:0:
448,192,15867,1,0,0:0:0:50:Tom2.wav
320,192,15946,1,2,0:0:0:0:
192,192,16025,1,0,0:0:0:50:Tom3.wav
64,192,16104,1,8,0:0:0:0:
320,192,16104,1,0,0:0:0:0:
448,192,16104,1,0,0:0:0:0:
64,192,16262,128,2,16420:0:0:0:0:
192,192,16262,128,0,16420:0:0:0:30:Hat Open.wav
448,192,16262,128,0,16420:0:0:0:0:
320,192,16420,128,0,17367:0:0:0:0:
192,192,17367,1,0,0:0:0:0:
320,192,17446,1,0,0:0:0:0:
192,192,17525,128,0,17683:0:0:0:0:
64,192,17683,1,2,0:0:0:0:
320,192,17683,1,0,0:0:0:50:Splash.wav
448,192,17683,1,0,0:0:0:0:
64,192,17841,1,2,0:0:0:0:
320,192,17841,1,0,0:0:0:0:
448,192,17841,1,0,0:0:0:0:
64,192,17999,1,8,0:0:0:0:
192,192,17999,1,0,0:0:0:0:
320,192,18157,1,0,0:0:0:0:
320,192,18472,1,2,0:0:0:0:
448,192,18472,1,0,0:0:0:0:
64,192,18630,1,8,0:0:0:0:
192,192,18630,1,0,0:0:0:0:
448,192,18630,1,0,0:0:0:0:
192,192,18788,1,0,0:0:0:0:
320,192,18946,1,2,0:0:0:0:
448,192,18946,1,0,0:0:0:0:
320,192,19104,1,2,0:0:0:0:
448,192,19104,1,0,0:0:0:0:
64,192,19262,1,8,0:0:0:0:
192,192,19262,1,0,0:0:0:0:
448,192,19262,1,0,0:0:0:0:
320,192,19420,1,0,0:0:0:0:
320,192,19736,1,2,0:0:0:0:
448,192,19736,1,0,0:0:0:0:
64,192,19893,1,8,0:0:0:0:
192,192,19893,1,0,0:0:0:0:
448,192,19893,1,0,0:0:0:0:
320,192,20051,1,0,0:0:0:0:
64,192,20209,1,2,0:0:0:0:
192,192,20209,1,0,0:0:0:0:
64,192,20367,1,2,0:0:0:0:
192,192,20367,1,0,0:0:0:0:
64,192,20525,1,8,0:0:0:0:
320,192,20525,1,0,0:0:0:0:
448,192,20525,1,0,0:0:0:0:
192,192,20683,1,0,0:0:0:0:
64,192,20999,1,2,0:0:0:0:
192,192,20999,1,0,0:0:0:0:
64,192,21157,1,8,0:0:0:0:
320,192,21157,1,0,0:0:0:0:
448,192,21157,1,0,0:0:0:0:
192,192,21315,1,0,0:0:0:0:
320,192,21472,1,2,0:0:0:0:
448,192,21472,1,0,0:0:0:0:
320,192,21630,1,2,0:0:0:0:
448,192,21630,1,0,0:0:0:0:
64,192,21788,1,8,0:0:0:0:
192,192,21788,1,0,0:0:0:0:
448,192,21788,1,0,0:0:0:0:
320,192,21946,128,0,22104:0:0:0:0:
320,192,22262,1,2,0:0:0:0:
448,192,22262,128,0,22736:0:0:0:0:
64,192,22420,1,8,0:0:0:0:
192,192,22420,1,0,0:0:0:0:
64,192,22736,1,2,0:0:0:0:
192,192,22736,1,0,0:0:0:0:
64,192,22893,1,2,0:0:0:0:
192,192,22893,1,0,0:0:0:0:
64,192,23051,1,8,0:0:0:0:
320,192,23051,1,0,0:0:0:0:
448,192,23051,1,0,0:0:0:0:
192,192,23209,1,0,0:0:0:0:
64,192,23525,1,2,0:0:0:0:
192,192,23525,1,0,0:0:0:0:
64,192,23683,1,8,0:0:0:0:
320,192,23683,1,0,0:0:0:0:
448,192,23683,1,0,0:0:0:0:
320,192,23841,1,0,0:0:0:0:
64,192,23999,1,2,0:0:0:0:
192,192,23999,1,0,0:0:0:0:
64,192,24157,1,2,0:0:0:0:
192,192,24157,1,0,0:0:0:0:
64,192,24315,1,8,0:0:0:0:
320,192,24315,1,0,0:0:0:0:
448,192,24315,1,0,0:0:0:0:
192,192,24472,1,0,0:0:0:0:
64,192,24788,1,2,0:0:0:0:
192,192,24788,1,0,0:0:0:0:
64,192,24946,1,8,0:0:0:0:
320,192,24946,1,0,0:0:0:0:
448,192,24946,1,0,0:0:0:0:
192,192,25104,1,0,0:0:0:0:
320,192,25262,1,2,0:0:0:0:
448,192,25262,1,0,0:0:0:0:
320,192,25420,1,2,0:0:0:0:
448,192,25420,1,0,0:0:0:0:
64,192,25578,1,8,0:0:0:0:
192,192,25578,1,0,0:0:0:0:
448,192,25578,1,0,0:0:0:0:
320,192,25736,1,0,0:0:0:0:
192,192,25893,1,0,0:0:0:0:
320,192,26051,1,2,0:0:0:0:
448,192,26051,1,0,0:0:0:0:
64,192,26209,1,8,0:0:0:0:
192,192,26209,1,0,0:0:0:0:
448,192,26209,1,0,0:0:0:0:
320,192,26367,1,0,0:0:0:0:
64,192,26525,1,2,0:0:0:0:
192,192,26525,1,0,0:0:0:0:
64,192,26683,1,2,0:0:0:0:
192,192,26683,1,0,0:0:0:0:
64,192,26841,1,8,0:0:0:0:
320,192,26841,1,0,0:0:0:30:Hat Open.wav
448,192,26841,1,0,0:0:0:0:
192,192,26999,1,0,0:0:0:0:
64,192,27157,1,0,0:0:0:50:Tom1.wav
448,192,27157,1,0,0:0:0:0:
320,192,27236,1,0,0:0:0:50:Tom1.wav
192,192,27315,1,0,0:0:0:50:Tom2.wav
320,192,27393,1,8,0:0:0:0:
448,192,27393,1,0,0:0:0:0:
64,192,27472,1,8,0:0:0:0:
192,192,27472,1,0,0:0:0:0:
320,192,27630,1,8,0:0:0:0:
448,192,27630,1,0,0:0:0:0:
192,192,27709,1,8,0:0:0:0:
64,192,27788,1,2,0:0:0:0:
320,192,27788,1,0,0:0:0:50:Splash.wav
448,192,27788,1,0,0:0:0:0:
64,192,27946,1,2,0:0:0:0:
320,192,27946,1,0,0:0:0:50:Splash.wav
448,192,27946,1,0,0:0:0:0:
64,192,28262,1,2,0:0:0:0:
192,192,28262,1,0,0:0:0:0:
64,192,28420,1,8,0:0:0:0:
320,192,28420,1,4,0:0:0:0:
448,192,28420,1,0,0:0:0:40:Ride.wav
192,192,28578,1,2,0:0:0:0:
320,192,28578,1,0,0:0:0:0:
64,192,28736,1,4,0:0:0:0:
192,192,28736,1,8,0:0:0:0:
448,192,28736,1,0,0:0:0:40:Ride.wav
320,192,28893,1,2,0:0:0:0:
448,192,28893,1,0,0:0:0:0:
64,192,29051,1,4,0:0:0:0:
192,192,29209,1,8,0:0:0:0:
320,192,29209,1,0,0:0:0:0:
448,192,29209,1,0,0:0:0:0:
64,192,29367,1,6,0:0:0:0:
192,192,29367,1,0,0:0:0:40:Ride.wav
64,192,29525,1,2,0:0:0:0:
192,192,29525,1,0,0:0:0:0:
64,192,29683,1,4,0:0:0:0:
320,192,29683,1,8,0:0:0:0:
448,192,29683,1,0,0:0:0:40:Ride.wav
192,192,29841,1,2,0:0:0:0:
320,192,29841,1,0,0:0:0:0:
64,192,29999,1,4,0:0:0:0:
192,192,29999,1,8,0:0:0:0:
448,192,29999,1,0,0:0:0:40:Ride.wav
64,192,30157,1,2,0:0:0:0:
320,192,30157,1,0,0:0:0:50:Splash.wav
192,192,30315,1,2,0:0:0:0:
320,192,30315,1,0,0:0:0:50:Splash.wav
448,192,30315,1,0,0:0:0:0:
64,192,30472,1,2,0:0:0:0:
192,192,30472,1,0,0:0:0:0:
448,192,30472,1,0,0:0:0:0:
192,192,30788,1,2,0:0:0:0:
320,192,30788,1,0,0:0:0:0:
64,192,30946,1,4,0:0:0:0:
192,192,30946,1,8,0:0:0:0:
448,192,30946,1,0,0:0:0:40:Ride.wav
64,192,31104,1,2,0:0:0:0:
320,192,31104,1,0,0:0:0:0:
192,192,31262,1,8,0:0:0:0:
320,192,31262,1,0,0:0:0:50:Splash.wav
448,192,31262,1,0,0:0:0:0:
192,192,31420,1,0,0:0:0:0:
64,192,31578,1,8,0:0:0:0:
448,192,31578,1,0,0:0:0:0:
192,192,31736,1,0,0:0:0:50:Tom1.wav
320,192,31815,1,0,0:0:0:0:
64,192,31893,1,0,0:0:0:50:Tom2.wav
192,192,31893,1,0,0:0:0:0:
448,192,32051,1,0,0:0:0:50:Tom2.wav
192,192,32130,1,0,0:0:0:0:
320,192,32209,1,0,0:0:0:50:Tom3.wav
448,192,32288,1,0,0:0:0:0:
64,192,32367,1,2,0:0:0:0:
192,192,32367,1,0,0:0:0:0:
64,192,32525,1,8,0:0:0:0:
320,192,32525,1,0,0:0:0:50:Splash.wav
448,192,32525,1,0,0:0:0:0:
320,192,32683,1,0,0:0:0:0:
64,192,32841,128,2,33078:0:0:0:0:
192,192,32841,128,0,33078:0:0:0:35:Splash.wav
448,192,32841,128,0,33078:0:0:0:0:
192,192,33157,128,2,33393:0:0:0:0:
320,192,33157,128,0,33393:0:0:0:35:Splash.wav
448,192,33157,128,0,33393:0:0:0:0:
64,192,33472,128,2,33709:0:0:0:0:
192,192,33472,128,0,33709:0:0:0:35:Splash.wav
320,192,33472,128,0,33709:0:0:0:0:
64,192,33788,128,2,34025:0:0:0:0:
320,192,33788,128,0,34025:0:0:0:35:Splash.wav
448,192,33788,128,0,34025:0:0:0:0:
64,192,34104,128,2,34341:0:0:0:0:
192,192,34104,128,0,34341:0:0:0:35:Splash.wav
448,192,34104,128,0,34341:0:0:0:0:
192,192,34420,128,2,34657:0:0:0:0:
320,192,34420,128,0,34657:0:0:0:35:Splash.wav
448,192,34420,128,0,34657:0:0:0:0:
64,192,34736,128,2,34972:0:0:0:0:
192,192,34736,128,0,34972:0:0:0:35:Splash.wav
320,192,34736,128,0,34972:0:0:0:0:
64,192,35051,1,8,0:0:0:0:
448,192,35051,1,0,0:0:0:0:
64,192,35209,1,8,0:0:0:0:
192,192,35209,1,0,0:0:0:0:
320,192,35288,1,8,0:0:0:0:
64,192,35367,128,8,35604:0:0:0:0:
192,192,35367,128,2,35604:0:0:0:0:
448,192,35367,128,0,35604:0:0:0:35:Splash.wav
192,192,35683,128,2,35920:0:0:0:0:
320,192,35683,128,0,35920:0:0:0:35:Splash.wav
448,192,35683,128,0,35920:0:0:0:0:
64,192,35999,128,2,36236:0:0:0:0:
192,192,35999,128,0,36236:0:0:0:35:Splash.wav
320,192,35999,128,0,36236:0:0:0:0:
64,192,36315,128,2,36551:0:0:0:0:
320,192,36315,128,0,36551:0:0:0:35:Splash.wav
448,192,36315,128,0,36551:0:0:0:0:
320,192,36630,1,8,0:0:0:0:
448,192,36630,1,0,0:0:0:0:
64,192,36788,1,8,0:0:0:0:
320,192,36788,1,0,0:0:0:0:
64,192,36946,1,0,0:0:0:50:Tom1.wav
192,192,36946,1,0,0:0:0:0:
448,192,37025,1,0,0:0:0:50:Tom1.wav
192,192,37104,1,0,0:0:0:50:Tom2.wav
320,192,37104,1,0,0:0:0:0:
64,192,37262,1,2,0:0:0:0:
448,192,37262,1,0,0:0:0:0:
192,192,37420,1,8,0:0:0:0:
320,192,37420,1,0,0:0:0:50:Splash.wav
448,192,37420,128,0,37736:0:0:0:0:
192,192,37736,1,0,0:0:0:50:Tom3.wav
320,192,37815,1,0,0:0:0:50:Tom3.wav
64,192,37893,128,2,37972:0:0:0:0:
192,192,37893,128,0,37972:0:0:0:50:Splash.wav
448,192,37893,1,0,0:0:0:0:
64,192,38051,128,2,38130:0:0:0:0:
192,192,38051,128,0,38130:0:0:0:0:
64,192,38209,128,2,38288:0:0:0:0:
192,192,38209,128,0,38288:0:0:0:30:Hat Open.wav
320,192,38525,128,8,38604:0:0:0:0:
448,192,38525,128,0,38604:0:0:0:30:Hat Open.wav
320,192,38683,128,2,38762:0:0:0:0:
448,192,38683,128,0,38762:0:0:0:0:
320,192,38841,128,0,38920:0:0:0:30:Hat Open.wav
448,192,38841,128,0,38920:0:0:0:0:
64,192,38999,1,8,0:0:0:0:
192,192,38999,1,0,0:0:0:0:
448,192,38999,1,0,0:0:0:0:
192,192,39157,128,2,39236:0:0:0:0:
320,192,39157,128,0,39236:0:0:0:30:Hat Open.wav
192,192,39315,128,2,39393:0:0:0:0:
320,192,39315,128,0,39393:0:0:0:0:
192,192,39472,128,2,39551:0:0:0:0:
320,192,39472,128,0,39551:0:0:0:30:Hat Open.wav
64,192,39788,128,8,39867:0:0:0:0:
448,192,39788,128,0,39867:0:0:0:30:Hat Open.wav
64,192,39946,128,2,40025:0:0:0:0:
448,192,39946,128,0,40025:0:0:0:0:
64,192,40104,128,8,40183:0:0:0:0:
448,192,40104,128,0,40183:0:0:0:30:Hat Open.wav
320,192,40420,128,2,40499:0:0:0:0:
448,192,40420,128,0,40499:0:0:0:30:Hat Open.wav
320,192,40578,128,2,40657:0:0:0:0:
448,192,40578,128,0,40657:0:0:0:0:
320,192,40736,128,2,40815:0:0:0:0:
448,192,40736,128,0,40815:0:0:0:30:Hat Open.wav
64,192,41051,128,8,41130:0:0:0:0:
192,192,41051,128,0,41130:0:0:0:30:Hat Open.wav
64,192,41209,128,2,41288:0:0:0:0:
192,192,41209,128,0,41288:0:0:0:0:
64,192,41367,128,0,41446:0:0:0:30:Hat Open.wav
192,192,41367,128,0,41446:0:0:0:0:
64,192,41525,1,8,0:0:0:0:
320,192,41525,1,0,0:0:0:0:
448,192,41525,1,0,0:0:0:0:
192,192,41683,128,2,41762:0:0:0:0:
448,192,41683,128,0,41762:0:0:0:30:Hat Open.wav
192,192,41841,128,2,41920:0:0:0:0:
448,192,41841,128,0,41920:0:0:0:0:
192,192,41999,128,2,42078:0:0:0:0:
448,192,41999,128,0,42078:0:0:0:30:Hat Open.wav
64,192,42315,128,8,42393:0:0:0:0:
320,192,42315,128,0,42393:0:0:0:30:Hat Open.wav
64,192,42472,128,2,42551:0:0:0:0:
320,192,42472,128,0,42551:0:0:0:0:
64,192,42630,128,0,42709:0:0:0:30:Hat Open.wav
320,192,42630,128,0,42709:0:0:0:0:
64,192,42788,1,8,0:0:0:0:
192,192,42788,1,0,0:0:0:0:
448,192,42788,1,0,0:0:0:0:
320,192,42946,128,2,43025:0:0:0:0:
448,192,42946,128,0,43025:0:0:0:50:Splash.wav
320,192,43104,128,2,43183:0:0:0:0:
448,192,43104,128,0,43183:0:0:0:0:
320,192,43262,128,2,43341:0:0:0:0:
448,192,43262,128,0,43341:0:0:0:30:Hat Open.wav
64,192,43578,128,8,43657:0:0:0:0:
192,192,43578,128,0,43657:0:0:0:30:Hat Open.wav
64,192,43736,128,2,43815:0:0:0:0:
192,192,43736,128,0,43815:0:0:0:0:
64,192,43893,128,0,43972:0:0:0:30:Hat Open.wav
192,192,43893,128,0,43972:0:0:0:0:
64,192,44051,1,8,0:0:0:0:
320,192,44051,1,0,0:0:0:0:
448,192,44051,1,0,0:0:0:0:
192,192,44209,1,2,0:0:0:0:
448,192,44209,128,0,44841:0:0:0:30:Hat Open.wav
320,192,44367,1,2,0:0:0:0:
64,192,44525,1,2,0:0:0:0:
192,192,44525,1,0,0:0:0:30:Hat Open.wav
64,192,44841,128,8,45472:0:0:0:0:
320,192,44841,1,0,0:0:0:30:Hat Open.wav
192,192,44999,1,2,0:0:0:0:
320,192,45157,1,8,0:0:0:0:
448,192,45157,1,0,0:0:0:30:Hat Open.wav
192,192,45315,128,0,45472:0:0:0:0:
320,192,45472,128,0,45946:0:0:0:0:
448,192,45472,128,0,46736:0:0:0:0:
192,192,46104,128,0,46578:0:0:0:0:
320,192,46736,128,0,47051:0:0:0:0:
64,192,47051,128,0,47367:0:0:0:0:
448,192,47367,128,0,47683:0:0:0:0:
192,192,47683,128,0,47841:0:0:0:0:
320,192,47841,1,2,0:0:0:0:
192,192,47920,1,2,0:0:0:0:
64,192,47999,1,8,0:0:0:0:
320,192,47999,1,0,0:0:0:50:Splash.wav
448,192,47999,1,0,0:0:0:0:
320,192,48157,1,2,0:0:0:0:
448,192,48157,1,0,0:0:0:0:
320,192,48315,1,2,0:0:0:0:
448,192,48315,1,0,0:0:0:0:
64,192,48472,1,8,0:0:0:0:
192,192,48472,1,0,0:0:0:50:Splash.wav
448,192,48472,1,0,0:0:0:0:
64,192,48630,1,2,0:0:0:0:
192,192,48630,1,0,0:0:0:0:
64,192,48788,1,2,0:0:0:0:
192,192,48788,1,0,0:0:0:0:
64,192,48946,1,8,0:0:0:0:
320,192,48946,1,0,0:0:0:50:Splash.wav
448,192,48946,1,0,0:0:0:0:
192,192,49104,1,2,0:0:0:0:
320,192,49104,1,0,0:0:0:30:Hat Open.wav
448,192,49104,1,0,0:0:0:0:
448,192,49420,128,0,49578:0:0:0:0:
192,192,49578,128,0,49736:0:0:0:0:
320,192,49736,128,0,49893:0:0:0:0:
64,192,49893,128,0,50051:0:0:0:0:
448,192,50051,1,0,0:0:0:0:
320,192,50091,1,0,0:0:0:0:
192,192,50130,1,0,0:0:0:0:
64,192,50170,1,0,0:0:0:0:
448,192,50209,128,0,50367:0:0:0:0:
192,192,50367,128,0,50525:0:0:0:0:
320,192,50525,128,0,50683:0:0:0:0:
64,192,50683,1,0,0:0:0:0:
192,192,50722,1,0,0:0:0:0:
320,192,50762,1,0,0:0:0:0:
448,192,50801,1,0,0:0:0:0:
64,192,50841,128,0,50999:0:0:0:0:
448,192,50999,128,0,51157:0:0:0:0:
192,192,51157,128,0,51315:0:0:0:0:
64,192,51315,128,0,51472:0:0:0:0:
448,192,51472,1,0,0:0:0:0:
320,192,51512,1,0,0:0:0:0:
192,192,51551,1,0,0:0:0:0:
64,192,51591,1,0,0:0:0:0:
448,192,51630,128,0,51788:0:0:0:0:
64,192,52104,128,0,52420:0:0:0:0:
192,192,52420,128,0,52736:0:0:0:0:
448,192,52578,128,0,52972:0:0:0:0:
320,192,52736,128,0,52972:0:0:0:0:
64,192,53051,1,2,0:0:0:0:
192,192,53051,128,0,53209:0:0:0:50:Splash.wav
448,192,53051,1,0,0:0:0:0:
320,192,53209,128,0,53367:0:0:0:0:
64,192,53367,1,8,0:0:0:0:
192,192,53367,1,2,0:0:0:0:
448,192,53367,128,4,53683:0:0:0:0:
64,192,53525,1,0,0:0:0:0:
192,192,53683,1,2,0:0:0:0:
320,192,53683,1,4,0:0:0:0:
192,192,53841,128,0,53999:0:0:0:0:
64,192,53999,128,2,54157:0:0:0:0:
320,192,53999,1,4,0:0:0:0:
448,192,53999,1,8,0:0:0:0:
320,192,54157,128,0,54315:0:0:0:0:
64,192,54315,1,4,0:0:0:0:
448,192,54315,128,2,54472:0:0:0:0:
192,192,54472,128,0,54630:0:0:0:0:
64,192,54630,1,4,0:0:0:0:
320,192,54630,128,2,54946:0:0:0:0:
448,192,54630,1,8,0:0:0:0:
64,192,54788,1,0,0:0:0:0:
192,192,54946,1,4,0:0:0:0:
448,192,54946,1,2,0:0:0:0:
192,192,55104,1,0,0:0:0:0:
64,192,55262,128,4,55420:0:0:0:0:
320,192,55262,1,2,0:0:0:0:
448,192,55262,1,8,0:0:0:0:
320,192,55420,128,0,55578:0:0:0:0:
64,192,55578,1,4,0:0:0:0:
448,192,55578,128,2,55736:0:0:0:0:
192,192,55736,1,0,0:0:0:0:
64,192,55893,128,4,56051:0:0:0:0:
320,192,55893,1,2,0:0:0:0:
448,192,55893,1,8,0:0:0:0:
192,192,56051,1,0,0:0:0:0:
320,192,56051,128,0,56209:0:0:0:0:
64,192,56209,1,4,0:0:0:0:
448,192,56209,1,2,0:0:0:0:
448,192,56367,128,0,56525:0:0:0:0:
64,192,56525,128,4,56841:0:0:0:0:
192,192,56525,1,2,0:0:0:0:
320,192,56525,1,8,0:0:0:0:
320,192,56683,1,0,0:0:0:0:
192,192,56841,1,2,0:0:0:0:
448,192,56841,1,4,0:0:0:0:
448,192,56999,1,0,0:0:0:0:
64,192,57157,1,8,0:0:0:0:
192,192,57157,128,2,57315:0:0:0:0:
320,192,57157,1,4,0:0:0:0:
320,192,57315,128,0,57472:0:0:0:0:
64,192,57472,1,2,0:0:0:0:
448,192,57472,128,4,57788:0:0:0:0:
192,192,57630,1,0,0:0:0:0:
64,192,57788,128,8,58104:0:0:0:0:
192,192,57788,1,2,0:0:0:0:
320,192,57788,1,4,0:0:0:0:
320,192,57946,1,0,0:0:0:0:
192,192,58104,1,2,0:0:0:0:
448,192,58104,128,0,58262:0:0:0:50:Splash.wav
320,192,58262,128,0,58420:0:0:0:0:
64,192,58420,1,4,0:0:0:0:
192,192,58420,128,2,58736:0:0:0:0:
448,192,58420,1,8,0:0:0:0:
448,192,58578,1,0,0:0:0:0:
64,192,58736,1,4,0:0:0:0:
320,192,58736,1,2,0:0:0:0:
320,192,58893,128,0,59051:0:0:0:0:
64,192,59051,1,4,0:0:0:0:
192,192,59051,1,2,0:0:0:0:
448,192,59051,128,8,59209:0:0:0:0:
192,192,59209,128,0,59367:0:0:0:0:
64,192,59367,128,2,59525:0:0:0:0:
448,192,59367,1,4,0:0:0:0:
320,192,59525,128,0,59683:0:0:0:0:
64,192,59683,1,8,0:0:0:0:
192,192,59683,128,2,59999:0:0:0:0:
448,192,59683,1,4,0:0:0:0:
448,192,59841,1,0,0:0:0:0:
64,192,59999,1,2,0:0:0:0:
320,192,59999,1,4,0:0:0:0:
320,192,60157,1,0,0:0:0:0:
64,192,60315,1,8,0:0:0:0:
192,192,60315,1,2,0:0:0:0:
448,192,60315,128,4,60472:0:0:0:0:
64,192,60472,128,0,60630:0:0:0:0:
192,192,60630,128,2,61578:0:0:0:0:
320,192,60630,1,0,0:0:0:50:Splash.wav
448,192,60630,1,0,0:0:0:0:
320,192,60788,1,0,0:0:0:0:
64,192,60946,1,6,0:0:0:0:
448,192,60946,1,8,0:0:0:0:
448,192,61104,1,0,0:0:0:0:
64,192,61262,1,2,0:0:0:0:
320,192,61262,1,4,0:0:0:0:
64,192,61420,1,0,0:0:0:0:
320,192,61578,1,8,0:0:0:0:
448,192,61578,1,2,0:0:0:0:
64,192,61736,1,2,0:0:0:0:
192,192,61736,1,0,0:0:0:50:Splash.wav
448,192,61736,128,0,62051:0:0:0:0:
64,192,62051,1,2,0:0:0:0:
192,192,62051,1,0,0:0:0:0:
64,192,62209,1,8,0:0:0:0:
320,192,62209,1,0,0:0:0:30:Hat Open.wav
448,192,62209,1,0,0:0:0:0:
192,192,62367,1,2,0:0:0:0:
320,192,62367,1,0,0:0:0:0:
64,192,62525,1,0,0:0:0:50:Tom1.wav
448,192,62525,1,0,0:0:0:0:
192,192,62604,1,0,0:0:0:50:Tom2.wav
320,192,62683,1,0,0:0:0:50:Tom2.wav
192,192,62762,1,0,0:0:0:50:Tom3.wav
64,192,62841,1,8,0:0:0:0:
320,192,62841,1,0,0:0:0:0:
448,192,62841,1,0,0:0:0:0:
192,192,62999,1,8,0:0:0:0:
320,192,63078,1,8,0:0:0:0:
64,192,63157,1,2,0:0:0:0:
192,192,63157,1,0,0:0:0:50:Splash.wav
448,192,63157,1,0,0:0:0:0:
320,192,63472,1,2,0:0:0:0:
448,192,63472,1,0,0:0:0:0:
320,192,63630,1,2,0:0:0:0:
448,192,63630,1,0,0:0:0:0:
64,192,63788,1,8,0:0:0:0:
192,192,63788,1,0,0:0:0:0:
448,192,63788,1,0,0:0:0:0:
192,192,63946,1,2,0:0:0:0:
320,192,63946,1,0,0:0:0:0:
64,192,64104,1,8,0:0:0:0:
320,192,64104,1,0,0:0:0:0:
448,192,64104,1,0,0:0:0:0:
64,192,64262,1,2,0:0:0:0:
192,192,64262,1,0,0:0:0:0:
64,192,64578,1,8,0:0:0:0:
192,192,64578,1,0,0:0:0:0:
448,192,64578,1,0,0:0:0:0:
192,192,64736,1,2,0:0:0:0:
320,192,64736,1,0,0:0:0:0:
192,192,64893,1,2,0:0:0:0:
320,192,64893,1,0,0:0:0:0:
64,192,65051,1,8,0:0:0:0:
320,192,65051,1,0,0:0:0:0:
448,192,65051,1,0,0:0:0:0:
64,192,65209,1,2,0:0:0:0:
192,192,65209,1,0,0:0:0:0:
192,192,65367,1,8,0:0:0:0:
320,192,65367,1,0,0:0:0:0:
448,192,65367,1,0,0:0:0:0:
64,192,65525,1,2,0:0:0:0:
448,192,65525,1,0,0:0:0:50:Splash.wav
64,192,65683,1,2,0:0:0:0:
192,192,65683,1,0,0:0:0:50:Splash.wav
320,192,65683,1,0,0:0:0:0:
192,192,65999,1,2,0:0:0:0:
320,192,65999,1,0,0:0:0:0:
448,192,65999,1,0,0:0:0:0:
320,192,66157,1,2,0:0:0:0:
448,192,66157,1,0,0:0:0:0:
64,192,66315,1,8,0:0:0:0:
192,192,66315,1,0,0:0:0:0:
448,192,66315,1,0,0:0:0:0:
192,192,66472,1,2,0:0:0:0:
320,192,66472,1,0,0:0:0:0:
64,192,66630,1,8,0:0:0:0:
320,192,66630,1,0,0:0:0:50:Splash.wav
448,192,66630,1,0,0:0:0:0:
192,192,66946,1,8,0:0:0:0:
320,192,66946,1,0,0:0:0:0:
448,192,67104,1,0,0:0:0:50:Tom1.wav
320,192,67183,1,0,0:0:0:0:
64,192,67262,1,0,0:0:0:50:Tom2.wav
192,192,67262,1,0,0:0:0:0:
320,192,67420,1,0,0:0:0:50:Tom2.wav
192,192,67499,1,0,0:0:0:0:
64,192,67578,1,0,0:0:0:50:Tom3.wav
448,192,67578,1,0,0:0:0:0:
64,192,67736,1,2,0:0:0:0:
320,192,67736,1,0,0:0:0:0:
192,192,67893,1,8,0:0:0:0:
320,192,67893,1,0,0:0:0:50:Splash.wav
448,192,67893,1,0,0:0:0:0:
192,192,68051,1,0,0:0:0:0:
64,192,68209,128,2,68446:0:0:0:0:
320,192,68209,128,0,68446:0:0:0:50:Splash.wav
448,192,68209,128,0,68446:0:0:0:0:
64,192,68525,128,2,68762:0:0:0:0:
192,192,68525,128,4,68762:0:0:0:0:
320,192,68525,128,8,68762:0:0:0:0:
192,192,68841,128,2,69078:0:0:0:0:
320,192,68841,128,4,69078:0:0:0:0:
448,192,68841,128,0,69078:0:0:0:0:
64,192,69157,128,2,69393:0:0:0:0:
192,192,69157,128,4,69393:0:0:0:0:
448,192,69157,128,8,69393:0:0:0:0:
64,192,69472,128,2,69709:0:0:0:0:
320,192,69472,128,4,69709:0:0:0:0:
448,192,69472,128,0,69709:0:0:0:0:
64,192,69788,128,2,70025:0:0:0:0:
192,192,69788,128,8,70025:0:0:0:0:
320,192,69788,128,4,70025:0:0:0:0:
192,192,70104,128,4,70341:0:0:0:0:
320,192,70104,128,2,70341:0:0:0:0:
448,192,70104,128,0,70341:0:0:0:0:
64,192,70420,128,2,70657:0:0:0:0:
192,192,70420,128,4,70657:0:0:0:0:
448,192,70420,128,8,70657:0:0:0:0:
64,192,70736,128,2,70893:0:0:0:0:
320,192,70736,128,0,70893:0:0:0:50:Splash.wav
448,192,70736,128,0,70893:0:0:0:0:
192,192,70893,1,0,0:0:0:0:
64,192,71051,128,8,71209:0:0:0:0:
192,192,71051,128,2,71209:0:0:0:0:
448,192,71051,128,4,71209:0:0:0:0:
320,192,71209,1,0,0:0:0:0:
64,192,71367,128,2,71525:0:0:0:0:
320,192,71367,128,4,71525:0:0:0:0:
448,192,71367,128,0,71525:0:0:0:0:
192,192,71525,1,0,0:0:0:0:
64,192,71683,128,8,71841:0:0:0:0:
192,192,71683,128,2,71841:0:0:0:0:
448,192,71683,128,4,71841:0:0:0:0:
320,192,71841,1,0,0:0:0:0:
64,192,71999,128,2,72236:0:0:0:0:
320,192,71999,128,0,72236:0:0:0:50:Splash.wav
448,192,71999,128,0,72236:0:0:0:0:
192,192,72315,128,8,72551:0:0:0:0:
320,192,72315,128,2,72551:0:0:0:0:
448,192,72315,128,0,72551:0:0:0:50:Splash.wav
64,192,72630,1,2,0:0:0:0:
448,192,72630,1,0,0:0:0:0:
320,192,72709,1,0,0:0:0:0:
192,192,72788,1,0,0:0:0:0:
448,192,72867,1,8,0:0:0:0:
64,192,72946,1,2,0:0:0:0:
320,192,72946,1,0,0:0:0:0:
192,192,73025,1,0,0:0:0:0:
448,192,73104,1,8,0:0:0:0:
320,192,73183,1,8,0:0:0:0:
64,192,73262,1,2,0:0:0:0:
192,192,73262,1,0,0:0:0:50:Splash.wav
448,192,73262,1,0,0:0:0:0:
192,192,73420,1,8,0:0:0:20:soft-hitclap.wav
320,192,73578,1,8,0:0:0:25:soft-hitclap.wav
448,192,73578,1,0,0:0:0:50:Tom3.wav
192,192,73736,1,8,0:0:0:25:soft-hitclap.wav
320,192,73736,1,0,0:0:0:50:Tom3.wav
64,192,73893,1,8,0:0:0:30:soft-hitclap.wav
192,192,73893,1,0,0:0:0:50:Tom3.wav
64,192,74051,1,8,0:0:0:30:soft-hitclap.wav
320,192,74051,1,0,0:0:0:50:Tom3.wav
192,192,74209,1,8,0:0:0:35:soft-hitclap.wav
320,192,74209,1,0,0:0:0:50:Tom3.wav
192,192,74367,1,8,0:0:0:35:soft-hitclap.wav
448,192,74367,1,0,0:0:0:50:Tom3.wav
64,192,74525,1,2,0:0:0:0:
320,192,74525,1,8,0:0:0:40:soft-hitclap.wav
448,192,74525,1,0,0:0:0:50:Tom3.wav
64,192,74683,1,8,0:0:0:40:soft-hitclap.wav
320,192,74683,1,0,0:0:0:50:Tom3.wav
448,192,74683,1,0,0:0:0:0:
64,192,74841,1,2,0:0:0:0:
320,192,74841,1,8,0:0:0:45:soft-hitclap.wav
448,192,74841,1,0,0:0:0:50:Tom3.wav
64,192,74999,1,8,0:0:0:45:soft-hitclap.wav
320,192,74999,1,0,0:0:0:50:Tom3.wav
448,192,74999,1,0,0:0:0:0:
64,192,75157,1,8,0:0:0:0:
192,192,75157,1,2,0:0:0:0:
320,192,75157,1,0,0:0:0:50:Tom3.wav
64,192,75315,1,8,0:0:0:0:
192,192,75315,1,2,0:0:0:0:
320,192,75315,1,0,0:0:0:50:Tom3.wav
64,192,75472,1,8,0:0:0:0:
192,192,75472,1,2,0:0:0:0:
320,192,75472,1,0,0:0:0:50:Tom3.wav
64,192,75630,1,8,0:0:0:0:
192,192,75630,1,2,0:0:0:0:
320,192,75630,1,0,0:0:0:50:Tom3.wav
448,192,75709,128,0,76420:0:0:0:0:
320,192,75788,128,0,76420:0:0:0:0:
64,192,75946,1,2,0:0:0:0:
192,192,76104,1,0,0:0:0:50:Tom1.wav
64,192,76262,1,2,0:0:0:0:
64,192,76420,1,8,0:0:0:0:
192,192,76420,1,0,0:0:0:50:Splash.wav
64,192,76736,1,8,0:0:0:0:
320,192,76736,1,0,0:0:0:0:
448,192,76736,1,0,0:0:0:0:
192,192,76893,1,8,0:0:0:0:
320,192,76972,1,8,0:0:0:0:
64,192,77051,1,8,0:0:0:0:
192,192,77051,1,0,0:0:0:50:Splash.wav
448,192,77051,1,0,0:0:0:0:
320,192,77209,1,2,0:0:0:0:
448,192,77209,1,0,0:0:0:0:
320,192,77367,1,2,0:0:0:0:
448,192,77367,1,0,0:0:0:0:
64,192,77525,1,8,0:0:0:0:
192,192,77525,1,0,0:0:0:30:Hat Open.wav
448,192,77525,1,0,0:0:0:0:
192,192,77683,1,2,0:0:0:0:
320,192,77683,1,0,0:0:0:0:
192,192,77841,1,2,0:0:0:0:
320,192,77841,1,0,0:0:0:0:
64,192,77999,1,8,0:0:0:0:
320,192,77999,1,0,0:0:0:30:Hat Open.wav
448,192,77999,1,0,0:0:0:0:
64,192,78157,1,2,0:0:0:0:
192,192,78157,1,0,0:0:0:0:
192,192,78315,1,8,0:0:0:0:
320,192,78315,1,0,0:0:0:50:Splash.wav
448,192,78315,1,0,0:0:0:0:
64,192,78472,1,2,0:0:0:0:
320,192,78472,1,0,0:0:0:0:
64,192,78630,1,2,0:0:0:0:
320,192,78630,1,0,0:0:0:0:
64,192,78788,1,8,0:0:0:0:
192,192,78788,1,0,0:0:0:30:Hat Open.wav
448,192,78788,1,0,0:0:0:0:
320,192,78946,1,2,0:0:0:0:
448,192,78946,1,0,0:0:0:0:
320,192,79104,1,2,0:0:0:0:
448,192,79104,1,0,0:0:0:0:
64,192,79262,1,8,0:0:0:0:
192,192,79262,1,0,0:0:0:30:Hat Open.wav
320,192,79262,1,0,0:0:0:0:
192,192,79420,1,2,0:0:0:0:
448,192,79420,1,0,0:0:0:0:
64,192,79578,1,8,0:0:0:0:
320,192,79578,1,0,0:0:0:50:Splash.wav
448,192,79578,1,0,0:0:0:0:
64,192,79736,1,2,0:0:0:0:
192,192,79736,1,0,0:0:0:0:
64,192,79893,1,2,0:0:0:0:
192,192,79893,1,0,0:0:0:0:
64,192,80051,1,8,0:0:0:0:
320,192,80051,1,0,0:0:0:30:Hat Open.wav
448,192,80051,1,0,0:0:0:0:
192,192,80209,1,2,0:0:0:0:
320,192,80209,1,0,0:0:0:0:
192,192,80367,1,2,0:0:0:0:
320,192,80367,1,0,0:0:0:0:
64,192,80525,1,8,0:0:0:0:
192,192,80525,1,0,0:0:0:30:Hat Open.wav
448,192,80525,1,0,0:0:0:0:
320,192,80683,1,2,0:0:0:0:
448,192,80683,1,0,0:0:0:0:
64,192,80841,1,8,0:0:0:0:
192,192,80841,1,0,0:0:0:50:Splash.wav
320,192,80841,1,0,0:0:0:0:
64,192,80999,1,2,0:0:0:0:
448,192,80999,1,0,0:0:0:0:
64,192,81157,1,2,0:0:0:0:
448,192,81157,1,0,0:0:0:0:
192,192,81315,1,8,0:0:0:0:
320,192,81315,1,0,0:0:0:30:Hat Open.wav
448,192,81315,1,0,0:0:0:0:
64,192,81472,1,2,0:0:0:0:
192,192,81472,1,0,0:0:0:0:
64,192,81630,1,2,0:0:0:0:
192,192,81630,1,0,0:0:0:0:
320,192,81788,1,8,0:0:0:0:
448,192,81788,1,0,0:0:0:0:
64,192,81867,1,8,0:0:0:0:
192,192,81867,1,0,0:0:0:0:
320,192,81946,1,8,0:0:0:0:
448,192,81946,1,0,0:0:0:0:
192,192,82025,1,8,0:0:0:0:
64,192,82104,1,8,0:0:0:0:
320,192,82104,1,0,0:0:0:50:Splash.wav
448,192,82104,1,0,0:0:0:0:
192,192,82262,1,2,0:0:0:0:
320,192,82262,1,0,0:0:0:0:
192,192,82420,1,2,0:0:0:0:
320,192,82420,1,0,0:0:0:0:
64,192,82578,1,8,0:0:0:0:
192,192,82578,1,0,0:0:0:30:Hat Open.wav
448,192,82578,1,0,0:0:0:0:
320,192,82736,1,2,0:0:0:0:
448,192,82736,1,0,0:0:0:0:
320,192,82893,1,2,0:0:0:0:
448,192,82893,1,0,0:0:0:0:
64,192,83051,1,8,0:0:0:0:
192,192,83051,1,0,0:0:0:30:Hat Open.wav
320,192,83051,1,0,0:0:0:0:
192,192,83209,1,2,0:0:0:0:
448,192,83209,1,0,0:0:0:0:
64,192,83367,1,8,0:0:0:0:
320,192,83367,1,0,0:0:0:50:Splash.wav
448,192,83367,1,0,0:0:0:0:
64,192,83525,1,2,0:0:0:0:
192,192,83525,1,0,0:0:0:0:
64,192,83683,1,2,0:0:0:0:
192,192,83683,1,0,0:0:0:0:
64,192,83841,1,8,0:0:0:0:
192,192,83841,1,0,0:0:0:30:Hat Open.wav
448,192,83841,1,0,0:0:0:0:
320,192,83999,1,2,0:0:0:0:
448,192,83999,1,0,0:0:0:0:
320,192,84157,1,2,0:0:0:0:
448,192,84157,1,0,0:0:0:0:
64,192,84315,1,8,0:0:0:0:
192,192,84315,1,0,0:0:0:30:Hat Open.wav
320,192,84315,1,0,0:0:0:0:
192,192,84472,1,2,0:0:0:0:
448,192,84472,1,0,0:0:0:0:
64,192,84630,1,8,0:0:0:0:
320,192,84630,1,0,0:0:0:50:Splash.wav
448,192,84630,1,0,0:0:0:0:
64,192,84788,1,2,0:0:0:0:
192,192,84788,1,0,0:0:0:0:
64,192,84946,1,8,0:0:0:0:
320,192,84946,1,0,0:0:0:25:Splash.wav
448,192,84946,1,0,0:0:0:0:
192,192,85104,1,2,0:0:0:0:
320,192,85104,1,0,0:0:0:25:Splash.wav
64,192,85262,1,8,0:0:0:0:
192,192,85262,1,0,0:0:0:25:Splash.wav
448,192,85262,1,0,0:0:0:0:
320,192,85420,1,2,0:0:0:0:
448,192,85420,1,0,0:0:0:25:Splash.wav
64,192,85578,1,8,0:0:0:0:
192,192,85578,1,0,0:0:0:25:Splash.wav
320,192,85578,1,0,0:0:0:0:
448,192,85736,1,2,0:0:0:0:
320,192,85815,1,2,0:0:0:0:
64,192,85893,1,8,0:0:0:0:
192,192,85893,1,0,0:0:0:25:Splash.wav
448,192,85893,1,0,0:0:0:0:
192,192,86051,1,2,0:0:0:0:
320,192,86051,1,0,0:0:0:25:Splash.wav
64,192,86209,1,8,0:0:0:0:
320,192,86209,1,0,0:0:0:25:Splash.wav
448,192,86209,1,0,0:0:0:0:
64,192,86367,1,2,0:0:0:0:
192,192,86367,1,0,0:0:0:25:Splash.wav
192,192,86525,1,8,0:0:0:0:
320,192,86525,1,0,0:0:0:50:Tom3.wav
448,192,86525,1,0,0:0:0:0:
192,192,86683,1,8,0:0:0:0:
320,192,86683,1,0,0:0:0:50:Tom3.wav
448,192,86683,1,0,0:0:0:0:
192,192,86841,1,8,0:0:0:0:
320,192,86841,1,0,0:0:0:50:Tom3.wav
448,192,86841,1,0,0:0:0:0:
192,192,86999,1,8,0:0:0:0:
320,192,86999,1,0,0:0:0:50:Tom3.wav
448,192,86999,1,0,0:0:0:0:
64,192,87157,128,0,87315:0:0:0:0:
192,192,87315,128,0,87472:0:0:0:0:
64,192,87472,128,0,87630:0:0:0:0:
192,192,87630,128,0,87788:0:0:0:0:
64,192,87788,128,0,87946:0:0:0:0:
192,192,87946,128,0,88104:0:0:0:0:
64,192,88104,128,0,88262:0:0:0:0:
192,192,88262,128,0,88420:0:0:0:0:
64,192,88420,128,0,88578:0:0:0:0:
192,192,88578,128,0,88736:0:0:0:0:
64,192,88736,128,0,88893:0:0:0:0:
320,192,88736,128,0,89051:0:0:0:0:
192,192,88893,128,0,89051:0:0:0:0:
64,192,89051,128,0,89209:0:0:0:0:
448,192,89051,128,0,89683:0:0:0:0:
192,192,89209,128,0,89367:0:0:0:0:
64,192,89367,128,0,89525:0:0:0:0:
320,192,89367,128,0,89683:0:0:0:0:
192,192,89525,1,0,0:0:0:0:
64,192,89683,128,2,90315:0:0:0:0:
192,192,89683,128,0,90315:0:0:0:50:Splash.wav
320,192,90315,1,8,0:0:0:0:
448,192,90315,1,0,0:0:0:0:
64,192,90472,1,2,0:0:0:0:
320,192,90472,128,0,90867:0:0:0:50:Splash.wav
448,192,90472,128,0,90867:0:0:0:0:
192,192,90946,128,2,91420:0:0:0:0:
320,192,90946,128,0,91420:0:0:0:50:Splash.wav
448,192,90946,1,0,0:0:0:0:
64,192,91420,1,0,0:0:0:50:Tom3.wav
448,192,91499,1,0,0:0:0:50:Tom3.wav
192,192,91578,1,0,0:0:0:50:Tom3.wav
64,192,91736,1,2,0:0:0:0:
320,192,91736,1,0,0:0:0:0:
64,192,91893,128,8,92130:0:0:0:0:
192,192,91893,128,2,92130:0:0:0:0:
448,192,91893,1,0,0:0:0:50:Splash.wav
64,192,92209,1,2,0:0:0:0:
320,192,92209,128,0,92446:0:0:0:50:Splash.wav
448,192,92209,128,0,92446:0:0:0:0:
64,192,92525,1,8,0:0:0:0:
320,192,92525,1,0,0:0:0:0:
448,192,92525,1,0,0:0:0:0:
64,192,92683,1,2,0:0:0:0:
192,192,92683,128,0,92920:0:0:0:50:Splash.wav
320,192,92683,128,0,92920:0:0:0:0:
64,192,92999,1,0,0:0:0:50:Tom1.wav
448,192,92999,1,0,0:0:0:0:
320,192,93078,1,0,0:0:0:50:Tom2.wav
64,192,93157,128,2,93551:0:0:0:0:
192,192,93157,128,0,93551:0:0:0:50:Splash.wav
448,192,93157,1,0,0:0:0:0:
64,192,93630,1,8,0:0:0:0:
320,192,93630,1,0,0:0:0:0:
448,192,93630,1,0,0:0:0:0:
64,192,93788,1,8,0:0:0:0:
320,192,93788,1,0,0:0:0:0:
448,192,93788,1,0,0:0:0:0:
64,192,93946,1,8,0:0:0:0:
192,192,93946,1,0,0:0:0:0:
448,192,93946,1,0,0:0:0:0:
64,192,94104,1,8,0:0:0:0:
192,192,94104,1,0,0:0:0:0:
448,192,94104,1,0,0:0:0:0:
320,192,94262,1,0,0:0:0:50:Tom1.wav
192,192,94420,1,0,0:0:0:50:Tom2.wav
320,192,94420,1,0,0:0:0:0:
64,192,94578,1,0,0:0:0:50:Tom3.wav
64,192,94736,1,2,0:0:0:0:
320,192,94736,1,0,0:0:0:50:Splash.wav
448,192,94736,128,0,94815:0:0:0:0:
448,192,94893,1,0,0:0:0:0:
192,192,95051,1,2,0:0:0:0:
448,192,95051,128,0,95130:0:0:0:30:Hat Open.wav
448,192,95209,1,0,0:0:0:0:
192,192,95367,128,2,95446:0:0:0:0:
320,192,95367,1,0,0:0:0:30:Hat Open.wav
192,192,95525,1,0,0:0:0:0:
64,192,95683,1,2,0:0:0:0:
192,192,95683,128,0,95762:0:0:0:30:Hat Open.wav
192,192,95841,1,8,0:0:0:0:
320,192,95841,1,0,0:0:0:50:Splash.wav
448,192,95841,1,0,0:0:0:0:
64,192,95999,128,2,96236:0:0:0:0:
320,192,95999,1,0,0:0:0:50:Splash.wav
448,192,95999,1,0,0:0:0:0:
192,192,96157,1,0,0:0:0:0:
64,192,96315,128,2,96393:0:0:0:0:
320,192,96315,1,0,0:0:0:30:Hat Open.wav
64,192,96472,1,0,0:0:0:0:
192,192,96630,1,2,0:0:0:0:
320,192,96630,128,0,96709:0:0:0:30:Hat Open.wav
192,192,96788,1,0,0:0:0:50:Tom1.wav
320,192,96788,1,0,0:0:0:0:
64,192,96946,1,2,0:0:0:0:
320,192,96946,128,0,97025:0:0:0:0:
448,192,97104,1,0,0:0:0:50:Tom3.wav
320,192,97183,1,0,0:0:0:50:Tom3.wav
64,192,97262,128,2,97736:0:0:0:0:
192,192,97262,1,0,0:0:0:50:Splash.wav
448,192,97262,1,0,0:0:0:0:
192,192,97420,1,0,0:0:0:50:Tom2.wav
320,192,97578,1,8,0:0:0:20:soft-hitclap.wav
448,192,97578,1,0,0:0:0:50:Tom3.wav
320,192,97736,1,8,0:0:0:30:soft-hitclap.wav
448,192,97736,1,0,0:0:0:50:Tom3.wav
64,192,97893,1,8,0:0:0:40:soft-hitclap.wav
192,192,97893,1,0,0:0:0:50:Tom3.wav
448,192,97893,1,0,0:0:0:0:
64,192,98051,1,8,0:0:0:50:soft-hitclap.wav
192,192,98051,1,0,0:0:0:50:Tom3.wav
448,192,98051,1,0,0:0:0:0:
64,192,98209,1,8,0:0:0:0:
192,192,98209,1,0,0:0:0:50:Tom3.wav
448,192,98209,1,0,0:0:0:0:
64,192,98367,128,2,98604:0:0:0:0:
320,192,98367,128,0,98604:0:0:0:50:Splash.wav
448,192,98367,128,0,98604:0:0:0:0:
64,192,98683,1,2,0:0:0:0:
192,192,98683,1,0,0:0:0:0:
448,192,98683,1,0,0:0:0:0:
192,192,98841,1,8,0:0:0:0:
320,192,98841,1,0,0:0:0:0:
448,192,98841,1,0,0:0:0:0:
64,192,98999,1,2,0:0:0:0:
320,192,98999,1,0,0:0:0:0:
64,192,99157,1,0,0:0:0:50:Tom1.wav
192,192,99157,1,0,0:0:0:0:
448,192,99157,1,0,0:0:0:0:
320,192,99315,1,0,0:0:0:50:Tom2.wav
192,192,99393,1,0,0:0:0:50:Tom2.wav
64,192,99472,1,8,0:0:0:0:
320,192,99472,1,0,0:0:0:0:
448,192,99472,1,0,0:0:0:0:
64,192,99788,1,0,0:0:0:50:Tom1.wav
192,192,99788,1,0,0:0:0:0:
320,192,99946,1,2,0:0:0:0:
448,192,99946,1,0,0:0:0:0:
64,192,100104,1,8,0:0:0:0:
192,192,100104,1,0,0:0:0:50:Splash.wav
448,192,100104,1,0,0:0:0:0:
192,192,100262,1,2,0:0:0:0:
320,192,100262,1,0,0:0:0:0:
64,192,100420,1,8,0:0:0:0:
320,192,100420,1,4,0:0:0:0:
448,192,100420,1,0,0:0:0:0:
64,192,100578,1,2,0:0:0:0:
192,192,100578,1,0,0:0:0:0:
192,192,100736,1,8,0:0:0:0:
320,192,100736,1,4,0:0:0:0:
448,192,100736,1,0,0:0:0:0:
64,192,100893,1,2,0:0:0:0:
320,192,100893,1,0,0:0:0:0:
64,192,101051,1,4,0:0:0:0:
192,192,101051,1,8,0:0:0:0:
448,192,101051,1,0,0:0:0:0:
192,192,101209,1,2,0:0:0:0:
320,192,101209,1,0,0:0:0:0:
64,192,101367,1,8,0:0:0:0:
320,192,101367,1,4,0:0:0:0:
448,192,101367,1,0,0:0:0:0:
64,192,101525,1,2,0:0:0:0:
192,192,101525,1,0,0:0:0:0:
192,192,101683,1,8,0:0:0:0:
320,192,101683,1,4,0:0:0:0:
448,192,101683,1,0,0:0:0:0:
64,192,101841,1,2,0:0:0:0:
320,192,101841,1,0,0:0:0:0:
64,192,101999,1,4,0:0:0:0:
192,192,101999,1,8,0:0:0:0:
448,192,101999,1,0,0:0:0:0:
192,192,102157,1,2,0:0:0:0:
320,192,102157,1,0,0:0:0:0:
64,192,102315,1,4,0:0:0:0:
320,192,102315,1,8,0:0:0:0:
448,192,102315,1,0,0:0:0:0:
192,192,102472,1,2,0:0:0:0:
448,192,102472,1,0,0:0:0:0:
64,192,102630,1,8,0:0:0:0:
192,192,102630,1,4,0:0:0:0:
320,192,102630,1,0,0:0:0:0:
64,192,102788,1,2,0:0:0:0:
448,192,102788,1,0,0:0:0:0:
192,192,102946,1,8,0:0:0:0:
320,192,102946,1,4,0:0:0:0:
448,192,102946,1,0,0:0:0:0:
64,192,103104,1,2,0:0:0:0:
320,192,103104,1,0,0:0:0:0:
64,192,103262,1,4,0:0:0:0:
192,192,103262,1,8,0:0:0:0:
448,192,103262,1,0,0:0:0:0:
320,192,103420,1,2,0:0:0:0:
448,192,103420,1,0,0:0:0:0:
64,192,103578,1,8,0:0:0:0:
192,192,103578,1,4,0:0:0:0:
320,192,103578,1,0,0:0:0:0:
64,192,103736,1,2,0:0:0:0:
448,192,103736,1,0,0:0:0:0:
192,192,103893,1,4,0:0:0:0:
320,192,103893,1,8,0:0:0:0:
448,192,103893,1,0,0:0:0:0:
64,192,104051,1,2,0:0:0:0:
320,192,104051,1,0,0:0:0:0:
64,192,104209,1,4,0:0:0:0:
192,192,104209,1,8,0:0:0:0:
448,192,104209,1,0,0:0:0:0:
192,192,104367,1,2,0:0:0:0:
320,192,104367,1,0,0:0:0:0:
64,192,104525,1,8,0:0:0:0:
320,192,104525,1,4,0:0:0:0:
448,192,104525,1,0,0:0:0:0:
64,192,104683,1,8,0:0:0:0:
192,192,104683,1,0,0:0:0:0:
320,192,104762,1,8,0:0:0:0:
64,192,104841,1,2,0:0:0:0:
192,192,104841,1,0,0:0:0:50:Splash.wav
448,192,104841,1,0,0:0:0:0:
192,192,104999,1,2,0:0:0:0:
320,192,104999,1,0,0:0:0:0:
64,192,105157,1,4,0:0:0:0:
320,192,105157,1,8,0:0:0:0:
448,192,105157,1,0,0:0:0:0:
64,192,105315,1,2,0:0:0:0:
192,192,105315,1,0,0:0:0:0:
192,192,105472,1,8,0:0:0:0:
320,192,105472,1,4,0:0:0:0:
448,192,105472,1,0,0:0:0:0:
64,192,105630,1,2,0:0:0:0:
448,192,105630,1,0,0:0:0:0:
64,192,105788,1,8,0:0:0:0:
192,192,105788,1,4,0:0:0:0:
320,192,105788,1,0,0:0:0:0:
192,192,105946,1,2,0:0:0:0:
448,192,105946,1,0,0:0:0:0:
64,192,106104,1,8,0:0:0:0:
320,192,106104,1,4,0:0:0:0:
448,192,106104,1,0,0:0:0:0:
192,192,106262,1,2,0:0:0:0:
320,192,106262,1,0,0:0:0:0:
64,192,106420,1,4,0:0:0:0:
192,192,106420,1,8,0:0:0:0:
448,192,106420,1,0,0:0:0:0:
320,192,106578,1,2,0:0:0:0:
448,192,106578,1,0,0:0:0:0:
64,192,106736,1,4,0:0:0:0:
192,192,106736,1,8,0:0:0:0:
320,192,106736,1,0,0:0:0:0:
64,192,106893,1,2,0:0:0:0:
448,192,106893,1,0,0:0:0:0:
192,192,107051,1,8,0:0:0:0:
320,192,107051,1,4,0:0:0:0:
448,192,107051,1,0,0:0:0:0:
64,192,107209,1,2,0:0:0:0:
320,192,107209,1,0,0:0:0:0:
64,192,107367,1,8,0:0:0:0:
192,192,107367,1,0,0:0:0:50:Splash.wav
448,192,107367,1,0,0:0:0:0:
192,192,107525,1,2,0:0:0:0:
320,192,107525,1,0,0:0:0:0:
64,192,107683,1,8,0:0:0:0:
320,192,107683,1,4,0:0:0:0:
448,192,107683,1,0,0:0:0:0:
192,192,107841,1,2,0:0:0:0:
448,192,107841,1,0,0:0:0:0:
64,192,107999,1,8,0:0:0:0:
192,192,107999,1,4,0:0:0:0:
320,192,107999,1,0,0:0:0:0:
320,192,108157,1,2,0:0:0:0:
448,192,108157,1,0,0:0:0:0:
64,192,108315,1,8,0:0:0:0:
192,192,108315,1,0,0:0:0:0:
448,192,108315,1,0,0:0:0:0:
64,192,108472,1,2,0:0:0:0:
192,192,108472,1,0,0:0:0:50:Splash.wav
320,192,108472,1,0,0:0:0:0:
64,192,108788,1,2,0:0:0:0:
320,192,108788,1,0,0:0:0:0:
448,192,108788,1,0,0:0:0:0:
64,192,108946,1,8,0:0:0:0:
192,192,108946,1,0,0:0:0:30:Hat Open.wav
448,192,108946,1,0,0:0:0:0:
192,192,109104,1,2,0:0:0:0:
320,192,109104,1,0,0:0:0:0:
64,192,109262,1,0,0:0:0:50:Tom1.wav
448,192,109262,1,0,0:0:0:0:
320,192,109341,1,0,0:0:0:50:Tom2.wav
192,192,109420,1,0,0:0:0:50:Tom2.wav
320,192,109499,1,8,0:0:0:0:
64,192,109578,1,8,0:0:0:0:
192,192,109578,1,0,0:0:0:0:
448,192,109578,1,0,0:0:0:0:
320,192,109736,1,8,0:0:0:0:
448,192,109736,1,0,0:0:0:0:
192,192,109815,1,8,0:0:0:0:
64,192,109893,1,2,0:0:0:0:
320,192,109893,1,0,0:0:0:50:Splash.wav
448,192,109893,1,0,0:0:0:0:
64,192,110209,1,2,0:0:0:0:
192,192,110209,1,0,0:0:0:0:
64,192,110367,1,2,0:0:0:0:
192,192,110367,1,0,0:0:0:0:
64,192,110525,1,8,0:0:0:0:
320,192,110525,1,0,0:0:0:0:
448,192,110525,1,0,0:0:0:0:
192,192,110683,1,2,0:0:0:0:
320,192,110683,1,0,0:0:0:0:
64,192,110841,1,8,0:0:0:0:
192,192,110841,1,0,0:0:0:0:
448,192,110841,1,0,0:0:0:0:
320,192,110999,1,2,0:0:0:0:
448,192,110999,1,0,0:0:0:0:
64,192,111315,1,8,0:0:0:0:
320,192,111315,1,0,0:0:0:0:
448,192,111315,1,0,0:0:0:0:
192,192,111472,1,2,0:0:0:0:
320,192,111472,1,0,0:0:0:0:
192,192,111630,1,2,0:0:0:0:
320,192,111630,1,0,0:0:0:0:
64,192,111788,1,8,0:0:0:0:
192,192,111788,1,0,0:0:0:0:
448,192,111788,1,0,0:0:0:0:
320,192,111946,1,2,0:0:0:0:
448,192,111946,1,0,0:0:0:0:
64,192,112104,1,8,0:0:0:0:
192,192,112104,1,0,0:0:0:0:
320,192,112104,1,0,0:0:0:0:
64,192,112262,1,2,0:0:0:0:
448,192,112262,1,0,0:0:0:50:Splash.wav
192,192,112420,1,2,0:0:0:0:
320,192,112420,1,0,0:0:0:50:Splash.wav
448,192,112420,1,0,0:0:0:0:
64,192,112736,1,2,0:0:0:0:
192,192,112736,1,0,0:0:0:0:
320,192,112736,1,0,0:0:0:0:
64,192,112893,1,2,0:0:0:0:
192,192,112893,1,0,0:0:0:0:
64,192,113051,1,8,0:0:0:0:
320,192,113051,1,0,0:0:0:0:
448,192,113051,1,0,0:0:0:0:
192,192,113209,1,2,0:0:0:0:
320,192,113209,1,0,0:0:0:0:
64,192,113367,1,8,0:0:0:0:
192,192,113367,1,0,0:0:0:50:Splash.wav
448,192,113367,1,0,0:0:0:0:
192,192,113683,1,8,0:0:0:0:
320,192,113683,1,0,0:0:0:0:
448,192,113841,1,0,0:0:0:50:Tom1.wav
320,192,113920,1,0,0:0:0:0:
64,192,113999,1,0,0:0:0:50:Tom2.wav
192,192,113999,1,0,0:0:0:0:
320,192,114157,1,0,0:0:0:50:Tom2.wav
192,192,114236,1,0,0:0:0:0:
64,192,114315,1,0,0:0:0:50:Tom3.wav
448,192,114315,1,0,0:0:0:0:
192,192,114472,1,2,0:0:0:0:
320,192,114472,1,0,0:0:0:0:
64,192,114630,1,8,0:0:0:0:
192,192,114630,1,0,0:0:0:50:Splash.wav
448,192,114630,1,0,0:0:0:0:
320,192,114788,1,0,0:0:0:0:
64,192,114946,128,2,115183:0:0:0:0:
192,192,114946,128,0,115183:0:0:0:50:Splash.wav
448,192,114946,128,0,115183:0:0:0:0:
192,192,115262,128,2,115499:0:0:0:0:
320,192,115262,128,4,115499:0:0:0:0:
448,192,115262,128,8,115499:0:0:0:0:
64,192,115578,128,2,115815:0:0:0:0:
192,192,115578,128,4,115815:0:0:0:0:
320,192,115578,128,0,115815:0:0:0:0:
64,192,115893,128,2,116130:0:0:0:0:
320,192,115893,128,4,116130:0:0:0:0:
448,192,115893,128,8,116130:0:0:0:0:
64,192,116209,128,2,116446:0:0:0:0:
192,192,116209,128,4,116446:0:0:0:0:
448,192,116209,128,0,116446:0:0:0:0:
192,192,116525,128,2,116762:0:0:0:0:
320,192,116525,128,8,116762:0:0:0:0:
448,192,116525,128,4,116762:0:0:0:0:
64,192,116841,128,4,117078:0:0:0:0:
192,192,116841,128,2,117078:0:0:0:0:
320,192,116841,128,0,117078:0:0:0:0:
64,192,117157,128,2,117393:0:0:0:0:
320,192,117157,128,4,117393:0:0:0:0:
448,192,117157,128,8,117393:0:0:0:0:
64,192,117472,128,2,117630:0:0:0:0:
192,192,117472,128,0,117630:0:0:0:50:Splash.wav
448,192,117472,128,0,117630:0:0:0:0:
320,192,117630,1,0,0:0:0:0:
64,192,117788,128,8,117946:0:0:0:0:
320,192,117788,128,4,117946:0:0:0:0:
448,192,117788,128,2,117946:0:0:0:0:
192,192,117946,1,0,0:0:0:0:
64,192,118104,128,4,118262:0:0:0:0:
192,192,118104,128,2,118262:0:0:0:0:
448,192,118104,128,0,118262:0:0:0:0:
320,192,118262,1,0,0:0:0:0:
64,192,118420,128,8,118578:0:0:0:0:
320,192,118420,128,4,118578:0:0:0:0:
448,192,118420,128,2,118578:0:0:0:0:
192,192,118578,1,0,0:0:0:0:
64,192,118736,128,2,118972:0:0:0:0:
192,192,118736,128,0,118972:0:0:0:50:Splash.wav
448,192,118736,128,0,118972:0:0:0:0:
64,192,119051,128,8,119288:0:0:0:0:
192,192,119051,128,2,119288:0:0:0:0:
320,192,119051,128,0,119288:0:0:0:50:Splash.wav
64,192,119367,1,4,0:0:0:0:
448,192,119367,1,2,0:0:0:0:
192,192,119446,1,0,0:0:0:0:
320,192,119525,1,0,0:0:0:0:
64,192,119604,1,8,0:0:0:0:
192,192,119683,1,12,0:0:0:0:
448,192,119683,1,2,0:0:0:0:
320,192,119762,1,0,0:0:0:0:
64,192,119841,1,8,0:0:0:0:
192,192,119920,1,8,0:0:0:0:
64,192,119999,1,2,0:0:0:0:
320,192,119999,1,0,0:0:0:50:Splash.wav
448,192,119999,1,0,0:0:0:0:
320,192,120157,1,8,0:0:0:20:soft-hitclap.wav
64,192,120315,1,8,0:0:0:25:soft-hitclap.wav
192,192,120315,1,0,0:0:0:50:Tom3.wav
192,192,120472,1,8,0:0:0:25:soft-hitclap.wav
320,192,120472,1,0,0:0:0:50:Tom3.wav
320,192,120630,1,8,0:0:0:30:soft-hitclap.wav
448,192,120630,1,0,0:0:0:50:Tom3.wav
192,192,120788,1,8,0:0:0:30:soft-hitclap.wav
448,192,120788,1,0,0:0:0:50:Tom3.wav
192,192,120946,1,8,0:0:0:35:soft-hitclap.wav
320,192,120946,1,0,0:0:0:50:Tom3.wav
64,192,121104,1,8,0:0:0:35:soft-hitclap.wav
320,192,121104,1,0,0:0:0:50:Tom3.wav
64,192,121262,1,2,0:0:0:0:
192,192,121262,1,8,0:0:0:40:soft-hitclap.wav
448,192,121262,1,0,0:0:0:50:Tom3.wav
64,192,121420,1,8,0:0:0:40:soft-hitclap.wav
192,192,121420,1,0,0:0:0:50:Tom3.wav
448,192,121420,1,0,0:0:0:0:
64,192,121578,1,2,0:0:0:0:
192,192,121578,1,8,0:0:0:45:soft-hitclap.wav
448,192,121578,1,0,0:0:0:50:Tom3.wav
64,192,121736,1,8,0:0:0:45:soft-hitclap.wav
192,192,121736,1,0,0:0:0:50:Tom3.wav
448,192,121736,1,0,0:0:0:0:
192,192,121893,1,8,0:0:0:0:
320,192,121893,1,2,0:0:0:0:
448,192,121893,1,0,0:0:0:50:Tom3.wav
192,192,122051,1,8,0:0:0:0:
320,192,122051,1,2,0:0:0:0:
448,192,122051,1,0,0:0:0:50:Tom3.wav
192,192,122209,1,8,0:0:0:0:
320,192,122209,1,2,0:0:0:0:
448,192,122209,1,0,0:0:0:50:Tom3.wav
192,192,122367,1,8,0:0:0:0:
320,192,122367,1,2,0:0:0:0:
448,192,122367,1,0,0:0:0:50:Tom3.wav
320,192,123157,128,0,123472:0:0:0:0:
192,192,123472,128,0,123788:0:0:0:0:
64,192,123788,1,2,0:0:0:0:
320,192,123788,1,0,0:0:0:50:Splash.wav
448,192,123788,1,0,0:0:0:0:
64,192,123946,1,2,0:0:0:0:
320,192,123946,1,0,0:0:0:50:Splash.wav
448,192,123946,1,0,0:0:0:0:
192,192,124104,128,0,124262:0:0:0:40:Ride.wav
64,192,124262,1,2,0:0:0:0:
320,192,124262,128,0,124420:0:0:0:0:
64,192,124420,1,8,0:0:0:0:
448,192,124420,128,0,124578:0:0:0:0:
192,192,124578,1,2,0:0:0:0:
320,192,124578,1,0,0:0:0:0:
64,192,124736,128,8,124893:0:0:0:0:
448,192,124736,1,0,0:0:0:40:Ride.wav
192,192,124893,1,2,0:0:0:0:
320,192,124893,128,0,125051:0:0:0:0:
192,192,125051,128,0,125209:0:0:0:40:Ride.wav
320,192,125209,128,8,125367:0:0:0:0:
448,192,125209,1,0,0:0:0:0:
64,192,125367,128,2,125525:0:0:0:0:
192,192,125367,1,0,0:0:0:0:
320,192,125525,1,2,0:0:0:0:
448,192,125525,128,0,125683:0:0:0:0:
64,192,125683,128,8,125841:0:0:0:0:
192,192,125683,1,0,0:0:0:40:Ride.wav
192,192,125841,128,2,125999:0:0:0:0:
448,192,125841,1,0,0:0:0:0:
64,192,125999,1,8,0:0:0:0:
320,192,125999,128,0,126157:0:0:0:0:
192,192,126157,1,2,0:0:0:0:
448,192,126157,128,0,126315:0:0:0:50:Splash.wav
64,192,126315,128,2,126472:0:0:0:0:
192,192,126315,1,0,0:0:0:50:Splash.wav
320,192,126315,1,0,0:0:0:0:
320,192,126472,128,2,126630:0:0:0:0:
448,192,126472,1,0,0:0:0:0:
192,192,126630,1,0,0:0:0:40:Ride.wav
320,192,126788,1,2,0:0:0:0:
448,192,126788,128,0,126946:0:0:0:0:
64,192,126946,1,8,0:0:0:0:
192,192,126946,128,0,127104:0:0:0:0:
64,192,127104,1,2,0:0:0:0:
448,192,127104,1,0,0:0:0:0:
192,192,127262,1,8,0:0:0:0:
320,192,127262,128,0,127420:0:0:0:50:Splash.wav
448,192,127262,1,0,0:0:0:0:
192,192,127420,128,0,127578:0:0:0:0:
64,192,127578,1,8,0:0:0:0:
448,192,127578,128,0,127736:0:0:0:0:
192,192,127736,128,0,127893:0:0:0:50:Tom1.wav
320,192,127736,1,0,0:0:0:0:
64,192,127893,1,0,0:0:0:50:Tom3.wav
320,192,127893,128,0,128051:0:0:0:0:
64,192,128051,1,0,0:0:0:50:Tom2.wav
448,192,128051,128,0,128209:0:0:0:0:
192,192,128209,1,0,0:0:0:50:Tom3.wav
320,192,128209,128,0,128841:0:0:0:0:
192,192,128367,1,2,0:0:0:0:
64,192,128525,1,8,0:0:0:0:
448,192,128525,128,0,128841:0:0:0:50:Splash.wav
192,192,128683,1,0,0:0:0:0:
64,192,128841,1,2,0:0:0:0:
192,192,128841,1,0,0:0:0:50:Splash.wav
64,192,128999,1,2,0:0:0:0:
320,192,128999,1,0,0:0:0:50:Splash.wav
448,192,128999,1,0,0:0:0:0:
192,192,129157,1,0,0:0:0:40:Ride.wav
192,192,129315,1,2,0:0:0:0:
320,192,129315,1,0,0:0:0:0:
64,192,129472,1,8,0:0:0:0:
320,192,129472,128,0,130104:0:0:0:40:Ride.wav
448,192,129472,1,0,0:0:0:0:
64,192,129630,1,2,0:0:0:0:
192,192,129630,1,0,0:0:0:0:
192,192,129788,1,8,0:0:0:0:
448,192,129788,128,0,130104:0:0:0:50:Splash.wav
64,192,129946,1,2,0:0:0:0:
64,192,130104,1,0,0:0:0:0:
192,192,130262,1,8,0:0:0:0:
320,192,130262,1,0,0:0:0:0:
192,192,130420,1,2,0:0:0:0:
448,192,130420,1,0,0:0:0:40:Ride.wav
320,192,130578,1,2,0:0:0:0:
448,192,130578,1,0,0:0:0:0:
64,192,130736,128,8,131367:0:0:0:0:
192,192,130736,1,0,0:0:0:40:Ride.wav
320,192,130736,1,0,0:0:0:0:
448,192,130893,1,2,0:0:0:0:
192,192,131051,128,8,131367:0:0:0:0:
448,192,131051,1,0,0:0:0:0:
320,192,131209,1,8,0:0:0:0:
320,192,131367,1,2,0:0:0:0:
448,192,131367,1,0,0:0:0:50:Splash.wav
64,192,131525,1,2,0:0:0:0:
192,192,131525,128,0,131683:0:0:0:0:
320,192,131683,1,0,0:0:0:40:Ride.wav
64,192,131841,128,2,131999:0:0:0:0:
320,192,131841,1,0,0:0:0:0:
192,192,131999,1,8,0:0:0:0:
448,192,131999,1,0,0:0:0:0:
64,192,132157,1,2,0:0:0:0:
320,192,132157,128,0,132315:0:0:0:0:
192,192,132315,1,8,0:0:0:0:
448,192,132315,1,0,0:0:0:0:
64,192,132472,1,2,0:0:0:0:
448,192,132472,128,0,132630:0:0:0:0:
192,192,132630,1,2,0:0:0:0:
320,192,132630,128,0,132788:0:0:0:0:
64,192,132788,1,8,0:0:0:0:
192,192,132788,128,0,132946:0:0:0:0:
320,192,132946,128,8,133104:0:0:0:0:
448,192,132946,1,0,0:0:0:0:
64,192,133104,128,8,133262:0:0:0:0:
192,192,133104,1,0,0:0:0:0:
320,192,133262,1,8,0:0:0:0:
448,192,133262,128,0,133420:0:0:0:0:
64,192,133420,1,0,0:0:0:50:Tom1.wav
192,192,133420,128,0,133578:0:0:0:0:
320,192,133578,128,0,133736:0:0:0:50:Tom2.wav
448,192,133578,1,0,0:0:0:0:
64,192,133736,128,0,133893:0:0:0:50:Tom3.wav
192,192,133736,1,0,0:0:0:0:
192,192,133893,128,2,134130:0:0:0:0:
320,192,133893,128,0,134130:0:0:0:50:Splash.wav
448,192,133893,128,0,134130:0:0:0:0:
64,192,134209,128,8,134446:0:0:0:0:
192,192,134209,128,2,134446:0:0:0:0:
448,192,134209,128,0,134446:0:0:0:50:Splash.wav
192,192,134525,128,8,134762:0:0:0:0:
320,192,134525,128,0,134762:0:0:0:0:
448,192,134525,1,0,0:0:0:0:
64,192,134683,1,2,0:0:0:0:
64,192,134841,128,8,135157:0:0:0:0:
320,192,134841,128,0,135157:0:0:0:30:Hat Open.wav
448,192,134841,128,0,135157:0:0:0:0:
