osu file format v14

[General]
AudioFilename: audio.mp3
AudioLeadIn: 0
PreviewTime: 61501
Countdown: 0
SampleSet: Drum
StackLeniency: 0.7
Mode: 3
LetterboxInBreaks: 0
SpecialStyle: 0
WidescreenStoryboard: 0

[Editor]
Bookmarks: 3280,14708,27565,39001,50429,61858,73287,84715
DistanceSpacing: 0.4
BeatDivisor: 4
GridSize: 32
TimelineZoom: 2.000006

[Metadata]
Title:Koi wa Derby* (TV Size)
TitleUnicode:恋はダービー☆ (TV Size)
Artist:Tokai Teio (CV: Machico)
ArtistUnicode:トウカイテイオー (CV: Machico)
Creator:Drum-Hitnormal
Version:Long Distance [3200m]
Source:ウマ娘 プリティーダービー Season 2
Tags:Uma Musume: Pretty Derby Animation 04 Original Soundtrack Anime Japanese Pop dudehacker faputa cygames
BeatmapID:2936598
BeatmapSetID:1426088

[Difficulty]
HPDrainRate:8
CircleSize:4
OverallDifficulty:8
ApproachRate:5
SliderMultiplier:1.4
SliderTickRate:1

[Events]
//Background and Video events
0,0,"88644289_p0.jpg",0,0
//Break Periods
//Storyboard Layer 0 (Background)
//Storyboard Layer 1 (Fail)
//Storyboard Layer 2 (Pass)
//Storyboard Layer 3 (Foreground)
//Storyboard Layer 4 (Overlay)
//Storyboard Sound Samples

[TimingPoints]
430,357.142857142857,4,3,1,70,1,0
61858,-100,4,3,1,70,0,1
84715,-100,4,3,1,70,0,0

[HitObjects]
64,192,430,128,0,1144:0:0:0:0:
448,192,1144,128,0,1322:0:0:0:0:
320,192,1322,1,0,0:0:0:0:
192,192,1412,1,0,0:0:0:0:
320,192,1501,128,0,2572:0:0:0:0:
64,192,2572,1,0,0:0:0:0:
192,192,2617,1,0,0:0:0:0:
320,192,2662,1,0,0:0:0:0:
448,192,2706,1,0,0:0:0:0:
64,192,2751,1,0,0:0:0:0:
192,192,2796,1,0,0:0:0:0:
320,192,2840,1,0,0:0:0:0:
448,192,2885,1,0,0:0:0:0:
64,192,2929,1,2,0:0:0:0:
192,192,2929,1,0,0:0:0:0:
64,192,3108,1,2,0:0:0:0:
192,192,3108,1,0,0:0:0:0:
448,192,3287,1,0,0:0:0:0:
320,192,3287,1,4,0:0:0:0:
64,192,3287,1,2,0:0:0:0:
320,192,3465,128,0,3554:0:0:0:0:
448,192,3465,128,0,3554:0:0:0:0:
64,192,3644,1,8,0:3:0:0:
448,192,3644,1,0,0:0:0:0:
64,192,3822,128,0,3912:0:0:0:0:
192,192,3822,128,0,3912:0:0:0:0:
448,192,4001,1,0,0:0:0:0:
320,192,4001,1,2,0:0:0:0:
64,192,4179,128,0,4269:0:0:0:0:
192,192,4179,128,0,4269:0:0:0:0:
64,192,4358,1,8,0:3:0:0:
448,192,4358,1,0,0:0:0:0:
64,192,4537,128,0,4626:0:0:0:0:
192,192,4537,128,0,4626:0:0:0:0:
448,192,4715,1,0,0:0:0:0:
320,192,4715,1,2,0:0:0:0:
192,192,4894,128,0,4983:0:0:0:0:
64,192,4894,128,0,4983:0:0:0:0:
64,192,5072,1,8,0:0:0:0:
448,192,5072,1,0,0:0:0:0:
64,192,5251,128,0,5340:0:0:0:0:
192,192,5251,128,0,5340:0:0:0:0:
64,192,5429,1,2,0:0:0:0:
320,192,5429,128,8,5519:0:0:0:0:
448,192,5429,128,0,5519:0:0:0:0:
192,192,5608,128,0,5697:0:0:0:0:
64,192,5787,1,2,0:0:0:0:
320,192,5787,128,8,5876:0:0:0:0:
448,192,5787,128,0,5876:0:0:0:0:
192,192,5965,128,0,6054:0:0:0:0:
320,192,6144,1,2,0:0:0:0:
448,192,6144,1,0,0:0:0:0:
64,192,6322,128,0,6412:0:0:0:0:
192,192,6322,128,0,6412:0:0:0:0:
448,192,6501,1,0,0:0:0:0:
64,192,6501,1,8,0:0:0:0:
320,192,6679,128,0,6769:0:0:0:0:
448,192,6679,128,0,6769:0:0:0:0:
64,192,6858,1,2,0:0:0:0:
192,192,6858,1,0,0:0:0:0:
320,192,7037,128,0,7126:0:0:0:0:
448,192,7037,128,0,7126:0:0:0:0:
448,192,7215,1,0,0:0:0:0:
64,192,7215,1,8,0:0:0:0:
320,192,7394,128,0,7483:0:0:0:0:
448,192,7394,128,0,7483:0:0:0:0:
64,192,7572,1,2,0:0:0:0:
320,192,7572,1,0,0:0:0:0:
448,192,7572,1,0,0:0:0:0:
192,192,7751,128,0,7840:0:0:0:0:
448,192,7751,128,0,7840:0:0:0:0:
64,192,7751,128,8,7840:0:0:0:0:
448,192,7929,128,0,8019:0:0:0:0:
64,192,7929,128,8,8019:0:0:0:0:
192,192,7929,128,0,8019:0:0:0:0:
64,192,8287,1,2,0:0:0:0:
192,192,8287,1,0,0:0:0:0:
448,192,8287,1,0,0:0:0:0:
64,192,8465,128,8,8554:0:0:0:0:
320,192,8465,128,0,8554:0:0:0:0:
448,192,8465,128,0,8554:0:0:0:0:
448,192,8644,128,0,8733:0:0:0:0:
320,192,8644,128,0,8733:0:0:0:0:
64,192,8644,128,8,8733:0:0:0:0:
64,192,9001,1,2,0:0:0:0:
192,192,9001,1,4,0:0:0:0:
448,192,9001,1,0,0:0:0:0:
320,192,9179,128,0,9269:0:0:0:0:
448,192,9179,128,0,9269:0:0:0:0:
64,192,9358,1,8,0:0:0:0:
448,192,9358,1,0,0:0:0:0:
192,192,9537,128,0,9626:0:0:0:0:
64,192,9537,128,0,9626:0:0:0:0:
320,192,9715,1,2,0:0:0:0:
448,192,9715,1,0,0:0:0:0:
64,192,9894,128,0,9983:0:0:0:0:
192,192,9894,128,0,9983:0:0:0:0:
64,192,10072,1,8,0:0:0:0:
448,192,10072,1,0,0:0:0:0:
64,192,10251,128,0,10340:0:0:0:0:
192,192,10251,128,0,10340:0:0:0:0:
448,192,10429,1,0,0:0:0:0:
320,192,10429,1,2,0:0:0:0:
64,192,10608,128,0,10697:0:0:0:0:
192,192,10608,128,0,10697:0:0:0:0:
64,192,10787,1,8,0:0:0:0:
320,192,10787,1,0,0:0:0:0:
64,192,10965,128,0,11054:0:0:0:0:
192,192,10965,128,0,11054:0:0:0:0:
448,192,11144,128,0,11233:0:0:0:0:
64,192,11144,1,2,0:0:0:0:
320,192,11144,128,0,11233:0:0:0:0:
192,192,11322,128,8,11412:0:0:0:0:
448,192,11322,1,0,0:0:0:0:
64,192,11501,1,8,0:0:0:0:
320,192,11501,128,0,11590:0:0:0:0:
448,192,11501,128,0,11590:0:0:0:0:
192,192,11679,128,0,11769:0:0:0:0:
320,192,11858,1,2,0:0:0:0:
448,192,11858,1,0,0:0:0:0:
64,192,12037,128,0,12126:0:0:0:0:
192,192,12037,128,0,12126:0:0:0:0:
64,192,12215,1,8,0:0:0:0:
448,192,12215,1,0,0:0:0:0:
320,192,12394,128,0,12483:0:0:0:0:
448,192,12394,128,0,12483:0:0:0:0:
192,192,12572,1,0,0:0:0:0:
64,192,12572,1,2,0:0:0:0:
320,192,12751,128,0,12840:0:0:0:0:
448,192,12751,128,0,12840:0:0:0:0:
64,192,12929,1,8,0:0:0:0:
448,192,12929,1,0,0:0:0:0:
320,192,13108,128,0,13197:0:0:0:0:
448,192,13108,128,0,13197:0:0:0:0:
64,192,13287,128,2,13376:0:0:0:0:
192,192,13287,1,0,0:0:0:0:
448,192,13465,128,0,13554:0:0:0:0:
448,192,13644,128,0,14001:0:0:0:0:
64,192,14001,1,0,0:0:0:0:
192,192,14046,1,0,0:0:0:0:
320,192,14090,1,0,0:0:0:0:
448,192,14135,1,0,0:0:0:0:
64,192,14179,1,0,0:0:0:0:
192,192,14224,1,0,0:0:0:0:
320,192,14269,1,0,0:0:0:0:
448,192,14313,1,0,0:0:0:0:
64,192,14358,1,0,0:0:0:0:
320,192,14447,1,0,0:0:0:0:
192,192,14537,1,0,0:0:0:0:
320,192,14626,1,0,0:0:0:0:
64,192,14715,1,2,0:0:0:0:
192,192,14715,1,4,0:0:0:0:
448,192,14715,1,0,0:0:0:0:
320,192,14894,1,0,0:0:0:0:
192,192,14983,1,0,0:0:0:0:
448,192,15072,1,0,0:0:0:0:
64,192,15072,1,8,0:0:0:0:
320,192,15072,1,0,0:0:0:0:
192,192,15251,1,0,0:0:0:0:
64,192,15340,1,0,0:0:0:0:
320,192,15429,1,2,0:0:0:0:
448,192,15429,1,0,0:0:0:0:
192,192,15608,1,0,0:0:0:0:
320,192,15697,1,0,0:0:0:0:
192,192,15787,1,0,0:0:0:0:
64,192,15787,1,8,0:0:0:0:
448,192,15876,1,0,0:0:0:0:
320,192,15965,1,0,0:0:0:0:
192,192,16054,1,0,0:0:0:0:
320,192,16144,1,2,0:0:0:0:
448,192,16144,1,0,0:0:0:0:
64,192,16322,1,0,0:0:0:0:
320,192,16412,1,0,0:0:0:0:
192,192,16501,1,0,0:0:0:0:
64,192,16501,1,8,0:0:0:0:
448,192,16590,1,0,0:0:0:0:
320,192,16679,1,0,0:0:0:0:
192,192,16769,1,8,0:0:0:0:
64,192,16858,1,2,0:0:0:0:
448,192,16858,1,0,0:0:0:0:
320,192,16947,1,0,0:0:0:0:
192,192,16947,1,8,0:0:0:0:
448,192,17037,1,0,0:0:0:0:
64,192,17037,1,2,0:0:0:0:
320,192,17126,1,0,0:0:0:0:
64,192,17215,1,8,0:0:0:0:
448,192,17215,1,0,0:0:0:0:
192,192,17304,1,0,0:0:0:0:
320,192,17394,1,0,0:0:0:0:
64,192,17572,1,2,0:0:0:0:
448,192,17572,1,0,0:0:0:0:
320,192,17662,1,0,0:0:0:0:
192,192,17751,1,0,0:0:0:0:
320,192,17840,1,0,0:0:0:0:
64,192,17929,1,8,0:0:0:0:
448,192,17929,1,0,0:0:0:0:
192,192,18019,1,0,0:0:0:0:
320,192,18108,1,0,0:0:0:0:
192,192,18197,1,0,0:0:0:0:
448,192,18287,1,0,0:0:0:0:
320,192,18287,1,2,0:0:0:0:
64,192,18376,1,0,0:0:0:0:
192,192,18465,1,0,0:0:0:0:
448,192,18554,1,0,0:0:0:0:
64,192,18644,1,8,0:0:0:0:
320,192,18644,1,0,0:0:0:0:
192,192,18822,1,0,0:0:0:0:
320,192,18912,1,0,0:0:0:0:
64,192,19001,1,2,0:0:0:0:
448,192,19001,1,0,0:0:0:0:
64,192,19179,1,8,0:0:0:0:
192,192,19179,1,0,0:0:0:0:
448,192,19179,1,0,0:0:0:0:
64,192,19358,1,8,0:0:0:0:
192,192,19358,1,0,0:0:0:0:
448,192,19358,1,0,0:0:0:0:
320,192,19537,1,0,0:0:0:0:
192,192,19626,1,8,0:0:0:0:
448,192,19715,1,0,0:0:0:0:
320,192,19715,1,2,0:0:0:0:
64,192,19804,1,8,0:0:0:0:
192,192,19804,1,0,0:0:0:0:
320,192,19894,1,2,0:0:0:0:
448,192,19894,1,0,0:0:0:0:
64,192,20072,1,8,0:0:0:0:
192,192,20072,1,0,0:0:0:0:
448,192,20162,1,0,0:0:0:0:
320,192,20162,1,8,0:0:0:0:
64,192,20251,1,8,0:0:0:0:
192,192,20251,1,0,0:0:0:0:
320,192,20340,1,8,0:0:0:0:
64,192,20429,1,2,0:0:0:0:
192,192,20429,1,4,0:0:0:0:
448,192,20429,1,0,0:0:0:0:
320,192,20608,1,0,0:0:0:0:
192,192,20697,1,0,0:0:0:0:
448,192,20787,1,0,0:0:0:0:
320,192,20787,1,0,0:0:0:0:
64,192,20787,1,8,0:0:0:0:
192,192,20965,1,0,0:0:0:0:
320,192,21054,1,0,0:0:0:0:
64,192,21144,1,2,0:0:0:0:
192,192,21144,1,0,0:0:0:0:
448,192,21322,1,0,0:0:0:0:
320,192,21412,1,0,0:0:0:0:
448,192,21501,1,0,0:0:0:0:
192,192,21501,1,0,0:0:0:0:
64,192,21501,1,8,0:0:0:0:
320,192,21679,1,0,0:0:0:0:
192,192,21769,1,0,0:0:0:0:
64,192,21858,1,2,0:0:0:0:
448,192,21858,1,0,0:0:0:0:
192,192,22037,1,0,0:0:0:0:
320,192,22126,1,0,0:0:0:0:
448,192,22215,1,0,0:0:0:0:
192,192,22215,1,0,0:0:0:0:
64,192,22215,1,8,0:0:0:0:
448,192,22394,1,0,0:0:0:0:
320,192,22483,1,8,0:0:0:0:
64,192,22572,1,2,0:0:0:0:
192,192,22572,1,0,0:0:0:0:
320,192,22662,1,8,0:0:0:0:
448,192,22662,1,0,0:0:0:0:
64,192,22751,1,2,0:0:0:0:
192,192,22751,1,0,0:0:0:0:
320,192,22840,1,0,0:0:0:0:
64,192,22929,1,8,0:0:0:0:
448,192,22929,1,0,0:0:0:0:
192,192,23019,1,0,0:0:0:0:
320,192,23108,1,0,0:0:0:0:
192,192,23197,1,0,0:0:0:0:
64,192,23287,1,2,0:0:0:0:
448,192,23287,1,0,0:0:0:0:
320,192,23376,1,0,0:0:0:0:
192,192,23465,1,0,0:0:0:0:
448,192,23554,1,0,0:0:0:0:
64,192,23644,1,8,0:0:0:0:
320,192,23644,1,0,0:0:0:0:
192,192,23733,1,0,0:0:0:0:
448,192,23822,1,0,0:0:0:0:
320,192,23912,1,0,0:0:0:0:
64,192,24001,1,2,0:0:0:0:
192,192,24001,1,0,0:0:0:0:
320,192,24090,1,0,0:0:0:0:
192,192,24179,1,0,0:0:0:0:
320,192,24269,1,0,0:0:0:0:
64,192,24358,1,8,0:0:0:0:
448,192,24358,1,0,0:0:0:0:
192,192,24537,1,0,0:0:0:0:
320,192,24626,1,0,0:0:0:0:
192,192,24715,1,0,0:0:0:0:
64,192,24715,1,2,0:0:0:0:
320,192,24894,1,0,0:0:0:0:
448,192,24894,1,0,0:0:0:0:
64,192,24894,1,8,0:0:0:0:
64,192,25072,1,8,0:0:0:0:
320,192,25072,1,0,0:0:0:0:
448,192,25072,1,0,0:0:0:0:
192,192,25162,1,0,0:0:0:0:
320,192,25251,1,0,0:0:0:0:
448,192,25340,1,8,0:0:0:0:
192,192,25429,1,0,0:0:0:0:
64,192,25429,1,2,0:0:0:0:
320,192,25519,1,8,0:0:0:0:
448,192,25519,1,0,0:0:0:0:
64,192,25608,1,2,0:0:0:0:
192,192,25608,1,0,0:0:0:0:
64,192,25787,1,8,0:0:0:0:
320,192,25787,1,0,0:0:0:0:
448,192,25787,1,0,0:0:0:0:
192,192,25876,1,8,0:0:0:0:
320,192,25965,1,8,0:0:0:0:
192,192,26054,1,8,0:0:0:0:
64,192,26144,1,2,0:0:0:0:
448,192,26144,1,0,0:0:0:0:
320,192,26233,1,0,0:0:0:0:
192,192,26322,1,0,0:0:0:0:
64,192,26412,1,0,0:0:0:0:
448,192,26501,1,0,0:0:0:0:
320,192,26590,1,0,0:0:0:0:
192,192,26679,1,0,0:0:0:0:
320,192,26769,1,0,0:0:0:0:
64,192,26858,1,0,0:0:0:0:
192,192,26903,1,0,0:0:0:0:
320,192,26947,1,0,0:0:0:0:
448,192,26992,1,0,0:0:0:0:
64,192,27037,1,0,0:0:0:0:
192,192,27081,1,0,0:0:0:0:
320,192,27126,1,0,0:0:0:0:
448,192,27171,1,0,0:0:0:0:
192,192,27215,1,0,0:0:0:0:
64,192,27215,1,0,0:0:0:0:
320,192,27304,1,0,0:0:0:0:
64,192,27394,1,0,0:0:0:0:
448,192,27394,1,0,0:0:0:0:
192,192,27483,1,0,0:0:0:0:
64,192,27572,1,2,0:0:0:0:
320,192,27572,1,4,0:0:0:0:
448,192,27572,1,0,0:0:0:0:
320,192,27751,1,0,0:0:0:0:
192,192,27840,1,0,0:0:0:0:
64,192,27929,1,8,0:0:0:0:
320,192,27929,1,0,0:0:0:0:
448,192,27929,1,0,0:0:0:0:
192,192,28108,1,0,0:0:0:0:
64,192,28197,1,0,0:0:0:0:
320,192,28287,1,2,0:0:0:0:
448,192,28287,1,0,0:0:0:0:
64,192,28465,1,0,0:0:0:0:
192,192,28554,1,0,0:0:0:0:
64,192,28644,1,8,0:0:0:0:
320,192,28644,1,0,0:0:0:0:
448,192,28644,1,0,0:0:0:0:
320,192,28822,1,0,0:0:0:0:
192,192,28912,1,0,0:0:0:0:
64,192,29001,1,2,0:0:0:0:
448,192,29001,1,0,0:0:0:0:
192,192,29179,1,0,0:0:0:0:
320,192,29269,1,0,0:0:0:0:
64,192,29358,1,8,0:0:0:0:
192,192,29358,1,0,0:0:0:0:
448,192,29358,1,0,0:0:0:0:
448,192,29537,1,0,0:0:0:0:
320,192,29626,1,0,0:0:0:0:
64,192,29715,1,2,0:0:0:0:
192,192,29715,1,0,0:0:0:0:
448,192,29894,1,0,0:0:0:0:
320,192,29894,1,0,0:0:0:0:
64,192,29894,1,8,0:0:0:0:
64,192,30072,1,8,0:0:0:0:
320,192,30072,1,0,0:0:0:0:
448,192,30072,1,0,0:0:0:0:
192,192,30251,1,0,0:0:0:0:
320,192,30340,1,0,0:0:0:0:
64,192,30429,1,2,0:0:0:0:
448,192,30429,1,0,0:0:0:0:
320,192,30608,1,0,0:0:0:0:
192,192,30697,1,0,0:0:0:0:
64,192,30787,1,8,0:0:0:0:
320,192,30787,1,0,0:0:0:0:
448,192,30787,1,0,0:0:0:0:
448,192,30965,1,0,0:0:0:0:
64,192,31054,1,0,0:0:0:0:
192,192,31144,1,2,0:0:0:0:
320,192,31144,1,0,0:0:0:0:
448,192,31322,1,0,0:0:0:0:
192,192,31322,1,0,0:0:0:0:
64,192,31322,1,8,0:0:0:0:
64,192,31501,1,8,0:0:0:0:
192,192,31501,1,0,0:0:0:0:
448,192,31501,1,0,0:0:0:0:
320,192,31679,1,0,0:0:0:0:
192,192,31769,1,0,0:0:0:0:
320,192,31858,1,2,0:0:0:0:
448,192,31858,1,0,0:0:0:0:
64,192,32037,1,0,0:0:0:0:
192,192,32126,1,0,0:0:0:0:
64,192,32215,1,8,0:0:0:0:
320,192,32215,1,0,0:0:0:0:
448,192,32215,1,0,0:0:0:0:
448,192,32394,1,0,0:0:0:0:
320,192,32483,1,0,0:0:0:0:
64,192,32572,1,2,0:0:0:0:
192,192,32572,1,0,0:0:0:0:
448,192,32751,1,0,0:0:0:0:
64,192,32751,1,8,0:0:0:0:
320,192,32751,1,0,0:0:0:0:
64,192,32929,1,8,0:0:0:0:
320,192,32929,1,0,0:0:0:0:
448,192,32929,1,0,0:0:0:0:
192,192,33108,1,0,0:0:0:0:
320,192,33197,1,0,0:0:0:0:
64,192,33287,1,2,0:0:0:0:
448,192,33287,1,0,0:0:0:0:
320,192,33465,1,0,0:0:0:0:
192,192,33554,1,0,0:0:0:0:
64,192,33644,1,8,0:0:0:0:
320,192,33644,1,0,0:0:0:0:
448,192,33644,1,0,0:0:0:0:
64,192,33822,1,0,0:0:0:0:
192,192,33912,1,0,0:0:0:0:
320,192,34001,1,2,0:0:0:0:
448,192,34001,1,0,0:0:0:0:
448,192,34179,1,0,0:0:0:0:
64,192,34179,1,8,0:0:0:0:
192,192,34179,1,0,0:0:0:0:
64,192,34358,1,8,0:0:0:0:
192,192,34358,1,0,0:0:0:0:
448,192,34358,1,0,0:0:0:0:
320,192,34537,1,0,0:0:0:0:
192,192,34626,1,0,0:0:0:0:
64,192,34715,1,2,0:0:0:0:
448,192,34715,1,0,0:0:0:0:
192,192,34894,1,0,0:0:0:0:
320,192,34983,1,0,0:0:0:0:
448,192,35072,1,0,0:0:0:0:
64,192,35072,1,8,0:0:0:0:
192,192,35072,1,0,0:0:0:0:
448,192,35251,1,0,0:0:0:0:
320,192,35340,1,0,0:0:0:0:
192,192,35429,1,0,0:0:0:0:
64,192,35429,1,2,0:0:0:0:
64,192,35608,1,8,0:0:0:0:
320,192,35608,1,0,0:0:0:0:
448,192,35608,1,0,0:0:0:0:
64,192,35787,1,8,0:0:0:0:
320,192,35787,1,0,0:0:0:0:
448,192,35787,1,0,0:0:0:0:
192,192,35965,1,0,0:0:0:0:
320,192,36054,1,0,0:0:0:0:
64,192,36144,1,2,0:0:0:0:
448,192,36144,1,0,0:0:0:0:
320,192,36322,1,0,0:0:0:0:
192,192,36412,1,0,0:0:0:0:
64,192,36501,1,8,0:0:0:0:
320,192,36501,1,0,0:0:0:0:
448,192,36501,1,0,0:0:0:0:
448,192,36679,1,0,0:0:0:0:
320,192,36769,1,0,0:0:0:0:
64,192,36858,1,2,0:0:0:0:
192,192,36858,1,0,0:0:0:0:
448,192,37037,1,0,0:0:0:0:
320,192,37126,1,0,0:0:0:0:
64,192,37215,1,8,0:0:0:0:
192,192,37215,1,0,0:0:0:0:
448,192,37215,1,0,0:0:0:0:
320,192,37394,1,0,0:0:0:0:
192,192,37483,1,0,0:0:0:0:
64,192,37572,1,2,0:0:0:0:
320,192,37572,128,8,37662:0:0:0:0:
448,192,37572,128,0,37662:0:0:0:0:
64,192,37751,128,8,37840:0:0:0:0:
192,192,37751,128,2,37840:0:0:0:0:
64,192,37929,1,2,0:0:0:0:
320,192,37929,128,8,38019:0:0:0:0:
448,192,37929,128,0,38019:0:0:0:0:
192,192,38108,128,2,38197:0:0:0:0:
64,192,38108,128,8,38197:0:0:0:0:
64,192,38287,1,8,0:0:0:0:
320,192,38287,128,2,38376:0:0:0:0:
448,192,38287,128,0,38376:0:0:0:0:
64,192,38465,128,2,38554:0:0:0:0:
192,192,38465,128,8,38554:0:0:0:0:
320,192,38644,128,2,38733:0:0:0:0:
448,192,38644,128,0,38733:0:0:0:0:
192,192,38644,1,8,0:0:0:0:
64,192,38822,128,2,38912:0:0:0:0:
192,192,38822,128,8,38912:0:0:0:0:
64,192,39001,1,2,0:0:0:0:
192,192,39001,1,4,0:0:0:0:
320,192,39001,1,0,0:0:0:0:
448,192,39001,1,0,0:0:0:0:
320,192,39179,1,0,0:0:0:0:
192,192,39269,1,0,0:0:0:0:
448,192,39358,1,0,0:0:0:0:
64,192,39358,1,8,0:0:0:0:
320,192,39358,1,0,0:0:0:0:
192,192,39537,1,0,0:0:0:0:
320,192,39626,1,0,0:0:0:0:
64,192,39715,1,2,0:0:0:0:
192,192,39715,1,0,0:0:0:0:
320,192,39894,1,0,0:0:0:0:
192,192,39983,1,0,0:0:0:0:
64,192,40072,1,8,0:0:0:0:
320,192,40072,1,0,0:0:0:0:
448,192,40072,1,0,0:0:0:0:
448,192,40251,1,0,0:0:0:0:
320,192,40340,1,0,0:0:0:0:
192,192,40429,1,0,0:0:0:0:
64,192,40429,1,2,0:0:0:0:
320,192,40608,1,0,0:0:0:0:
192,192,40697,1,0,0:0:0:0:
320,192,40787,1,0,0:0:0:0:
448,192,40787,1,0,0:0:0:0:
64,192,40787,1,8,0:0:0:0:
448,192,40965,1,0,0:0:0:0:
320,192,41054,1,0,0:0:0:0:
64,192,41144,1,2,0:0:0:0:
192,192,41144,1,0,0:0:0:0:
64,192,41322,1,8,0:0:0:0:
320,192,41322,128,0,41412:0:0:0:0:
448,192,41322,128,0,41412:0:0:0:0:
448,192,41501,1,0,0:0:0:0:
64,192,41501,1,8,0:0:0:0:
320,192,41501,1,0,0:0:0:0:
192,192,41679,1,0,0:0:0:0:
320,192,41769,1,0,0:0:0:0:
64,192,41858,1,2,0:0:0:0:
448,192,41858,1,0,0:0:0:0:
320,192,42037,1,0,0:0:0:0:
192,192,42126,1,0,0:0:0:0:
448,192,42215,1,0,0:0:0:0:
320,192,42215,1,0,0:0:0:0:
64,192,42215,1,8,0:0:0:0:
64,192,42394,1,0,0:0:0:0:
192,192,42483,1,0,0:0:0:0:
320,192,42572,1,2,0:0:0:0:
448,192,42572,1,0,0:0:0:0:
64,192,42751,128,8,42840:0:0:0:0:
192,192,42751,128,0,42840:0:0:0:0:
448,192,42751,1,0,0:0:0:0:
448,192,42929,1,0,0:0:0:0:
64,192,42929,1,8,0:0:0:0:
192,192,42929,1,0,0:0:0:0:
320,192,43108,1,0,0:0:0:0:
192,192,43197,1,0,0:0:0:0:
64,192,43287,1,2,0:0:0:0:
448,192,43287,1,0,0:0:0:0:
192,192,43465,1,0,0:0:0:0:
320,192,43554,1,0,0:0:0:0:
448,192,43644,1,0,0:0:0:0:
64,192,43644,1,8,0:0:0:0:
192,192,43644,1,0,0:0:0:0:
320,192,43822,1,0,0:0:0:0:
192,192,43912,1,0,0:0:0:0:
320,192,44001,128,2,44179:0:0:0:0:
448,192,44001,1,0,0:0:0:0:
64,192,44179,1,8,0:0:0:0:
192,192,44179,128,0,44269:0:0:0:0:
448,192,44179,1,0,0:0:0:0:
448,192,44358,128,0,44447:0:0:0:0:
64,192,44358,1,8,0:0:0:0:
320,192,44358,1,0,0:0:0:0:
192,192,44537,128,0,44626:0:0:0:0:
64,192,44715,1,2,0:0:0:0:
448,192,44715,1,0,0:0:0:0:
320,192,44894,1,0,0:0:0:0:
192,192,44983,1,0,0:0:0:0:
448,192,45072,1,0,0:0:0:0:
64,192,45072,1,8,0:0:0:0:
320,192,45072,1,0,0:0:0:0:
64,192,45251,1,0,0:0:0:0:
192,192,45340,1,0,0:0:0:0:
320,192,45429,1,2,0:0:0:0:
448,192,45429,1,0,0:0:0:0:
64,192,45608,128,8,45697:0:0:0:0:
192,192,45608,128,0,45697:0:0:0:0:
448,192,45608,1,0,0:0:0:0:
64,192,45787,1,8,0:0:0:0:
192,192,45787,1,0,0:0:0:0:
448,192,45787,1,0,0:0:0:0:
320,192,45965,1,0,0:0:0:0:
192,192,46054,1,0,0:0:0:0:
64,192,46144,1,2,0:0:0:0:
448,192,46144,1,0,0:0:0:0:
192,192,46322,1,0,0:0:0:0:
320,192,46412,1,0,0:0:0:0:
192,192,46501,1,0,0:0:0:0:
64,192,46501,1,8,0:0:0:0:
448,192,46501,1,0,0:0:0:0:
448,192,46679,1,0,0:0:0:0:
320,192,46769,1,0,0:0:0:0:
64,192,46858,1,2,0:0:0:0:
192,192,46858,1,0,0:0:0:0:
64,192,47037,1,8,0:0:0:0:
320,192,47037,128,0,47126:0:0:0:0:
448,192,47037,128,0,47126:0:0:0:0:
64,192,47215,1,8,0:0:0:0:
320,192,47215,1,0,0:0:0:0:
448,192,47215,1,0,0:0:0:0:
448,192,47394,1,0,0:0:0:0:
320,192,47483,1,0,0:0:0:0:
64,192,47572,1,2,0:0:0:0:
192,192,47572,1,0,0:0:0:0:
192,192,47751,1,0,0:0:0:0:
320,192,47840,1,0,0:0:0:0:
192,192,47929,1,0,0:0:0:0:
448,192,47929,1,0,0:0:0:0:
64,192,47929,1,8,0:0:0:0:
320,192,48108,1,0,0:0:0:0:
192,192,48197,1,0,0:0:0:0:
64,192,48287,1,2,0:0:0:0:
448,192,48287,1,0,0:0:0:0:
64,192,48465,1,0,0:0:0:0:
192,192,48554,1,0,0:0:0:0:
320,192,48644,1,0,0:0:0:0:
64,192,48644,1,8,0:0:0:0:
448,192,48644,1,0,0:0:0:0:
320,192,48822,1,0,0:0:0:0:
192,192,48912,1,0,0:0:0:0:
64,192,49001,1,2,0:0:0:0:
320,192,49001,128,8,49090:0:0:0:0:
448,192,49001,128,0,49090:0:0:0:0:
192,192,49179,128,2,49269:0:0:0:0:
64,192,49179,128,8,49269:0:0:0:0:
320,192,49358,128,8,49447:0:0:0:0:
448,192,49358,128,0,49447:0:0:0:0:
64,192,49358,1,2,0:0:0:0:
64,192,49537,128,8,49626:0:0:0:0:
192,192,49537,128,2,49626:0:0:0:0:
192,192,49715,1,2,0:0:0:0:
320,192,49715,128,8,49804:0:0:0:0:
448,192,49715,128,0,49804:0:0:0:0:
64,192,49894,128,8,49983:0:0:0:0:
192,192,49894,128,2,49983:0:0:0:0:
448,192,50072,128,0,50162:0:0:0:0:
320,192,50072,128,2,50162:0:0:0:0:
192,192,50072,1,8,0:0:0:0:
64,192,50251,128,2,50340:0:0:0:0:
192,192,50251,128,8,50340:0:0:0:0:
64,192,50429,1,2,0:0:0:0:
192,192,50429,1,4,0:0:0:0:
320,192,50429,1,0,0:0:0:0:
448,192,50429,1,0,0:0:0:0:
192,192,50608,128,0,50787:0:0:0:0:
448,192,50965,1,0,0:0:0:0:
320,192,50965,1,2,0:0:0:0:
320,192,51144,1,2,0:0:0:0:
448,192,51144,1,0,0:0:0:0:
64,192,51322,128,0,51501:0:0:0:0:
320,192,51501,128,8,51679:0:0:0:0:
448,192,51501,1,0,0:0:0:0:
192,192,51679,128,0,51858:0:0:0:0:
64,192,51858,1,2,0:0:0:0:
448,192,51858,1,0,0:0:0:0:
320,192,52037,128,0,52215:0:0:0:0:
192,192,52215,128,0,52394:0:0:0:0:
64,192,52394,128,2,52572:0:0:0:0:
448,192,52394,1,0,0:0:0:0:
320,192,52572,128,2,52751:0:0:0:0:
448,192,52572,1,0,0:0:0:0:
64,192,52751,128,0,52929:0:0:0:0:
192,192,52840,1,0,0:0:0:0:
448,192,52929,128,0,53108:0:0:0:0:
320,192,52929,1,8,0:0:0:0:
192,192,53108,128,0,53287:0:0:0:0:
320,192,53287,1,2,0:0:0:0:
448,192,53287,1,0,0:0:0:0:
192,192,53465,1,0,0:0:0:0:
320,192,53554,1,0,0:0:0:0:
192,192,53644,128,0,53822:0:0:0:0:
64,192,53822,1,2,0:0:0:0:
448,192,53822,128,0,54001:0:0:0:0:
192,192,54001,128,0,54179:0:0:0:0:
64,192,54001,1,2,0:0:0:0:
448,192,54179,128,0,54358:0:0:0:0:
64,192,54358,1,8,0:0:0:0:
192,192,54358,128,0,54537:0:0:0:0:
448,192,54537,128,0,54715:0:0:0:0:
64,192,54715,1,2,0:0:0:0:
320,192,54715,128,0,54894:0:0:0:0:
192,192,54894,128,0,55072:0:0:0:0:
64,192,55072,128,0,55429:0:0:0:0:
320,192,55251,1,2,0:0:0:0:
448,192,55251,1,0,0:0:0:0:
192,192,55429,1,2,0:0:0:0:
448,192,55429,1,0,0:0:0:0:
320,192,55608,1,0,0:0:0:0:
192,192,55668,1,0,0:0:0:0:
64,192,55727,1,0,0:0:0:0:
448,192,55787,128,0,55965:0:0:0:0:
320,192,55787,1,8,0:0:0:0:
64,192,56144,1,2,0:0:0:0:
448,192,56144,1,0,0:0:0:0:
192,192,56322,128,0,56501:0:0:0:0:
320,192,56679,1,2,0:0:0:0:
448,192,56679,1,0,0:0:0:0:
320,192,56858,1,2,0:0:0:0:
448,192,56858,1,0,0:0:0:0:
64,192,57037,128,0,57215:0:0:0:0:
448,192,57215,1,0,0:0:0:0:
320,192,57215,128,8,57394:0:0:0:0:
192,192,57394,128,0,57572:0:0:0:0:
64,192,57572,1,2,0:0:0:0:
448,192,57572,1,0,0:0:0:0:
320,192,57751,128,0,57929:0:0:0:0:
192,192,57929,1,0,0:0:0:0:
64,192,58108,128,2,58287:0:0:0:0:
448,192,58108,1,0,0:0:0:0:
320,192,58287,128,0,58465:0:0:0:0:
192,192,58287,1,2,0:0:0:0:
64,192,58465,1,0,0:0:0:0:
192,192,58525,1,0,0:0:0:0:
320,192,58584,1,0,0:0:0:0:
64,192,58644,128,8,58822:0:0:0:0:
448,192,58644,1,0,0:0:0:0:
320,192,58822,128,0,59001:0:0:0:0:
192,192,59001,1,2,0:0:0:0:
448,192,59001,1,0,0:0:0:0:
64,192,59179,1,0,0:0:0:0:
320,192,59269,1,0,0:0:0:0:
64,192,59358,128,0,59537:0:0:0:0:
320,192,59537,128,2,59715:0:0:0:0:
448,192,59537,1,0,0:0:0:0:
64,192,59715,128,2,59894:0:0:0:0:
192,192,59715,1,0,0:0:0:0:
320,192,59894,128,0,60072:0:0:0:0:
192,192,60072,1,0,0:0:0:0:
64,192,60072,128,8,60251:0:0:0:0:
320,192,60251,128,0,60429:0:0:0:0:
64,192,60429,1,8,0:0:0:0:
192,192,60429,128,2,60608:0:0:0:0:
448,192,60429,1,0,0:0:0:0:
448,192,60608,128,0,60787:0:0:0:0:
64,192,60608,1,8,0:0:0:0:
320,192,60608,1,2,0:0:0:0:
192,192,60787,1,2,0:0:0:0:
320,192,60787,1,0,0:0:0:0:
64,192,60787,128,8,61144:0:0:0:0:
320,192,60965,1,2,0:0:0:0:
448,192,60965,1,8,0:0:0:0:
448,192,61144,1,8,0:0:0:0:
320,192,61188,1,0,0:0:0:0:
192,192,61233,1,8,0:0:0:0:
64,192,61278,1,0,0:0:0:0:
448,192,61322,1,8,0:0:0:0:
320,192,61367,1,0,0:0:0:0:
192,192,61412,1,8,0:0:0:0:
64,192,61456,1,0,0:0:0:0:
320,192,61501,1,8,0:0:0:0:
448,192,61501,1,0,0:0:0:0:
64,192,61590,1,8,0:0:0:0:
192,192,61590,1,0,0:0:0:0:
320,192,61679,1,8,0:0:0:0:
448,192,61679,1,0,0:0:0:0:
192,192,61769,1,8,0:0:0:0:
64,192,61858,1,2,0:0:0:0:
320,192,61858,1,4,0:0:0:0:
448,192,61858,128,0,62572:0:0:0:0:
192,192,62037,1,0,0:0:0:0:
64,192,62126,1,0,0:0:0:0:
320,192,62215,128,8,62572:0:0:0:0:
64,192,62394,1,0,0:0:0:0:
192,192,62483,1,0,0:0:0:0:
64,192,62572,1,2,0:0:0:0:
64,192,62751,128,0,62929:0:0:0:0:
448,192,62751,1,0,0:0:0:0:
192,192,62840,1,0,0:0:0:0:
320,192,62929,128,8,63108:0:0:0:0:
192,192,63108,128,0,63287:0:0:0:0:
448,192,63197,1,0,0:0:0:0:
64,192,63287,128,2,64001:0:0:0:0:
320,192,63287,1,0,0:0:0:0:
448,192,63465,128,0,63644:0:0:0:0:
320,192,63554,1,0,0:0:0:0:
192,192,63644,1,8,0:0:0:0:
448,192,63822,128,0,64001:0:0:0:0:
192,192,63912,1,0,0:0:0:0:
320,192,64001,1,2,0:0:0:0:
192,192,64179,128,2,64358:0:0:0:0:
448,192,64269,1,0,0:0:0:0:
64,192,64358,1,8,0:0:0:0:
320,192,64358,128,0,64537:0:0:0:0:
192,192,64537,128,0,64715:0:0:0:0:
320,192,64626,1,0,0:0:0:0:
64,192,64715,1,2,0:0:0:0:
448,192,64715,128,0,65429:0:0:0:0:
64,192,64894,1,0,0:0:0:0:
192,192,64983,1,0,0:0:0:0:
320,192,65072,128,8,65429:0:0:0:0:
64,192,65251,1,0,0:0:0:0:
192,192,65340,1,0,0:0:0:0:
64,192,65429,1,2,0:0:0:0:
320,192,65608,128,0,65787:0:0:0:0:
64,192,65697,1,0,0:0:0:0:
192,192,65787,128,8,65965:0:0:0:0:
448,192,65787,1,0,0:0:0:0:
448,192,65965,128,0,66144:0:0:0:0:
320,192,66054,1,0,0:0:0:0:
64,192,66144,128,2,66858:0:0:0:0:
192,192,66144,1,0,0:0:0:0:
320,192,66322,128,8,66501:0:0:0:0:
192,192,66412,1,0,0:0:0:0:
448,192,66501,1,2,0:0:0:0:
320,192,66679,128,0,66858:0:0:0:0:
192,192,66769,1,8,0:0:0:0:
448,192,66858,1,2,0:0:0:0:
192,192,66947,1,8,0:0:0:0:
448,192,67037,128,2,67215:0:0:0:0:
320,192,67126,1,0,0:0:0:0:
192,192,67215,1,0,0:0:0:0:
64,192,67215,1,8,0:0:0:0:
320,192,67304,1,8,0:0:0:0:
64,192,67394,1,8,0:0:0:0:
448,192,67394,128,0,67572:0:0:0:0:
192,192,67483,1,8,0:0:0:0:
64,192,67572,128,2,67929:0:0:0:0:
320,192,67572,1,4,0:0:0:0:
448,192,67751,1,0,0:0:0:0:
320,192,67840,1,0,0:0:0:0:
192,192,67929,1,8,0:0:0:0:
448,192,67929,1,0,0:0:0:0:
64,192,68108,1,0,0:0:0:0:
320,192,68108,128,0,68197:0:0:0:0:
192,192,68197,1,0,0:0:0:0:
64,192,68287,1,2,0:0:0:0:
448,192,68287,1,0,0:0:0:0:
192,192,68465,1,0,0:0:0:0:
320,192,68554,1,0,0:0:0:0:
64,192,68644,1,8,0:0:0:0:
448,192,68644,128,0,68733:0:0:0:0:
192,192,68733,1,0,0:0:0:0:
320,192,68822,128,0,68912:0:0:0:0:
64,192,68912,1,0,0:0:0:0:
192,192,69001,128,2,69537:0:0:0:0:
448,192,69001,1,0,0:0:0:0:
64,192,69179,1,0,0:0:0:0:
320,192,69269,1,0,0:0:0:0:
64,192,69358,1,8,0:0:0:0:
448,192,69358,1,0,0:0:0:0:
320,192,69537,128,0,70072:0:0:0:0:
192,192,69626,1,0,0:0:0:0:
64,192,69715,1,2,0:0:0:0:
448,192,69715,1,0,0:0:0:0:
192,192,69894,1,8,0:0:0:0:
448,192,69983,1,0,0:0:0:0:
192,192,70072,1,0,0:0:0:0:
64,192,70072,128,8,70162:0:0:0:0:
192,192,70251,128,0,70340:0:0:0:0:
320,192,70429,1,2,0:0:0:0:
448,192,70429,128,0,71679:0:0:0:0:
64,192,70608,1,0,0:0:0:0:
192,192,70697,1,0,0:0:0:0:
64,192,70787,1,8,0:0:0:0:
320,192,70787,1,0,0:0:0:0:
192,192,70965,1,0,0:0:0:0:
320,192,71054,1,0,0:0:0:0:
64,192,71144,128,2,71679:0:0:0:0:
192,192,71144,1,0,0:0:0:0:
320,192,71322,1,0,0:0:0:0:
192,192,71412,1,0,0:0:0:0:
320,192,71501,1,8,0:0:0:0:
192,192,71679,1,0,0:0:0:0:
320,192,71769,1,0,0:0:0:0:
448,192,71858,1,0,0:0:0:0:
192,192,71858,128,2,72215:0:0:0:0:
320,192,72037,1,8,0:0:0:0:
448,192,72037,1,0,0:0:0:0:
64,192,72126,1,0,0:0:0:0:
320,192,72215,1,8,0:0:0:0:
448,192,72215,1,0,0:0:0:0:
64,192,72394,1,4,0:0:0:0:
320,192,72394,1,0,0:0:0:0:
448,192,72394,128,0,73287:0:0:0:0:
192,192,72483,1,8,0:0:0:0:
64,192,72572,1,8,0:0:0:0:
320,192,72662,1,8,0:0:0:0:
192,192,72751,1,8,0:0:0:0:
64,192,72840,1,8,0:0:0:0:
320,192,72929,1,8,0:0:0:0:
192,192,73019,1,8,0:0:0:0:
64,192,73108,1,8,0:0:0:0:
320,192,73197,1,8,0:0:0:0:
192,192,73287,128,4,73644:0:0:0:0:
64,192,73287,1,2,0:0:0:0:
320,192,73465,1,0,0:0:0:0:
64,192,73554,1,0,0:0:0:0:
320,192,73644,1,8,0:0:0:0:
448,192,73644,1,0,0:0:0:0:
64,192,73822,128,0,74358:0:0:0:0:
192,192,73912,1,0,0:0:0:0:
320,192,74001,1,2,0:0:0:0:
448,192,74001,1,0,0:0:0:0:
192,192,74179,1,0,0:0:0:0:
320,192,74269,1,0,0:0:0:0:
448,192,74358,128,0,74715:0:0:0:0:
192,192,74358,1,8,0:0:0:0:
320,192,74537,1,0,0:0:0:0:
192,192,74626,1,0,0:0:0:0:
64,192,74715,128,2,75429:0:0:0:0:
320,192,74715,1,0,0:0:0:0:
448,192,74894,1,0,0:0:0:0:
192,192,74983,1,0,0:0:0:0:
320,192,75072,1,8,0:0:0:0:
448,192,75072,1,0,0:0:0:0:
192,192,75251,1,0,0:0:0:0:
320,192,75340,1,0,0:0:0:0:
192,192,75429,1,2,0:0:0:0:
448,192,75429,1,0,0:0:0:0:
320,192,75608,128,8,75697:0:0:0:0:
448,192,75608,1,0,0:0:0:0:
64,192,75697,1,0,0:0:0:0:
192,192,75787,128,8,75876:0:0:0:0:
448,192,75787,1,0,0:0:0:0:
64,192,75965,128,0,76054:0:0:0:0:
320,192,76144,1,2,0:0:0:0:
448,192,76144,128,0,76679:0:0:0:0:
64,192,76322,1,0,0:0:0:0:
192,192,76412,1,0,0:0:0:0:
64,192,76501,1,8,0:0:0:0:
320,192,76501,1,0,0:0:0:0:
64,192,76679,128,0,77215:0:0:0:0:
192,192,76769,1,0,0:0:0:0:
448,192,76858,1,0,0:0:0:0:
320,192,76858,1,2,0:0:0:0:
320,192,77037,1,0,0:0:0:0:
192,192,77126,1,0,0:0:0:0:
320,192,77215,128,8,77572:0:0:0:0:
448,192,77215,1,0,0:0:0:0:
64,192,77394,1,0,0:0:0:0:
192,192,77483,1,0,0:0:0:0:
64,192,77572,1,2,0:0:0:0:
448,192,77572,128,0,79001:0:0:0:0:
192,192,77751,1,0,0:0:0:0:
64,192,77751,1,8,0:0:0:0:
320,192,77840,1,0,0:0:0:0:
64,192,77929,1,8,0:0:0:0:
192,192,77929,1,0,0:0:0:0:
320,192,78108,1,2,0:0:0:0:
192,192,78197,1,8,0:0:0:0:
64,192,78287,1,8,0:0:0:0:
192,192,78376,1,8,0:0:0:0:
320,192,78465,1,8,0:0:0:0:
64,192,78554,1,8,0:0:0:0:
192,192,78644,1,8,0:0:0:0:
320,192,78733,1,8,0:0:0:0:
64,192,78822,1,8,0:0:0:0:
192,192,78912,1,8,0:0:0:0:
64,192,79001,128,2,79715:0:0:0:0:
320,192,79001,1,4,0:0:0:0:
192,192,79179,1,0,0:0:0:0:
320,192,79269,1,0,0:0:0:0:
192,192,79358,1,8,0:0:0:0:
448,192,79358,1,0,0:0:0:0:
448,192,79537,1,0,0:0:0:0:
320,192,79626,1,0,0:0:0:0:
192,192,79715,128,2,80429:0:0:0:0:
448,192,79715,1,0,0:0:0:0:
320,192,79894,1,0,0:0:0:0:
64,192,79983,1,0,0:0:0:0:
448,192,80072,1,0,0:0:0:0:
320,192,80072,1,8,0:0:0:0:
448,192,80251,1,0,0:0:0:0:
64,192,80340,1,0,0:0:0:0:
320,192,80429,128,2,81144:0:0:0:0:
448,192,80429,1,0,0:0:0:0:
64,192,80608,1,0,0:0:0:0:
192,192,80697,1,0,0:0:0:0:
64,192,80787,1,8,0:0:0:0:
448,192,80787,1,0,0:0:0:0:
448,192,80965,1,0,0:0:0:0:
192,192,81054,1,0,0:0:0:0:
64,192,81144,1,2,0:0:0:0:
448,192,81144,128,0,81679:0:0:0:0:
192,192,81322,1,8,0:0:0:0:
320,192,81412,1,0,0:0:0:0:
64,192,81501,1,8,0:0:0:0:
192,192,81501,1,0,0:0:0:0:
320,192,81679,1,0,0:0:0:0:
192,192,81769,1,0,0:0:0:0:
64,192,81858,128,2,82572:0:0:0:0:
448,192,81858,1,0,0:0:0:0:
320,192,82037,1,8,0:0:0:0:
448,192,82037,1,0,0:0:0:0:
192,192,82126,1,0,0:0:0:0:
320,192,82215,1,8,0:0:0:0:
448,192,82215,1,0,0:0:0:0:
448,192,82394,1,0,0:0:0:0:
192,192,82394,1,0,0:0:0:0:
320,192,82483,1,0,0:0:0:0:
192,192,82572,1,0,0:0:0:0:
448,192,82572,128,0,83108:0:0:0:0:
64,192,82751,1,8,0:0:0:0:
192,192,82751,1,0,0:0:0:0:
192,192,82929,1,0,0:0:0:0:
64,192,82929,1,8,0:0:0:0:
320,192,83019,1,0,0:0:0:0:
64,192,83108,1,8,0:0:0:0:
192,192,83197,1,0,0:0:0:0:
320,192,83287,1,8,0:0:0:0:
448,192,83287,1,0,0:0:0:0:
64,192,83376,1,8,0:0:0:0:
192,192,83376,1,0,0:0:0:0:
320,192,83465,1,8,0:0:0:0:
448,192,83465,1,0,0:0:0:0:
192,192,83554,1,0,0:0:0:0:
64,192,83554,1,8,0:0:0:0:
320,192,83644,1,8,0:0:0:0:
448,192,83644,1,0,0:0:0:0:
64,192,83733,1,8,0:0:0:0:
192,192,83733,1,0,0:0:0:0:
320,192,83822,1,8,0:0:0:0:
448,192,83822,1,0,0:0:0:0:
64,192,83912,1,8,0:0:0:0:
192,192,83912,1,0,0:0:0:0:
448,192,84001,1,8,0:0:0:0:
320,192,84060,1,8,0:0:0:0:
192,192,84120,1,8,0:0:0:0:
64,192,84179,1,8,0:0:0:0:
448,192,84239,1,8,0:0:0:0:
320,192,84299,1,8,0:0:0:0:
192,192,84358,1,8,0:0:0:0:
64,192,84418,1,8,0:0:0:0:
448,192,84477,1,8,0:0:0:0:
320,192,84537,1,8,0:0:0:0:
64,192,84596,1,8,0:0:0:0:
192,192,84656,1,8,0:0:0:0:
64,192,84715,128,2,84894:0:0:0:0:
320,192,84715,1,4,0:0:0:0:
448,192,84715,128,0,84894:0:0:0:0:
192,192,84894,1,0,0:0:0:0:
320,192,84983,1,0,0:0:0:0:
192,192,85072,128,8,85251:0:0:0:0:
448,192,85072,128,0,85251:0:0:0:0:
64,192,85251,1,0,0:0:0:0:
320,192,85340,1,0,0:0:0:0:
64,192,85429,128,2,85608:0:0:0:0:
448,192,85429,128,0,85608:0:0:0:0:
320,192,85608,1,0,0:0:0:0:
192,192,85697,1,0,0:0:0:0:
320,192,85787,128,8,85965:0:0:0:0:
448,192,85787,128,0,85965:0:0:0:0:
64,192,85965,1,0,0:0:0:0:
320,192,86054,1,0,0:0:0:0:
64,192,86144,128,2,86322:0:0:0:0:
192,192,86144,128,0,86322:0:0:0:0:
448,192,86322,1,0,0:0:0:0:
320,192,86412,1,0,0:0:0:0:
192,192,86501,128,8,86679:0:0:0:0:
448,192,86501,128,0,86679:0:0:0:0:
64,192,86679,1,0,0:0:0:0:
192,192,86769,1,8,0:0:0:0:
448,192,86858,1,0,0:0:0:0:
320,192,86858,1,2,0:0:0:0:
64,192,86947,1,8,0:0:0:0:
192,192,86947,1,0,0:0:0:0:
320,192,87037,1,2,0:0:0:0:
448,192,87037,1,0,0:0:0:0:
64,192,87126,1,0,0:0:0:0:
192,192,87126,1,0,0:0:0:0:
320,192,87215,128,8,87394:0:0:0:0:
448,192,87215,128,0,87394:0:0:0:0:
192,192,87394,1,0,0:0:0:0:
64,192,87572,128,2,87751:0:0:0:0:
448,192,87572,128,0,87751:0:0:0:0:
192,192,87751,1,0,0:0:0:0:
320,192,87840,1,0,0:0:0:0:
64,192,87929,128,8,88108:0:0:0:0:
192,192,87929,128,0,88108:0:0:0:0:
448,192,88108,1,0,0:0:0:0:
192,192,88197,1,0,0:0:0:0:
320,192,88287,128,2,88465:0:0:0:0:
448,192,88287,128,0,88465:0:0:0:0:
64,192,88465,1,0,0:0:0:0:
192,192,88554,1,0,0:0:0:0:
64,192,88644,128,8,88822:0:0:0:0:
320,192,88644,128,0,88822:0:0:0:0:
448,192,88822,1,0,0:0:0:0:
192,192,88912,1,0,0:0:0:0:
320,192,89001,128,2,89179:0:0:0:0:
448,192,89001,128,0,89179:0:0:0:0:
64,192,89179,1,8,0:0:0:0:
192,192,89179,1,0,0:0:0:0:
64,192,89358,128,8,89537:0:0:0:0:
192,192,89358,128,0,89537:0:0:0:0:
448,192,89537,1,0,0:0:0:0:
320,192,89626,1,8,0:0:0:0:
192,192,89715,1,0,0:0:0:0:
64,192,89715,1,2,0:0:0:0:
320,192,89804,1,8,0:0:0:0:
448,192,89804,1,0,0:0:0:0:
64,192,89894,1,2,0:0:0:0:
192,192,89894,1,0,0:0:0:0:
64,192,90072,128,8,90340:0:0:0:0:
448,192,90072,1,0,0:0:0:0:
320,192,90162,1,8,0:0:0:0:
192,192,90251,1,8,0:0:0:0:
320,192,90340,1,8,0:0:0:0:
192,192,90429,128,2,90608:0:0:0:0:
448,192,90429,128,0,90608:0:0:0:0:
64,192,90608,1,0,0:0:0:0:
320,192,90697,1,0,0:0:0:0:
64,192,90787,128,8,90965:0:0:0:0:
192,192,90787,1,4,0:0:0:0:
448,192,90787,128,0,90965:0:0:0:0:
192,192,90965,1,0,0:0:0:0:
320,192,91054,1,0,0:0:0:0:
192,192,91144,128,0,91322:0:0:0:0:
64,192,91144,128,2,91322:0:0:0:0:
448,192,91322,1,0,0:0:0:0:
320,192,91412,1,0,0:0:0:0:
192,192,91501,128,8,91679:0:0:0:0:
448,192,91501,128,0,91679:0:0:0:0:
64,192,91679,1,0,0:0:0:0:
192,192,91769,1,0,0:0:0:0:
448,192,91858,128,0,92037:0:0:0:0:
320,192,91858,128,2,92037:0:0:0:0:
64,192,92037,1,0,0:0:0:0:
192,192,92126,1,0,0:0:0:0:
64,192,92215,128,8,92394:0:0:0:0:
448,192,92215,128,0,92394:0:0:0:0:
320,192,92394,1,0,0:0:0:0:
192,192,92483,1,8,0:0:0:0:
448,192,92572,1,0,0:0:0:0:
320,192,92572,1,2,0:0:0:0:
192,192,92662,1,0,0:0:0:0:
64,192,92662,1,8,0:0:0:0:
320,192,92751,1,2,0:0:0:0:
448,192,92751,1,0,0:0:0:0:
64,192,92840,1,0,0:0:0:0:
192,192,92840,1,0,0:0:0:0:
320,192,92929,128,8,93108:0:0:0:0:
448,192,92929,128,0,93108:0:0:0:0:
192,192,93108,1,0,0:0:0:0:
320,192,93287,128,0,93465:0:0:0:0:
64,192,93287,128,2,93465:0:0:0:0:
448,192,93465,1,0,0:0:0:0:
320,192,93554,1,0,0:0:0:0:
64,192,93644,128,8,93822:0:0:0:0:
192,192,93644,128,0,93822:0:0:0:0:
448,192,93822,1,0,0:0:0:0:
320,192,93912,1,0,0:0:0:0:
192,192,94001,128,2,94179:0:0:0:0:
448,192,94001,128,0,94179:0:0:0:0:
64,192,94179,1,0,0:0:0:0:
192,192,94269,1,0,0:0:0:0:
64,192,94358,128,8,94537:0:0:0:0:
320,192,94358,128,0,94537:0:0:0:0:
448,192,94537,1,0,0:0:0:0:
320,192,94626,1,0,0:0:0:0:
64,192,94715,128,2,94894:0:0:0:0:
192,192,94715,128,8,94894:0:0:0:0:
448,192,94894,1,2,0:0:0:0:
320,192,94894,1,8,0:0:0:0:
320,192,95072,128,2,95251:0:0:0:0:
448,192,95072,128,8,95251:0:0:0:0:
192,192,95251,1,0,0:0:0:0:
320,192,95340,1,8,0:0:0:0:
64,192,95429,1,2,0:0:0:0:
192,192,95429,1,0,0:0:0:0:
448,192,95519,1,0,0:0:0:0:
320,192,95519,1,8,0:0:0:0:
192,192,95608,1,0,0:0:0:0:
64,192,95608,1,2,0:0:0:0:
64,192,95787,128,8,96054:0:0:0:0:
448,192,95787,1,0,0:0:0:0:
192,192,95876,1,8,0:0:0:0:
320,192,95965,1,8,0:0:0:0:
192,192,96054,1,8,0:0:0:0:
320,192,96144,1,8,0:0:0:0:
448,192,96144,1,2,0:0:0:0:
320,192,96322,128,0,97215:0:0:0:0:
64,192,97215,128,8,97304:0:0:0:0:
192,192,97215,128,2,97304:0:0:0:0:
448,192,97215,128,0,97304:0:0:0:0:
64,192,97394,128,2,98108:0:0:0:0:
192,192,97394,128,8,98019:0:0:0:0:
320,192,97394,128,0,97929:0:0:0:0:
448,192,97929,128,0,98287:0:0:0:0:
320,192,98019,128,0,98287:0:0:0:0:
192,192,98108,128,0,98287:0:0:0:0:
64,192,98197,128,0,98287:0:0:0:0:
