osu file format v14

[General]
AudioFilename: audio.mp3
AudioLeadIn: 0
PreviewTime: 58428
Countdown: 0
SampleSet: Normal
StackLeniency: 0.7
Mode: 1
LetterboxInBreaks: 0
WidescreenStoryboard: 0

[Editor]
Bookmarks: 1338
DistanceSpacing: 1.6
BeatDivisor: 4
GridSize: 4
TimelineZoom: 2.5

[Metadata]
Title:Coming Out of THE WORLD.
TitleUnicode:Coming Out of THE WORLD.
Artist:Tokai OnAir Tetsuya
ArtistUnicode:東海オンエアてつや
Creator:_Rise
Version:Exposure
Source:
Tags:
BeatmapID:1714548
BeatmapSetID:817628

[Difficulty]
HPDrainRate:6
CircleSize:5
OverallDifficulty:6
ApproachRate:5
SliderMultiplier:1.4
SliderTickRate:1

[Events]
//Background and Video events
0,0,"bg.jpg",0,0
//Break Periods
2,53228,56799
2,183428,184514
//Storyboard Layer 0 (Background)
//Storyboard Layer 1 (Fail)
//Storyboard Layer 2 (Pass)
//Storyboard Layer 3 (Foreground)
//Storyboard Sound Samples

[TimingPoints]
914,342.857142857143,4,1,0,85,1,0
11799,-100,4,1,0,90,0,0
17285,-100,4,1,0,50,0,0
17628,-105.263157894737,4,1,0,50,0,0
17971,-111.111111111111,4,1,0,50,0,0
18314,-117.647058823529,4,1,0,50,0,0
18656,-100,4,1,0,85,0,0
24142,-100,4,1,0,90,0,0
40599,-100,4,1,0,85,0,0
46085,-100,4,1,0,90,0,0
58428,-100,4,1,0,95,0,0
58514,-100,4,1,0,95,0,1
91385,-100,4,1,0,85,0,1
91428,-100,4,1,0,85,0,0
96999,-100,4,1,0,90,0,0
102314,-100,4,1,0,85,0,0
107799,-80,4,1,0,90,0,0
118942,-100,4,1,0,90,0,0
126999,-100,4,1,0,95,0,0
127085,-100,4,1,0,95,0,1
148942,-100,4,1,0,85,0,1
149028,-100,4,1,0,85,0,0
168314,-100,4,1,0,75,0,0
170885,-100,4,1,0,70,0,0
176371,-100,4,1,0,75,0,0
179114,-100,4,1,0,80,0,0
180485,-100,4,1,0,85,0,0
181856,-100,4,1,0,90,0,0
183314,-100,4,1,0,5,0,0
185628,-100,4,1,0,90,0,0
185971,-100,4,1,0,95,0,0
186056,-100,4,1,0,95,0,1
191456,-100,4,1,0,80,0,1
191542,-100,4,1,0,80,0,0
194199,-100,4,1,0,95,0,0
194285,-100,4,1,0,95,0,1
198228,-100,4,1,0,95,0,0

[HitObjects]
249,184,913,5,4,0:0:0:0:
256,192,1085,12,0,6056,0:0:0:0:
257,192,6399,5,0,0:0:0:0:
257,192,6742,1,2,0:0:0:0:
257,192,7256,1,0,0:0:0:0:
257,192,7428,1,2,0:0:0:0:
257,192,7771,1,0,0:0:0:0:
257,192,7942,1,0,0:0:0:0:
257,192,8113,1,2,0:0:0:0:
262,187,8628,1,0,0:0:0:0:
262,187,8799,1,2,0:0:0:0:
262,187,9142,1,0,0:0:0:0:
267,183,9399,1,0,0:0:0:0:
267,183,9485,1,2,0:0:0:0:
260,178,9656,1,0,0:0:0:0:
260,178,9999,1,0,0:0:0:0:
260,178,10171,1,2,0:0:0:0:
268,172,10256,1,2,0:0:0:0:
268,172,10342,1,2,0:0:0:0:
268,172,10428,1,2,0:0:0:0:
260,178,10513,1,0,0:0:0:0:
260,178,10685,1,0,0:0:0:0:
260,178,10856,1,0,0:0:0:0:
260,178,11028,1,0,0:0:0:0:
260,178,11199,1,2,0:0:0:0:
258,168,11542,1,6,0:0:0:0:
258,168,11885,1,4,0:0:0:0:
257,164,12142,1,0,0:0:0:0:
257,164,12228,1,2,0:0:0:0:
262,183,12399,1,2,0:0:0:0:
258,168,12571,1,0,0:0:0:0:
260,179,12742,1,0,0:0:0:0:
260,179,12828,1,0,0:0:0:0:
260,179,12913,1,2,0:0:0:0:
260,179,13085,1,0,0:0:0:0:
257,164,13256,1,2,0:0:0:0:
259,164,13428,1,0,0:0:0:0:
258,168,13513,1,2,0:0:0:0:
258,168,13599,1,2,0:0:0:0:
259,164,13771,1,0,0:0:0:0:
259,164,13942,1,2,0:0:0:0:
259,164,14028,1,0,0:0:0:0:
257,164,14199,1,0,0:0:0:0:
257,164,14285,1,2,0:0:0:0:
259,164,14371,1,2,0:0:0:0:
259,164,14456,1,0,0:0:0:0:
258,168,14628,1,2,0:0:0:0:
249,174,14885,1,0,0:0:0:0:
251,168,14971,1,2,0:0:0:0:
256,172,15142,1,2,0:0:0:0:
252,170,15314,1,0,0:0:0:0:
255,169,15399,1,2,0:0:0:0:
251,168,15485,1,0,0:0:0:0:
250,171,15571,1,0,0:0:0:0:
251,168,15656,1,2,0:0:0:0:
256,162,15828,1,0,0:0:0:0:
255,169,15914,1,0,0:0:0:0:
258,173,15999,1,0,0:0:0:0:
258,173,16171,1,2,0:0:0:0:
258,173,16342,1,2,0:0:0:0:
258,173,16514,1,2,0:0:0:0:
257,165,16685,1,0,0:0:0:0:
265,176,16771,1,0,0:0:0:0:
256,162,16856,1,2,0:0:0:0:
262,161,16942,1,2,0:0:0:0:
265,162,17028,1,2,0:0:0:0:
253,168,17199,1,0,0:0:0:0:
253,168,17371,1,2,0:0:0:0:
257,165,17714,1,2,0:0:0:0:
253,161,18056,1,2,0:0:0:0:
253,161,18399,1,2,0:0:0:0:
258,188,18742,1,4,0:0:0:0:
260,179,19428,1,2,0:0:0:0:
258,188,19942,1,2,0:0:0:0:
260,179,20285,1,2,0:0:0:0:
261,179,20628,1,2,0:0:0:0:
258,175,20799,1,2,0:0:0:0:
262,174,21142,1,0,0:0:0:0:
261,179,21485,1,2,0:0:0:0:
258,183,21828,1,2,0:0:0:0:
260,179,21999,1,2,0:0:0:0:
254,170,22342,1,0,0:0:0:0:
254,170,22514,1,2,0:0:0:0:
262,171,22856,1,4,0:0:0:0:
262,171,23542,1,4,0:0:0:0:
262,171,24228,1,4,0:0:0:0:
258,161,24571,1,0,0:0:0:0:
259,161,24914,1,0,0:0:0:0:
259,161,25256,1,0,0:0:0:0:
258,161,25599,1,0,0:0:0:0:
259,161,25942,1,0,0:0:0:0:
259,161,26285,1,0,0:0:0:0:
258,161,26628,1,0,0:0:0:0:
264,160,26799,1,2,0:0:0:0:
264,160,26971,1,0,0:0:0:0:
259,161,27228,1,0,0:0:0:0:
259,161,27314,1,2,0:0:0:0:
258,161,27485,1,2,0:0:0:0:
258,161,27656,1,0,0:0:0:0:
258,162,27742,1,2,0:0:0:0:
258,162,27828,1,0,0:0:0:0:
258,162,27999,1,2,0:0:0:0:
259,161,28171,1,0,0:0:0:0:
271,154,28256,1,0,0:0:0:0:
259,161,28342,1,2,0:0:0:0:
258,161,28685,1,2,0:0:0:0:
258,162,29028,1,2,0:0:0:0:
259,161,29199,1,0,0:0:0:0:
259,161,29371,1,6,0:0:0:0:
249,178,29714,1,4,0:0:0:0:
249,181,30056,1,2,0:0:0:0:
249,180,30314,1,2,0:0:0:0:
249,180,30399,1,0,0:0:0:0:
249,178,30571,1,0,0:0:0:0:
249,178,30742,1,2,0:0:0:0:
254,181,30914,1,0,0:0:0:0:
254,181,31085,1,0,0:0:0:0:
258,177,31428,1,2,0:0:0:0:
258,177,31599,1,0,0:0:0:0:
258,177,31685,1,0,0:0:0:0:
258,175,31771,1,0,0:0:0:0:
258,177,31942,1,0,0:0:0:0:
258,177,32114,1,2,0:0:0:0:
258,177,32285,1,2,0:0:0:0:
258,177,32456,1,0,0:0:0:0:
264,174,32628,1,0,0:0:0:0:
264,174,32714,1,0,0:0:0:0:
264,174,32799,1,2,0:0:0:0:
262,172,32971,1,2,0:0:0:0:
262,172,33056,1,0,0:0:0:0:
264,174,33314,1,0,0:0:0:0:
264,174,33485,1,2,0:0:0:0:
266,164,33656,1,0,0:0:0:0:
266,164,33828,1,2,0:0:0:0:
244,152,34085,1,0,0:0:0:0:
255,161,34171,1,2,0:0:0:0:
253,159,34342,1,0,0:0:0:0:
242,142,34514,1,2,0:0:0:0:
253,160,34599,1,2,0:0:0:0:
253,161,34685,1,0,0:0:0:0:
253,161,34856,1,2,0:0:0:0:
262,180,35028,1,0,0:0:0:0:
262,180,35114,1,0,0:0:0:0:
262,180,35199,1,0,0:0:0:0:
251,186,35542,1,2,0:0:0:0:
264,168,35799,1,2,0:0:0:0:
264,168,35885,1,0,0:0:0:0:
264,168,36056,1,0,0:0:0:0:
264,168,36228,1,2,0:0:0:0:
264,167,36399,1,0,0:0:0:0:
247,163,36571,1,0,0:0:0:0:
247,163,36742,1,0,0:0:0:0:
247,163,36828,1,0,0:0:0:0:
247,163,36914,1,2,0:0:0:0:
247,163,37085,1,0,0:0:0:0:
247,163,37171,1,0,0:0:0:0:
247,163,37256,1,0,0:0:0:0:
247,158,37428,1,0,0:0:0:0:
247,163,37599,1,2,0:0:0:0:
211,154,37771,1,0,0:0:0:0:
211,154,37942,1,0,0:0:0:0:
224,163,38114,1,2,0:0:0:0:
233,159,38199,1,2,0:0:0:0:
224,163,38285,1,2,0:0:0:0:
226,155,38456,1,0,0:0:0:0:
222,156,38542,1,2,0:0:0:0:
227,155,38799,1,0,0:0:0:0:
227,155,38971,1,2,0:0:0:0:
258,154,39142,1,0,0:0:0:0:
232,157,39228,1,0,0:0:0:0:
232,157,39314,1,0,0:0:0:0:
232,157,39399,1,2,0:0:0:0:
248,146,39485,1,0,0:0:0:0:
242,162,39656,1,2,0:0:0:0:
234,151,39914,1,2,0:0:0:0:
234,151,40085,1,2,0:0:0:0:
234,151,40171,1,0,0:0:0:0:
234,151,40342,1,6,0:0:0:0:
234,151,40685,1,4,0:0:0:0:
252,158,41199,1,2,0:0:0:0:
258,161,41542,1,2,0:0:0:0:
258,161,41714,1,0,0:0:0:0:
252,158,41885,1,0,0:0:0:0:
254,146,42056,1,4,0:0:0:0:
251,151,42571,1,2,0:0:0:0:
251,150,42914,1,0,0:0:0:0:
251,150,43085,1,2,0:0:0:0:
251,151,43428,1,4,0:0:0:0:
238,159,43942,1,2,0:0:0:0:
238,158,44285,1,2,0:0:0:0:
238,158,44456,1,0,0:0:0:0:
238,159,44628,1,0,0:0:0:0:
238,159,44799,1,4,0:0:0:0:
232,153,45142,1,0,0:0:0:0:
232,153,45314,1,2,0:0:0:0:
233,153,45485,1,2,0:0:0:0:
233,152,45828,1,2,0:0:0:0:
232,153,46171,1,4,0:0:0:0:
252,175,46342,1,2,0:0:0:0:
252,175,46514,1,0,0:0:0:0:
252,175,46685,1,2,0:0:0:0:
252,175,46856,1,0,0:0:0:0:
253,160,47199,1,0,0:0:0:0:
253,166,47542,1,2,0:0:0:0:
252,175,47885,1,0,0:0:0:0:
252,175,48056,1,2,0:0:0:0:
241,168,48228,1,0,0:0:0:0:
259,165,48399,1,0,0:0:0:0:
242,167,48571,1,2,0:0:0:0:
257,196,48914,1,4,0:0:0:0:
257,196,49256,1,2,0:0:0:0:
257,196,49514,1,2,0:0:0:0:
257,196,49599,1,0,0:0:0:0:
252,200,49771,1,0,0:0:0:0:
252,200,49942,1,2,0:0:0:0:
252,200,50114,1,2,0:0:0:0:
257,196,50285,1,0,0:0:0:0:
255,204,50456,1,0,0:0:0:0:
255,204,50542,1,0,0:0:0:0:
255,204,50628,1,2,0:0:0:0:
255,204,50799,1,2,0:0:0:0:
255,204,50885,1,2,0:0:0:0:
255,204,50971,1,2,0:0:0:0:
255,204,51142,1,0,0:0:0:0:
260,202,51314,1,0,0:0:0:0:
270,221,51485,1,6,0:0:0:0:
256,192,51656,12,0,53028,0:0:0:0:
260,199,57999,5,0,0:0:0:0:
260,192,58171,1,6,0:0:0:0:
260,192,58514,1,4,0:0:0:0:
255,181,58771,1,0,0:0:0:0:
255,181,58856,1,2,0:0:0:0:
252,183,59028,1,0,0:0:0:0:
243,174,59199,1,2,0:0:0:0:
243,174,59371,1,0,0:0:0:0:
243,174,59456,1,0,0:0:0:0:
243,174,59542,1,2,0:0:0:0:
240,180,59714,1,0,0:0:0:0:
262,182,59885,1,2,0:0:0:0:
262,182,60056,1,0,0:0:0:0:
262,182,60142,1,2,0:0:0:0:
262,182,60228,1,2,0:0:0:0:
262,182,60399,1,0,0:0:0:0:
269,176,60571,1,2,0:0:0:0:
269,176,60656,1,0,0:0:0:0:
273,171,60828,1,0,0:0:0:0:
269,176,60914,1,2,0:0:0:0:
273,170,60999,1,2,0:0:0:0:
269,176,61085,1,0,0:0:0:0:
275,173,61256,1,2,0:0:0:0:
275,168,61428,1,0,0:0:0:0:
275,168,61514,1,2,0:0:0:0:
275,173,61599,1,2,0:0:0:0:
273,171,61771,1,2,0:0:0:0:
268,160,61942,1,0,0:0:0:0:
268,163,62028,1,2,0:0:0:0:
268,163,62114,1,0,0:0:0:0:
268,163,62199,1,0,0:0:0:0:
268,163,62285,1,2,0:0:0:0:
268,163,62456,1,2,0:0:0:0:
268,163,62628,1,0,0:0:0:0:
268,160,62971,1,2,0:0:0:0:
263,161,63314,1,0,0:0:0:0:
254,150,63485,1,0,0:0:0:0:
263,161,63656,1,2,0:0:0:0:
257,151,63828,1,2,0:0:0:0:
257,151,63914,1,2,0:0:0:0:
257,151,63999,1,0,0:0:0:0:
260,144,64256,1,0,0:0:0:0:
260,148,64342,1,2,0:0:0:0:
260,148,64514,1,0,0:0:0:0:
264,141,64685,1,2,0:0:0:0:
257,151,64856,1,0,0:0:0:0:
257,151,64942,1,0,0:0:0:0:
257,151,65028,1,2,0:0:0:0:
251,160,65199,1,2,0:0:0:0:
251,160,65371,1,0,0:0:0:0:
262,163,65456,1,2,0:0:0:0:
262,163,65628,1,2,0:0:0:0:
262,163,65714,1,0,0:0:0:0:
250,167,65885,1,2,0:0:0:0:
250,167,65971,1,0,0:0:0:0:
250,167,66056,1,0,0:0:0:0:
250,167,66142,1,2,0:0:0:0:
250,167,66314,1,2,0:0:0:0:
250,167,66399,1,0,0:0:0:0:
242,150,66571,1,2,0:0:0:0:
242,150,66656,1,2,0:0:0:0:
242,150,66742,1,0,0:0:0:0:
250,167,66914,1,0,0:0:0:0:
250,161,67085,1,2,0:0:0:0:
250,161,67256,1,2,0:0:0:0:
250,161,67342,1,2,0:0:0:0:
250,161,67428,1,0,0:0:0:0:
261,173,67514,1,0,0:0:0:0:
261,173,67599,1,2,0:0:0:0:
261,173,67685,1,0,0:0:0:0:
261,173,67771,1,2,0:0:0:0:
261,173,67942,1,0,0:0:0:0:
268,183,68114,1,0,0:0:0:0:
255,174,68285,1,2,0:0:0:0:
255,174,68456,1,2,0:0:0:0:
260,167,68714,1,2,0:0:0:0:
260,167,68799,1,0,0:0:0:0:
253,168,68971,1,2,0:0:0:0:
253,168,69056,1,0,0:0:0:0:
253,168,69142,1,2,0:0:0:0:
253,168,69228,1,2,0:0:0:0:
253,168,69314,1,0,0:0:0:0:
253,168,69399,1,0,0:0:0:0:
253,168,69485,1,0,0:0:0:0:
255,181,69742,1,0,0:0:0:0:
255,181,69827,1,2,0:0:0:0:
252,183,69999,1,0,0:0:0:0:
243,174,70170,1,2,0:0:0:0:
243,174,70342,1,0,0:0:0:0:
243,174,70427,1,0,0:0:0:0:
243,174,70513,1,2,0:0:0:0:
240,180,70685,1,0,0:0:0:0:
262,182,70856,1,2,0:0:0:0:
254,169,71028,1,0,0:0:0:0:
254,169,71114,1,2,0:0:0:0:
262,182,71199,1,2,0:0:0:0:
262,182,71370,1,0,0:0:0:0:
269,176,71542,1,2,0:0:0:0:
265,165,71628,1,2,0:0:0:0:
265,163,71799,1,0,0:0:0:0:
265,162,71885,1,2,0:0:0:0:
265,162,71971,1,2,0:0:0:0:
269,176,72056,1,0,0:0:0:0:
264,172,72228,1,0,0:0:0:0:
218,164,72399,1,2,0:0:0:0:
244,164,72485,1,2,0:0:0:0:
244,164,72571,1,0,0:0:0:0:
244,164,72656,1,0,0:0:0:0:
244,164,72742,1,2,0:0:0:0:
248,156,72914,1,2,0:0:0:0:
248,156,72999,1,0,0:0:0:0:
242,152,73171,1,2,0:0:0:0:
242,152,73256,1,2,0:0:0:0:
242,152,73342,1,0,0:0:0:0:
242,152,73428,1,2,0:0:0:0:
233,148,73599,1,0,0:0:0:0:
244,164,73942,1,2,0:0:0:0:
244,164,74285,1,0,0:0:0:0:
244,164,74456,1,0,0:0:0:0:
244,164,74628,1,2,0:0:0:0:
260,195,74799,1,2,0:0:0:0:
260,195,74885,1,2,0:0:0:0:
260,195,74971,1,0,0:0:0:0:
234,177,75228,1,0,0:0:0:0:
234,177,75314,1,2,0:0:0:0:
235,172,75485,1,2,0:0:0:0:
235,172,75656,1,0,0:0:0:0:
249,172,75828,1,0,0:0:0:0:
249,172,75914,1,0,0:0:0:0:
249,172,75999,1,2,0:0:0:0:
249,172,76171,1,0,0:0:0:0:
261,185,76342,1,2,0:0:0:0:
261,185,76428,1,0,0:0:0:0:
255,192,76599,1,0,0:0:0:0:
255,192,76685,1,2,0:0:0:0:
261,192,76856,1,2,0:0:0:0:
261,192,76942,1,0,0:0:0:0:
261,192,77028,1,0,0:0:0:0:
261,192,77114,1,2,0:0:0:0:
273,191,77285,1,0,0:0:0:0:
271,196,77371,1,2,0:0:0:0:
273,191,77456,1,2,0:0:0:0:
273,191,77542,1,0,0:0:0:0:
271,196,77628,1,2,0:0:0:0:
271,196,77714,1,0,0:0:0:0:
273,185,77885,1,0,0:0:0:0:
276,200,78056,1,2,0:0:0:0:
276,200,78228,1,2,0:0:0:0:
264,190,78314,1,0,0:0:0:0:
264,188,78399,1,2,0:0:0:0:
264,188,78485,1,2,0:0:0:0:
264,188,78571,1,0,0:0:0:0:
264,188,78656,1,0,0:0:0:0:
264,188,78742,1,2,0:0:0:0:
252,172,78914,1,2,0:0:0:0:
252,172,79085,1,0,0:0:0:0:
246,164,79256,1,2,0:0:0:0:
249,164,79428,1,2,0:0:0:0:
253,160,79685,1,2,0:0:0:0:
253,159,79771,1,0,0:0:0:0:
253,159,79942,1,2,0:0:0:0:
263,159,80028,1,2,0:0:0:0:
263,159,80114,1,0,0:0:0:0:
253,159,80199,1,2,0:0:0:0:
253,159,80285,1,0,0:0:0:0:
253,159,80371,1,0,0:0:0:0:
253,159,80456,1,2,0:0:0:0:
262,166,80628,1,0,0:0:0:0:
262,168,80799,1,2,0:0:0:0:
260,167,80971,1,0,0:0:0:0:
263,159,81056,1,0,0:0:0:0:
260,167,81142,1,2,0:0:0:0:
262,161,81228,1,2,0:0:0:0:
264,174,81314,1,0,0:0:0:0:
262,161,81485,1,2,0:0:0:0:
262,166,81656,1,4,0:0:0:0:
267,181,81999,1,0,0:0:0:0:
267,181,82171,1,2,0:0:0:0:
270,181,82342,1,0,0:0:0:0:
276,195,82514,1,2,0:0:0:0:
270,181,82599,1,0,0:0:0:0:
253,181,82685,1,2,0:0:0:0:
267,181,82771,1,2,0:0:0:0:
267,181,82856,1,2,0:0:0:0:
253,181,83028,1,0,0:0:0:0:
252,176,83199,1,0,0:0:0:0:
253,181,83371,1,2,0:0:0:0:
253,181,83542,1,0,0:0:0:0:
253,181,83714,1,2,0:0:0:0:
253,181,83799,1,0,0:0:0:0:
253,181,83885,1,2,0:0:0:0:
253,181,83971,1,2,0:0:0:0:
272,173,84056,1,0,0:0:0:0:
262,165,84228,1,0,0:0:0:0:
262,165,84399,1,6,0:0:0:0:
253,181,84742,1,0,0:0:0:0:
253,181,84914,1,2,0:0:0:0:
252,181,85085,1,0,0:0:0:0:
252,181,85256,1,2,0:0:0:0:
260,176,85342,1,0,0:0:0:0:
262,191,85428,1,0,0:0:0:0:
258,170,85514,1,2,0:0:0:0:
262,191,85599,1,2,0:0:0:0:
263,174,85771,1,0,0:0:0:0:
256,174,85942,1,0,0:0:0:0:
261,169,86285,1,2,0:0:0:0:
267,174,86542,1,2,0:0:0:0:
261,169,86628,1,0,0:0:0:0:
267,174,86799,1,0,0:0:0:0:
267,174,86885,1,0,0:0:0:0:
267,174,86971,1,2,0:0:0:0:
263,184,87142,1,0,0:0:0:0:
263,184,87314,1,2,0:0:0:0:
264,183,87485,1,2,0:0:0:0:
264,183,87571,1,2,0:0:0:0:
261,181,87656,1,0,0:0:0:0:
270,180,87828,1,2,0:0:0:0:
270,180,87914,1,0,0:0:0:0:
270,180,87999,1,2,0:0:0:0:
270,180,88085,1,2,0:0:0:0:
270,180,88171,1,0,0:0:0:0:
270,180,88256,1,0,0:0:0:0:
270,180,88342,1,2,0:0:0:0:
270,180,88428,1,0,0:0:0:0:
270,180,88514,1,2,0:0:0:0:
264,188,88685,1,4,0:0:0:0:
264,188,88856,1,6,0:0:0:0:
264,188,89199,1,4,0:0:0:0:
264,188,89371,1,6,0:0:0:0:
264,188,89714,1,4,0:0:0:0:
264,188,89885,1,6,0:0:0:0:
264,188,90056,1,4,0:0:0:0:
264,188,90228,1,6,0:0:0:0:
260,165,90742,1,2,0:0:0:0:
260,165,90914,1,0,0:0:0:0:
260,165,91085,1,2,0:0:0:0:
260,165,91256,1,2,0:0:0:0:
260,165,91342,1,2,0:0:0:0:
260,165,91428,1,0,0:0:0:0:
236,174,91771,1,2,0:0:0:0:
237,173,92285,1,0,0:0:0:0:
237,173,92456,1,2,0:0:0:0:
259,191,92799,1,0,0:0:0:0:
259,191,93142,1,2,0:0:0:0:
259,191,93314,1,0,0:0:0:0:
259,191,93656,1,0,0:0:0:0:
259,191,93828,1,2,0:0:0:0:
267,196,94171,1,0,0:0:0:0:
267,196,94514,1,2,0:0:0:0:
267,196,95028,1,0,0:0:0:0:
267,196,95199,1,2,0:0:0:0:
256,208,95542,1,0,0:0:0:0:
256,208,95885,1,2,0:0:0:0:
246,196,96056,1,2,0:0:0:0:
246,196,96142,1,2,0:0:0:0:
246,196,96228,1,2,0:0:0:0:
246,196,96399,1,0,0:0:0:0:
246,196,96571,1,2,0:0:0:0:
246,196,96742,1,2,0:0:0:0:
246,196,96828,1,2,0:0:0:0:
246,196,96914,1,0,0:0:0:0:
252,197,97256,1,2,0:0:0:0:
252,196,97428,1,2,0:0:0:0:
252,196,97514,1,2,0:0:0:0:
252,196,97599,1,0,0:0:0:0:
252,196,97771,1,0,0:0:0:0:
252,196,97942,1,2,0:0:0:0:
253,190,98114,1,0,0:0:0:0:
253,190,98199,1,0,0:0:0:0:
253,190,98285,1,0,0:0:0:0:
253,190,98456,1,0,0:0:0:0:
253,190,98628,1,2,0:0:0:0:
260,193,98799,1,0,0:0:0:0:
262,190,98885,1,0,0:0:0:0:
260,193,98971,1,2,0:0:0:0:
260,193,99142,1,0,0:0:0:0:
260,193,99314,1,2,0:0:0:0:
260,193,99656,1,0,0:0:0:0:
260,193,99999,1,2,0:0:0:0:
260,193,100171,1,2,0:0:0:0:
260,193,100256,1,2,0:0:0:0:
260,193,100342,1,0,0:0:0:0:
260,193,100514,1,0,0:0:0:0:
260,193,100685,1,2,0:0:0:0:
260,193,100856,1,0,0:0:0:0:
260,193,100942,1,0,0:0:0:0:
260,193,101028,1,0,0:0:0:0:
260,193,101199,1,0,0:0:0:0:
260,193,101456,1,0,0:0:0:0:
260,193,101542,1,0,0:0:0:0:
260,193,101628,1,0,0:0:0:0:
260,193,101714,1,2,0:0:0:0:
249,192,101885,1,2,0:0:0:0:
249,192,102056,1,0,0:0:0:0:
249,192,102228,1,0,0:0:0:0:
249,192,102399,1,4,0:0:0:0:
251,181,102914,1,2,0:0:0:0:
251,181,103256,1,0,0:0:0:0:
251,181,103428,1,2,0:0:0:0:
258,199,103771,1,4,0:0:0:0:
251,181,103942,1,0,0:0:0:0:
244,183,104114,1,0,0:0:0:0:
244,183,104285,1,2,0:0:0:0:
244,183,104628,1,0,0:0:0:0:
244,183,104799,1,2,0:0:0:0:
258,187,105142,1,4,0:0:0:0:
258,187,105656,1,2,0:0:0:0:
258,187,105999,1,2,0:0:0:0:
258,187,106171,1,0,0:0:0:0:
258,187,106342,1,0,0:0:0:0:
258,187,106514,1,4,0:0:0:0:
264,186,106856,1,0,0:0:0:0:
264,185,107028,1,2,0:0:0:0:
264,185,107199,1,2,0:0:0:0:
264,185,107371,1,0,0:0:0:0:
264,185,107542,1,0,0:0:0:0:
264,186,107714,1,2,0:0:0:0:
257,190,107885,1,0,0:0:0:0:
257,190,108228,1,2,0:0:0:0:
244,177,108571,1,0,0:0:0:0:
244,178,108914,1,2,0:0:0:0:
241,184,109256,1,0,0:0:0:0:
255,179,109599,1,2,0:0:0:0:
255,179,109942,1,0,0:0:0:0:
244,158,110114,1,2,0:0:0:0:
255,179,110285,1,2,0:0:0:0:
255,179,110628,1,0,0:0:0:0:
255,179,110799,1,0,0:0:0:0:
255,179,110971,1,2,0:0:0:0:
255,179,111314,1,0,0:0:0:0:
255,179,111656,1,2,0:0:0:0:
255,179,111828,1,2,0:0:0:0:
255,179,111999,1,0,0:0:0:0:
242,189,112342,1,2,0:0:0:0:
242,189,112685,1,2,0:0:0:0:
242,189,112856,1,2,0:0:0:0:
242,189,113028,1,2,0:0:0:0:
233,185,113371,1,4,0:0:0:0:
233,185,113714,1,0,0:0:0:0:
233,185,113885,1,2,0:0:0:0:
233,185,114056,1,0,0:0:0:0:
233,185,114228,1,0,0:0:0:0:
233,185,114399,1,2,0:0:0:0:
247,183,114742,1,0,0:0:0:0:
247,183,114914,1,2,0:0:0:0:
242,192,115085,1,2,0:0:0:0:
256,205,115256,1,2,0:0:0:0:
256,204,115428,1,0,0:0:0:0:
242,191,115771,1,2,0:0:0:0:
251,179,116114,1,0,0:0:0:0:
251,179,116456,1,0,0:0:0:0:
251,180,116628,1,2,0:0:0:0:
251,180,116799,1,0,0:0:0:0:
251,179,116971,1,0,0:0:0:0:
251,179,117142,1,2,0:0:0:0:
256,178,117314,1,2,0:0:0:0:
256,177,117485,1,0,0:0:0:0:
256,177,117656,1,2,0:0:0:0:
256,185,117999,1,0,0:0:0:0:
256,185,118171,1,2,0:0:0:0:
256,185,118342,1,0,0:0:0:0:
256,185,118514,1,2,0:0:0:0:
264,179,118685,1,2,0:0:0:0:
264,179,118771,1,2,0:0:0:0:
264,179,118856,1,0,0:0:0:0:
268,187,119199,1,0,0:0:0:0:
256,185,119371,1,2,0:0:0:0:
256,185,119456,1,2,0:0:0:0:
256,185,119542,1,0,0:0:0:0:
236,182,119714,1,2,0:0:0:0:
236,182,119799,1,2,0:0:0:0:
236,182,119885,1,0,0:0:0:0:
236,182,120056,1,2,0:0:0:0:
236,182,120142,1,0,0:0:0:0:
236,182,120228,1,2,0:0:0:0:
247,187,120399,1,0,0:0:0:0:
247,187,120485,1,0,0:0:0:0:
247,187,120571,1,2,0:0:0:0:
238,194,120742,1,2,0:0:0:0:
238,194,120828,1,2,0:0:0:0:
238,194,120914,1,0,0:0:0:0:
236,195,120999,1,0,0:0:0:0:
236,195,121085,1,2,0:0:0:0:
236,195,121171,1,0,0:0:0:0:
237,194,121256,1,2,0:0:0:0:
237,194,121342,1,2,0:0:0:0:
237,194,121428,1,2,0:0:0:0:
237,194,121514,1,2,0:0:0:0:
237,195,121599,1,0,0:0:0:0:
234,179,121856,1,0,0:0:0:0:
234,179,121942,1,2,0:0:0:0:
249,185,122114,1,2,0:0:0:0:
249,185,122285,1,0,0:0:0:0:
237,172,122456,1,0,0:0:0:0:
237,172,122628,1,2,0:0:0:0:
237,173,122714,1,0,0:0:0:0:
237,173,122799,1,2,0:0:0:0:
237,172,122885,1,2,0:0:0:0:
245,181,122971,1,0,0:0:0:0:
245,181,123142,1,0,0:0:0:0:
232,173,123228,1,0,0:0:0:0:
245,181,123314,1,2,0:0:0:0:
232,178,123485,1,2,0:0:0:0:
232,178,123571,1,2,0:0:0:0:
232,178,123656,1,2,0:0:0:0:
232,174,123828,1,0,0:0:0:0:
232,174,123999,1,0,0:0:0:0:
232,174,124171,1,6,0:0:0:0:
256,192,124342,12,0,125456,0:0:0:0:
250,189,126228,5,0,0:0:0:0:
260,185,126285,1,0,0:0:0:0:
260,185,126342,1,0,0:0:0:0:
260,185,126399,1,2,0:0:0:0:
250,189,126571,5,0,0:0:0:0:
250,189,126742,1,6,0:0:0:0:
241,165,127085,1,4,0:0:0:0:
255,181,127342,1,0,0:0:0:0:
255,181,127427,1,2,0:0:0:0:
252,183,127599,1,0,0:0:0:0:
243,174,127770,1,2,0:0:0:0:
243,174,127942,1,0,0:0:0:0:
243,174,128027,1,0,0:0:0:0:
243,174,128113,1,2,0:0:0:0:
240,180,128285,1,0,0:0:0:0:
262,182,128456,1,2,0:0:0:0:
268,181,128542,1,2,0:0:0:0:
262,182,128627,1,0,0:0:0:0:
291,180,128714,5,0,0:0:0:0:
262,182,128799,1,2,0:0:0:0:
262,182,128970,1,0,0:0:0:0:
269,176,129142,1,2,0:0:0:0:
269,176,129227,1,0,0:0:0:0:
273,171,129399,1,0,0:0:0:0:
269,176,129485,1,2,0:0:0:0:
273,170,129570,1,2,0:0:0:0:
269,176,129656,1,0,0:0:0:0:
275,173,129827,1,2,0:0:0:0:
275,168,129999,1,0,0:0:0:0:
275,168,130085,1,2,0:0:0:0:
275,173,130170,1,2,0:0:0:0:
273,171,130342,1,2,0:0:0:0:
268,160,130513,1,0,0:0:0:0:
268,163,130599,1,2,0:0:0:0:
268,163,130685,1,0,0:0:0:0:
268,163,130770,1,0,0:0:0:0:
268,163,130856,1,2,0:0:0:0:
265,151,130942,1,0,0:0:0:0:
268,163,131027,1,2,0:0:0:0:
268,163,131199,1,0,0:0:0:0:
268,160,131542,1,2,0:0:0:0:
263,161,131885,1,0,0:0:0:0:
254,150,132056,1,0,0:0:0:0:
263,161,132227,1,2,0:0:0:0:
257,151,132399,1,2,0:0:0:0:
257,151,132485,1,2,0:0:0:0:
257,151,132570,1,0,0:0:0:0:
260,144,132828,1,0,0:0:0:0:
260,148,132914,1,2,0:0:0:0:
269,166,133085,1,2,0:0:0:0:
253,166,133256,1,0,0:0:0:0:
257,157,133342,1,2,0:0:0:0:
257,151,133428,1,0,0:0:0:0:
257,151,133514,1,0,0:0:0:0:
257,151,133600,1,2,0:0:0:0:
251,160,133771,1,2,0:0:0:0:
264,152,133942,1,2,0:0:0:0:
247,165,134028,1,0,0:0:0:0:
262,163,134200,1,0,0:0:0:0:
262,163,134286,1,2,0:0:0:0:
266,171,134456,1,0,0:0:0:0:
250,167,134543,1,2,0:0:0:0:
250,167,134628,1,2,0:0:0:0:
250,167,134714,1,0,0:0:0:0:
249,163,134885,1,2,0:0:0:0:
250,167,134971,1,2,0:0:0:0:
247,165,135056,1,0,0:0:0:0:
242,150,135143,1,2,0:0:0:0:
242,150,135228,1,2,0:0:0:0:
242,150,135314,1,0,0:0:0:0:
250,167,135486,1,0,0:0:0:0:
250,161,135657,1,2,0:0:0:0:
250,161,135828,1,2,0:0:0:0:
250,161,135914,1,2,0:0:0:0:
250,161,136000,1,0,0:0:0:0:
261,173,136086,1,0,0:0:0:0:
261,173,136171,1,2,0:0:0:0:
261,173,136257,1,0,0:0:0:0:
261,173,136343,1,2,0:0:0:0:
261,173,136514,1,0,0:0:0:0:
268,183,136686,1,0,0:0:0:0:
271,171,137028,1,2,0:0:0:0:
260,167,137286,1,2,0:0:0:0:
260,167,137371,1,0,0:0:0:0:
253,168,137543,1,2,0:0:0:0:
253,168,137628,1,0,0:0:0:0:
253,168,137714,1,2,0:0:0:0:
253,168,137800,1,2,0:0:0:0:
253,168,137886,1,0,0:0:0:0:
253,168,138057,1,0,0:0:0:0:
243,172,138228,1,0,0:0:0:0:
243,172,138314,1,0,0:0:0:0:
243,172,138399,1,2,0:0:0:0:
243,170,138571,1,0,0:0:0:0:
243,170,138656,1,0,0:0:0:0:
243,170,138742,1,2,0:0:0:0:
243,170,138828,1,2,0:0:0:0:
243,170,138914,1,0,0:0:0:0:
243,170,139085,1,2,0:0:0:0:
243,172,139256,1,4,0:0:0:0:
242,175,139599,1,0,0:0:0:0:
242,175,139771,1,2,0:0:0:0:
242,175,139942,1,2,0:0:0:0:
242,175,140114,1,2,0:0:0:0:
243,172,140199,1,0,0:0:0:0:
243,172,140285,1,2,0:0:0:0:
242,175,140371,1,2,0:0:0:0:
242,175,140456,1,2,0:0:0:0:
242,175,140628,1,0,0:0:0:0:
251,187,140799,1,0,0:0:0:0:
251,187,140971,1,2,0:0:0:0:
251,187,141056,1,2,0:0:0:0:
251,187,141142,1,0,0:0:0:0:
251,187,141314,1,2,0:0:0:0:
251,187,141399,1,0,0:0:0:0:
251,187,141485,1,2,0:0:0:0:
251,187,141571,1,2,0:0:0:0:
251,187,141656,1,0,0:0:0:0:
251,187,141828,1,0,0:0:0:0:
251,187,141999,1,6,0:0:0:0:
266,190,142342,1,0,0:0:0:0:
266,190,142514,1,2,0:0:0:0:
266,190,142685,1,0,0:0:0:0:
266,190,142856,1,2,0:0:0:0:
266,190,142942,1,0,0:0:0:0:
266,190,143028,1,0,0:0:0:0:
266,190,143114,1,2,0:0:0:0:
266,190,143199,1,2,0:0:0:0:
266,190,143371,1,0,0:0:0:0:
260,187,143542,1,0,0:0:0:0:
260,187,143885,1,2,0:0:0:0:
260,187,144142,1,2,0:0:0:0:
260,187,144228,1,0,0:0:0:0:
260,187,144399,1,0,0:0:0:0:
260,187,144485,1,0,0:0:0:0:
260,187,144571,1,2,0:0:0:0:
251,185,144742,1,0,0:0:0:0:
251,185,144914,1,2,0:0:0:0:
254,185,145085,1,2,0:0:0:0:
254,185,145171,1,0,0:0:0:0:
254,185,145256,1,2,0:0:0:0:
254,185,145428,1,2,0:0:0:0:
254,185,145514,1,2,0:0:0:0:
254,185,145599,1,0,0:0:0:0:
251,185,145685,1,2,0:0:0:0:
251,185,145771,1,0,0:0:0:0:
251,185,145856,1,0,0:0:0:0:
251,185,145942,1,2,0:0:0:0:
254,185,146028,1,0,0:0:0:0:
254,185,146114,1,2,0:0:0:0:
259,185,146285,1,4,0:0:0:0:
259,185,146456,1,6,0:0:0:0:
259,185,146799,1,4,0:0:0:0:
259,185,146971,1,6,0:0:0:0:
259,185,147314,1,4,0:0:0:0:
259,185,147485,1,6,0:0:0:0:
259,185,147656,1,4,0:0:0:0:
259,185,147828,1,6,0:0:0:0:
259,185,148171,1,0,0:0:0:0:
259,185,148342,1,2,0:0:0:0:
265,172,148685,1,2,0:0:0:0:
262,179,148856,1,2,0:0:0:0:
276,176,149028,1,0,0:0:0:0:
276,176,149199,1,0,0:0:0:0:
276,176,149371,1,2,0:0:0:0:
276,176,149542,1,0,0:0:0:0:
276,176,149714,1,2,0:0:0:0:
276,176,150056,1,2,0:0:0:0:
276,176,150228,1,0,0:0:0:0:
266,180,150571,1,0,0:0:0:0:
266,180,150914,1,0,0:0:0:0:
266,180,151085,1,2,0:0:0:0:
266,180,151428,1,2,0:0:0:0:
236,164,151771,1,0,0:0:0:0:
241,167,151942,1,0,0:0:0:0:
241,167,152114,1,2,0:0:0:0:
241,167,152285,1,0,0:0:0:0:
241,167,152456,1,2,0:0:0:0:
262,192,152628,1,2,0:0:0:0:
262,192,152799,1,0,0:0:0:0:
262,192,152971,1,4,0:0:0:0:
260,184,153314,1,2,0:0:0:0:
260,184,153485,1,2,0:0:0:0:
260,184,153656,1,2,0:0:0:0:
264,187,153828,1,0,0:0:0:0:
262,192,153999,1,2,0:0:0:0:
258,188,154085,1,0,0:0:0:0:
258,188,154171,1,2,0:0:0:0:
258,188,154256,1,2,0:0:0:0:
258,188,154342,1,0,0:0:0:0:
258,188,154428,1,2,0:0:0:0:
259,187,154514,5,0,0:0:0:0:
259,187,154685,1,0,0:0:0:0:
259,187,154771,1,0,0:0:0:0:
259,187,154856,1,2,0:0:0:0:
259,187,155028,1,0,0:0:0:0:
255,181,155199,1,2,0:0:0:0:
251,170,155285,1,2,0:0:0:0:
251,169,155371,1,2,0:0:0:0:
251,169,155456,1,0,0:0:0:0:
251,169,155542,1,2,0:0:0:0:
255,181,155628,1,2,0:0:0:0:
255,181,155714,1,0,0:0:0:0:
255,181,155799,1,0,0:0:0:0:
248,176,155885,1,2,0:0:0:0:
241,168,155971,1,0,0:0:0:0:
241,168,156056,1,2,0:0:0:0:
241,168,156142,1,2,0:0:0:0:
241,168,156228,1,0,0:0:0:0:
241,168,156314,1,2,0:0:0:0:
241,168,156399,1,0,0:0:0:0:
241,168,156485,1,0,0:0:0:0:
251,177,156571,1,2,0:0:0:0:
258,189,156656,1,0,0:0:0:0:
252,163,156742,1,2,0:0:0:0:
255,181,156828,1,2,0:0:0:0:
257,182,156914,1,0,0:0:0:0:
257,182,156999,1,0,0:0:0:0:
257,182,157085,1,2,0:0:0:0:
251,178,157171,1,0,0:0:0:0:
269,181,157256,1,2,0:0:0:0:
248,179,157428,1,0,0:0:0:0:
251,177,157599,1,2,0:0:0:0:
248,179,157771,1,2,0:0:0:0:
260,170,157942,1,0,0:0:0:0:
257,182,158114,1,0,0:0:0:0:
256,183,158199,1,0,0:0:0:0:
256,183,158285,1,2,0:0:0:0:
256,185,158456,1,2,0:0:0:0:
256,185,158628,1,0,0:0:0:0:
262,187,158799,1,0,0:0:0:0:
262,187,158885,1,0,0:0:0:0:
262,187,158971,1,2,0:0:0:0:
247,176,159142,1,2,0:0:0:0:
247,176,159228,1,0,0:0:0:0:
247,176,159314,1,2,0:0:0:0:
247,176,159399,1,2,0:0:0:0:
247,176,159485,1,0,0:0:0:0:
247,176,159571,1,0,0:0:0:0:
247,176,159656,1,2,0:0:0:0:
254,174,159828,1,2,0:0:0:0:
254,174,159999,1,0,0:0:0:0:
253,181,160342,1,0,0:0:0:0:
253,181,160514,1,6,0:0:0:0:
253,181,160856,1,0,0:0:0:0:
253,181,161028,1,6,0:0:0:0:
262,192,161371,1,0,0:0:0:0:
262,192,161542,1,6,0:0:0:0:
262,192,161885,1,0,0:0:0:0:
260,182,162056,1,6,0:0:0:0:
260,182,162228,1,0,0:0:0:0:
260,182,162399,1,6,0:0:0:0:
260,182,162571,1,2,0:0:0:0:
260,182,162656,1,2,0:0:0:0:
254,176,162742,1,2,0:0:0:0:
244,171,162914,1,0,0:0:0:0:
244,171,163085,1,0,0:0:0:0:
244,171,163256,1,6,0:0:0:0:
244,171,163428,1,0,0:0:0:0:
244,171,163599,1,0,0:0:0:0:
244,171,163771,1,6,0:0:0:0:
261,174,163942,1,2,0:0:0:0:
261,174,164028,1,2,0:0:0:0:
253,170,164114,1,0,0:0:0:0:
253,170,164199,1,0,0:0:0:0:
253,170,164285,1,2,0:0:0:0:
253,170,164371,1,0,0:0:0:0:
253,170,164456,1,2,0:0:0:0:
253,170,164542,1,2,0:0:0:0:
253,170,164628,1,0,0:0:0:0:
253,170,164714,1,0,0:0:0:0:
271,182,164799,1,2,0:0:0:0:
271,182,164885,1,0,0:0:0:0:
271,182,164971,1,2,0:0:0:0:
271,182,165056,1,2,0:0:0:0:
271,182,165142,1,0,0:0:0:0:
271,182,165228,1,2,0:0:0:0:
271,182,165314,1,2,0:0:0:0:
271,182,165399,1,0,0:0:0:0:
271,182,165485,1,2,0:0:0:0:
256,176,165828,1,2,0:0:0:0:
256,176,165999,1,2,0:0:0:0:
256,176,166171,1,2,0:0:0:0:
256,176,166256,1,2,0:0:0:0:
256,176,166342,1,0,0:0:0:0:
256,176,166428,1,0,0:0:0:0:
256,176,166514,1,2,0:0:0:0:
262,188,166685,1,0,0:0:0:0:
262,188,166771,1,0,0:0:0:0:
262,188,166856,1,0,0:0:0:0:
262,188,167028,1,6,0:0:0:0:
262,188,167371,1,6,0:0:0:0:
264,171,167714,1,0,0:0:0:0:
264,171,167885,1,0,0:0:0:0:
264,171,168228,1,4,0:0:0:0:
256,192,168399,12,0,169942,0:0:0:0:
250,173,170456,5,0,0:0:0:0:
250,173,170628,1,2,0:0:0:0:
276,207,170971,1,0,0:0:0:0:
248,188,171656,1,2,0:0:0:0:
248,188,172342,1,2,0:0:0:0:
248,188,173028,1,2,0:0:0:0:
248,188,173714,1,2,0:0:0:0:
248,188,174399,1,2,0:0:0:0:
248,188,175085,1,2,0:0:0:0:
248,188,176456,1,2,0:0:0:0:
257,192,177142,1,2,0:0:0:0:
244,189,177828,1,2,0:0:0:0:
244,189,178514,1,2,0:0:0:0:
244,189,179199,1,6,0:0:0:0:
262,194,179542,1,0,0:0:0:0:
261,196,179714,1,0,0:0:0:0:
261,196,179885,1,0,0:0:0:0:
261,196,180056,1,0,0:0:0:0:
261,196,180228,1,0,0:0:0:0:
262,194,180399,1,0,0:0:0:0:
244,203,180571,1,2,0:0:0:0:
261,196,180742,1,2,0:0:0:0:
261,196,180914,1,2,0:0:0:0:
261,196,181085,1,2,0:0:0:0:
261,196,181256,1,2,0:0:0:0:
262,194,181428,1,2,0:0:0:0:
264,196,181599,1,2,0:0:0:0:
261,196,181771,1,2,0:0:0:0:
269,183,181942,1,0,0:0:0:0:
269,183,182114,1,0,0:0:0:0:
269,183,182199,1,0,0:0:0:0:
269,183,182285,1,2,0:0:0:0:
256,173,182456,1,2,0:0:0:0:
259,170,182628,1,0,0:0:0:0:
259,170,182714,1,0,0:0:0:0:
259,170,182799,1,2,0:0:0:0:
259,170,182885,1,0,0:0:0:0:
259,170,182971,1,2,0:0:0:0:
259,170,183056,1,2,0:0:0:0:
259,170,183142,1,0,0:0:0:0:
259,170,183228,1,2,0:0:0:0:
255,183,185714,5,0,0:0:0:0:
255,183,186056,1,0,0:0:0:0:
261,181,186228,1,0,0:0:0:0:
261,181,186314,1,0,0:0:0:0:
261,181,186399,1,2,0:0:0:0:
261,180,186571,1,0,0:0:0:0:
261,180,186656,1,0,0:0:0:0:
261,180,186742,1,2,0:0:0:0:
261,179,186828,1,2,0:0:0:0:
261,179,186914,1,0,0:0:0:0:
261,179,186999,1,0,0:0:0:0:
261,179,187085,1,2,0:0:0:0:
261,181,187256,1,4,0:0:0:0:
250,175,187599,1,0,0:0:0:0:
250,175,187771,1,2,0:0:0:0:
250,175,187942,1,2,0:0:0:0:
250,175,188028,1,2,0:0:0:0:
250,175,188114,1,0,0:0:0:0:
250,175,188199,1,2,0:0:0:0:
250,175,188285,1,2,0:0:0:0:
250,175,188371,1,0,0:0:0:0:
250,175,188456,1,2,0:0:0:0:
250,175,188628,1,0,0:0:0:0:
254,168,188799,1,0,0:0:0:0:
253,170,188971,1,2,0:0:0:0:
253,171,189056,1,2,0:0:0:0:
253,171,189142,1,0,0:0:0:0:
253,171,189314,1,2,0:0:0:0:
253,172,189399,1,0,0:0:0:0:
253,172,189485,1,2,0:0:0:0:
253,172,189571,1,2,0:0:0:0:
253,172,189656,1,0,0:0:0:0:
254,168,189742,1,0,0:0:0:0:
254,168,189828,1,2,0:0:0:0:
253,170,189999,1,6,0:0:0:0:
262,174,190342,1,0,0:0:0:0:
262,174,190514,1,2,0:0:0:0:
262,174,190685,1,0,0:0:0:0:
262,174,190771,1,0,0:0:0:0:
262,174,190856,1,2,0:0:0:0:
262,174,190942,1,0,0:0:0:0:
262,174,191028,1,0,0:0:0:0:
262,174,191114,1,2,0:0:0:0:
262,174,191199,1,2,0:0:0:0:
262,174,191371,1,0,0:0:0:0:
252,179,191542,1,2,0:0:0:0:
252,177,192228,1,2,0:0:0:0:
250,165,192914,1,2,0:0:0:0:
250,165,193256,1,2,0:0:0:0:
267,179,193428,1,2,0:0:0:0:
265,177,193771,1,2,0:0:0:0:
265,177,193942,1,2,0:0:0:0:
265,177,194114,1,2,0:0:0:0:
251,174,194285,1,4,0:0:0:0:
251,174,194456,1,4,0:0:0:0:
253,172,194799,1,6,0:0:0:0:
253,172,194971,1,4,0:0:0:0:
251,174,195314,1,6,0:0:0:0:
251,174,195485,1,6,0:0:0:0:
256,192,195656,12,2,197542,0:0:0:0:
247,178,198056,5,0,0:0:0:0:
247,178,198142,1,0,0:0:0:0:
247,178,198228,1,2,0:0:0:0:
