osu file format v14

[General]
AudioFilename: audio.mp3
AudioLeadIn: 0
PreviewTime:37120
Countdown: 0
SampleSet: Soft
StackLeniency: 1
Mode: 0
LetterboxInBreaks: 0
WidescreenStoryboard: 1

[Editor]
DistanceSpacing: 0.5
BeatDivisor: 4
GridSize: 16
TimelineZoom: 2.3

[Metadata]
Title:Shousou feat. KAFU
TitleUnicode:焦燥 feat. 可不
Artist:TokaP
ArtistUnicode:TokaP
Creator:Ryuusei Aika
Version:iRedi's Hard
Source:
Tags:Teages iRedi sorairokarasu VoiceCore Mononymous CeVIO AI 音楽的同位体 KAF+U Vocaloid ボーカロイド ボカロ Japanese Electronic メイロ OtoLogic オトロジック
BeatmapID:4004658
BeatmapSetID:1934865

[Difficulty]
HPDrainRate:5
CircleSize:3.3
OverallDifficulty:6
ApproachRate:8
SliderMultiplier:1.19999990463257
SliderTickRate:1

[Events]
//Background and Video events
0,0,"__kina9o__202302040726.png",0,0
//Break Periods
2,81933,85931
//Storyboard Layer 0 (Background)
//Storyboard Layer 1 (Fail)
//Storyboard Layer 2 (Pass)
//Storyboard Layer 3 (Foreground)
//Storyboard Layer 4 (Overlay)
//Storyboard Sound Samples

[TimingPoints]
84,309.278350515464,4,2,1,40,1,0
9980,-111.111111111111,4,2,1,60,0,0
14929,-117.64705882353,4,2,2,50,0,0
24826,-100,4,2,1,65,0,0
34723,-142.857142857143,4,2,1,50,0,0
37197,-83.3333333333333,4,2,1,80,0,0
52042,-83.3333333333333,4,2,1,70,0,0
56991,-125,4,2,1,50,0,0
58846,-125,4,2,1,40,0,0
58885,-125,4,2,2,40,0,0
58924,-125,4,2,1,20,0,0
58962,-125,4,2,2,25,0,0
59001,-125,4,2,1,30,0,0
59040,-125,4,2,2,35,0,0
59078,-125,4,2,1,40,0,0
59117,-125,4,2,2,45,0,0
59156,-125,4,2,1,50,0,0
59195,-125,4,2,2,55,0,0
59234,-125,4,2,1,60,0,0
59272,-125,4,2,2,65,0,0
59311,-125,4,2,1,70,0,0
59350,-125,4,2,2,75,0,0
59388,-125,4,2,1,80,0,0
59426,-125,4,2,2,85,0,0
59465,-100,4,2,3,70,0,0
61939,-100,4,2,3,70,0,0
71836,-100,4,2,1,65,0,0
81733,-142.857142857143,4,2,1,65,0,0
86681,-125,4,2,2,50,0,0
87764,-111.111111111111,4,2,2,50,0,0
89156,-100,4,2,2,50,0,0
90393,-166.666666666667,4,2,2,70,0,0
91939,-76.9230769230769,4,2,1,80,0,0
94104,-83.3333333333333,4,2,1,80,0,0
108486,-83.3333333333333,4,2,1,70,0,0
111424,-125,4,2,1,50,0,0
113279,-90.9090909090909,4,2,1,40,0,0
113318,-90.9090909090909,4,2,2,40,0,0
113357,-90.9090909090909,4,2,1,25,0,0
113395,-90.9090909090909,4,2,2,35,0,0
113434,-90.9090909090909,4,2,1,45,0,0
113473,-90.9090909090909,4,2,2,55,0,0
113511,-90.9090909090909,4,2,1,65,0,0
113550,-90.9090909090909,4,2,2,75,0,0
113589,-90.9090909090909,4,2,1,5,0,0

[Colours]
Combo1 : 63,63,63
Combo2 : 159,0,0
Combo3 : 95,95,95
Combo4 : 128,64,64
Combo5 : 127,127,127
Combo6 : 85,0,0

[HitObjects]
256,192,84,12,2,8125,0:0:0:0:
256,192,8434,5,2,3:2:0:0:
0,153,9980,6,0,P|75:138|96:93,1,107.999988121033,6|8,1:2|1:2,0:0:0:0:
75,35,10444,1,0,0:0:0:0:
149,3,10599,2,0,P|185:18|227:23,1,80.9999910907749,2|0,1:2|0:0,0:0:0:0:
245,60,10908,1,8,1:2:0:0:
326,55,11063,6,0,P|296:128|262:142,1,107.999988121033,2|2,3:2|3:2,0:0:0:0:
224,203,11527,2,0,L|193:194,2,26.9999970302583,0|0|0,3:0|3:0|3:0,0:0:0:0:
253,231,11759,1,0,3:0:0:0:
253,231,11836,2,0,L|305:217,1,53.9999940605166,2|0,1:2|0:0,0:0:0:0:
364,271,12145,2,0,L|416:284,1,53.9999940605166,8|0,1:2|3:0,0:0:0:0:
452,312,12377,1,0,3:0:0:0:
452,312,12455,6,0,P|432:372|454:400,2,80.9999910907749,2|2|2,1:2|3:2|0:0,0:0:0:0:
510,256,13073,2,0,L|496:203,1,53.9999940605166,2|0,1:2|3:0,0:0:0:0:
463,188,13305,1,0,3:0:0:0:
463,188,13382,1,0,1:0:0:0:
503,117,13537,6,0,P|496:55|453:29,1,107.999988121033,2|2,0:0|0:0,0:0:0:0:
389,68,14001,2,0,L|336:54,1,53.9999940605166,8|0,1:2|3:0,0:0:0:0:
318,23,14233,1,0,3:0:0:0:
318,23,14310,1,2,1:2:0:0:
248,65,14465,1,2,0:0:0:0:
178,23,14620,2,0,L|147:31,3,26.9999970302583,8|0|0|0,1:2|3:0|3:0|3:0,0:0:0:0:
137,65,14929,6,0,P|90:24|41:30,1,101.999993839264,4|10,1:2|0:0,0:0:0:0:
6,85,15393,1,2,0:0:0:0:
39,153,15547,2,0,P|33:192|19:226,2,76.499995379448,2|2|2,1:2|1:2|1:2,0:0:0:0:
163,244,16321,5,2,1:2:0:0:
201,178,16475,2,0,L|262:161,1,50.999996919632,10|2,0:0|3:2,0:0:0:0:
285,191,16707,1,0,3:0:0:0:
285,191,16785,2,0,L|301:252,1,50.999996919632,2|0,1:2|0:0,0:0:0:0:
356,290,17094,2,0,L|339:351,1,50.999996919632,10|2,0:0|0:0,0:0:0:0:
277,379,17403,6,0,P|207:345|200:319,1,101.999993839264,0|10,1:0|0:0,0:0:0:0:
143,277,17867,1,2,0:0:0:0:
74,311,18022,2,0,P|60:347|54:384,2,76.499995379448,2|2|2,1:2|1:2|1:2,0:0:0:0:
2,175,18795,5,2,1:2:0:0:
55,120,18949,2,0,L|116:136,1,50.999996919632,10|2,0:0|0:0,0:0:0:0:
168,176,19259,2,0,L|180:222,2,25.499998459816,2|0|0,1:2|3:0|3:0,0:0:0:0:
218,117,19568,2,0,L|231:67,1,50.999996919632,10|0,1:2|0:0,0:0:0:0:
284,12,19877,6,0,L|352:-6,2,50.999996919632,6|2|10,1:2|0:0|0:0,0:0:0:0:
231,67,20341,1,2,0:0:0:0:
158,57,20496,2,0,P|122:70|84:76,2,76.499995379448,2|2|2,1:2|1:2|1:2,0:0:0:0:
214,198,21269,5,2,1:2:0:0:
274,150,21424,2,0,L|335:166,1,50.999996919632,10|2,0:0|3:2,0:0:0:0:
353,195,21656,1,0,3:0:0:0:
353,195,21733,2,0,L|414:178,1,50.999996919632,2|2,1:2|0:0,0:0:0:0:
443,116,22042,2,0,L|426:55,1,50.999996919632,10|2,0:0|3:2,0:0:0:0:
364,26,22352,6,0,L|303:42,1,50.999996919632,2|2,1:2|0:0,0:0:0:0:
271,103,22661,1,8,0:0:0:0:
402,181,22970,6,0,P|407:219|421:254,1,76.499995379448,0|0,1:0|1:0,0:0:0:0:
458,264,23279,1,8,0:0:0:0:
495,330,23434,2,0,P|464:371|414:379,1,101.999993839264,6|2,1:2|1:2,0:0:0:0:
363,324,23898,2,0,L|356:299,2,25.499998459816,0|0|0,3:0|3:0|3:0,0:0:0:0:
309,379,24207,2,0,L|259:365,1,50.999996919632,0|4,1:2|0:3,0:0:0:0:
233,338,24439,1,8,0:3:0:0:
233,338,24516,2,0,L|183:351,1,50.999996919632,2|0,0:0|1:0,0:0:0:0:
98,342,24826,6,0,P|79:303|81:276,1,59.9999952316285,6|0,1:2|0:0,0:0:0:0:
51,200,25135,2,0,P|93:203|116:218,1,59.9999952316285,8|0,1:2|0:0,0:0:0:0:
198,230,25444,2,0,P|173:265|149:277,1,59.9999952316285,2|0,1:2|0:0,0:0:0:0:
233,338,25754,1,10,1:2:0:0:
233,338,25908,1,2,0:0:0:0:
279,260,26063,6,0,B|317:251|341:275|333:281|355:306|403:296,1,119.999990463257,0|8,1:0|1:2,0:0:0:0:
437,373,26527,1,0,3:0:0:0:
509,320,26681,2,0,P|500:279|481:261,1,59.9999952316285,0|0,1:0|0:0,0:0:0:0:
503,176,26991,2,0,P|463:163|438:170,1,59.9999952316285,8|2,1:2|3:2,0:0:0:0:
419,137,27223,1,0,3:0:0:0:
419,137,27300,6,0,L|402:75,2,59.9999952316285,0|2|10,1:2|0:0|1:2,0:0:0:0:
373,214,27764,1,2,0:0:0:0:
285,191,27919,2,0,P|283:159|297:127,1,59.9999952316285,2|2,1:2|3:2,0:0:0:0:
320,49,28228,1,10,1:2:0:0:
320,49,28382,6,0,P|271:40|233:25,1,89.9999928474428,2|0,0:0|0:0,0:0:0:0:
198,55,28692,1,2,0:0:0:0:
118,14,28846,2,0,P|90:33|75:65,1,59.9999952316285,10|2,1:2|0:0,0:0:0:0:
140,120,29156,2,0,P|124:166|116:206,1,89.9999928474428,2|0,1:2|0:0,0:0:0:0:
79,232,29465,1,10,1:2:0:0:
169,339,29774,6,0,P|193:322|211:296,2,59.9999952316285,0|2|10,1:2|0:0|1:2,0:0:0:0:
88,379,30238,1,2,0:0:0:0:
17,323,30393,2,0,P|6:292|1:265,1,59.9999952316285,2|0,1:2|0:0,0:0:0:0:
79,232,30702,1,10,1:2:0:0:
39,154,30857,1,2,0:0:0:0:
39,154,31011,6,0,P|97:140|132:92,1,119.999990463257,0|8,1:0|1:2,0:0:0:0:
83,17,31475,1,0,3:0:0:0:
173,14,31630,2,0,P|201:36|217:65,1,59.9999952316285,0|0,1:0|0:0,0:0:0:0:
252,137,31939,2,0,P|280:114|296:86,1,59.9999952316285,8|0,1:2|3:0,0:0:0:0:
302,50,32171,1,0,3:0:0:0:
302,50,32248,6,0,B|346:37|346:37|375:54|375:54|420:42,1,119.999990463257,0|8,1:0|1:2,0:0:0:0:
499,10,32712,1,0,0:0:0:0:
488,99,32867,2,0,L|476:178,1,59.9999952316285,0|0,1:0|0:0,0:0:0:0:
396,194,33176,1,0,1:0:0:0:
336,126,33331,6,0,P|306:175|235:202,1,119.999990463257,4|0,1:2|0:0,0:0:0:0:
184,261,33795,2,0,L|145:250,2,29.9999976158143,0|0|0,1:2|3:0|3:0,0:0:0:0:
245,334,34104,1,0,1:0:0:0:
318,281,34259,1,0,3:0:0:0:
318,281,34413,1,8,1:2:0:0:
469,369,34723,5,0,1:0:0:0:
479,337,35341,5,0,1:0:0:0:
489,305,35960,5,0,1:0:0:0:
462,165,36269,1,0,1:0:0:0:
306,22,37197,6,0,P|278:70|251:79,1,71.9999920806888,6|0,1:2|0:0,0:0:0:0:
210,160,37506,2,0,P|265:160|286:179,1,71.9999920806888,10|0,1:2|3:0,0:0:0:0:
378,174,37815,2,0,P|350:125|356:97,1,71.9999920806888,2|0,1:2|0:0,0:0:0:0:
406,25,38125,1,10,1:2:0:0:
498,63,38279,6,0,P|472:130|460:202,1,143.999984161378,2|2,0:0|0:0,0:0:0:0:
511,288,38743,2,0,P|464:311|433:311,1,71.9999920806888,10|2,1:2|0:0,0:0:0:0:
416,355,38975,1,0,0:0:0:0:
416,355,39053,2,0,P|372:325|356:299,1,71.9999920806888,2|2,1:2|0:0,0:0:0:0:
362,213,39362,1,10,1:2:0:0:
362,213,39516,1,2,0:0:0:0:
270,255,39671,6,0,B|224:258|190:227|209:226|175:194|126:202,1,143.999984161378,2|8,1:2|1:2,0:0:0:0:
70,128,40135,1,2,0:0:0:0:
0,201,40290,2,0,P|13:236|18:270,1,71.9999920806888,2|2,1:2|3:2,0:0:0:0:
62,305,40522,1,0,3:0:0:0:
62,305,40599,1,10,1:2:0:0:
125,383,40754,6,0,P|168:343|258:345,1,143.999984161378,2|2,0:0|0:0,0:0:0:0:
341,383,41218,2,0,P|346:344|359:313,1,71.9999920806888,10|2,1:2|0:0,0:0:0:0:
447,264,41527,1,0,1:2:0:0:
447,264,41681,2,0,P|452:302|465:333,2,71.9999920806888,0|8|0,3:0|1:2|0:0,0:0:0:0:
500,178,42145,6,0,P|478:147|429:133,1,71.9999920806888,2|0,1:2|0:0,0:0:0:0:
442,32,42455,2,0,P|404:35|368:71,1,71.9999920806888,10|0,1:2|3:0,0:0:0:0:
286,11,42765,2,0,P|270:44|283:94,1,71.9999920806888,2|0,1:2|0:0,0:0:0:0:
343,151,43073,1,10,1:2:0:0:
290,237,43228,6,0,P|223:212|150:199,1,143.999984161378,2|2,0:0|0:0,0:0:0:0:
66,255,43692,2,0,P|24:229|17:188,1,71.9999920806888,10|2,1:2|3:2,0:0:0:0:
51,172,43924,1,0,3:0:0:0:
51,172,44001,2,0,P|43:132|32:102,1,71.9999920806888,2|2,1:2|0:0,0:0:0:0:
81,15,44310,1,10,1:2:0:0:
81,15,44465,1,2,3:2:0:0:
135,99,44620,6,0,P|202:102|243:29,1,143.999984161378,2|8,1:2|1:2,0:0:0:0:
331,93,45084,1,0,0:0:0:0:
397,17,45238,2,0,P|431:11|466:-1,1,71.9999920806888,2|0,1:2|0:0,0:0:0:0:
506,37,45470,1,0,0:0:0:0:
506,37,45547,1,8,1:2:0:0:
434,108,45702,6,0,B|430:153|461:187|462:168|494:202|486:251,1,143.999984161378,2|2,0:0|0:0,0:0:0:0:
511,334,46166,2,0,P|475:351|432:347,1,71.9999920806888,10|2,1:2|3:2,0:0:0:0:
396,267,46475,1,2,1:2:0:0:
396,267,46630,1,0,1:0:0:0:
300,298,46785,2,0,P|292:338|281:367,1,71.9999920806888,0|0,1:0|3:0,0:0:0:0:
205,300,47094,6,0,P|150:318|100:327,1,107.999988121033,4|0,1:2|0:0,0:0:0:0:
79,374,47403,2,0,P|43:361|9:355,1,71.9999920806888,8|0,1:2|0:0,0:0:0:0:
32,256,47712,1,0,1:0:0:0:
32,256,47867,2,0,P|76:236|91:215,1,71.9999920806888,0|8,0:0|1:2,0:0:0:0:
189,201,48176,6,0,P|149:133|116:118,1,107.999988121033,2|0,0:0|0:0,0:0:0:0:
74,133,48486,1,0,0:0:0:0:
74,133,48640,2,0,P|43:98|41:67,1,71.9999920806888,10|0,1:2|3:0,0:0:0:0:
126,21,48949,1,0,1:0:0:0:
216,65,49104,2,0,P|247:51|285:46,2,71.9999920806888,2|10|2,0:0|1:2|0:0,0:0:0:0:
174,157,49568,6,0,P|194:199|229:217,1,71.9999920806888,2|2,1:2|0:0,0:0:0:0:
285,284,49877,2,0,P|311:245|309:206,1,71.9999920806888,10|2,1:2|3:2,0:0:0:0:
347,125,50187,2,0,P|382:119|416:106,1,71.9999920806888,2|2,1:2|0:0,0:0:0:0:
467,128,50419,1,0,0:0:0:0:
467,128,50496,1,10,1:2:0:0:
511,37,50651,6,0,P|491:7|456:-9,1,71.9999920806888,2|0,0:0|1:0,0:0:0:0:
363,24,50960,1,2,0:0:0:0:
267,55,51114,2,0,P|233:42|197:36,2,71.9999920806888,10|2|0,1:2|0:0|1:0,0:0:0:0:
347,125,51578,1,2,0:0:0:0:
347,125,51733,2,0,P|334:170|309:195,1,71.9999920806888,0|0,1:0|0:0,0:0:0:0:
283,283,52042,6,0,P|232:264|178:255,1,107.999988121033,0|0,1:0|0:0,0:0:0:0:
154,209,52352,2,0,P|120:221|84:227,1,71.9999920806888,8|0,1:2|0:0,0:0:0:0:
25,310,52661,1,0,1:0:0:0:
25,310,52815,2,0,P|37:343|43:379,1,71.9999920806888,0|8,0:0|1:2,0:0:0:0:
137,341,53125,6,0,P|187:359|241:368,1,107.999988121033,2|0,0:0|0:0,0:0:0:0:
272,329,53434,1,0,0:0:0:0:
272,329,53589,2,0,P|305:316|341:310,1,71.9999920806888,10|0,1:2|3:0,0:0:0:0:
422,370,53898,1,0,1:0:0:0:
475,284,54053,2,0,P|508:315|521:346,2,71.9999920806888,2|10|2,0:0|1:2|0:0,0:0:0:0:
392,226,54516,6,0,P|404:189|410:156,1,71.9999920806888,2|2,1:2|0:0,0:0:0:0:
506,123,54826,2,0,P|493:86|487:53,1,71.9999920806888,10|2,1:2|0:0,0:0:0:0:
398,4,55135,2,0,P|357:25|344:66,1,71.9999920806888,2|2,1:2|0:0,0:0:0:0:
343,101,55367,1,0,0:0:0:0:
343,101,55444,1,10,1:2:0:0:
264,164,55599,6,0,P|228:149|194:145,1,71.9999920806888,2|2,0:0|1:2,0:0:0:0:
142,65,55908,1,2,0:0:0:0:
142,65,56063,2,0,P|104:70|72:83,1,71.9999920806888,10|0,1:2|3:0,0:0:0:0:
26,77,56295,1,0,3:0:0:0:
26,77,56372,2,0,P|12:110|8:146,1,71.9999920806888,2|2,1:2|0:0,0:0:0:0:
99,192,56681,2,0,L|111:238,3,35.9999960403444,0|0|0|0,1:0|3:0|3:0|3:0,0:0:0:0:
138,242,56991,6,0,P|119:288|113:334,2,95.9999923706056,2|2|2,0:0|3:2|0:0,0:0:0:0:
204,359,57919,2,0,L|250:346,1,47.9999961853028,2|2,3:2|0:0,0:0:0:0:
285,278,58228,5,2,0:0:0:0:
285,278,58382,2,0,L|331:290,1,47.9999961853028,2|2,0:0|0:0,0:0:0:0:
363,366,58692,1,2,0:0:0:0:
363,366,58846,2,2,B|383:365|383:365|491:288|491:288|496:266,1,167.99998664856,2|0,0:0|0:0,0:0:0:0:
490,226,59465,6,0,B|476:219|476:219|471:197|471:197|478:184|478:184|473:163|473:163|459:155,1,89.9999928474428,4|0,1:2|0:0,0:0:0:0:
437,112,59774,1,8,0:3:0:0:
305,169,60006,2,0,L|276:161,3,29.9999976158143,8|0|0|8,0:3|0:0|0:0|0:3,0:0:0:0:
240,71,60393,2,0,L|268:63,3,29.9999976158143,8|8|8|8,0:0|0:0|0:0|0:0,0:0:0:0:
293,21,60702,6,0,B|299:32|299:32|310:25|310:25|317:36|317:36|328:30|328:30|336:41|336:41|347:35|347:35|353:46|353:46|365:40|365:40|371:51|371:51|383:45|383:45|390:56|390:56,1,119.999990463257
368,242,61321,2,0,B|380:229|380:229|404:229|404:229|417:217,2,59.9999952316285
334,326,61785,1,0,0:0:0:0:
334,326,61939,6,0,L|270:326,1,59.9999952316285,4|0,1:2|0:0,0:0:0:0:
204,383,62248,2,0,L|140:383,1,59.9999952316285,2|0,0:0|0:0,0:0:0:0:
79,319,62558,1,2,0:0:0:0:
79,319,62712,2,0,B|103:297|103:297|97:255,2,59.9999952316285,2|2|2,1:2|0:0|0:0,0:0:0:0:
15,255,63176,2,0,L|15:191,1,59.9999952316285,2|0,1:2|0:0,0:0:0:0:
65,119,63486,1,2,0:3:0:0:
194,243,63795,5,2,0:0:0:0:
283,239,63949,2,0,B|305:233|305:233|335:257,1,59.9999952316285,2|0,1:2|3:0,0:0:0:0:
373,370,64259,5,2,0:3:0:0:
368,281,64413,2,0,B|363:258|363:258|387:228,1,59.9999952316285,2|0,1:2|0:0,0:0:0:0:
500,191,64723,5,2,0:0:0:0:
411,195,64877,2,0,B|388:200|388:200|358:176,1,59.9999952316285,2|0,0:0|0:0,0:0:0:0:
321,64,65187,5,2,1:2:0:0:
325,153,65341,2,0,B|330:175|330:175|306:205,1,59.9999952316285,0|0,0:0|3:0,0:0:0:0:
194,243,65651,5,2,1:2:0:0:
283,239,65805,2,0,L|328:284,1,59.9999952316285,2|2,0:0|0:0,0:0:0:0:
281,360,66114,6,0,L|235:314,1,59.9999952316285,2|2,0:0|0:3,0:0:0:0:
151,316,66424,1,0,1:0:0:0:
151,316,66578,1,2,0:3:0:0:
0,216,66888,6,0,L|0:280,2,59.9999952316285,6|2|2,1:2|0:0|0:0,0:0:0:0:
69,158,67352,1,2,0:0:0:0:
69,158,67506,1,2,0:0:0:0:
128,90,67661,2,0,B|108:67|108:67|71:67,2,59.9999952316285,2|2|2,1:2|3:2|3:2,0:0:0:0:
205,136,68125,2,0,L|269:136,1,59.9999952316285,2|0,1:2|0:0,0:0:0:0:
336,191,68434,1,2,0:3:0:0:
491,69,68743,5,2,0:0:0:0:
436,0,68898,2,0,B|418:11|418:11|372:0,1,59.9999952316285,2|0,1:2|3:0,0:0:0:0:
406,89,69207,5,2,0:3:0:0:
351,158,69362,2,0,B|333:147|333:147|287:158,1,59.9999952316285,2|0,1:2|0:0,0:0:0:0:
321,69,69671,5,2,0:0:0:0:
266,0,69826,2,0,B|248:11|248:11|202:0,1,59.9999952316285,2|0,0:0|0:0,0:0:0:0:
236,89,70135,5,2,1:2:0:0:
181,158,70290,2,0,B|163:147|163:147|117:158,1,59.9999952316285,2|0,3:2|3:0,0:0:0:0:
151,69,70599,5,2,1:2:0:0:
96,0,70754,2,0,B|78:11|78:11|32:0,1,59.9999952316285,2|2,1:2|0:0,0:0:0:0:
7,89,71063,6,0,L|67:89,1,59.9999952316285,2|0,0:0|0:0,0:0:0:0:
125,156,71372,1,6,1:2:0:0:
125,156,71527,1,0,3:0:0:0:
300,226,71836,6,0,P|335:264|333:290,1,59.9999952316285,2|0,1:2|0:0,0:0:0:0:
344,360,72145,2,0,P|292:371|271:356,1,59.9999952316285,10|0,1:2|0:0,0:0:0:0:
207,331,72455,2,0,P|222:280|245:270,1,59.9999952316285,2|0,1:2|0:0,0:0:0:0:
213,193,72764,1,10,1:2:0:0:
213,193,72919,1,2,0:0:0:0:
285,140,73073,6,0,P|339:119|352:51,1,119.999990463257,0|8,1:0|1:2,0:0:0:0:
429,12,73537,1,0,3:0:0:0:
499,67,73692,2,0,P|489:94|483:124,1,59.9999952316285,0|0,1:0|0:0,0:0:0:0:
410,177,74001,2,0,P|418:200|425:234,1,59.9999952316285,8|2,1:2|3:2,0:0:0:0:
410,280,74233,1,0,3:0:0:0:
410,280,74310,6,0,P|437:303|471:312,2,59.9999952316285,0|2|10,1:2|0:0|1:2,0:0:0:0:
331,235,74774,1,2,0:0:0:0:
260,291,74929,2,0,P|231:281|202:275,1,59.9999952316285,2|2,1:2|3:2,0:0:0:0:
180,192,75238,1,10,1:2:0:0:
180,192,75393,6,0,P|139:214|116:261,1,89.9999928474428,2|0,0:0|0:0,0:0:0:0:
79,274,75702,1,2,0:0:0:0:
12,212,75857,2,0,P|43:184|50:158,1,59.9999952316285,10|2,1:2|0:0,0:0:0:0:
2,90,76166,2,0,P|28:42|65:26,1,89.9999928474428,2|0,1:2|0:0,0:0:0:0:
98,0,76475,1,10,1:2:0:0:
212,105,76785,6,0,P|202:130|196:162,2,59.9999952316285,6|2|10,1:2|0:0|1:2,0:0:0:0:
295,73,77248,1,2,0:0:0:0:
345,0,77403,2,0,P|377:33|383:56,1,59.9999952316285,2|0,1:2|0:0,0:0:0:0:
370,138,77712,1,10,1:2:0:0:
447,184,77867,1,2,0:0:0:0:
447,184,78022,6,0,B|438:222|462:246|468:238|493:260|483:308,1,119.999990463257,0|8,1:0|1:2,0:0:0:0:
435,367,78486,1,0,3:0:0:0:
385,292,78640,2,0,P|354:302|327:307,1,59.9999952316285,0|0,1:0|0:0,0:0:0:0:
271,378,78949,2,0,P|240:367|213:362,1,59.9999952316285,8|0,1:2|3:0,0:0:0:0:
181,329,79181,1,0,3:0:0:0:
181,329,79259,6,0,P|190:259|254:230,1,119.999990463257,0|10,1:0|1:2,0:0:0:0:
294,294,79723,1,0,0:0:0:0:
376,259,79877,2,0,P|380:228|391:201,1,59.9999952316285,2|2,1:2|3:2,0:0:0:0:
471,158,80187,1,2,1:2:0:0:
496,72,80341,6,0,P|427:72|383:26,1,119.999990463257,6|2,1:2|1:2,0:0:0:0:
301,28,80805,2,0,L|308:0,2,29.9999976158143,2|0|2,3:2|3:0|1:2,0:0:0:0:
230,84,81114,1,2,1:2:0:0:
274,258,81424,1,2,1:2:0:0:
131,376,81733,5,6,1:2:0:0:
1,370,86681,6,0,L|62:353,1,47.9999961853028,8|0,1:2|0:0,0:0:0:0:
68,282,86991,2,0,L|129:265,1,47.9999961853028,8|0,1:2|0:0,0:0:0:0:
135,194,87300,2,0,L|196:177,1,47.9999961853028,8|0,1:2|0:0,0:0:0:0:
223,118,87609,1,8,1:2:0:0:
223,118,87764,6,0,L|275:131,1,53.9999940605166,0|8,3:0|1:2,0:0:0:0:
322,204,88073,1,0,0:0:0:0:
322,204,88228,2,0,L|308:256,1,53.9999940605166,8|0,1:2|3:0,0:0:0:0:
274,277,88460,1,0,3:0:0:0:
274,277,88537,2,0,L|287:329,1,53.9999940605166,8|0,1:2|0:0,0:0:0:0:
357,371,88846,2,0,L|409:357,1,53.9999940605166,8|0,1:2|3:0,0:0:0:0:
483,307,89156,5,8,1:2:0:0:
483,307,89310,1,8,1:2:0:0:
502,221,89465,1,8,1:2:0:0:
502,221,89620,1,8,1:2:0:0:
418,187,89774,2,0,L|410:158,3,29.9999976158143,8|8|8|8,1:2|1:2|1:2|1:2,0:0:0:0:
374,129,90084,2,0,L|366:100,3,29.9999976158143,8|8|8|8,1:2|1:2|1:2|1:2,0:0:0:0:
322,74,90393,6,0,B|371:79|430:17|316:-50|224:94|310:186,1,287.999968322755,0|0,1:0|0:0,0:0:0:0:
510,288,91939,6,0,P|470:343|394:354,1,116.999985345841,4|0,1:2|0:0,0:0:0:0:
395,311,92248,2,0,P|365:280|319:281,1,77.9999902305609,12|0,1:2|0:0,0:0:0:0:
308,326,92480,2,0,P|278:357|232:356,1,77.9999902305609,12|0,1:2|0:0,0:0:0:0:
209,325,92712,1,12,1:2:0:0:
209,325,92867,6,0,L|219:287,2,38.9999951152804,0|0|0,1:0|1:0|1:0,0:0:0:0:
108,367,93176,1,0,1:0:0:0:
108,367,93331,1,0,1:0:0:0:
43,278,93486,2,0,P|62:231|103:214,1,77.9999902305609,0|0,1:0|1:0,0:0:0:0:
141,232,93718,1,0,0:0:0:0:
141,232,93795,2,0,P|185:208|200:180,1,77.9999902305609,0|0,1:0|1:0,0:0:0:0:
132,107,94104,6,0,P|60:100|39:34,1,143.999984161378,6|8,1:2|1:2,0:0:0:0:
134,9,94568,1,2,0:0:0:0:
219,63,94723,2,0,P|254:49|288:44,1,71.9999920806888,2|2,1:2|3:2,0:0:0:0:
320,5,94955,1,0,3:0:0:0:
320,5,95032,1,10,1:2:0:0:
390,76,95187,6,0,P|366:145|352:215,1,143.999984161378,2|2,0:0|0:0,0:0:0:0:
406,300,95651,2,0,P|367:305|336:318,1,71.9999920806888,10|2,1:2|0:0,0:0:0:0:
245,360,95960,1,0,1:2:0:0:
245,259,96114,2,0,P|263:227|269:190,2,71.9999920806888,0|8|0,3:0|1:2|0:0,0:0:0:0:
155,306,96578,6,0,P|98:271|95:254,1,71.9999920806888,2|0,1:2|0:0,0:0:0:0:
17,209,96888,2,0,P|73:174|76:157,1,71.9999920806888,10|0,1:2|3:0,0:0:0:0:
155,112,97197,2,0,P|98:77|95:60,1,71.9999920806888,2|0,1:2|0:0,0:0:0:0:
163,0,97506,1,10,1:2:0:0:
240,64,97661,6,0,B|289:49|289:49|322:68|322:68|373:54,1,143.999984161378,2|2,0:0|0:0,0:0:0:0:
463,5,98125,2,0,P|494:38|498:76,1,71.9999920806888,10|2,1:2|3:2,0:0:0:0:
466,101,98357,1,0,3:0:0:0:
466,101,98434,2,0,P|452:144|422:166,1,71.9999920806888,2|2,1:2|0:0,0:0:0:0:
336,165,98743,1,10,1:2:0:0:
336,165,98898,1,2,3:2:0:0:
275,245,99053,6,0,P|296:306|312:384,1,143.999984161378,2|8,1:2|1:2,0:0:0:0:
392,323,99516,1,0,0:0:0:0:
473,382,99671,2,0,P|479:347|491:312,1,71.9999920806888,2|0,1:2|0:0,0:0:0:0:
472,270,99903,1,0,0:0:0:0:
472,270,99980,1,8,1:2:0:0:
511,175,100135,6,0,P|464:164|419:70,1,143.999984161378,2|2,0:0|0:0,0:0:0:0:
353,8,100599,2,0,P|313:28|298:56,1,71.9999920806888,10|2,1:2|3:2,0:0:0:0:
334,150,100908,1,2,1:2:0:0:
334,150,101063,1,0,1:0:0:0:
282,236,101218,2,0,P|246:223|212:217,1,71.9999920806888,0|0,1:0|3:0,0:0:0:0:
120,258,101527,6,0,P|109:201|130:155,1,107.999988121033,4|0,1:2|0:0,0:0:0:0:
171,129,101836,2,0,P|157:92|152:59,1,71.9999920806888,8|0,1:2|0:0,0:0:0:0:
55,28,102145,1,0,1:0:0:0:
55,28,102300,2,0,P|68:64|73:97,1,71.9999920806888,0|8,0:0|1:2,0:0:0:0:
12,177,102609,6,0,P|-8:231|-15:281,1,107.999988121033,2|0,0:0|0:0,0:0:0:0:
25,310,102919,1,0,0:0:0:0:
25,310,103073,2,0,P|49:335|84:342,1,71.9999920806888,10|0,1:2|3:0,0:0:0:0:
177,381,103382,1,0,1:0:0:0:
214,287,103537,2,0,P|248:300|283:305,2,71.9999920806888,2|10|2,0:0|1:2|0:0,0:0:0:0:
163,199,104001,6,0,P|183:157|218:139,1,71.9999920806888,2|2,1:2|0:0,0:0:0:0:
274,72,104310,2,0,P|300:111|298:150,1,71.9999920806888,10|2,1:2|3:2,0:0:0:0:
349,224,104620,2,0,P|383:210|418:205,1,71.9999920806888,2|2,1:2|0:0,0:0:0:0:
462,239,104852,1,0,0:0:0:0:
462,239,104929,1,10,1:2:0:0:
512,139,105084,6,0,P|498:104|493:69,1,71.9999920806888,2|0,0:0|1:0,0:0:0:0:
409,14,105393,1,2,0:0:0:0:
345,91,105547,2,0,P|318:63|308:24,2,71.9999920806888,10|2|0,1:2|0:0|1:0,0:0:0:0:
283,160,106011,1,2,0:0:0:0:
283,160,106166,2,0,P|251:148|213:141,1,71.9999920806888,0|0,1:0|0:0,0:0:0:0:
160,55,106475,6,0,P|128:116|90:135,1,107.999988121033,0|0,1:0|0:0,0:0:0:0:
64,174,106785,2,0,P|76:210|82:243,1,71.9999920806888,8|0,1:2|0:0,0:0:0:0:
12,316,107094,1,0,1:0:0:0:
12,316,107248,2,0,P|49:321|81:334,1,71.9999920806888,0|8,0:0|1:2,0:0:0:0:
172,378,107558,6,0,P|222:348|236:294,1,107.999988121033,2|0,0:0|0:0,0:0:0:0:
196,271,107867,1,0,0:0:0:0:
274,207,108022,2,0,P|260:174|255:137,1,71.9999920806888,10|0,1:2|3:0,0:0:0:0:
347,96,108331,1,0,1:0:0:0:
288,13,108486,2,0,P|241:20|218:53,2,71.9999920806888,2|10|2,0:0|1:2|0:0,0:0:0:0:
347,96,108949,6,0,P|359:133|365:166,1,71.9999920806888,2|2,1:2|0:0,0:0:0:0:
461,199,109259,2,0,P|448:236|442:269,1,71.9999920806888,10|2,1:2|0:0,0:0:0:0:
510,342,109568,2,0,P|490:371|457:384,1,71.9999920806888,2|2,1:2|0:0,0:0:0:0:
419,360,109800,1,0,0:0:0:0:
419,360,109877,1,10,1:2:0:0:
319,376,110032,6,0,P|283:362|249:357,1,71.9999920806888,2|2,0:0|1:2,0:0:0:0:
197,277,110341,1,2,0:0:0:0:
197,277,110496,2,0,P|210:241|215:207,1,71.9999920806888,10|0,1:2|3:0,0:0:0:0:
265,189,110728,1,0,3:0:0:0:
265,189,110805,2,0,P|301:202|335:207,1,71.9999920806888,2|2,1:2|0:0,0:0:0:0:
430,158,111114,2,0,L|446:96,3,35.9999960403444,0|0|0|0,1:0|3:0|3:0|3:0,0:0:0:0:
423,92,111424,6,0,P|465:52|510:57,2,95.9999923706056,2|2|2,0:0|3:2|0:0,0:0:0:0:
321,3,112352,2,0,L|274:15,1,47.9999961853028,2|2,3:2|0:0,0:0:0:0:
292,94,112661,5,2,0:0:0:0:
292,94,112815,2,0,L|338:106,1,47.9999961853028,2|2,0:0|0:0,0:0:0:0:
393,52,113125,1,2,0:0:0:0:
393,52,113279,2,2,B|395:6|516:66|483:89,1,131.999993537903,0|0,0:0|0:0,0:0:0:0:
