osu file format v14

[General]
AudioFilename: audio.mp3
AudioLeadIn: 0
PreviewTime:37120
Countdown: 0
SampleSet: Soft
StackLeniency: 0.2
Mode: 0
LetterboxInBreaks: 0
WidescreenStoryboard: 1

[Editor]
Bookmarks: 9980,14929,24826,34723,37197,47094,56991,59465,71836,81733,91630,94104,101527,111424,113898
DistanceSpacing: 0.5
BeatDivisor: 4
GridSize: 8
TimelineZoom: 0.8

[Metadata]
Title:Shousou feat. KAFU
TitleUnicode:焦燥 feat. 可不
Artist:TokaP
ArtistUnicode:TokaP
Creator:Ryuusei Aika
Version:Voice's Another
Source:
Tags:Teages iRedi sorairokarasu VoiceCore Mononymous CeVIO AI 音楽的同位体 KAF+U Vocaloid ボーカロイド ボカロ Japanese Electronic メイロ OtoLogic オトロジック
BeatmapID:4023792
BeatmapSetID:1934865

[Difficulty]
HPDrainRate:5
CircleSize:2.8
OverallDifficulty:8
ApproachRate:9.2
SliderMultiplier:1.99999990463257
SliderTickRate:1

[Events]
//Background and Video events
0,0,"__kina9o__202302040726.png",0,0
//Break Periods
2,34613,36627
2,81624,86111
//Storyboard Layer 0 (Background)
//Storyboard Layer 1 (Fail)
//Storyboard Layer 2 (Pass)
//Storyboard Layer 3 (Foreground)
//Storyboard Layer 4 (Overlay)
//Storyboard Sound Samples

[TimingPoints]
84,309.278350515464,4,2,1,40,1,0
393,-166.666666666667,4,2,1,40,0,0
6888,-125,4,2,1,40,0,0
9980,-100,4,2,1,60,0,0
14929,-125,4,2,2,50,0,0
24826,-100,4,2,1,65,0,0
34723,-100,4,2,1,50,0,0
37197,-83.3333333333333,4,2,1,80,0,1
46475,-83.3333333333333,4,2,1,80,0,0
47094,-83.3333333333333,4,2,1,80,0,1
49104,-83.3333333333333,4,2,1,80,0,0
52042,-83.3333333333333,4,2,1,70,0,1
54053,-83.3333333333333,4,2,1,70,0,0
56991,-125,4,2,1,50,0,0
58846,-125,4,2,1,40,0,0
58885,-125,4,2,2,40,0,0
58924,-125,4,2,1,20,0,0
58962,-125,4,2,2,25,0,0
59001,-125,4,2,1,30,0,0
59040,-125,4,2,2,35,0,0
59078,-125,4,2,1,40,0,0
59117,-125,4,2,2,45,0,0
59156,-125,4,2,1,50,0,0
59195,-125,4,2,2,55,0,0
59234,-125,4,2,1,60,0,0
59272,-125,4,2,2,65,0,0
59311,-125,4,2,1,70,0,0
59350,-125,4,2,2,75,0,0
59388,-125,4,2,1,80,0,0
59426,-125,4,2,2,85,0,0
59465,-125,4,2,3,70,0,0
61939,-100,4,2,3,70,0,0
71836,-100,4,2,1,65,0,0
86681,-100,4,2,2,50,0,0
90393,-125,4,2,2,70,0,0
91939,-100,4,2,1,80,0,0
94104,-83.3333333333333,4,2,1,80,0,1
100908,-83.3333333333333,4,2,1,80,0,0
101527,-83.3333333333333,4,2,1,80,0,1
103537,-83.3333333333333,4,2,1,80,0,0
106475,-83.3333333333333,4,2,1,80,0,1
108486,-83.3333333333333,4,2,1,70,0,0
111424,-125,4,2,1,50,0,0
113279,-125,4,2,1,40,0,0
113318,-125,4,2,2,40,0,0
113357,-125,4,2,1,25,0,0
113395,-125,4,2,2,35,0,0
113434,-125,4,2,1,45,0,0
113473,-125,4,2,2,55,0,0
113511,-125,4,2,1,65,0,0
113550,-125,4,2,2,75,0,0
113589,-125,4,2,1,5,0,0

[Colours]
Combo1 : 63,63,63
Combo2 : 159,0,0
Combo3 : 95,95,95
Combo4 : 128,64,64
Combo5 : 127,127,127
Combo6 : 85,0,0

[HitObjects]
480,53,393,5,2,0:0:0:0:
451,106,547,1,2,0:0:0:0:
461,140,702,2,0,P|407:156|392:167,1,59.9999964237214,2|0,0:0|0:0,0:0:0:0:
401,171,934,1,2,0:0:0:0:
474,267,1166,2,0,P|462:326|455:377,1,89.9999980688095,2|0,0:0|0:0,0:0:0:0:
448,367,1475,6,0,P|447:338|417:301,2,59.9999987125397,2|2|2,0:0|0:0|3:2,0:0:0:0:
434,373,1862,1,0,3:0:0:0:
422,364,1939,2,0,P|364:370|322:387,1,89.9999980688095,2|0,3:2|0:0,0:0:0:0:
314,363,2248,5,2,3:2:0:0:
299,360,2325,1,0,3:0:0:0:
284,358,2402,1,2,3:2:0:0:
269,356,2479,1,0,3:0:0:0:
254,354,2557,1,2,3:2:0:0:
62,377,2867,5,2,0:0:0:0:
29,332,3022,1,2,0:0:0:0:
38,294,3176,2,0,L|112:286,1,59.9999987125397,2|0,0:0|3:0,0:0:0:0:
103,273,3408,1,0,3:0:0:0:
111,260,3486,1,0,3:0:0:0:
190,228,3640,6,0,P|171:195|80:180,1,119.999997425079,2|2,0:0|0:0,0:0:0:0:
69,199,4104,1,2,0:0:0:0:
16,183,4259,1,2,0:0:0:0:
14,94,4413,1,2,3:2:0:0:
10,79,4490,1,0,3:0:0:0:
7,64,4567,1,2,3:2:0:0:
14,94,4723,2,0,P|24:46|54:0,1,89.9999980688095,2|0,0:0|0:0,0:0:0:0:
65,18,5032,6,0,P|109:25|130:30,1,59.9999987125397,2|0,0:0|0:0,0:0:0:0:
65,18,5341,2,0,P|109:25|130:30,1,59.9999987125397,2|2,0:0|0:0,0:0:0:0:
189,87,5651,2,0,L|248:62,2,59.9999987125397,2|0|0,0:0|0:0|0:0,0:0:0:0:
176,176,6114,6,0,P|165:227|240:263,1,119.999990615845,2|2,0:0|0:0,0:0:0:0:
276,205,6578,2,0,L|285:143,1,59.9999953079226,2|0,0:0|3:0,0:0:0:0:
298,142,6810,1,0,3:2:0:0:
312,136,6888,6,0,B|326:96|326:96|296:48,1,79.9999961853028,2|0,0:0|0:0,0:0:0:0:
312,136,7197,2,0,B|326:96|326:96|296:48,1,79.9999961853028,2|0,0:0|0:0,0:0:0:0:
298,51,7429,1,2,0:0:0:0:
287,37,7506,2,0,B|361:-6|431:65|371:53|441:124|530:69,1,239.999988555908,2|0,0:0|0:0,0:0:0:0:
504,82,8125,6,0,P|487:127|477:162,1,79.9999961853028,2|0,0:0|3:0,0:0:0:0:
482,169,8357,1,0,3:0:0:0:
492,181,8434,1,2,3:2:0:0:
451,291,9980,5,6,1:2:0:0:
404,309,10135,1,0,0:0:0:0:
359,284,10290,5,8,1:2:0:0:
312,302,10445,1,0,0:0:0:0:
267,277,10599,5,2,1:2:0:0:
220,295,10754,1,0,0:0:0:0:
175,270,10908,5,8,1:2:0:0:
151,279,10986,1,0,3:0:0:0:
128,288,11063,2,0,P|138:236|142:187,2,99.9999952316285,2|0|2,3:2|1:0|3:2,0:0:0:0:
17,226,11527,6,0,L|8:193,2,24.9999988079071,0|0|0,3:0|3:0|3:0,0:0:0:0:
8,242,11681,1,0,3:0:0:0:
41,266,11759,1,0,3:0:0:0:
100,247,11836,5,2,1:2:0:0:
162,108,11991,1,0,0:0:0:0:
20,20,12145,2,0,P|34:69|57:160,1,99.9999952316285,8|0,1:2|3:0,0:0:0:0:
162,108,12455,5,2,1:2:0:0:
182,100,12532,1,0,0:0:0:0:
230,12,12687,5,2,3:2:0:0:
260,21,12764,1,8,1:2:0:0:
335,86,12919,5,2,0:0:0:0:
402,30,13073,6,0,P|423:79|410:135,1,99.9999952316285,2|0,1:2|3:0,0:0:0:0:
407,139,13305,1,0,3:0:0:0:
393,154,13382,1,0,1:0:0:0:
330,223,13537,2,0,B|485:173|485:173|457:250,1,199.999990463257,2|2,0:0|0:0,0:0:0:0:
418,372,14001,6,0,P|399:328|432:282,1,99.9999952316285,8|0,1:2|3:0,0:0:0:0:
443,294,14233,1,0,3:0:0:0:
464,294,14310,2,0,P|493:286|522:282,1,49.9999976158143,2|0,1:2|0:0,0:0:0:0:
418,372,14465,6,0,P|383:363|335:354,1,49.9999976158143,2|0,0:0|0:0,0:0:0:0:
349,376,14620,1,8,1:2:0:0:
320,335,14697,1,0,3:0:0:0:
276,312,14774,1,0,3:0:0:0:
227,310,14851,1,0,3:0:0:0:
181,329,14929,1,4,1:2:0:0:
46,213,15238,5,10,0:0:0:0:
0,302,15393,1,2,0:0:0:0:
42,374,15547,2,0,L|125:360,1,79.9999961853028,2|0,1:2|0:0,0:0:0:0:
133,336,15779,2,0,L|216:322,1,79.9999961853028,2|0,1:2|0:0,0:0:0:0:
226,299,16011,1,2,1:2:0:0:
280,139,16321,5,2,1:2:0:0:
303,53,16475,1,10,0:0:0:0:
290,163,16630,1,2,3:2:0:0:
290,186,16707,1,0,3:0:0:0:
290,205,16785,2,0,P|295:245|306:328,1,119.999994277954,2|0,1:2|0:0,0:0:0:0:
313,340,17094,2,0,P|360:349|400:304,1,79.9999961853028,10|2,0:0|0:0,0:0:0:0:
461,244,17403,1,0,1:0:0:0:
345,151,17712,6,0,P|391:155|446:164,1,79.9999961853028,10|2,0:0|0:0,0:0:0:0:
506,83,18022,1,2,1:2:0:0:
356,34,18254,1,2,1:2:0:0:
350,14,18331,1,8,0:0:0:0:
291,95,18486,6,0,B|335:69|335:69|377:113|328:185,1,159.999992370606,2|2,1:2|1:2,0:0:0:0:
258,207,18949,2,0,B|230:192|200:216|206:209|206:209|176:204,1,79.9999961853028,10|2,0:0|0:0,0:0:0:0:
20,68,19259,1,2,1:2:0:0:
40,74,19336,1,0,3:0:0:0:
45,67,19413,1,0,3:0:0:0:
96,0,19568,2,0,P|77:42|96:101,1,79.9999961853028,10|0,1:2|0:0,0:0:0:0:
143,179,19877,5,6,1:2:0:0:
253,116,20032,2,0,P|239:165|233:203,2,79.9999961853028,2|10|2,0:0|0:0|0:0,0:0:0:0:
218,13,20496,2,0,P|239:62|274:77,1,79.9999961853028,2|0,1:2|0:0,0:0:0:0:
269,99,20728,2,0,P|318:118|353:104,1,79.9999961853028,2|0,1:2|0:0,0:0:0:0:
361,124,20960,1,2,1:2:0:0:
501,9,21269,5,2,1:2:0:0:
447,98,21424,1,10,0:0:0:0:
500,171,21578,2,0,P|498:192|496:220,1,39.9999980926514,2|0,3:2|3:0,0:0:0:0:
482,222,21733,5,2,1:2:0:0:
365,246,21888,1,2,0:0:0:0:
231,332,22042,1,10,0:0:0:0:
231,332,22197,2,0,L|281:337,1,39.9999980926514,2|0,3:2|3:0,0:0:0:0:
362,346,22352,6,0,L|350:239,1,79.9999961853028,2|2,1:2|0:0,0:0:0:0:
339,150,22661,1,8,0:0:0:0:
362,346,22970,5,0,1:0:0:0:
259,241,23202,1,0,1:0:0:0:
240,247,23279,1,8,0:0:0:0:
176,318,23434,6,0,B|185:260|185:260|154:216|154:216|180:153,1,159.999992370606,6|2,1:2|1:2,0:0:0:0:
242,124,23898,1,0,3:0:0:0:
239,107,23975,1,0,3:0:0:0:
227,94,24053,2,0,L|233:65,2,19.9999990463257,0|0|0,3:0|3:0|3:0,0:0:0:0:
203,91,24207,5,0,1:2:0:0:
104,170,24362,1,4,0:3:0:0:
111,190,24439,1,8,0:3:0:0:
118,207,24516,2,0,P|169:196|220:192,1,79.9999961853028,2|0,0:0|1:0,0:0:0:0:
281,278,24826,6,0,L|493:305,2,199.999990463257,6|8|2,1:2|1:2|1:2,0:0:0:0:
488,320,25754,1,10,1:2:0:0:
390,256,25908,2,0,P|369:203|404:151,1,99.9999952316285,2|0,0:0|1:0,0:0:0:0:
458,109,26218,1,0,0:0:0:0:
458,109,26372,1,8,1:2:0:0:
474,125,26527,6,0,L|480:176,1,49.9999976158143,0|0,3:0|3:0,0:0:0:0:
491,199,26681,2,0,P|414:188|357:182,1,99.9999952316285,0|0,1:0|0:0,0:0:0:0:
437,21,26991,2,0,P|371:32|325:38,1,99.9999952316285,8|2,1:2|3:2,0:0:0:0:
324,27,27223,1,0,3:0:0:0:
310,18,27300,6,0,P|238:17|214:55,1,99.9999952316285,0|2,1:2|0:0,0:0:0:0:
203,190,27609,1,10,1:2:0:0:
298,251,27764,1,2,0:0:0:0:
330,106,27919,1,2,1:2:0:0:
191,200,28073,2,0,L|133:193,1,49.9999976158143,2|0,3:2|3:0,0:0:0:0:
122,209,28228,1,10,1:2:0:0:
38,162,28382,6,0,P|21:101|85:22,1,149.999992847443,2|0,0:0|0:0,0:0:0:0:
87,42,28692,2,0,B|127:73|127:73|185:58,2,99.9999952316285,2|10|2,0:0|1:2|0:0,0:0:0:0:
9,97,29156,1,2,1:2:0:0:
14,121,29233,1,0,3:0:0:0:
20,145,29310,1,0,3:0:0:0:
7,265,29465,2,0,P|63:268|135:308,1,99.9999952316285,10|0,1:2|0:0,0:0:0:0:
186,347,29774,5,0,1:2:0:0:
171,343,29929,1,2,0:0:0:0:
118,197,30084,1,10,1:2:0:0:
140,178,30238,1,2,0:0:0:0:
285,328,30393,2,0,L|83:290,1,199.999990463257,2|10,1:2|1:2,0:0:0:0:
88,291,30857,2,0,P|164:285|201:245,1,99.9999952316285,2|0,0:0|1:0,0:0:0:0:
215,143,31166,5,0,0:0:0:0:
201,57,31321,1,8,1:2:0:0:
308,165,31475,6,0,L|296:97,1,49.9999976158143,0|0,3:0|3:0,0:0:0:0:
283,26,31630,2,0,P|316:66|419:60,1,149.999992847443,0|0,1:0|0:0,0:0:0:0:
425,52,31939,2,0,B|498:60|498:60|522:104,1,99.9999952316285,8|0,1:2|3:0,0:0:0:0:
503,110,32171,1,0,3:0:0:0:
494,137,32248,1,0,1:0:0:0:
501,356,32558,5,8,1:2:0:0:
425,259,32712,1,0,0:0:0:0:
481,371,32867,2,0,P|422:357|321:340,1,149.999992847443,0|0,1:0|3:0,0:0:0:0:
317,360,33176,6,0,P|278:372|239:375,1,49.9999976158143,0|0,1:0|0:0,0:0:0:0:
170,267,33331,2,0,B|236:249|273:299|239:294|295:360|361:323,1,199.999990463257,4|0,1:2|0:0,0:0:0:0:
331,239,33795,5,0,1:2:0:0:
325,214,33872,1,0,3:0:0:0:
303,200,33949,1,0,3:0:0:0:
409,143,34104,5,0,1:0:0:0:
292,47,34259,1,0,3:0:0:0:
151,96,34413,1,8,1:2:0:0:
107,129,37197,6,0,P|177:141|284:154,1,119.999990615845,6|0,1:2|0:0,0:0:0:0:
408,71,37506,1,10,1:2:0:0:
406,37,37584,1,0,3:0:0:0:
376,20,37661,1,0,3:0:0:0:
315,131,37815,6,0,B|315:247|235:195|258:319,1,179.999985923768,2|0,1:2|0:0,0:0:0:0:
264,310,38125,1,10,1:2:0:0:
386,324,38279,2,0,B|298:310|298:310|268:335,1,119.999990615845,2|0,0:0|1:0,0:0:0:0:
396,342,38589,5,2,0:0:0:0:
245,315,38743,2,0,L|142:299,1,59.9999953079226,10|0,1:2|0:0,0:0:0:0:
167,317,38898,1,2,0:0:0:0:
128,308,38975,1,0,0:0:0:0:
81,334,39053,5,2,1:2:0:0:
214,209,39207,1,2,0:0:0:0:
37,100,39362,2,0,P|131:148|162:138,1,119.999990615845,10|2,1:2|0:0,0:0:0:0:
341,56,39671,2,0,B|327:43|327:43|175:65|175:65|213:81|226:129,1,239.99998123169,2|8,1:2|1:2,0:0:0:0:
164,40,40135,5,2,0:0:0:0:
87,275,40290,1,2,1:2:0:0:
147,205,40444,6,0,L|138:146,1,59.9999953079226,2|0,3:2|3:0,0:0:0:0:
80,75,40599,1,10,1:2:0:0:
224,248,40754,2,0,P|322:267|363:337,1,179.999985923768,2|0,0:0|0:0,0:0:0:0:
358,347,41063,2,0,P|362:262|419:242,2,119.999990615845,2|10|2,0:0|1:2|0:0,0:0:0:0:
447,334,41527,5,0,1:2:0:0:
476,336,41604,1,0,3:0:0:0:
506,340,41681,1,0,3:0:0:0:
388,230,41836,2,0,P|374:164|359:87,1,119.999990615845,8|0,1:2|0:0,0:0:0:0:
388,230,42145,6,0,P|460:199|476:136,1,119.999990615845,2|0,1:2|0:0,0:0:0:0:
306,2,42455,1,10,1:2:0:0:
297,30,42532,1,0,3:0:0:0:
290,59,42609,1,0,3:0:0:0:
391,141,42764,6,0,B|339:136|339:136|272:181|272:181|172:170,1,179.999985923768,2|0,1:2|3:0,0:0:0:0:
208,189,43073,2,0,L|186:110,1,59.9999953079226,10|0,1:2|3:0,0:0:0:0:
122,76,43228,2,0,P|58:96|75:234,1,179.999985923768,2|0,0:0|0:0,0:0:0:0:
59,206,43537,5,2,0:0:0:0:
137,301,43692,2,0,L|128:337,2,29.9999976539613,10|0|0,1:2|3:0|3:0,0:0:0:0:
120,284,43846,1,2,3:2:0:0:
142,242,43924,1,0,3:0:0:0:
200,249,44001,5,2,1:2:0:0:
48,365,44156,1,2,0:0:0:0:
260,315,44310,5,10,1:2:0:0:
223,138,44465,1,2,3:2:0:0:
233,114,44542,1,0,3:0:0:0:
244,92,44620,2,0,B|317:130|372:65|372:65|340:140,1,179.999985923768,2|0,1:2|3:0,0:0:0:0:
370,123,44929,2,0,P|396:172|486:153,1,119.999990615845,8|0,1:2|0:0,0:0:0:0:
295,14,45238,6,0,L|140:-2,1,119.999990615845,2|0,1:2|0:0,0:0:0:0:
161,14,45470,1,0,0:0:0:0:
142,31,45547,1,8,1:2:0:0:
8,151,45702,2,0,B|51:130|61:74|61:74|58:91|58:91|45:158|98:211,1,239.99998123169,2|2,0:0|0:0,0:0:0:0:
177,244,46166,5,10,1:2:0:0:
206,237,46243,1,0,3:0:0:0:
235,231,46320,1,2,3:2:0:0:
318,275,46475,5,2,1:2:0:0:
93,207,46630,1,0,1:0:0:0:
301,364,46785,5,0,1:0:0:0:
359,355,46862,1,0,3:0:0:0:
399,312,46939,1,0,3:0:0:0:
405,253,47016,1,0,3:0:0:0:
374,203,47094,6,0,B|346:161|346:161|383:31,1,179.999985923768,4|0,1:2|0:0,0:0:0:0:
401,40,47403,2,0,P|446:95|430:162,1,119.999990615845,8|0,1:2|0:0,0:0:0:0:
374,203,47712,5,0,1:0:0:0:
401,40,47867,1,0,0:0:0:0:
507,249,48022,2,0,L|437:259,1,59.9999953079226,8|0,1:2|0:0,0:0:0:0:
374,203,48176,6,0,P|290:187|248:183,1,119.999990615845,2|0,0:0|1:0,0:0:0:0:
401,40,48486,1,0,0:0:0:0:
374,203,48640,6,0,L|369:159,2,29.9999976539613,10|0|0,1:2|3:0|3:0,0:0:0:0:
384,224,48795,1,0,3:0:0:0:
378,255,48872,1,0,3:0:0:0:
325,280,48949,1,0,1:0:0:0:
255,183,49104,5,2,0:0:0:0:
124,247,49259,2,0,P|136:300|150:373,1,119.999990615845,10|2,1:2|0:0,0:0:0:0:
48,203,49568,6,0,P|24:165|59:95,1,119.999990615845,2|2,1:2|0:0,0:0:0:0:
149,6,49877,1,10,1:2:0:0:
333,54,50032,1,2,3:2:0:0:
348,44,50109,1,0,3:0:0:0:
362,36,50187,2,0,B|345:96|345:96|392:139,2,119.999990615845,2|2|10,1:2|0:0|1:2,0:0:0:0:
406,146,50651,6,0,L|526:119,1,119.999990615845,2|0,0:0|1:0,0:0:0:0:
334,204,50960,5,2,0:0:0:0:
368,287,51114,1,10,1:2:0:0:
401,371,51269,2,0,P|455:322|455:257,1,119.999990615845,2|0,0:0|1:0,0:0:0:0:
334,204,51578,2,0,B|284:208|263:262|263:262|347:321|347:321|383:264,1,239.99998123169,2|0,0:0|0:0,0:0:0:0:
226,287,52042,6,0,B|162:270|127:325|127:325|111:357|63:356,1,179.999985923768,0|0,1:0|0:0,0:0:0:0:
56,370,52352,2,0,P|39:281|30:243,1,119.999990615845,8|0,1:2|0:0,0:0:0:0:
226,287,52661,5,0,1:0:0:0:
56,370,52815,1,0,0:0:0:0:
292,344,52970,2,0,P|312:304|300:252,1,59.9999953079226,8|0,1:2|0:0,0:0:0:0:
226,287,53125,6,0,P|209:198|200:160,1,119.999990615845,2|0,0:0|1:0,0:0:0:0:
56,370,53434,1,0,0:0:0:0:
226,287,53589,6,0,L|264:273,2,29.9999976539613,10|0|0,1:2|3:0|3:0,0:0:0:0:
207,275,53743,1,0,3:0:0:0:
170,277,53821,1,0,3:0:0:0:
125,241,53898,1,0,1:0:0:0:
170,67,54053,5,2,0:0:0:0:
291,177,54207,2,0,P|377:144|410:139,1,119.999990615845,10|2,1:2|0:0,0:0:0:0:
210,141,54516,6,0,P|146:150|86:92,1,119.999990615845,2|2,1:2|0:0,0:0:0:0:
90,100,54748,1,0,3:0:0:0:
87,78,54826,2,0,L|65:228,1,119.999990615845,10|2,1:2|0:0,0:0:0:0:
130,260,55135,1,2,1:2:0:0:
49,2,55290,2,0,P|-1:60|9:112,1,119.999990615845,2|10,0:0|1:2,0:0:0:0:
60,185,55599,5,2,0:0:0:0:
150,166,55754,1,2,1:2:0:0:
240,147,55908,1,2,0:0:0:0:
330,128,56063,1,10,1:2:0:0:
420,109,56218,1,0,3:0:0:0:
413,153,56295,1,0,3:0:0:0:
406,197,56372,5,2,1:2:0:0:
434,21,56527,1,2,0:0:0:0:
406,197,56681,5,0,1:0:0:0:
399,241,56758,1,0,3:0:0:0:
392,285,56835,1,0,3:0:0:0:
385,329,56914,1,0,3:0:0:0:
378,373,56991,1,2,0:0:0:0:
295,220,57300,6,0,L|234:203,3,39.9999980926514,2|0|0|0,3:2|3:0|3:0|3:0,0:0:0:0:
244,223,57609,2,0,P|187:226|164:262,1,79.9999961853028,2|0,0:0|3:0,0:0:0:0:
168,257,57841,1,0,3:0:0:0:
173,275,57919,5,2,3:2:0:0:
86,188,58073,2,0,P|48:178|-2:173,1,79.9999961853028,2|2,0:0|0:0,0:0:0:0:
104,103,58382,1,2,0:0:0:0:
104,103,58537,2,0,P|66:93|16:88,1,79.9999961853028,2|2,0:0|0:0,0:0:0:0:
182,57,58846,2,2,L|522:23,1,319.999984741211,2|4,0:0|1:2,0:0:0:0:
500,25,59774,6,0,L|491:85,1,39.9999980926514,8|0,0:3|0:0,0:0:0:0:
391,177,60006,6,0,L|382:237,1,39.9999980926514,8|0,0:3|0:0,0:0:0:0:
271,135,60238,6,0,L|262:75,1,39.9999980926514,8|0,0:3|0:0,0:0:0:0:
182,57,60393,5,8,0:0:0:0:
172,55,60470,1,8,0:0:0:0:
162,54,60547,1,8,0:0:0:0:
152,52,60624,1,8,0:0:0:0:
142,51,60702,6,0,B|83:41|83:41|41:83|41:83|54:144|54:144|132:175,1,239.999988555908
206,152,61321,2,0,B|263:179|245:269|178:279|178:279|127:288|124:345,1,239.999988555908
107,264,61939,2,0,L|116:321,1,49.9999976158143,4|0,1:2|0:0,0:0:0:0:
260,367,62248,5,2,0:0:0:0:
276,348,62403,1,0,0:0:0:0:
254,321,62558,1,2,0:0:0:0:
301,277,62712,2,0,L|307:217,1,49.9999976158143,2|0,1:2|0:0,0:0:0:0:
196,211,62867,2,0,L|187:156,1,49.9999976158143,2|0,0:0|0:0,0:0:0:0:
359,152,63022,2,0,L|365:92,1,49.9999976158143,2|0,0:0|0:0,0:0:0:0:
134,26,63176,2,0,L|147:86,1,49.9999976158143,2|0,1:2|0:0,0:0:0:0:
50,192,63486,6,0,P|31:188|21:170,4,24.9999988079071,2|2|2|2|2,0:3|0:3|0:3|0:3|0:3,0:0:0:0:
13,87,63795,1,2,0:0:0:0:
128,236,63949,1,2,1:2:0:0:
50,192,64104,1,0,3:0:0:0:
62,167,64181,1,0,3:0:0:0:
86,155,64259,2,0,L|92:113,2,24.9999988079071,2|2|2,0:3|0:3|0:3,0:0:0:0:
106,150,64413,6,0,L|178:135,1,49.9999976158143,2|0,1:2|0:0,0:0:0:0:
336,101,64723,1,2,0:0:0:0:
245,119,64877,2,0,B|337:135|337:135|371:214,1,149.999992847443,2|0,0:0|0:0,0:0:0:0:
349,201,65187,2,0,L|275:190,1,49.9999976158143,2|0,1:2|0:0,0:0:0:0:
214,234,65341,1,0,3:0:0:0:
216,246,65418,1,0,3:0:0:0:
219,258,65495,1,0,3:0:0:0:
359,290,65651,6,0,P|396:279|416:265,1,49.9999976158143,2|0,1:2|0:0,0:0:0:0:
498,194,65805,2,0,P|489:231|491:255,1,49.9999976158143,2|0,0:0|0:0,0:0:0:0:
512,363,65960,2,0,P|483:336|461:326,1,49.9999976158143,2|0,0:0|0:0,0:0:0:0:
274,263,66114,1,2,0:0:0:0:
349,201,66269,6,0,L|357:160,2,24.9999988079071,2|2|2,0:3|0:3|0:3,0:0:0:0:
335,188,66424,1,0,1:0:0:0:
494,90,66578,2,0,L|490:54,4,24.9999988079071,2|2|2|2|2,0:3|0:3|0:3|0:3|0:3,0:0:0:0:
256,16,66888,5,6,1:2:0:0:
233,42,67042,1,2,0:0:0:0:
326,122,67197,1,2,0:0:0:0:
404,66,67352,1,2,0:0:0:0:
384,50,67506,5,2,0:0:0:0:
189,122,67661,1,2,1:2:0:0:
501,186,67815,1,2,3:2:0:0:
488,185,67892,1,0,3:0:0:0:
476,186,67969,1,2,3:2:0:0:
464,190,68046,1,0,3:0:0:0:
453,196,68124,1,2,1:2:0:0:
453,196,68434,6,0,L|461:227,4,24.9999988079071,2|2|2|2|2,0:3|0:3|0:3|0:3|0:3,0:0:0:0:
371,152,68743,1,2,0:0:0:0:
265,283,68898,1,2,1:2:0:0:
155,193,69053,1,0,3:0:0:0:
175,193,69130,1,0,3:0:0:0:
191,200,69207,2,0,L|200:236,2,24.9999988079071,2|2|2,0:3|0:3|0:3,0:0:0:0:
205,187,69362,6,0,L|218:124,1,49.9999976158143,2|0,1:2|0:0,0:0:0:0:
178,320,69671,1,2,0:0:0:0:
98,276,69826,2,0,B|12:305|12:305|21:376,1,149.999992847443,2|0,0:0|0:0,0:0:0:0:
34,376,70135,2,0,L|23:313,1,49.9999976158143,2|0,1:2|0:0,0:0:0:0:
19,231,70290,1,2,3:2:0:0:
21,218,70367,1,0,3:0:0:0:
23,206,70444,1,0,3:0:0:0:
179,108,70599,6,0,P|168:64|152:38,1,49.9999976158143,2|0,1:2|0:0,0:0:0:0:
158,100,70754,2,0,P|147:56|131:30,1,49.9999976158143,2|0,1:2|0:0,0:0:0:0:
59,23,70908,2,0,P|15:34|-11:50,1,49.9999976158143,2|0,0:0|0:0,0:0:0:0:
155,192,71063,2,0,P|223:187|247:166,1,99.9999952316285,2|0,0:0|0:0,0:0:0:0:
453,23,71372,6,0,P|497:34|523:50,1,49.9999976158143,6|0,1:2|0:0,0:0:0:0:
451,110,71527,1,0,3:0:0:0:
426,113,71604,1,0,3:0:0:0:
401,117,71681,1,0,3:0:0:0:
376,121,71758,1,0,3:0:0:0:
351,123,71836,6,0,B|273:106|273:106|248:65|248:65|151:47,2,199.999990463257,2|10|2,1:2|1:2|1:2,0:0:0:0:
104,106,72764,1,10,1:2:0:0:
187,148,72919,2,0,P|192:217|153:264,1,99.9999952316285,2|0,0:0|1:0,0:0:0:0:
82,316,73228,1,0,0:0:0:0:
82,316,73382,1,8,1:2:0:0:
95,333,73537,6,0,L|168:319,1,49.9999976158143,0|0,3:0|3:0,0:0:0:0:
166,335,73692,2,0,P|231:363|271:343,1,99.9999952316285,0|0,1:0|0:0,0:0:0:0:
105,186,74001,2,0,P|40:158|0:178,1,99.9999952316285,8|2,1:2|3:2,0:0:0:0:
16,184,74233,1,0,3:0:0:0:
28,197,74310,6,0,B|45:214|45:214|155:169,1,99.9999952316285,0|2,1:2|0:0,0:0:0:0:
275,124,74619,1,10,1:2:0:0:
383,176,74774,1,2,0:0:0:0:
194,84,74929,1,2,1:2:0:0:
295,214,75084,2,0,L|275:282,1,49.9999976158143,2|0,3:2|3:0,0:0:0:0:
264,275,75238,1,10,1:2:0:0:
327,343,75393,6,0,B|367:315|423:342|387:346|431:379|480:349,1,149.999992847443,2|0,0:0|0:0,0:0:0:0:
477,338,75702,2,0,B|499:287|499:287|460:221,2,99.9999952316285,2|10|2,0:0|1:2|0:0,0:0:0:0:
388,220,76166,1,2,1:2:0:0:
383,195,76243,1,0,3:0:0:0:
395,172,76321,1,0,3:0:0:0:
488,93,76475,2,0,L|355:72,1,99.9999952316285,10|0,1:2|0:0,0:0:0:0:
257,165,76784,5,6,1:2:0:0:
263,151,76939,1,2,0:0:0:0:
97,35,77094,1,10,1:2:0:0:
106,64,77248,1,2,0:0:0:0:
304,70,77403,2,0,P|187:103|175:177,1,199.999990463257,2|10,1:2|1:2,0:0:0:0:
173,167,77867,2,0,B|146:210|146:210|186:262,1,99.9999952316285,2|0,0:0|1:0,0:0:0:0:
286,354,78176,5,0,0:0:0:0:
372,368,78331,1,8,1:2:0:0:
264,261,78485,6,0,L|332:273,1,49.9999976158143,0|0,3:0|3:0,0:0:0:0:
403,286,78640,2,0,B|392:197|392:197|310:179,1,149.999992847443,0|0,1:0|0:0,0:0:0:0:
329,165,78949,2,0,P|294:124|238:140,1,99.9999952316285,8|0,1:2|3:0,0:0:0:0:
230,145,79181,1,0,3:0:0:0:
233,168,79259,1,0,1:0:0:0:
167,380,79568,6,0,P|92:366|5:359,1,149.999992847443,10|0,1:2|0:0,0:0:0:0:
10,350,79877,2,0,P|67:318|136:327,1,99.9999952316285,2|2,1:2|3:2,0:0:0:0:
115,304,80109,1,0,3:0:0:0:
104,282,80187,6,0,P|95:241|95:220,1,49.9999976158143,2|0,1:2|0:0,0:0:0:0:
146,152,80341,2,0,B|248:164|248:164|258:182|258:182|235:207,1,149.999992847443,6|0,1:2|0:0,0:0:0:0:
241,218,80651,2,0,B|263:134|200:141|222:59,1,149.999992847443,2|0,1:2|3:0,0:0:0:0:
234,68,80960,6,0,L|162:60,1,49.9999976158143,2|0,1:2|0:0,0:0:0:0:
85,49,81114,1,2,1:2:0:0:
396,89,81424,1,2,1:2:0:0:
1,12,86681,5,8,1:2:0:0:
26,55,86836,1,0,0:0:0:0:
10,103,86991,5,8,1:2:0:0:
35,146,87146,1,0,0:0:0:0:
19,195,87300,5,8,1:2:0:0:
45,238,87455,1,0,0:0:0:0:
28,287,87609,5,8,1:2:0:0:
41,309,87687,1,0,3:0:0:0:
54,330,87764,2,0,P|86:286|161:274,2,99.9999952316285,0|8|0,3:0|1:2|0:0,0:0:0:0:
139,358,88228,6,0,L|130:389,2,24.9999988079071,8|0|0,1:2|0:0|0:0,0:0:0:0:
159,348,88382,1,0,3:0:0:0:
184,361,88460,1,0,3:0:0:0:
212,347,88537,5,8,1:2:0:0:
365,286,88692,1,0,0:0:0:0:
406,367,88846,5,8,1:2:0:0:
274,276,89001,2,0,P|266:252|258:211,1,49.9999976158143,0|0,3:0|3:0,0:0:0:0:
269,206,89156,5,8,1:2:0:0:
305,70,89310,1,8,1:2:0:0:
355,156,89465,5,8,1:2:0:0:
219,120,89619,1,8,1:2:0:0:
305,70,89774,5,8,1:2:0:0:
330,113,89852,1,8,1:2:0:0:
355,156,89929,1,8,1:2:0:0:
312,181,90006,1,8,1:2:0:0:
269,206,90083,1,8,1:2:0:0:
244,163,90161,1,8,1:2:0:0:
219,120,90238,1,8,1:2:0:0:
262,95,90315,1,8,1:2:0:0:
305,70,90392,1,0,1:0:0:0:
256,192,90702,12,0,91630,0:0:0:0:
28,227,91939,6,0,B|32:174|32:174|21:149|21:149|39:125|39:125|48:53,1,149.999992847443,4|0,1:2|0:0,0:0:0:0:
48,61,92248,2,0,B|52:91|52:91|59:105|59:105|53:119|53:119|59:174,1,99.9999952316285,12|0,1:2|0:0,0:0:0:0:
128,218,92480,2,0,B|132:248|132:248|139:262|139:262|133:276|133:276|139:331,1,99.9999952316285,12|0,1:2|0:0,0:0:0:0:
217,222,92712,6,0,B|220:186|220:186|212:170|212:170|224:154|224:154|230:106,1,99.9999952316285,12|0,1:2|1:0,0:0:0:0:
248,112,92944,1,0,1:0:0:0:
266,97,93022,2,0,B|269:61|269:61|261:45|261:45|273:29|273:29|279:-18,1,99.9999952316285,0|0,1:0|1:0,0:0:0:0:
328,170,93331,6,0,B|332:200|332:200|339:214|339:214|333:228|333:228|339:283,1,99.9999952316285,0|0,1:0|1:0,0:0:0:0:
360,276,93563,1,0,1:0:0:0:
383,286,93640,2,0,B|387:316|387:316|394:330|394:330|388:344|388:344|394:399,1,99.9999952316285,0|0,1:0|1:0,0:0:0:0:
458,226,93949,5,0,1:0:0:0:
458,226,94104,2,0,B|451:127|389:180|404:66|404:66|453:48|453:48|482:66,1,239.99998123169,6|8,1:2|1:2,0:0:0:0:
364,226,94568,5,2,0:0:0:0:
334,232,94645,1,0,0:0:0:0:
304,238,94723,1,2,1:2:0:0:
383,44,94877,5,2,3:2:0:0:
422,48,94954,1,0,3:0:0:0:
462,53,95031,1,10,1:2:0:0:
229,288,95187,6,0,P|211:239|300:151,1,179.999985923768,2|0,0:0|0:0,0:0:0:0:
310,147,95496,2,0,P|244:130|240:77,2,119.999990615845,2|10|2,0:0|1:2|0:0,0:0:0:0:
388,83,95960,5,0,1:2:0:0:
390,62,96037,1,0,3:0:0:0:
371,46,96114,1,0,3:0:0:0:
304,238,96269,2,0,P|229:250|159:268,1,119.999990615845,8|0,1:2|0:0,0:0:0:0:
123,334,96578,6,0,P|39:322|12:251,1,119.999990615845,2|0,1:2|0:0,0:0:0:0:
77,130,96888,1,10,1:2:0:0:
81,159,96965,1,0,3:0:0:0:
85,189,97042,1,0,3:0:0:0:
89,219,97119,1,0,0:0:0:0:
94,248,97197,2,0,B|73:190|134:141|125:184|191:137|157:55,1,179.999985923768,2|0,1:2|3:0,0:0:0:0:
183,76,97506,6,0,P|162:26|131:13,1,59.9999953079226,10|0,1:2|3:0,0:0:0:0:
184,238,97661,2,0,B|304:214|304:214|226:153,1,179.999985923768,2|0,0:0|0:0,0:0:0:0:
244,166,97970,5,2,0:0:0:0:
75,88,98125,2,0,L|42:102,2,29.9999976539613,10|0|0,1:2|3:0|3:0,0:0:0:0:
97,68,98279,1,2,3:2:0:0:
98,35,98357,1,0,3:0:0:0:
122,79,98434,5,2,1:2:0:0:
303,120,98589,1,2,0:0:0:0:
406,20,98743,5,10,1:2:0:0:
336,197,98898,1,2,3:2:0:0:
332,221,98975,1,0,3:0:0:0:
356,235,99053,2,0,P|418:220|487:205,1,119.999990615845,2|0,1:2|0:0,0:0:0:0:
252,318,99362,2,0,P|339:337|360:380,1,119.999990615845,8|0,1:2|0:0,0:0:0:0:
353,358,99671,6,0,B|344:298|344:298|402:247,1,119.999990615845,2|0,1:2|0:0,0:0:0:0:
374,248,99903,1,0,0:0:0:0:
356,235,99980,1,8,1:2:0:0:
118,278,100135,2,0,B|115:335|184:355|184:355|246:292|195:223,1,239.99998123169,2|2,0:0|0:0,0:0:0:0:
162,96,100599,5,10,1:2:0:0:
31,240,100754,1,2,3:2:0:0:
17,9,100908,5,2,1:2:0:0:
129,186,101063,1,0,1:0:0:0:
342,64,101218,5,0,1:0:0:0:
298,23,101295,1,0,3:0:0:0:
240,16,101372,1,0,3:0:0:0:
188,43,101449,1,0,3:0:0:0:
162,96,101527,6,0,B|179:153|179:153|315:169,1,179.999985923768,4|0,1:2|0:0,0:0:0:0:
308,186,101836,2,0,L|390:173,2,59.9999953079226,8|0|0,1:2|0:0|0:0,0:0:0:0:
162,96,102145,5,0,1:0:0:0:
308,186,102300,2,0,P|294:238|257:263,1,59.9999953079226
92,148,102455,2,0,P|72:109|85:59,1,59.9999953079226,8|0,1:2|0:0,0:0:0:0:
162,96,102609,6,0,P|201:62|183:-11,1,119.999990615845,2|0,0:0|1:0,0:0:0:0:
308,186,102919,1,0,0:0:0:0:
162,96,103073,6,0,L|151:143,2,29.9999976539613,10|0|0,1:2|3:0|3:0,0:0:0:0:
159,72,103228,1,0,3:0:0:0:
168,104,103305,1,0,3:0:0:0:
207,113,103382,1,0,1:0:0:0:
361,60,103537,5,2,0:0:0:0:
230,204,103692,1,10,1:2:0:0:
198,307,103846,1,2,0:0:0:0:
247,384,104001,5,2,1:2:0:0:
270,356,104156,1,2,0:0:0:0:
192,286,104310,1,10,1:2:0:0:
63,382,104465,2,0,L|3:374,1,59.9999953079226,2|0,3:2|3:0,0:0:0:0:
100,302,104620,6,0,P|122:246|62:193,2,119.999990615845,2|2|10,1:2|0:0|1:2,0:0:0:0:
15,149,105084,2,0,P|24:84|43:16,1,119.999990615845,2|0,0:0|1:0,0:0:0:0:
90,200,105393,5,2,0:0:0:0:
152,135,105547,1,10,1:2:0:0:
237,165,105702,2,0,L|226:298,1,119.999990615845,2|0,0:0|1:0,0:0:0:0:
152,135,106011,2,0,B|136:98|99:89|99:89|142:7|226:32|226:32|212:75,1,239.99998123169,2|0,0:0|0:0,0:0:0:0:
323,266,106475,6,0,P|415:297|526:319,1,179.999985923768,0|0,1:0|0:0,0:0:0:0:
490,333,106785,1,8,1:2:0:0:
460,338,106862,1,0,0:0:0:0:
434,353,106939,1,0,0:0:0:0:
323,266,107094,5,0,1:0:0:0:
490,333,107248,2,0,L|507:249,1,59.9999953079226
250,139,107403,2,0,L|267:234,1,59.9999953079226,8|0,1:2|0:0,0:0:0:0:
323,266,107558,6,0,P|328:306|228:331,1,119.999990615845,2|0,0:0|1:0,0:0:0:0:
490,333,107867,1,0,0:0:0:0:
323,266,108022,6,0,L|283:278,2,29.9999976539613,10|0|0,1:2|3:0|3:0,0:0:0:0:
329,247,108176,1,0,3:0:0:0:
311,210,108254,1,0,3:0:0:0:
258,218,108331,1,0,1:0:0:0:
108,268,108486,5,2,0:0:0:0:
278,355,108640,1,10,1:2:0:0:
407,212,108795,1,2,0:0:0:0:
237,125,108949,6,0,P|174:113|105:110,1,119.999990615845,2|2,1:2|0:0,0:0:0:0:
133,8,109259,2,0,P|196:20|265:23,1,119.999990615845,10|2,1:2|0:0,0:0:0:0:
258,218,109568,5,2,1:2:0:0:
460,86,109723,1,2,0:0:0:0:
457,68,109800,1,0,0:0:0:0:
452,51,109877,1,10,1:2:0:0:
378,120,110032,6,0,P|362:184|462:219,1,179.999985923768,2|0,0:0|0:0,0:0:0:0:
468,229,110341,5,2,0:0:0:0:
385,193,110496,1,10,1:2:0:0:
295,203,110651,1,0,3:0:0:0:
222,256,110805,1,2,1:2:0:0:
186,339,110960,1,2,0:0:0:0:
186,339,111114,5,0,1:0:0:0:
222,256,111192,1,0,3:0:0:0:
295,203,111269,1,0,3:0:0:0:
385,193,111346,1,0,3:0:0:0:
468,229,111424,1,2,0:0:0:0:
430,310,111733,6,0,L|439:365,3,39.9999980926514,2|0|0|0,3:2|3:0|3:0|3:0,0:0:0:0:
409,299,112042,2,0,P|384:245|409:207,1,79.9999961853028,2|0,0:0|3:0,0:0:0:0:
400,220,112274,1,0,3:0:0:0:
411,210,112352,1,2,3:2:0:0:
481,126,112506,6,0,P|495:60|503:30,1,79.9999961853028,2|2,0:0|0:0,0:0:0:0:
390,109,112815,1,2,0:0:0:0:
390,109,112970,2,0,P|404:43|412:13,1,79.9999961853028,2|2,0:0|0:0,0:0:0:0:
305,149,113279,2,2,P|263:187|149:155,1,159.999992370606,0|0,0:0|0:0,0:0:0:0:
