osu file format v14

[General]
AudioFilename: audio.mp3
AudioLeadIn: 0
PreviewTime:37120
Countdown: 0
SampleSet: Soft
StackLeniency: 1
Mode: 0
LetterboxInBreaks: 0
WidescreenStoryboard: 1

[Editor]
Bookmarks: 84,393,547,702,934,1166,1475,1630,1785,1939,2171,2403,2867,3022,3176,3408,3640,3949,4104,4259,4413,4568,4723,5032,5187,5341,5496,5651,5805,6114,6424,6578,6733,6888,7042,7197,7352,7506,7815,8743,8898,9053,9207,9285,9516,9671,9826,47094,61939,62248,62558,62712,62867,63022,63176,63795,63949,64259,64413,64723,64877,65187,65341,65651,65805,66114,66888,67042,67197,67352,67506,67661,67815,67970,68125,68743,68898,69207,69362,69671,69826,70135,70290,70599,70754,70908,71063,81733,82042,82352,82661,82815,83125,83279,83434,83589,83743,83898,84053,84207,84516,84826,85135,85444,85754,86063,86372,101527
DistanceSpacing: 0.5
BeatDivisor: 4
GridSize: 16
TimelineZoom: 2.3

[Metadata]
Title:Shousou feat. KAFU
TitleUnicode:焦燥 feat. 可不
Artist:TokaP
ArtistUnicode:TokaP
Creator:Ryuusei Aika
Version:Teages's Normal
Source:
Tags:Teages iRedi sorairokarasu VoiceCore Mononymous CeVIO AI 音楽的同位体 KAF+U Vocaloid ボーカロイド ボカロ Japanese Electronic メイロ OtoLogic オトロジック
BeatmapID:4007906
BeatmapSetID:1934865

[Difficulty]
HPDrainRate:4
CircleSize:2.8
OverallDifficulty:4
ApproachRate:5
SliderMultiplier:0.89999990463257
SliderTickRate:1

[Events]
//Background and Video events
0,0,"__kina9o__202302040726.png",0,0
//Break Periods
2,34723,35960
2,59465,70599
2,81933,85444
//Storyboard Layer 0 (Background)
//Storyboard Layer 1 (Fail)
//Storyboard Layer 2 (Pass)
//Storyboard Layer 3 (Foreground)
//Storyboard Layer 4 (Overlay)
//Storyboard Sound Samples

[TimingPoints]
84,309.278350515464,4,2,1,40,1,0
9980,-100,4,2,1,60,0,0
14929,-100,4,2,2,50,0,0
24826,-100,4,2,1,65,0,0
34723,-100,4,2,1,50,0,0
37197,-100,4,2,1,80,0,1
52042,-100,4,2,1,70,0,1
56991,-100,4,2,1,50,0,0
58846,-100,4,2,1,40,0,0
58885,-100,4,2,2,40,0,0
58924,-100,4,2,1,20,0,0
58962,-100,4,2,2,25,0,0
59001,-100,4,2,1,30,0,0
59040,-100,4,2,2,35,0,0
59078,-100,4,2,1,40,0,0
59117,-100,4,2,2,45,0,0
59156,-100,4,2,1,50,0,0
59195,-100,4,2,2,55,0,0
59234,-100,4,2,1,60,0,0
59272,-100,4,2,2,65,0,0
59311,-100,4,2,1,70,0,0
59350,-100,4,2,2,75,0,0
59388,-100,4,2,1,80,0,0
59426,-100,4,2,2,85,0,0
59465,-100,4,2,3,70,0,0
61939,-100,4,2,3,70,0,0
71836,-100,4,2,1,65,0,0
81733,-100,4,2,1,65,0,0
86681,-100,4,2,2,50,0,0
87764,-100,4,2,2,50,0,0
89156,-100,4,2,2,50,0,0
90393,-100,4,2,2,70,0,0
91630,-100,4,2,2,70,0,0
91939,-100,4,2,1,80,0,1
93795,-100,4,2,1,80,0,0
94104,-100,4,2,1,80,0,1
108486,-100,4,2,1,70,0,1
111424,-100,4,2,1,50,0,0
113279,-100,4,2,1,40,0,0
113318,-100,4,2,2,40,0,0
113357,-100,4,2,1,25,0,0
113395,-100,4,2,2,35,0,0
113434,-100,4,2,1,45,0,0
113473,-100,4,2,2,55,0,0
113511,-100,4,2,1,65,0,0
113550,-100,4,2,2,75,0,0
113589,-100,4,2,1,85,0,0

[Colours]
Combo1 : 63,63,63
Combo2 : 159,0,0
Combo3 : 95,95,95
Combo4 : 128,64,64
Combo5 : 127,127,127
Combo6 : 85,0,0

[HitObjects]
28,297,9980,6,0,L|123:283,1,89.999990463257,6|8,1:2|1:2,0:0:0:0:
191,334,10599,2,0,P|254:342|272:329,1,89.999990463257,2|8,1:2|1:2,0:0:0:0:
300,295,11063,1,2,3:2:0:0:
385,324,11372,2,0,L|391:368,2,44.9999952316285,2|0|0,3:2|3:0|3:0,0:0:0:0:
424,302,11836,2,0,L|410:207,1,89.999990463257,2|8,1:2|1:2,0:0:0:0:
452,132,12455,6,0,P|499:138|512:128,2,67.4999928474427,2|2|2,1:2|3:2|0:0,0:0:0:0:
421,98,13073,1,2,1:2:0:0:
351,51,13382,1,0,1:0:0:0:
351,51,13537,2,0,L|261:64,1,89.999990463257,2|2,0:0|0:0,0:0:0:0:
237,98,14001,1,8,1:2:0:0:
148,83,14310,2,0,L|142:39,2,44.9999952316285,2|2|8,1:2|0:0|1:2,0:0:0:0:
79,141,14929,5,4,1:2:0:0:
248,202,15547,2,0,P|295:208|308:198,2,67.4999928474427,2|2|2,1:2|1:2|1:2,0:0:0:0:
204,281,16321,2,0,L|160:287,1,44.9999952316285,2|10,1:2|0:0,0:0:0:0:
94,349,16785,1,2,1:2:0:0:
3,193,17403,5,0,1:0:0:0:
139,75,18022,2,0,P|133:28|143:15,2,67.4999928474427,2|2|2,1:2|1:2|1:2,0:0:0:0:
215,123,18795,2,0,L|305:110,1,89.999990463257,2|2,1:2|0:0,0:0:0:0:
328,72,19259,1,2,1:2:0:0:
414,95,19568,1,10,1:2:0:0:
501,114,19877,5,6,1:2:0:0:
451,287,20496,2,0,P|480:301|511:291,2,67.4999928474427,2|2|2,1:2|1:2|1:2,0:0:0:0:
377,339,21269,2,0,L|333:332,1,44.9999952316285,2|10,1:2|0:0,0:0:0:0:
252,374,21733,1,2,1:2:0:0:
275,193,22352,5,2,1:2:0:0:
139,75,22971,2,0,P|145:28|135:15,2,67.4999928474427,0|0|6,1:0|1:0|1:2,0:0:0:0:
51,96,23743,2,0,L|38:186,1,89.999990463257,2|0,1:2|3:0,0:0:0:0:
2,209,24207,1,0,1:2:0:0:
23,295,24516,1,2,0:0:0:0:
50,381,24826,6,0,L|140:368,1,89.999990463257,6|8,1:2|1:2,0:0:0:0:
206,308,25444,2,0,P|269:300|287:313,1,89.999990463257,2|10,1:2|1:2,0:0:0:0:
305,354,25908,1,2,0:0:0:0:
394,343,26218,1,0,0:0:0:0:
483,331,26527,2,0,L|489:375,2,44.9999952316285,0|0|0,3:0|1:0|0:0,0:0:0:0:
509,294,26991,1,8,1:2:0:0:
478,209,27300,6,0,B|459:195|459:195|393:203,1,89.999990463257,0|10,1:2|1:2,0:0:0:0:
315,156,27919,2,0,B|296:170|296:170|230:162,1,89.999990463257,2|10,1:2|1:2,0:0:0:0:
193,187,28382,1,2,0:0:0:0:
117,236,28692,2,0,L|123:280,2,44.9999952316285,2|10|2,0:0|1:2|0:0,0:0:0:0:
75,219,29156,2,0,L|62:129,1,89.999990463257,2|10,1:2|1:2,0:0:0:0:
78,41,29774,6,0,P|141:33|159:46,1,89.999990463257,0|10,1:2|1:2,0:0:0:0:
191,127,30393,2,0,L|281:140,1,89.999990463257,2|10,1:2|1:2,0:0:0:0:
306,103,30856,1,2,0:0:0:0:
395,92,31166,1,0,0:0:0:0:
483,76,31475,2,0,L|489:32,2,44.9999952316285,0|0|0,3:0|1:0|0:0,0:0:0:0:
506,114,31939,1,8,1:2:0:0:
460,191,32248,6,0,L|473:281,1,89.999990463257,0|8,1:0|1:2,0:0:0:0:
435,362,32867,2,0,P|372:370|354:357,1,89.999990463257,0|0,1:0|1:0,0:0:0:0:
328,319,33331,1,4,1:2:0:0:
240,339,33640,2,0,L|246:383,2,44.9999952316285,0|0|0,0:0|1:2|3:0,0:0:0:0:
158,315,34259,1,0,3:0:0:0:
158,315,34413,1,8,1:2:0:0:
90,142,37197,5,6,1:2:0:0:
29,208,37506,2,0,L|15:297,1,89.999990463257,10|2,1:2|1:2,0:0:0:0:
69,376,38125,1,10,1:2:0:0:
69,376,38279,1,2,0:0:0:0:
142,323,38589,2,0,B|161:309|161:309|227:317,1,89.999990463257,2|2,0:0|0:0,0:0:0:0:
250,355,39053,2,0,B|269:369|269:369|335:361,1,89.999990463257,2|10,1:2|1:2,0:0:0:0:
381,378,39516,1,2,0:0:0:0:
381,378,39671,6,0,L|395:289,1,89.999990463257,2|8,1:2|1:2,0:0:0:0:
434,267,40135,2,0,P|426:204|439:186,1,89.999990463257,2|2,0:0|3:2,0:0:0:0:
485,172,40599,1,10,1:2:0:0:
485,172,40754,1,2,0:0:0:0:
503,84,41063,2,0,P|477:47|434:37,1,89.999990463257,2|2,0:0|0:0,0:0:0:0:
394,57,41527,2,0,L|346:49,1,44.9999952316285,0|0,1:2|3:0,0:0:0:0:
320,83,41836,2,0,L|272:75,1,44.9999952316285,8|0,1:2|0:0,0:0:0:0:
237,100,42145,5,2,1:2:0:0:
206,184,42455,2,0,L|117:198,1,89.999990463257,10|2,1:2|1:2,0:0:0:0:
40,161,43074,1,10,1:2:0:0:
40,161,43228,1,2,0:0:0:0:
58,73,43537,2,0,B|77:59|77:59|143:67,1,89.999990463257,2|2,0:0|3:2,0:0:0:0:
166,28,44001,2,0,B|185:42|185:42|251:34,1,89.999990463257,2|10,1:2|1:2,0:0:0:0:
298,50,44465,1,2,3:2:0:0:
298,50,44620,6,0,L|312:139,1,89.999990463257,2|8,1:2|1:2,0:0:0:0:
373,204,45238,2,0,P|436:196|454:209,1,89.999990463257,2|8,1:2|1:2,0:0:0:0:
484,250,45702,1,2,0:0:0:0:
484,250,45857,1,0,1:0:0:0:
468,338,46166,2,0,L|512:345,2,44.9999952316285,10|2|2,1:2|3:2|1:2,0:0:0:0:
440,374,46630,1,0,1:0:0:0:
440,374,46785,1,0,1:0:0:0:
374,312,47094,6,0,B|355:298|355:298|289:306,1,89.999990463257,4|8,1:2|1:2,0:0:0:0:
219,360,47712,1,0,1:0:0:0:
219,360,47867,1,0,0:0:0:0:
130,373,48176,2,0,B|111:358|111:358|100:292,1,89.999990463257,2|0,0:0|0:0,0:0:0:0:
58,275,48640,2,0,L|50:227,1,44.9999952316285,10|0,1:2|3:0,0:0:0:0:
75,192,48949,1,0,1:0:0:0:
1,141,49259,1,10,1:2:0:0:
46,63,49568,6,0,B|65:49|65:49|131:57,1,89.999990463257,2|10,1:2|1:2,0:0:0:0:
165,94,50032,1,2,3:2:0:0:
165,94,50187,1,2,1:2:0:0:
239,42,50496,1,10,1:2:0:0:
239,42,50651,1,2,0:0:0:0:
318,94,50959,1,2,0:0:0:0:
318,94,51114,2,0,L|332:183,1,89.999990463257,10|0,1:2|1:0,0:0:0:0:
310,224,51578,1,2,0:0:0:0:
310,224,51733,1,0,1:0:0:0:
350,304,52042,6,0,B|369:318|369:318|435:310,1,89.999990463257,0|8,1:0|1:2,0:0:0:0:
500,251,52660,1,0,1:0:0:0:
500,251,52815,1,0,0:0:0:0:
465,167,53124,2,0,B|484:153|484:153|495:87,1,89.999990463257,2|0,0:0|0:0,0:0:0:0:
475,46,53588,2,0,L|427:38,1,44.9999952316285,10|0,1:2|3:0,0:0:0:0:
399,7,53897,1,0,1:0:0:0:
313,33,54207,1,10,1:2:0:0:
229,66,54516,6,0,L|133:50,1,89.999990463257,2|10,1:2|1:2,0:0:0:0:
112,86,54980,1,2,0:0:0:0:
112,86,55135,2,0,L|64:78,1,44.9999952316285,2|2,1:2|0:0,0:0:0:0:
30,99,55444,1,10,1:2:0:0:
30,99,55599,1,2,0:0:0:0:
13,190,55908,1,2,0:0:0:0:
13,190,56063,2,0,B|27:209|27:209|19:275,1,89.999990463257,10|2,1:2|1:2,0:0:0:0:
25,319,56527,2,0,P|88:311|106:324,1,89.999990463257,2|0,0:0|3:0,0:0:0:0:
126,365,56991,5,2,0:0:0:0:
301,326,57609,1,2,0:0:0:0:
479,365,58228,2,0,L|495:269,2,89.999990463257,2|2|2,0:0|0:0|0:0,0:0:0:0:
479,365,71836,6,0,L|389:352,1,89.999990463257,2|10,1:2|1:2,0:0:0:0:
323,292,72454,2,0,P|260:284|242:297,1,89.999990463257,2|10,1:2|1:2,0:0:0:0:
224,338,72918,1,2,0:0:0:0:
135,327,73228,1,0,0:0:0:0:
46,315,73537,2,0,L|40:359,2,44.9999952316285,0|0|0,3:0|1:0|0:0,0:0:0:0:
20,278,74001,1,8,1:2:0:0:
51,193,74310,6,0,B|70:179|70:179|136:187,1,89.999990463257,0|10,1:2|1:2,0:0:0:0:
214,140,74929,2,0,B|233:154|233:154|299:146,1,89.999990463257,2|10,1:2|1:2,0:0:0:0:
332,116,75392,1,2,0:0:0:0:
408,67,75702,2,0,L|402:23,2,44.9999952316285,2|10|2,0:0|1:2|0:0,0:0:0:0:
450,84,76166,2,0,L|463:174,1,89.999990463257,2|10,1:2|1:2,0:0:0:0:
421,252,76784,6,0,P|358:244|340:257,1,89.999990463257,6|10,1:2|1:2,0:0:0:0:
249,265,77403,2,0,L|236:175,1,89.999990463257,2|10,1:2|1:2,0:0:0:0:
193,161,77866,1,2,0:0:0:0:
104,150,78176,1,0,0:0:0:0:
14,140,78485,2,0,L|8:184,2,44.9999952316285,0|0|0,3:0|1:0|0:0,0:0:0:0:
1,96,78949,1,8,1:2:0:0:
57,25,79259,6,0,L|147:12,1,89.999990463257,0|10,1:0|1:2,0:0:0:0:
210,74,79878,2,0,P|273:82|291:69,1,89.999990463257,2|2,1:2|1:2,0:0:0:0:
309,26,80342,1,6,1:2:0:0:
397,43,80651,2,0,L|403:-1,2,44.9999952316285,2|2|2,1:2|3:2|1:2,0:0:0:0:
413,85,81115,1,2,1:2:0:0:
498,111,81424,1,2,1:2:0:0:
508,200,81733,5,6,1:2:0:0:
508,200,86681,5,8,1:2:0:0:
467,120,86991,1,8,1:2:0:0:
428,39,87300,2,0,L|338:52,1,89.999990463257,8|8,1:2|1:2,0:0:0:0:
269,109,87919,1,8,1:2:0:0:
183,81,88228,1,8,1:2:0:0:
97,55,88537,2,0,L|84:145,1,89.999990463257,8|8,1:2|1:2,0:0:0:0:
93,234,89156,5,8,1:2:0:0:
7,262,89465,1,8,1:2:0:0:
7,352,89774,1,8,1:2:0:0:
93,380,90084,1,8,1:2:0:0:
146,307,90393,1,0,1:0:0:0:
93,234,91630,5,0,0:0:0:0:
149,163,91939,1,4,1:2:0:0:
98,85,92248,2,0,L|31:74,2,67.4999928474427,12|12|12,1:2|1:2|1:2,0:0:0:0:
146,8,93022,2,0,B|165:-6|165:-6|231:2,1,89.999990463257,0|0,1:0|1:0,0:0:0:0:
263,34,93486,2,0,B|282:48|282:48|348:40,1,89.999990463257,0|0,1:0|1:0,0:0:0:0:
379,8,93949,1,0,1:0:0:0:
379,8,94104,6,0,L|393:97,1,89.999990463257,6|8,1:2|1:2,0:0:0:0:
434,117,94568,2,0,P|426:180|439:198,1,89.999990463257,2|2,0:0|3:2,0:0:0:0:
483,224,95032,1,10,1:2:0:0:
483,224,95187,1,2,0:0:0:0:
501,312,95496,2,0,P|475:349|432:359,1,89.999990463257,2|2,0:0|0:0,0:0:0:0:
392,339,95960,2,0,L|344:347,1,44.9999952316285,0|0,1:2|3:0,0:0:0:0:
318,313,96269,2,0,L|270:321,1,44.9999952316285,8|0,1:2|0:0,0:0:0:0:
235,296,96578,5,2,1:2:0:0:
204,212,96888,2,0,L|115:198,1,89.999990463257,10|2,1:2|1:2,0:0:0:0:
35,236,97507,1,10,1:2:0:0:
35,236,97661,1,2,0:0:0:0:
56,323,97970,2,0,B|75:337|75:337|141:329,1,89.999990463257,2|2,0:0|3:2,0:0:0:0:
164,368,98434,2,0,B|183:354|183:354|249:362,1,89.999990463257,2|10,1:2|1:2,0:0:0:0:
292,343,98898,1,2,3:2:0:0:
292,343,99053,6,0,L|306:254,1,89.999990463257,2|8,1:2|1:2,0:0:0:0:
371,192,99671,2,0,P|434:200|452:187,1,89.999990463257,2|8,1:2|1:2,0:0:0:0:
473,148,100135,1,2,0:0:0:0:
473,148,100290,1,0,1:0:0:0:
466,58,100599,2,0,L|510:51,2,44.9999952316285,10|2|2,1:2|3:2|1:2,0:0:0:0:
438,22,101063,1,0,1:0:0:0:
438,22,101218,1,0,1:0:0:0:
370,81,101527,6,0,B|351:95|351:95|285:87,1,89.999990463257,4|8,1:2|1:2,0:0:0:0:
221,31,102145,1,0,1:0:0:0:
221,31,102300,1,0,0:0:0:0:
131,20,102609,2,0,B|112:35|112:35|101:101,1,89.999990463257,2|0,0:0|0:0,0:0:0:0:
59,118,103073,2,0,L|51:166,1,44.9999952316285,10|0,1:2|3:0,0:0:0:0:
76,201,103382,1,0,1:0:0:0:
2,252,103692,1,10,1:2:0:0:
37,334,104001,6,0,B|56:348|56:348|122:340,1,89.999990463257,2|10,1:2|1:2,0:0:0:0:
157,311,104465,1,2,3:2:0:0:
157,311,104620,1,2,1:2:0:0:
238,361,104929,1,10,1:2:0:0:
238,361,105084,1,2,0:0:0:0:
318,317,105392,1,2,0:0:0:0:
318,317,105547,2,0,L|332:228,1,89.999990463257,10|0,1:2|1:0,0:0:0:0:
308,197,106011,1,2,0:0:0:0:
308,197,106166,1,0,1:0:0:0:
328,109,106475,6,0,B|347:95|347:95|413:103,1,89.999990463257,0|8,1:0|1:2,0:0:0:0:
498,146,107093,1,0,1:0:0:0:
498,146,107248,1,0,0:0:0:0:
466,230,107557,2,0,B|485:244|485:244|496:310,1,89.999990463257,2|0,0:0|0:0,0:0:0:0:
470,346,108021,2,0,L|422:354,1,44.9999952316285,10|0,1:2|3:0,0:0:0:0:
392,384,108330,1,0,1:0:0:0:
308,349,108640,1,10,1:2:0:0:
224,316,108949,6,0,L|128:332,1,89.999990463257,2|10,1:2|1:2,0:0:0:0:
104,306,109413,1,2,0:0:0:0:
104,306,109568,2,0,L|56:314,1,44.9999952316285,2|2,1:2|0:0,0:0:0:0:
25,293,109877,1,10,1:2:0:0:
25,293,110032,1,2,0:0:0:0:
47,209,110341,1,2,0:0:0:0:
47,209,110496,2,0,B|33:190|33:190|41:124,1,89.999990463257,10|2,1:2|1:2,0:0:0:0:
70,90,110960,2,0,P|133:98|151:85,1,89.999990463257,2|0,0:0|3:0,0:0:0:0:
170,43,111424,5,2,0:0:0:0:
331,122,112042,1,2,0:0:0:0:
491,39,112661,2,0,L|507:135,2,89.999990463257,2|2|0,0:0|0:0|0:0,0:0:0:0:
