osu file format v14

[General]
AudioFilename: audio.mp3
AudioLeadIn: 0
PreviewTime: 37120
Countdown: 0
SampleSet: Soft
StackLeniency: 1
Mode: 0
LetterboxInBreaks: 0
WidescreenStoryboard: 0

[Editor]
DistanceSpacing: 0.5
BeatDivisor: 4
GridSize: 8
TimelineZoom: 2.2

[Metadata]
Title:Shousou feat. KAFU
TitleUnicode:焦燥 feat. 可不
Artist:TokaP
ArtistUnicode:TokaP
Creator:Ryuusei Aika
Version:Generic
Source:
Tags:Teages iRedi sorairokarasu VoiceCore Mononymous CeVIO AI 音楽的同位体 KAF+U Vocaloid ボーカロイド ボカロ Japanese Electronic メイロ OtoLogic オトロジック
BeatmapID:3998483
BeatmapSetID:1934865

[Difficulty]
HPDrainRate:5
CircleSize:4
OverallDifficulty:8.6
ApproachRate:9.4
SliderMultiplier:2.79999990463257
SliderTickRate:1

[Events]
//Background and Video events
0,0,"__kina9o__202302040726.png",0,0
//Break Periods
//Storyboard Layer 0 (Background)
//Storyboard Layer 1 (Fail)
//Storyboard Layer 2 (Pass)
//Storyboard Layer 3 (Foreground)
//Storyboard Layer 4 (Overlay)
//Storyboard Sound Samples

[TimingPoints]
84,309.278350515464,4,2,1,40,1,0
84,-303.030303030303,4,2,1,40,0,0
6888,-250,4,2,1,40,0,0
8125,-166.666666666667,4,2,1,40,0,0
9980,-100,4,2,1,60,0,0
14929,-200,4,2,2,50,0,0
22970,-181.818181818182,4,2,2,50,0,0
23434,-166.666666666667,4,2,2,50,0,0
24826,-133.333333333333,4,2,1,65,0,0
33331,-111.111111111111,4,2,1,65,0,0
34723,-111.111111111111,4,2,1,50,0,0
37197,-90.9090909090909,4,2,1,80,0,0
38279,-100,4,2,1,80,0,0
39207,-90.9090909090909,4,2,1,80,0,0
39826,-100,4,2,1,80,0,0
40135,-90.9090909090909,4,2,1,80,0,0
41063,-100,4,2,1,80,0,0
41681,-166.666666666667,4,2,1,80,0,0
42145,-100,4,2,1,80,0,0
42455,-90.9090909090909,4,2,1,80,0,0
43228,-100,4,2,1,80,0,0
45238,-83.3333333333333,4,2,1,80,0,0
46011,-71.4285714285714,4,2,1,80,0,0
46785,-90.9090909090909,4,2,1,80,0,0
47403,-100,4,2,1,80,0,0
48640,-83.3333333333333,4,2,1,80,0,0
48795,-100,4,2,1,80,0,0
49104,-76.9230769230769,4,2,1,80,0,0
49259,-83.3333333333333,4,2,1,80,0,0
49413,-90.9090909090909,4,2,1,80,0,0
49568,-100,4,2,1,80,0,0
52042,-100,4,2,1,70,0,0
53589,-71.4285714285714,4,2,1,70,0,0
53743,-100,4,2,1,70,0,0
54053,-76.9230769230769,4,2,1,70,0,0
54208,-83.3333333333333,4,2,1,70,0,0
54362,-90.9090909090909,4,2,1,70,0,0
54516,-100,4,2,1,70,0,0
56991,-166.666666666667,4,2,1,50,0,0
58846,-1000,4,2,1,40,0,0
58885,-1000,4,2,2,40,0,0
58924,-1000,4,2,1,40,0,0
58962,-1000,4,2,2,25,0,0
59001,-1000,4,2,1,30,0,0
59040,-1000,4,2,2,35,0,0
59078,-1000,4,2,1,40,0,0
59117,-1000,4,2,2,45,0,0
59156,-1000,4,2,1,50,0,0
59195,-1000,4,2,2,55,0,0
59234,-1000,4,2,1,60,0,0
59272,-1000,4,2,2,65,0,0
59311,-1000,4,2,1,70,0,0
59350,-1000,4,2,2,75,0,0
59388,-1000,4,2,1,80,0,0
59426,-1000,4,2,2,85,0,0
59465,-66.6666666666667,4,2,3,70,0,0
60006,-74.0740740740741,4,2,3,70,0,0
60238,-83.3333333333333,4,2,3,70,0,0
60702,-25,4,2,3,90,0,0
61321,-100,4,2,3,70,0,0
61939,-200,4,2,3,70,0,0
62248,-133.333333333333,4,2,3,70,0,0
62558,-100,4,2,3,70,0,0
63176,-83.3333333333333,4,2,3,70,0,0
63795,-333.333333333333,4,2,3,70,0,0
66114,-111.111111111111,4,2,3,70,0,0
66578,-83.3333333333333,4,2,3,70,0,0
66888,-133.333333333333,4,2,3,70,0,0
67661,-100,4,2,3,70,0,0
68125,-83.3333333333333,4,2,3,70,0,0
68743,-333.333333333333,4,2,3,70,0,0
70599,-111.111111111111,4,2,3,70,0,0
71526,-83.3333333333333,4,2,3,70,0,0
71836,-133.333333333333,4,2,1,65,0,0
80341,-111.111111111111,4,2,1,65,0,0
86681,-111.111111111111,4,2,2,50,0,0
89156,-83.3333333333333,4,2,2,50,0,0
90393,-83.3333333333333,4,2,2,70,0,0
90547,-333.333333333333,4,2,2,70,0,0
91553,-111.111111111111,4,2,2,70,0,0
91939,-76.9230769230769,4,2,1,80,0,0
92867,-83.3333333333333,4,2,1,80,0,0
94104,-95.2380952380952,4,2,1,80,0,0
94568,-86.9565217391304,4,2,1,80,0,0
95496,-95.2380952380952,4,2,1,80,0,0
96114,-153.846153846154,4,2,1,80,0,0
96578,-95.2380952380952,4,2,1,80,0,0
96888,-86.9565217391304,4,2,1,80,0,0
97661,-95.2380952380952,4,2,1,80,0,0
99671,-80,4,2,1,80,0,0
100444,-68.9655172413793,4,2,1,80,0,0
101218,-86.9565217391304,4,2,1,80,0,0
101836,-95.2380952380952,4,2,1,80,0,0
103073,-80,4,2,1,80,0,0
103228,-95.2380952380952,4,2,1,80,0,0
103537,-74.0740740740741,4,2,1,80,0,0
103692,-80,4,2,1,80,0,0
103846,-86.9565217391304,4,2,1,80,0,0
104001,-95.2380952380952,4,2,1,80,0,0
108022,-68.9655172413793,4,2,1,80,0,0
108176,-95.2380952380952,4,2,1,80,0,0
108486,-74.0740740740741,4,2,1,70,0,0
108640,-80,4,2,1,70,0,0
108795,-86.9565217391304,4,2,1,70,0,0
108949,-95.2380952380952,4,2,1,70,0,0
111424,-166.666666666667,4,2,1,50,0,0
113279,-333.333333333333,4,2,1,40,0,0
113318,-333.333333333333,4,2,2,40,0,0
113357,-333.333333333333,4,2,1,40,0,0
113395,-333.333333333333,4,2,2,35,0,0
113434,-333.333333333333,4,2,1,45,0,0
113473,-333.333333333333,4,2,2,55,0,0
113511,-333.333333333333,4,2,1,65,0,0
113550,-333.333333333333,4,2,2,75,0,0
113589,-333.333333333333,4,2,1,5,0,0

[Colours]
Combo1 : 63,63,63
Combo2 : 159,0,0
Combo3 : 95,95,95
Combo4 : 128,64,64
Combo5 : 127,127,127
Combo6 : 85,0,0

[HitObjects]
328,72,84,6,0,P|362:102|420:96,1,92.3999965708924,2|2,0:0|0:0,0:0:0:0:
321,50,702,2,0,L|388:32,1,69.2999974281693,2|2,0:0|0:0,0:0:0:0:
441,128,1166,6,0,B|378:115|341:167|341:167|313:152,1,138.599994856339,2|2,0:0|0:0,0:0:0:0:
423,215,1785,1,2,3:2:0:0:
423,215,1862,1,0,3:0:0:0:
423,215,1939,2,0,P|412:249|348:267,1,92.3999965708924,2|2,3:2|3:2,0:0:0:0:
288,271,2403,5,2,3:2:0:0:
288,271,2480,1,0,3:0:0:0:
288,271,2558,2,0,P|238:307|230:381,1,138.599994856339,2|2,3:2|0:0,0:0:0:0:
307,351,3176,2,0,P|289:361|249:343,1,46.1999982854462,2|0,0:0|3:0,0:0:0:0:
238,344,3408,1,0,3:0:0:0:
238,344,3485,1,0,3:0:0:0:
142,384,3640,6,0,P|153:318|58:273,1,184.799993141785,2|2,0:0|0:0,0:0:0:0:
82,341,4413,2,0,L|69:377,2,23.0999991427231,2|0|2,3:2|3:0|3:2,0:0:0:0:
4,316,4723,2,0,P|-11:300|-10:277,1,46.1999982854462,2|0,0:0|0:0,0:0:0:0:
21,209,5032,38,0,L|51:68,1,138.599994856339,2|2,0:0|0:0,0:0:0:0:
53,77,5651,2,0,P|83:137|167:142,1,138.599994856339,2|2,0:0|0:0,0:0:0:0:
146,27,6424,2,0,L|133:72,2,46.1999982854462,2|2|0,0:0|0:0|3:0,0:0:0:0:
216,67,6810,1,0,3:2:0:0:
216,67,6888,6,0,L|296:50,1,55.9999980926514,2|0,0:0|0:0,0:0:0:0:
273,166,7197,6,0,L|353:149,1,55.9999980926514,2|0,0:0|0:0,0:0:0:0:
353,118,7429,1,2,0:0:0:0:
353,118,7506,2,0,P|401:192|306:225,1,195.99999332428,2|0,0:0|0:0,0:0:0:0:
314,251,8125,6,0,P|283:294|291:347,1,83.9999945755007,2|0,0:0|3:0,0:0:0:0:
355,313,8357,2,0,P|360:333|379:359,1,41.9999972877504,0|2,3:0|3:2,0:0:0:0:
149,267,9980,38,0,B|139:188|219:145|219:145|204:68,1,209.999992847443,6|0,1:2|0:0,0:0:0:0:
108,134,10290,2,0,P|145:227|244:245,1,209.999992847443,8|0,1:2|0:0,0:0:0:0:
315,221,10599,2,0,P|319:256|306:288,1,69.9999976158143,2|0,1:2|0:0,0:0:0:0:
282,323,10754,1,2,2:0:0:0:
317,300,10831,1,2,2:0:0:0:
358,300,10908,1,8,1:2:0:0:
395,319,10986,1,0,3:0:0:0:
417,354,11063,1,2,3:2:0:0:
488,248,11218,5,0,1:0:0:0:
447,129,11372,1,2,3:2:0:0:
323,103,11527,2,0,L|308:46,2,34.9999988079071,0|0|0,3:0|3:0|3:0,0:0:0:0:
389,70,11681,2,0,B|405:38|405:38|395:3,1,69.9999976158143,0|0,3:0|3:0,0:0:0:0:
309,51,11836,6,0,L|230:83,1,69.9999976158143,2|0,1:2|0:0,0:0:0:0:
205,17,11991,2,0,P|179:40|169:73,1,69.9999976158143
121,133,12145,2,0,P|153:147|187:145,1,69.9999976158143,8|0,1:2|0:0,0:0:0:0:
270,159,12300,1,0,3:0:0:0:
270,159,12377,1,0,3:0:0:0:
270,159,12455,6,0,P|248:232|323:318,1,139.999995231629,2|0,1:2|0:0,0:0:0:0:
328,225,12687,2,0,L|296:383,1,139.999995231629,2|0,3:2|0:0,0:0:0:0:
185,283,12919,2,0,P|199:315|223:340,1,69.9999976158143,2|0,0:0|0:0,0:0:0:0:
300,362,13073,38,0,L|328:225,1,139.999995231629,2|0,1:2|3:0,0:0:0:0:
377,204,13305,1,0,3:0:0:0:
421,232,13382,1,0,1:0:0:0:
445,3,13537,2,0,P|377:81|448:145,1,209.999992847443,2|0,0:0|0:0,0:0:0:0:
449,74,13846,6,0,P|437:95|359:96,1,69.9999976158143,2|0,0:0|0:0,0:0:0:0:
312,140,14001,2,0,P|277:132|245:97,1,69.9999976158143,8|0,1:2|0:0,0:0:0:0:
232,61,14156,1,0,3:0:0:0:
250,12,14233,1,0,3:0:0:0:
302,13,14310,5,2,1:2:0:0:
158,42,14465,2,0,P|157:77|171:109,1,69.9999976158143,2|0,0:0|0:0,0:0:0:0:
211,150,14620,5,8,1:2:0:0:
195,196,14697,1,0,3:0:0:0:
150,215,14774,1,0,3:0:0:0:
102,201,14852,1,0,3:0:0:0:
64,163,14929,38,0,L|302:202,1,209.999992847443,4|2,1:2|0:0,0:0:0:0:
319,207,15547,1,2,1:2:0:0:
199,271,15779,2,0,P|216:291|240:305,1,34.9999988079071,2|8,1:2|0:0,0:0:0:0:
315,343,16011,1,2,1:2:0:0:
431,155,16321,5,2,1:2:0:0:
490,205,16475,1,10,0:0:0:0:
416,231,16630,2,0,L|406:280,1,34.9999988079071,2|0,3:2|3:0,0:0:0:0:
341,231,16785,2,0,B|305:202|305:202|327:100,1,139.999995231629,2|10,1:2|0:0,0:0:0:0:
343,38,17248,5,2,0:0:0:0:
343,38,17326,1,0,3:0:0:0:
343,38,17403,2,0,P|303:94|251:62,1,139.999995231629,0|10,1:0|0:0,0:0:0:0:
146,255,18022,1,2,1:2:0:0:
83,218,18176,5,0,0:0:0:0:
83,218,18254,2,0,L|97:170,1,34.9999988079071,2|8,1:2|0:0,0:0:0:0:
70,113,18486,38,0,P|138:125|165:198,1,139.999995231629,2|2,1:2|1:2,0:0:0:0:
230,137,18949,2,0,P|239:177|225:232,1,69.9999976158143,10|2,0:0|0:0,0:0:0:0:
306,223,19259,5,2,1:2:0:0:
294,248,19336,1,0,3:0:0:0:
275,268,19413,1,0,3:0:0:0:
379,251,19568,2,0,P|359:295|296:341,1,104.999996423721,10|0,1:2|0:0,0:0:0:0:
255,287,19877,6,0,P|315:255|388:303,1,139.999995231629,6|10,1:2|0:0,0:0:0:0:
436,83,20496,2,0,P|422:133|459:205,1,104.999996423721,2|2,1:2|1:2,0:0:0:0:
452,213,20805,1,8,0:0:0:0:
497,130,20960,2,0,L|474:229,1,69.9999976158143,2|0,1:2|0:0,0:0:0:0:
440,288,21269,5,2,1:2:0:0:
383,240,21424,1,10,0:0:0:0:
311,221,21578,2,0,P|290:220|254:232,1,34.9999988079071,2|0,3:2|3:0,0:0:0:0:
211,250,21733,37,2,1:2:0:0:
277,203,21888,1,2,0:0:0:0:
296,125,22042,1,10,0:0:0:0:
270,49,22197,1,2,3:2:0:0:
251,25,22274,1,0,3:0:0:0:
222,13,22352,6,0,L|189:93,1,69.9999976158143,2|2,1:2|0:0,0:0:0:0:
195,77,22970,6,0,P|141:107|112:93,1,76.9999997272492,0|0,1:0|0:0,0:0:0:0:
69,68,23202,1,0,1:0:0:0:
56,40,23279,1,8,0:0:0:0:
135,180,23434,6,0,P|206:169|254:126,1,125.999991863251,6|0,1:2|0:0,0:0:0:0:
270,102,23743,1,2,1:2:0:0:
309,178,23898,37,0,3:0:0:0:
309,220,23975,1,0,3:0:0:0:
287,256,24053,1,0,3:0:0:0:
249,275,24130,1,0,3:0:0:0:
207,277,24207,1,0,1:2:0:0:
121,313,24362,5,4,0:3:0:0:
158,333,24439,1,8,0:3:0:0:
180,368,24516,1,2,0:0:0:0:
294,338,24671,1,0,1:0:0:0:
406,368,24826,6,0,P|483:332|471:228,1,157.50000064373,6|0,1:2|0:0,0:0:0:0:
445,145,25135,6,0,B|456:190|456:190|402:234|416:287,1,157.50000064373,8|0,1:2|0:0,0:0:0:0:
369,153,25444,38,0,P|378:109|485:80,1,157.50000064373,2|0,1:2|0:0,0:0:0:0:
428,17,25754,6,0,P|408:34|337:32,1,52.5000002145768,10|0,1:2|0:0,0:0:0:0:
310,31,25908,1,2,0:0:0:0:
280,20,25986,1,0,0:0:0:0:
255,1,26063,2,0,L|232:112,1,105.000000429154,0|0,1:0|0:0,0:0:0:0:
92,105,26372,6,0,L|69:216,1,105.000000429154,8|0,1:2|3:0,0:0:0:0:
12,252,26604,1,0,3:0:0:0:
12,252,26681,2,0,P|34:273|80:282,1,52.5000002145768,0|0,1:0|0:0,0:0:0:0:
62,355,26836,2,0,P|91:346|121:311,1,52.5000002145768
140,233,26991,6,0,P|148:262|183:292,1,52.5000002145768,8|0,1:2|0:0,0:0:0:0:
216,332,27145,38,0,B|255:277|211:225|211:225|224:170,1,157.50000064373,2|0,3:2|0:0,0:0:0:0:
264,177,27455,1,2,0:0:0:0:
261,83,27609,2,0,P|307:136|297:196,1,105.000000429154,10|2,1:2|0:0,0:0:0:0:
192,119,27919,2,0,P|209:139|233:151,1,52.5000002145768,2|0,1:2|0:0,0:0:0:0:
261,83,28073,1,2,3:2:0:0:
286,78,28150,1,0,3:0:0:0:
308,63,28227,1,10,1:2:0:0:
190,41,28382,6,0,L|79:171,1,157.50000064373,2|0,0:0|0:0,0:0:0:0:
65,191,28692,1,2,0:0:0:0:
118,280,28846,1,10,1:2:0:0:
216,317,29001,1,2,0:0:0:0:
318,293,29156,5,2,1:2:0:0:
357,289,29233,1,0,3:0:0:0:
394,300,29310,2,0,P|418:307|457:300,1,52.5000002145768,0|0,3:0|0:0,0:0:0:0:
482,296,29465,2,0,P|506:283|522:263,1,52.5000002145768,10|0,1:2|0:0,0:0:0:0:
411,111,29774,6,0,L|440:213,1,105.000000429154,0|2,1:2|0:0,0:0:0:0:
272,94,30084,2,0,L|300:195,1,105.000000429154,10|2,1:2|0:0,0:0:0:0:
337,180,30315,1,0,0:0:0:0:
337,180,30393,38,0,P|297:239|215:228,1,157.50000064373,2|0,1:2|0:0,0:0:0:0:
145,212,30702,2,0,P|155:188|173:169,1,52.5000002145768,10|0,1:2|0:0,0:0:0:0:
218,231,30857,1,2,0:0:0:0:
205,265,30934,1,0,0:0:0:0:
176,287,31011,1,0,1:0:0:0:
26,219,31166,6,0,P|45:237|70:248,1,52.5000002145768
139,295,31321,1,8,1:2:0:0:
65,337,31475,1,0,3:0:0:0:
35,357,31552,1,0,3:0:0:0:
0,369,31629,5,0,1:0:0:0:
112,341,31785,1,0,0:0:0:0:
225,365,31939,1,8,1:2:0:0:
337,337,32094,1,0,3:0:0:0:
333,346,32171,1,0,3:0:0:0:
329,355,32248,6,0,L|307:225,1,105.000000429154,0|0,1:0|0:0,0:0:0:0:
340,185,32480,1,0,0:0:0:0:
340,185,32558,2,0,P|366:204|381:240,1,52.5000002145768,8|0,1:2|0:0,0:0:0:0:
372,293,32712,1,0,0:0:0:0:
460,362,32867,38,0,P|444:312|457:262,1,105.000000429154,0|0,1:0|0:0,0:0:0:0:
479,232,33099,1,0,3:0:0:0:
512,217,33176,1,0,1:0:0:0:
383,85,33331,6,0,P|456:127|519:59,1,188.999987794877,4|0,1:2|0:0,0:0:0:0:
448,55,33640,1,0,0:0:0:0:
309,106,33795,1,0,1:2:0:0:
311,93,33872,1,0,3:0:0:0:
314,80,33949,1,0,3:0:0:0:
384,18,34104,5,0,1:0:0:0:
225,50,34259,1,0,3:0:0:0:
66,82,34413,1,8,1:2:0:0:
281,326,34723,5,0,1:0:0:0:
315,258,35341,37,0,1:0:0:0:
310,181,35960,5,0,1:0:0:0:
169,228,36269,1,0,1:0:0:0:
0,136,37197,6,0,P|108:184|119:297,1,230.999999181748,6|0,1:2|0:0,0:0:0:0:
62,333,37506,5,10,1:2:0:0:
22,297,37584,1,0,3:0:0:0:
23,243,37661,2,0,P|43:210|83:186,1,76.9999997272492,0|0,3:0|0:0,0:0:0:0:
153,354,37815,38,0,B|186:272|186:272|229:270|259:230,1,153.999999454498,2|0,1:2|0:0,0:0:0:0:
282,208,38047,1,0,0:0:0:0:
253,163,38125,2,0,P|215:169|184:191,1,76.9999997272492,10|0,1:2|0:0,0:0:0:0:
333,224,38279,6,0,P|392:181|379:104,1,139.999995231629,2|0,0:0|1:0,0:0:0:0:
388,334,38589,5,2,0:0:0:0:
481,278,38743,2,0,P|491:264|497:248,2,34.9999988079071,10|0|0,1:2|0:0|0:0,0:0:0:0:
476,179,38898,1,2,0:0:0:0:
512,153,38975,1,0,0:0:0:0:
503,108,39053,5,2,1:2:0:0:
275,165,39207,1,2,0:0:0:0:
405,202,39361,37,10,1:2:0:0:
373,71,39516,1,2,0:0:0:0:
329,38,39594,1,0,0:0:0:0:
276,27,39671,1,2,1:2:0:0:
199,156,39826,2,0,P|202:191|221:220,1,69.9999976158143
254,97,39980,6,0,L|120:140,1,139.999995231629,8|2,1:2|0:0,0:0:0:0:
69,122,40212,1,0,0:0:0:0:
38,167,40290,1,2,1:2:0:0:
151,254,40444,5,2,3:2:0:0:
107,286,40522,1,0,3:0:0:0:
104,339,40599,1,10,1:2:0:0:
306,248,40754,5,2,0:0:0:0:
285,297,40831,2,0,P|287:326|317:374,2,76.9999997272492,0|0|0,0:0|1:0|0:0,0:0:0:0:
206,303,41063,38,0,P|190:334|184:369,1,69.9999976158143,2|0,0:0|0:0,0:0:0:0:
87,367,41218,6,0,P|94:332|110:301,1,69.9999976158143,10|0,1:2|0:0,0:0:0:0:
21,307,41372,6,0,P|27:272|43:241,1,69.9999976158143,2|0,0:0|0:0,0:0:0:0:
105,196,41527,1,0,1:2:0:0:
148,176,41604,1,0,3:0:0:0:
197,170,41681,6,0,B|218:167|218:167|239:170,1,41.9999972877504,0|0,3:0|0:0,0:0:0:0:
301,222,41836,1,8,1:2:0:0:
385,221,41991,38,0,B|364:224|364:224|343:221,1,41.9999972877504
301,222,42145,6,0,P|306:123|206:93,1,209.999992847443,2|0,1:2|0:0,0:0:0:0:
145,109,42455,1,10,1:2:0:0:
151,55,42532,1,0,3:0:0:0:
193,21,42609,1,0,3:0:0:0:
247,24,42687,1,0,0:0:0:0:
282,64,42764,6,0,L|217:237,1,153.999999454498,2|0,1:2|0:0,0:0:0:0:
158,182,42996,1,0,3:0:0:0:
152,206,43073,5,10,1:2:0:0:
155,232,43150,1,0,3:0:0:0:
168,254,43228,38,0,P|192:275|250:281,1,69.9999976158143,2|0,0:0|0:0,0:0:0:0:
291,245,43382,1,0,1:0:0:0:
167,344,43537,5,2,0:0:0:0:
285,357,43692,2,0,L|293:322,2,34.9999988079071,10|0|0,1:2|3:0|3:0,0:0:0:0:
367,311,43846,1,2,3:2:0:0:
395,264,43924,1,0,3:0:0:0:
371,222,44001,1,2,1:2:0:0:
426,372,44156,5,2,0:0:0:0:
371,222,44310,1,10,1:2:0:0:
473,269,44465,1,2,3:2:0:0:
479,282,44542,1,0,3:0:0:0:
484,293,44620,6,0,B|515:229|515:229|480:166,1,139.999995231629,2|0,1:2|0:0,0:0:0:0:
413,127,44852,1,0,3:0:0:0:
373,103,44929,2,0,P|379:68|401:42,1,69.9999976158143,8|0,1:2|0:0,0:0:0:0:
504,70,45084,2,0,P|470:77|446:102,1,69.9999976158143
506,146,45238,38,0,L|285:192,1,167.999989151001,2|0,1:2|0:0,0:0:0:0:
267,199,45470,1,0,0:0:0:0:
218,210,45547,1,8,1:2:0:0:
81,313,45702,6,0,B|101:243|101:243|56:172|56:172|83:82,1,251.999983726502,2|0,0:0|0:0,0:0:0:0:
78,57,46011,6,0,P|138:76|164:128,1,97.9999936714175,2|0,0:0|0:0,0:0:0:0:
146,248,46166,2,0,P|100:233|72:194,1,97.9999936714175,10|0,1:2|3:0,0:0:0:0:
224,133,46321,6,0,P|193:167|109:155,1,97.9999936714175,2|0,3:2|0:0,0:0:0:0:
128,319,46475,2,0,P|177:315|211:279,1,97.9999936714175,2|0,1:2|0:0,0:0:0:0:
259,65,46630,38,0,P|293:102|297:160,1,97.9999936714175,0|0,1:0|0:0,0:0:0:0:
266,334,46785,5,0,1:0:0:0:
283,288,46862,1,0,3:0:0:0:
271,240,46939,1,0,3:0:0:0:
231,211,47016,1,0,3:0:0:0:
210,207,47094,6,0,P|265:290|383:261,1,230.999999181748,4|0,1:2|0:0,0:0:0:0:
400,197,47403,5,8,1:2:0:0:
439,220,47480,1,0,0:0:0:0:
455,263,47558,2,0,P|442:310|406:339,1,69.9999976158143
511,217,47712,38,0,P|504:186|464:154,1,69.9999976158143,0|0,1:0|0:0,0:0:0:0:
397,80,47867,6,0,P|346:156|390:228,1,139.999995231629,0|8,0:0|1:2,0:0:0:0:
426,155,48099,1,0,0:0:0:0:
458,122,48176,6,0,P|470:88|460:41,1,69.9999976158143
411,5,48331,6,0,P|336:29|290:89,1,139.999995231629,0|0,1:0|0:0,0:0:0:0:
269,141,48563,1,0,0:0:0:0:
269,141,48640,38,0,P|246:127|227:97,2,41.9999972877504,8|0|0,1:2|3:0|3:0,0:0:0:0:
332,178,48795,1,0,3:0:0:0:
290,211,48873,1,0,3:0:0:0:
237,207,48949,6,0,P|203:188|182:165,1,69.9999976158143,0|0,1:0|0:0,0:0:0:0:
22,8,49104,6,0,L|10:98,1,90.9999927349095,2|0,0:0|0:0,0:0:0:0:
83,141,49259,2,0,L|71:224,1,83.9999945755007,10|0,1:2|0:0,0:0:0:0:
136,262,49413,2,0,L|124:352,1,76.9999997272492,2|0,0:0|0:0,0:0:0:0:
169,370,49568,6,0,P|202:322|316:344,1,139.999995231629,2|2,1:2|0:0,0:0:0:0:
501,123,49877,2,0,P|423:161|439:248,1,139.999995231629,10|2,1:2|3:2,0:0:0:0:
428,280,50109,1,0,3:0:0:0:
467,259,50187,2,0,P|486:230|490:196,1,69.9999976158143,2|0,1:2|0:0,0:0:0:0:
384,276,50341,37,2,0:0:0:0:
415,320,50419,1,0,0:0:0:0:
409,371,50496,1,10,1:2:0:0:
305,278,50651,6,0,P|314:312|337:339,1,69.9999976158143,2|0,0:0|0:0,0:0:0:0:
384,276,50805,2,0,L|333:103,1,139.999995231629,0|2,1:0|0:0,0:0:0:0:
156,44,51114,6,0,L|195:178,2,139.999995231629,10|2|0,1:2|0:0|1:0,0:0:0:0:
222,76,51501,2,0,P|251:97|304:91,1,69.9999976158143,0|2,0:0|0:0,0:0:0:0:
278,29,51656,1,0,0:0:0:0:
278,29,51733,2,0,P|319:134|242:216,1,209.999992847443,0|0,1:0|0:0,0:0:0:0:
209,254,52042,6,0,P|141:177|34:192,1,209.999992847443,0|0,1:0|0:0,0:0:0:0:
85,322,52352,37,8,1:2:0:0:
59,284,52429,1,0,0:0:0:0:
82,247,52506,2,0,P|110:245|143:285,1,69.9999976158143
274,306,52661,6,0,P|247:328|209:336,1,69.9999976158143,0|0,1:0|0:0,0:0:0:0:
59,284,52815,6,0,P|133:335|132:385,1,139.999995231629,0|8,0:0|1:2,0:0:0:0:
165,345,53047,1,0,0:0:0:0:
204,322,53125,6,0,P|244:372|346:299,1,209.999992847443
403,256,53434,38,0,P|374:237|340:231,1,69.9999976158143
236,256,53589,6,0,P|217:241|203:196,2,48.9999968357087,8|0|0,1:2|3:0|3:0,0:0:0:0:
324,155,53743,6,0,P|292:167|272:195,1,69.9999976158143,0|0,3:0|3:0,0:0:0:0:
339,231,53898,6,0,P|373:236|403:256,1,69.9999976158143,0|0,1:0|0:0,0:0:0:0:
496,359,54053,38,0,L|508:269,1,90.9999927349095,2|0,0:0|0:0,0:0:0:0:
435,226,54208,2,0,L|447:143,1,83.9999945755007,10|0,1:2|0:0,0:0:0:0:
382,105,54362,5,2,0:0:0:0:
387,63,54439,1,0,0:0:0:0:
393,21,54516,6,0,P|340:64|241:39,1,139.999995231629,2|2,1:2|0:0,0:0:0:0:
239,20,54748,1,0,3:0:0:0:
188,26,54826,2,0,P|168:68|135:81,1,69.9999976158143,10|0,1:2|0:0,0:0:0:0:
107,10,54980,1,2,0:0:0:0:
268,36,55135,6,0,P|236:111|174:157,1,139.999995231629,2|2,1:2|0:0,0:0:0:0:
154,166,55367,1,0,0:0:0:0:
154,166,55444,2,0,L|195:243,1,69.9999976158143,10|0,1:2|0:0,0:0:0:0:
224,297,55599,1,2,0:0:0:0:
130,333,55754,37,2,1:2:0:0:
244,306,55908,1,2,0:0:0:0:
347,366,56063,1,10,1:2:0:0:
425,278,56218,2,0,B|434:245|434:245|416:202,1,69.9999976158143,0|0,3:0|3:0,0:0:0:0:
361,154,56372,6,0,P|419:168|473:109,1,139.999995231629,2|2,1:2|0:0,0:0:0:0:
475,73,56604,1,0,0:0:0:0:
449,40,56681,1,0,1:0:0:0:
407,49,56759,1,0,3:0:0:0:
403,96,56836,6,0,L|318:115,1,69.9999976158143,0|0,3:0|3:0,0:0:0:0:
181,150,56991,1,2,0:0:0:0:
181,150,57300,6,0,L|196:83,1,41.9999972877504,2|0,3:2|3:0,0:0:0:0:
263,151,57455,1,0,3:0:0:0:
263,151,57532,1,0,3:0:0:0:
263,151,57609,2,0,B|286:187|286:187|270:231,1,83.9999945755007,2|0,0:0|3:0,0:0:0:0:
254,232,57841,1,0,3:0:0:0:
236,225,57919,38,0,L|217:306,1,83.9999945755007,2|2,3:2|0:0,0:0:0:0:
256,384,58382,5,2,0:0:0:0:
256,384,58537,1,2,0:0:0:0:
256,384,58692,1,2,0:0:0:0:
256,384,58846,5,2,0:0:0:0:
272,384,58924,2,2,L|321:384,1,41.9999972877504,0|0,0:0|0:0,0:0:0:0:
512,384,59465,21,4,1:2:0:0:
470,383,59542,2,0,B|439:350|413:345|413:345|394:283|496:220,1,210.000000858307
505,310,59774,6,0,B|389:306|389:306|380:317|380:317|368:305|368:305|305:302,1,210.000000858307,8|0,0:3|0:0,0:0:0:0:
436,130,60006,70,0,B|343:178|343:178|341:191|341:191|327:187|327:187|277:214,1,188.999994283676,8|0,0:3|0:0,0:0:0:0:
309,56,60238,6,0,B|266:110|266:110|268:118|268:118|258:120|258:120|235:149,1,125.999991863251,8|0,0:3|0:0,0:0:0:0:
225,164,60393,69,8,0:0:0:0:
180,220,60470,5,8,0:0:0:0:
135,276,60548,69,8,0:0:0:0:
90,332,60625,5,8,0:0:0:0:
80,345,60702,70,0,L|92:276,16,69.9999976158143
128,45,61321,6,2,B|180:22|180:22|149:75|149:75|95:110|105:172|105:172|41:184|19:251|19:251|5:173,1,419.999985694885,0|0,0:0|0:0,0:0:0:0:
186,152,61939,70,0,P|237:158|290:127,1,104.999996423721,4|0,1:2|0:0,0:0:0:0:
396,34,62248,6,0,B|362:38|329:71|329:71|299:51|253:65,1,157.50000064373,2|0,0:0|0:0,0:0:0:0:
209,130,62558,70,0,P|217:176|257:194,1,69.9999976158143,2|0,0:0|0:0,0:0:0:0:
338,209,62712,2,0,L|360:135,1,69.9999976158143,2|0,1:2|0:0,0:0:0:0:
232,270,62867,6,0,P|261:281|277:253,1,69.9999976158143,2|0,0:0|0:0,0:0:0:0:
346,295,63022,2,0,L|326:362,1,69.9999976158143,2|0,0:0|0:0,0:0:0:0:
411,354,63176,70,0,B|448:305|422:257|422:257|432:233|464:208|464:208|477:170|454:120,1,251.999983726502,2|0,1:2|0:0,0:0:0:0:
457,127,63486,1,2,0:3:0:0:
457,127,63795,5,2,0:0:0:0:
372,37,63949,2,0,L|413:100,1,62.9999959316255,2|0,1:2|3:0,0:0:0:0:
457,127,64259,69,2,0:3:0:0:
307,112,64413,2,0,L|367:157,1,62.9999959316255,2|0,1:2|0:0,0:0:0:0:
457,127,64723,5,2,0:0:0:0:
410,204,64877,2,0,L|483:219,1,62.9999959316255,2|0,0:0|0:0,0:0:0:0:
457,127,65187,69,2,1:2:0:0:
341,224,65341,2,0,L|281:243,1,62.9999959316255
457,127,65651,5,2,1:2:0:0:
356,328,65805,70,0,L|394:278,1,62.9999959316255,2|0,0:0|0:0,0:0:0:0:
484,152,66114,6,0,P|507:174|505:217,1,62.9999959316255,2|0,0:0|0:0,0:0:0:0:
484,291,66269,1,2,0:3:0:0:
441,350,66424,70,0,P|470:364|501:362,1,62.9999959316255,0|0,1:0|0:0,0:0:0:0:
437,210,66578,2,0,B|403:238|347:226|347:226|318:250|318:250|257:223|196:281,1,251.999983726502,2|0,0:3|0:0,0:0:0:0:
239,346,66888,6,0,P|263:338|276:315,1,52.5000002145768,6|0,1:2|0:0,0:0:0:0:
264,222,67042,2,0,P|254:205|219:199,1,52.5000002145768,2|0,0:0|0:0,0:0:0:0:
134,265,67197,2,0,P|139:303|178:322,1,52.5000002145768,2|0,0:0|0:0,0:0:0:0:
211,275,67352,69,2,0:0:0:0:
110,380,67506,5,2,0:0:0:0:
110,380,67661,70,0,P|77:362|66:330,1,69.9999976158143,2|0,1:2|0:0,0:0:0:0:
59,261,67815,2,0,P|55:227|70:185,1,69.9999976158143,2|0,3:2|3:0,0:0:0:0:
89,123,67970,2,0,P|97:95|128:57,1,69.9999976158143,2|0,3:2|3:0,0:0:0:0:
176,8,68125,6,0,B|212:52|196:100|166:124|166:124|184:157|164:210|104:253,1,251.999983726502,2|0,1:2|0:0,0:0:0:0:
129,231,68434,1,2,0:3:0:0:
129,231,68743,69,2,0:0:0:0:
252,19,68898,2,0,L|227:90,1,62.9999959316255,2|0,1:2|3:0,0:0:0:0:
129,231,69207,5,2,0:3:0:0:
328,80,69362,2,0,L|280:138,1,62.9999959316255,2|0,1:2|0:0,0:0:0:0:
129,231,69671,69,2,0:0:0:0:
217,230,69826,2,0,L|273:202,1,62.9999959316255,2|0,0:0|0:0,0:0:0:0:
129,231,70135,5,2,1:2:0:0:
374,145,70290,2,0,L|436:149,1,62.9999959316255,2|0,3:2|0:0,0:0:0:0:
469,136,70599,70,0,P|488:150|498:200,1,62.9999959316255,2|0,1:2|0:0,0:0:0:0:
499,261,70754,2,0,P|484:293|442:322,1,62.9999959316255,2|0,1:2|0:0,0:0:0:0:
402,346,70908,1,2,0:0:0:0:
350,220,71063,6,0,P|381:252|390:304,1,62.9999959316255,2|0,0:0|0:0,0:0:0:0:
402,346,71218,2,0,L|315:374,1,62.9999959316255
269,384,71372,2,0,P|238:367|213:321,1,62.9999959316255,6|0,1:2|0:0,0:0:0:0:
290,304,71527,70,0,B|320:263|320:263|308:188|252:134|252:134|283:80,1,251.999983726502,0|0,3:0|0:0,0:0:0:0:
124,95,71836,22,0,P|159:149|247:150,1,157.50000064373,2|0,1:2|0:0,0:0:0:0:
323,22,72145,6,0,P|247:19|203:80,1,157.50000064373,10|0,1:2|0:0,0:0:0:0:
227,218,72455,6,0,P|225:141|283:92,1,157.50000064373,2|0,1:2|0:0,0:0:0:0:
354,109,72764,6,0,L|427:124,1,52.5000002145768,10|0,1:2|0:0,0:0:0:0:
475,135,72919,1,2,0:0:0:0:
378,242,73073,38,0,L|418:373,1,105.000000429154,0|0,1:0|0:0,0:0:0:0:
203,284,73382,2,0,L|243:415,1,105.000000429154,8|0,1:2|3:0,0:0:0:0:
276,376,73614,1,0,3:0:0:0:
276,376,73692,2,0,P|294:337|279:287,1,52.5000002145768,0|0,1:0|0:0,0:0:0:0:
237,186,73846,2,0,P|266:201|278:225,1,52.5000002145768
390,255,74001,6,0,L|339:265,1,52.5000002145768,8|0,1:2|0:0,0:0:0:0:
235,283,74156,5,2,3:2:0:0:
229,292,74233,1,0,3:0:0:0:
223,301,74310,2,0,B|169:294|169:294|119:320,1,105.000000429154,0|2,1:2|0:0,0:0:0:0:
0,372,74620,5,10,1:2:0:0:
55,283,74774,1,2,0:0:0:0:
1,168,74929,1,2,1:2:0:0:
96,216,75084,1,2,3:2:0:0:
113,178,75161,1,0,3:0:0:0:
103,135,75238,1,10,1:2:0:0:
36,172,75393,38,0,P|31:109|109:58,1,157.50000064373,2|0,0:0|0:0,0:0:0:0:
175,44,75702,2,0,P|204:52|227:84,1,52.5000002145768,2|0,0:0|0:0,0:0:0:0:
248,112,75857,1,10,1:2:0:0:
294,217,76011,1,2,0:0:0:0:
273,326,76166,1,2,1:2:0:0:
260,286,76243,1,0,3:0:0:0:
229,256,76321,6,0,P|206:243|180:239,1,52.5000002145768,0|0,3:0|0:0,0:0:0:0:
307,198,76475,2,0,L|316:145,2,52.5000002145768,10|0|0,1:2|0:0|0:0,0:0:0:0:
458,293,76785,6,0,P|415:265|365:275,1,105.000000429154,6|2,1:2|0:0,0:0:0:0:
399,142,77094,2,0,P|452:133|505:208,1,105.000000429154,10|2,1:2|0:0,0:0:0:0:
507,188,77326,1,0,0:0:0:0:
490,214,77403,2,0,L|448:388,1,157.50000064373,2|0,1:2|0:0,0:0:0:0:
384,381,77712,1,10,1:2:0:0:
250,274,77867,1,2,0:0:0:0:
331,277,78022,6,0,P|317:320|258:355,1,105.000000429154,0|0,1:0|0:0,0:0:0:0:
102,310,78331,2,0,B|150:290|150:290|203:307,1,105.000000429154,8|0,1:2|3:0,0:0:0:0:
244,322,78563,1,0,3:0:0:0:
254,278,78640,37,0,1:0:0:0:
156,199,78795,1,0,0:0:0:0:
176,75,78949,1,8,1:2:0:0:
296,35,79104,1,0,3:0:0:0:
292,49,79181,1,0,3:0:0:0:
288,62,79259,6,0,B|297:104|297:104|363:129|364:204,1,157.50000064373,0|0,1:0|0:0,0:0:0:0:
309,267,79568,2,0,P|272:233|283:183,1,105.000000429154,10|0,1:2|0:0,0:0:0:0:
451,162,79877,2,0,L|414:301,1,105.000000429154,2|2,1:2|3:2,0:0:0:0:
448,333,80109,1,0,3:0:0:0:
448,333,80186,1,2,1:2:0:0:
228,374,80341,6,0,P|284:306|228:238,1,188.999987794877,6|0,1:2|0:0,0:0:0:0:
195,207,80651,2,0,L|258:207,1,62.9999959316255,2|0,1:2|0:0,0:0:0:0:
212,306,80805,5,2,3:2:0:0:
168,306,80882,1,0,3:0:0:0:
124,306,80959,1,2,1:2:0:0:
0,192,81114,37,2,1:2:0:0:
231,107,81424,5,2,1:2:0:0:
462,22,81733,5,6,1:2:0:0:
50,362,86681,5,8,1:2:0:0:
101,304,86991,1,8,1:2:0:0:
124,232,87300,1,8,1:2:0:0:
124,156,87609,1,8,1:2:0:0:
88,89,87919,37,8,1:2:0:0:
148,134,88228,1,8,1:2:0:0:
223,151,88537,5,8,1:2:0:0:
223,151,88692,1,0,0:0:0:0:
300,144,88846,5,8,1:2:0:0:
300,144,89001,1,0,3:0:0:0:
272,262,89156,5,8,1:2:0:0:
343,359,89310,1,8,1:2:0:0:
460,325,89465,1,8,1:2:0:0:
479,205,89620,1,8,1:2:0:0:
374,96,89774,37,8,1:2:0:0:
320,70,89852,1,8,1:2:0:0:
261,70,89929,1,8,1:2:0:0:
212,103,90006,1,8,1:2:0:0:
201,161,90084,1,8,1:2:0:0:
255,187,90161,1,8,1:2:0:0:
314,187,90238,1,8,1:2:0:0:
363,154,90315,1,8,1:2:0:0:
379,140,90393,6,0,L|458:69,1,83.9999945755007,0|0,1:0|0:0,0:0:0:0:
384,164,90547,6,0,L|197:331,1,251.999983726502
140,381,91553,6,0,P|121:343|131:305,1,62.9999959316255
18,3,91939,38,0,P|108:11|189:161,1,272.999978204728,4|0,1:2|0:0,0:0:0:0:
154,221,92248,6,0,P|51:226|3:148,1,181.999985469819,12|0,1:2|0:0,0:0:0:0:
21,91,92480,6,0,P|108:147|79:189,1,181.999985469819,12|0,1:2|0:0,0:0:0:0:
16,242,92712,6,0,P|-5:320|68:379,1,181.999985469819,12|0,1:2|1:0,0:0:0:0:
112,380,92944,1,0,1:0:0:0:
138,341,93022,2,0,P|111:310|72:298,1,83.9999945755007,0|0,1:0|0:0,0:0:0:0:
205,380,93176,38,0,P|267:328|355:336,1,167.999989151001,0|0,1:0|1:0,0:0:0:0:
394,356,93408,1,0,0:0:0:0:
438,378,93486,6,0,L|412:209,1,167.999989151001,0|0,1:0|1:0,0:0:0:0:
403,152,93718,1,0,0:0:0:0:
393,92,93795,1,0,1:0:0:0:
494,221,93949,2,0,P|475:266|434:291,1,83.9999945755007,0|0,1:0|0:0,0:0:0:0:
357,378,94104,6,0,B|289:248|289:248|310:221|299:170,1,220.499985760689,6|0,1:2|0:0,0:0:0:0:
294,97,94413,6,0,P|232:131|223:202,1,146.999990507126,8|2,1:2|0:0,0:0:0:0:
271,219,94645,1,0,0:0:0:0:
304,181,94723,38,0,P|261:274|179:270,1,160.999997587204,2|2,1:2|3:2,0:0:0:0:
192,235,94955,1,0,3:0:0:0:
143,230,95032,1,10,1:2:0:0:
159,376,95187,6,0,P|139:335|84:320,1,80.499998793602,2|0,0:0|0:0,0:0:0:0:
40,337,95341,1,0,1:0:0:0:
169,369,95496,6,0,B|205:372|205:372|247:363,1,73.4999952535631,2|0,0:0|0:0,0:0:0:0:
235,256,95651,6,0,B|199:264|199:264|162:260,1,73.4999952535631,10|0,1:2|0:0,0:0:0:0:
176,169,95805,38,0,B|140:177|140:177|103:173,1,73.4999952535631,2|0,0:0|0:0,0:0:0:0:
36,132,95960,1,0,1:2:0:0:
18,83,96037,1,0,3:0:0:0:
35,34,96114,6,0,P|58:30|79:34,1,45.4999963674547,0|0,3:0|0:0,0:0:0:0:
149,65,96269,1,8,1:2:0:0:
269,65,96424,6,0,P|246:69|225:65,1,45.4999963674547
149,65,96578,6,0,B|167:117|167:117|94:214|154:328,1,220.499985760689,2|0,1:2|0:0,0:0:0:0:
200,239,96888,1,10,1:2:0:0:
210,191,96965,1,0,3:0:0:0:
234,149,97042,1,0,3:0:0:0:
272,118,97120,1,0,0:0:0:0:
319,109,97197,38,0,P|304:215|258:276,1,160.999997587204,2|0,1:2|0:0,0:0:0:0:
204,243,97429,1,0,3:0:0:0:
205,275,97506,5,10,1:2:0:0:
213,306,97584,1,0,3:0:0:0:
237,321,97661,6,0,B|293:313|293:313|316:322|316:322|385:310,1,146.999990507126,2|0,0:0|1:0,0:0:0:0:
163,367,97970,5,2,0:0:0:0:
302,384,98125,2,0,L|309:341,2,36.7499976267816,10|0|0,1:2|3:0|3:0,0:0:0:0:
380,334,98279,1,2,3:2:0:0:
422,317,98357,1,0,3:0:0:0:
444,279,98434,1,2,1:2:0:0:
361,167,98589,38,0,P|337:180|361:223,1,73.4999952535631,2|0,0:0|0:0,0:0:0:0:
422,317,98743,2,0,L|435:163,1,146.999990507126,10|2,1:2|3:2,0:0:0:0:
455,123,98975,1,0,3:0:0:0:
475,75,99053,6,0,B|409:43|356:86|356:86|257:67,1,220.499985760689,2|0,1:2|3:0,0:0:0:0:
202,8,99362,2,0,P|178:75|212:139,1,146.999990507126,8|0,1:2|0:0,0:0:0:0:
264,303,99671,6,0,B|318:235|318:235|277:133,1,174.999994039536,2|0,1:2|0:0,0:0:0:0:
253,109,99903,1,0,0:0:0:0:
202,113,99980,1,8,1:2:0:0:
82,318,100135,6,0,B|140:340|188:320|188:320|221:341|221:341|274:317|357:357,1,262.499991059303,2|0,0:0|0:0,0:0:0:0:
411,364,100444,38,0,P|471:345|497:293,1,101.499999640465,2|0,0:0|0:0,0:0:0:0:
387,114,100599,2,0,P|429:124|465:186,1,101.499999640465,10|0,1:2|3:0,0:0:0:0:
419,285,100754,6,0,P|390:238|396:177,1,101.499999640465,2|0,3:2|0:0,0:0:0:0:
363,37,100908,2,0,P|315:81|315:141,1,101.499999640465,2|0,1:2|0:0,0:0:0:0:
201,337,101063,6,0,P|234:290|235:246,1,101.499999640465,0|0,1:0|0:0,0:0:0:0:
169,57,101218,5,0,1:0:0:0:
124,85,101295,1,0,3:0:0:0:
109,135,101372,1,0,3:0:0:0:
124,185,101449,1,0,3:0:0:0:
170,211,101527,38,0,P|272:175|199:57,1,241.499996380806,4|0,1:2|0:0,0:0:0:0:
128,89,101836,5,8,1:2:0:0:
151,133,101913,1,0,0:0:0:0:
201,135,101991,2,0,L|280:154,1,73.4999952535631
74,30,102145,6,0,P|51:64|50:108,1,73.4999952535631,0|0,1:0|0:0,0:0:0:0:
48,208,102300,6,0,L|206:246,1,146.999990507126,0|8,0:0|1:2,0:0:0:0:
237,227,102532,1,0,0:0:0:0:
237,227,102609,38,0,P|198:321|98:300,1,220.499985760689
41,349,102919,6,0,P|70:369|106:374,1,73.4999952535631
240,333,103073,6,0,P|255:317|263:296,2,43.7499985098839,8|0|0,1:2|3:0|3:0,0:0:0:0:
311,372,103228,5,0,3:0:0:0:
333,331,103305,1,0,3:0:0:0:
344,289,103382,38,0,P|372:294|421:340,1,73.4999952535631,0|0,1:0|0:0,0:0:0:0:
490,376,103537,6,0,L|502:282,1,94.4999971418381,2|0,0:0|0:0,0:0:0:0:
429,243,103692,2,0,L|441:154,1,87.4999970197678,10|0,1:2|0:0,0:0:0:0:
376,122,103846,2,0,L|388:32,1,80.499998793602,2|0,0:0|0:0,0:0:0:0:
351,14,104001,6,0,P|280:34|266:119,1,146.999990507126,2|2,1:2|0:0,0:0:0:0:
72,171,104310,2,0,P|129:130|197:151,1,146.999990507126,10|2,1:2|3:2,0:0:0:0:
252,203,104542,1,0,3:0:0:0:
208,226,104620,2,0,P|172:223|142:204,1,73.4999952535631,2|0,1:2|0:0,0:0:0:0:
288,237,104774,5,2,0:0:0:0:
296,280,104852,1,0,0:0:0:0:
281,321,104929,2,0,L|210:348,1,73.4999952535631,10|0,1:2|0:0,0:0:0:0:
127,381,105084,37,2,0:0:0:0:
94,377,105161,1,0,0:0:0:0:
61,372,105238,2,0,L|198:319,1,146.999990507126,0|2,1:0|0:0,0:0:0:0:
372,249,105547,1,10,1:2:0:0:
408,104,105702,1,2,0:0:0:0:
261,24,105857,6,0,B|252:60|252:60|282:91,1,73.4999952535631,0|0,1:0|0:0,0:0:0:0:
348,64,106011,2,0,B|368:89|368:89|293:260,2,146.999990507126,2|0|0,0:0|1:0|0:0,0:0:0:0:
6,87,106475,6,0,B|118:128|118:128|121:193|178:216,1,220.499985760689,0|0,1:0|0:0,0:0:0:0:
243,202,106785,5,8,1:2:0:0:
235,157,106862,1,0,0:0:0:0:
194,137,106939,2,0,P|152:135|118:151,1,73.4999952535631
0,221,107094,38,0,P|2:254|46:294,1,73.4999952535631,0|0,1:0|0:0,0:0:0:0:
45,363,107248,6,0,P|79:299|73:227,1,146.999990507126,0|8,0:0|1:2,0:0:0:0:
132,279,107480,1,0,0:0:0:0:
163,307,107558,6,0,P|266:348|366:317,1,220.499985760689
406,252,107867,6,0,P|427:270|438:333,1,73.4999952535631
313,368,108022,38,0,P|295:342|292:310,2,50.7499998202324,8|0|0,1:2|3:0|3:0,0:0:0:0:
366,316,108176,5,0,3:0:0:0:
366,274,108254,1,0,3:0:0:0:
335,242,108331,6,0,P|300:231|254:236,1,73.4999952535631,0|0,1:0|0:0,0:0:0:0:
33,207,108486,6,0,L|126:219,1,94.4999971418381,2|0,0:0|0:0,0:0:0:0:
166,146,108641,2,0,L|254:158,1,87.4999970197678,10|0,1:2|0:0,0:0:0:0:
287,93,108795,37,2,0:0:0:0:
326,98,108872,1,0,0:0:0:0:
366,103,108949,5,2,1:2:0:0:
261,22,109104,2,0,P|230:-1|167:9,1,73.4999952535631,2|0,0:0|3:0,0:0:0:0:
71,28,109259,2,0,P|132:67|205:71,1,146.999990507126,10|2,1:2|0:0,0:0:0:0:
361,239,109568,2,0,P|300:199|227:196,1,146.999990507126,2|2,1:2|0:0,0:0:0:0:
240,268,109800,2,0,L|323:295,1,73.4999952535631,0|10,0:0|1:2,0:0:0:0:
498,347,110032,5,2,0:0:0:0:
353,376,110187,1,2,1:2:0:0:
212,339,110341,1,2,0:0:0:0:
359,358,110496,1,10,1:2:0:0:
480,274,110651,2,0,B|498:242|498:242|490:200,1,73.4999952535631,0|0,3:0|3:0,0:0:0:0:
470,112,110805,6,0,P|397:159|324:122,1,146.999990507126,2|2,1:2|0:0,0:0:0:0:
132,49,111114,1,0,1:0:0:0:
164,13,111191,1,0,3:0:0:0:
211,2,111268,1,0,3:0:0:0:
257,18,111345,1,0,3:0:0:0:
267,31,111424,38,0,L|256:114,1,83.9999945755007,2|0,0:0|0:0,0:0:0:0:
216,222,111733,2,0,P|207:203|210:174,1,41.9999972877504,2|0,3:2|3:0,0:0:0:0:
234,232,111888,2,0,P|235:211|252:187,1,41.9999972877504,0|0,3:0|3:0,0:0:0:0:
244,249,112042,6,0,P|258:232|335:222,1,83.9999945755007,2|0,0:0|3:0,0:0:0:0:
331,226,112274,1,0,3:0:0:0:
320,242,112352,2,0,L|292:351,1,83.9999945755007,2|2,3:2|0:0,0:0:0:0:
256,384,112815,5,2,0:0:0:0:
256,384,112970,1,2,0:0:0:0:
256,384,113125,1,2,0:0:0:0:
256,384,113279,37,0,0:0:0:0:
240,384,113357,2,2,B|179:384|179:384|186:370,1,62.9999959316255,0|0,0:0|0:0,0:0:0:0:
