osu file format v14

[General]
AudioFilename: audio.mp3
AudioLeadIn: 0
PreviewTime: 44548
Countdown: 0
SampleSet: Soft
StackLeniency: 0.7
Mode: 0
LetterboxInBreaks: 0
WidescreenStoryboard: 1

[Editor]
Bookmarks: 9105,25307,44548,65814,73915,90117,110371,152776,161004,186826,203535
DistanceSpacing: 1
BeatDivisor: 4
GridSize: 8
TimelineZoom: 1.5

[Metadata]
Title:? <-HEARTBEAT (NOZOMI Mix)
TitleUnicode:?←HEARTBEAT (NOZOMI Mix)
Artist:Tojo Nozomi (CV. Kusuda Aina)
ArtistUnicode:東條 希(CV. 楠田亜衣奈)
Creator:Noctiam
Version:Happiness
Source:ラブライブ!
Tags:?←HEARTBEAT hate na HEARTBEAT love live! school idol project u's solo collection memories with 東條 希 楠田亜衣奈 birthday 誕生日
BeatmapID:1669419
BeatmapSetID:794818

[Difficulty]
HPDrainRate:6
CircleSize:4.3
OverallDifficulty:8.5
ApproachRate:9.3
SliderMultiplier:1.99999990463257
SliderTickRate:1

[Events]
//Background and Video events
0,0,"BG.png",0,0
//Break Periods
2,74114,76272
2,78166,80323
2,131836,139690
//Storyboard Layer 0 (Background)
//Storyboard Layer 1 (Fail)
//Storyboard Layer 2 (Pass)
//Storyboard Layer 3 (Foreground)
//Storyboard Sound Samples

[TimingPoints]
499,506.329113924051,4,2,0,75,1,0
499,-66.6666666666667,4,2,0,75,0,0
1004,506.329113924051,4,2,0,100,1,0
1004,-50,4,2,0,80,0,0
8725,-200,4,2,0,80,0,0
9105,-66.6666666666667,4,2,0,70,0,0
17206,-133.333333333333,4,2,0,70,0,0
18219,-66.6666666666667,4,2,0,70,0,0
25307,-57.1428571428571,4,2,0,80,0,0
31383,-133.333333333333,4,2,0,80,0,0
32396,-50,4,2,0,80,0,0
33409,-57.1428571428571,4,2,0,80,0,0
37459,-50,4,2,0,85,0,0
39485,-100,4,2,0,85,0,0
43535,-66.6666666666667,4,2,0,80,0,0
44548,-50,4,2,0,85,0,1
59738,-50,4,2,0,85,0,0
73535,-133.333333333333,4,2,0,70,0,0
73915,-66.6666666666667,4,2,0,70,0,0
76826,-66.6666666666667,4,2,0,75,0,0
82016,-66.6666666666667,4,2,0,75,0,0
90117,-57.1428571428571,4,2,0,80,0,0
96193,-133.333333333333,4,2,0,80,0,0
97206,-50,4,2,0,80,0,0
98219,-57.1428571428571,4,2,0,80,0,0
102269,-50,4,2,0,85,0,0
104295,-100,4,2,0,80,0,0
108345,-40,4,2,0,80,0,0
109358,-133.333333333333,4,2,0,80,0,0
110371,-50,4,2,0,85,0,1
125560,-50,4,2,0,80,0,0
140244,-40,4,2,0,85,0,0
155434,-133.333333333333,4,2,0,80,0,0
158472,-133.333333333333,4,2,0,80,0,0
161004,-50,4,2,0,70,0,0
161763,-100,4,2,0,75,0,0
163535,-50,4,2,0,85,0,1
176700,-50,4,2,0,80,0,0
183788,-50,4,2,0,80,0,0
186826,-50,4,2,0,80,0,0
194928,-40,4,2,0,85,0,0

[Colours]
Combo1 : 255,128,255
Combo2 : 176,40,255
Combo3 : 0,255,0

[HitObjects]
176,240,499,5,0,0:0:0:0:
272,272,625,1,0,0:0:0:0:
368,240,752,1,0,0:0:0:0:
464,272,878,1,0,0:0:0:0:
400,144,1004,6,0,P|352:128|304:144,1,99.9999952316285
176,240,1257,2,0,P|224:256|272:240,1,99.9999952316285
176,64,1510,2,0,P|160:112|176:160,1,99.9999952316285
352,208,1763,1,0,0:0:0:0:
96,64,1890,2,0,P|80:112|96:160,1,99.9999952316285
304,144,2143,2,0,P|318:96|302:50,1,99.9999952316285
160,112,2396,1,0,0:0:0:0:
384,144,2522,2,0,P|398:96|382:50,1,99.9999952316285
128,224,2776,2,0,P|113:271|129:317,1,99.9999952316285
368,320,3029,6,0,L|272:288,1,99.9999952316285
176,144,3282,2,0,L|272:176,1,99.9999952316285
400,96,3535,2,0,L|304:64,1,99.9999952316285
400,208,3788,1,0,0:0:0:0:
208,64,3915,2,0,L|112:96,1,99.9999952316285
112,240,4168,2,0,L|206:271,1,99.9999952316285
270,175,4421,1,0,0:0:0:0:
64,304,4548,2,0,L|158:335,1,99.9999952316285
96,120,4801,5,0,0:0:0:0:
168,56,4928,1,0,0:0:0:0:
256,32,5054,2,0,P|304:32|352:64,1,99.9999952316285
256,192,5307,2,0,P|208:192|160:160,1,99.9999952316285
384,144,5560,2,0,P|429:160|463:206,1,99.9999952316285
272,112,5814,1,0,0:0:0:0:
352,240,5940,2,0,P|385:273|397:330,1,99.9999952316285
208,256,6193,2,0,P|174:222|162:165,1,99.9999952316285
272,32,6447,1,0,0:0:0:0:
337,146,6573,2,0,P|357:189|348:246,1,99.9999952316285
196,111,6826,2,0,P|175:67|184:10,1,99.9999952316285
64,80,7079,6,0,L|80:192,2,99.9999952316285
176,192,7459,1,0,0:0:0:0:
176,192,7586,2,0,L|192:304,2,99.9999952316285
256,80,7966,1,0,0:0:0:0:
448,192,8219,1,0,0:0:0:0:
256,320,8472,1,0,0:0:0:0:
64,192,8725,2,0,L|50:142,1,49.9999976158143
64,112,9105,6,0,L|144:80,1,74.9999992847443
224,192,9358,2,0,L|144:160,1,74.9999992847443
320,80,9611,2,0,L|368:160,1,74.9999992847443
224,96,9864,1,0,0:0:0:0:
48,208,9991,2,0,L|128:176,1,74.9999992847443
208,288,10244,2,0,L|128:256,1,74.9999992847443
240,176,10497,1,0,0:0:0:0:
384,224,10624,2,0,L|432:304,1,74.9999992847443
96,96,10877,2,0,L|48:16,1,74.9999992847443
192,48,11130,6,0,B|240:32|272:64,1,74.9999992847443
384,160,11383,2,0,B|400:208|368:240,1,74.9999992847443
192,320,11636,2,0,B|240:336|272:304,1,74.9999992847443
256,192,11890,1,0,0:0:0:0:
112,160,12016,2,0,L|80:240,1,74.9999992847443
400,160,12269,2,0,L|432:240,1,74.9999992847443
192,48,12522,6,0,B|240:64|240:64|272:96,1,74.9999992847443
80,224,12776,6,0,B|32:208|32:208|0:176,2,74.9999992847443
144,304,13155,6,0,B|176:320|224:320,1,74.9999992847443
144,144,13409,2,0,B|112:128|64:128,1,74.9999992847443
240,224,13662,2,0,B|275:221|317:197,1,74.9999992847443
240,80,13915,1,0,0:0:0:0:
304,272,14041,2,0,B|333:252|357:210,1,74.9999992847443
165,192,14295,2,0,B|135:211|111:253,1,74.9999992847443
208,320,14548,1,0,0:0:0:0:
282,148,14674,2,0,B|298:116|297:68,1,74.9999992847443
96,64,14928,2,0,B|80:96|80:144,1,74.9999992847443
208,112,15181,5,0,0:0:0:0:
144,224,15307,2,0,B|136:216|56:216,1,74.9999992847443
208,112,15560,1,0,0:0:0:0:
144,224,15687,2,0,L|64:240,1,74.9999992847443
256,48,15940,1,0,0:0:0:0:
368,224,16067,2,0,L|360:216|440:216,1,74.9999992847443
304,112,16320,1,0,0:0:0:0:
368,224,16447,2,0,L|448:240,1,74.9999992847443
304,112,16700,1,0,0:0:0:0:
352,304,16826,2,0,L|423:328,2,74.9999992847443
224,208,17206,6,0,P|192:160|208:112,1,112.499998927116
272,208,17712,2,0,P|304:160|288:112,1,112.499998927116
160,48,18219,2,0,L|96:96,1,74.9999992847443
288,32,18472,2,0,L|368:32,1,74.9999992847443
176,176,18725,2,0,L|132:242,1,74.9999992847443
336,144,18978,2,0,L|411:116,1,74.9999992847443
432,272,19231,6,0,P|384:320|304:288,1,149.999998569489
288,272,19611,1,0,0:0:0:0:
272,240,19738,2,0,P|320:192|400:224,1,149.999998569489
400,112,20117,2,0,L|320:96,1,74.9999992847443
256,64,20371,1,0,0:0:0:0:
112,112,20497,2,0,L|192:96,1,74.9999992847443
400,192,20750,2,0,L|320:176,1,74.9999992847443
112,192,21004,2,0,L|192:176,1,74.9999992847443
256,256,21257,6,0,P|240:288|192:320,1,74.9999992847443
32,192,21510,2,0,P|48:224|96:256,1,74.9999992847443
224,112,21763,2,0,P|208:144|160:176,1,74.9999992847443
80,80,22016,1,0,0:0:0:0:
304,96,22143,2,0,P|287:56|256:32,1,74.9999992847443
112,208,22396,2,0,P|144:240|192:240,1,74.9999992847443
352,160,22649,1,0,0:0:0:0:
464,240,22776,2,0,P|480:200|475:160,1,74.9999992847443
249,183,23029,2,0,P|249:228|282:262,1,74.9999992847443
368,112,23282,5,0,0:0:0:0:
288,64,23409,1,0,0:0:0:0:
208,112,23535,1,0,0:0:0:0:
128,64,23662,1,0,0:0:0:0:
48,112,23788,2,0,L|112:160,1,74.9999992847443
224,256,24041,1,0,0:0:0:0:
368,192,24168,1,0,0:0:0:0:
384,176,25307,6,0,L|384:272,1,87.4999966621399
112,272,25560,2,0,L|112:160,1,87.4999966621399
256,80,25814,1,0,0:0:0:0:
256,240,26067,5,0,0:0:0:0:
256,240,26193,1,0,0:0:0:0:
416,160,26447,5,0,0:0:0:0:
416,208,26573,1,0,0:0:0:0:
416,256,26700,1,0,0:0:0:0:
368,208,26953,5,0,0:0:0:0:
368,256,27079,1,0,0:0:0:0:
368,304,27206,1,0,0:0:0:0:
160,224,27333,2,0,P|208:208|240:224,1,87.4999966621399
144,320,27586,2,0,P|96:336|64:320,1,87.4999966621399
0,224,27839,1,0,0:0:0:0:
160,224,28092,5,0,0:0:0:0:
160,224,28219,1,0,0:0:0:0:
224,32,28472,5,0,0:0:0:0:
272,32,28598,1,0,0:0:0:0:
320,32,28725,1,0,0:0:0:0:
272,80,28978,5,0,0:0:0:0:
320,80,29105,1,0,0:0:0:0:
368,80,29231,1,0,0:0:0:0:
464,176,29358,2,0,L|368:176,1,87.4999966621399
272,256,29611,2,0,L|368:256,1,87.4999966621399
480,256,29864,1,0,0:0:0:0:
272,256,30117,5,0,0:0:0:0:
272,256,30244,1,0,0:0:0:0:
112,304,30497,5,0,0:0:0:0:
112,256,30624,1,0,0:0:0:0:
112,208,30750,1,0,0:0:0:0:
192,128,31004,5,0,0:0:0:0:
192,176,31130,1,0,0:0:0:0:
192,224,31257,1,0,0:0:0:0:
288,128,31383,2,0,L|400:112,1,112.499998927116
496,224,31890,2,0,L|384:240,1,112.499998927116
256,208,32396,5,0,0:0:0:0:
256,304,32522,2,0,L|352:368,1,99.9999952316285
224,176,32776,1,0,0:0:0:0:
191,266,32902,2,0,L|259:358,1,99.9999952316285
192,128,33155,1,0,0:0:0:0:
136,216,33282,1,0,0:0:0:0:
80,96,33409,6,0,L|48:192,1,87.4999966621399
184,80,33662,1,0,0:0:0:0:
256,208,33788,2,0,L|284:112,1,87.4999966621399
384,96,34168,5,0,0:0:0:0:
384,96,34295,1,0,0:0:0:0:
384,224,34548,5,0,0:0:0:0:
384,272,34674,1,0,0:0:0:0:
384,320,34801,1,0,0:0:0:0:
256,304,35054,5,0,0:0:0:0:
256,256,35181,1,0,0:0:0:0:
256,208,35307,1,0,0:0:0:0:
272,79,35434,2,0,P|312:63|352:80,1,87.4999966621399
175,144,35687,2,0,P|135:160|96:144,1,87.4999966621399
144,32,35940,1,0,0:0:0:0:
320,192,36193,5,0,0:0:0:0:
320,192,36320,1,0,0:0:0:0:
288,32,36573,5,0,0:0:0:0:
240,32,36700,1,0,0:0:0:0:
192,32,36826,1,0,0:0:0:0:
80,240,37079,5,0,0:0:0:0:
128,240,37206,1,0,0:0:0:0:
176,240,37333,1,0,0:0:0:0:
224,240,37459,6,0,L|336:240,1,99.9999952316285
192,112,37712,2,0,L|64:112,1,99.9999952316285
368,224,37966,2,0,B|432:224|432:224|464:192,1,99.9999952316285
288,64,38219,1,0,0:0:0:0:
192,144,38345,2,0,P|160:176|160:240,1,99.9999952316285
400,256,38598,2,0,P|432:224|432:160,1,99.9999952316285
320,48,38852,1,0,0:0:0:0:
320,208,38978,2,0,P|312:256|280:296,1,99.9999952316285
96,160,39231,2,0,B|96:104|160:64,1,99.9999952316285
256,48,39485,6,0,L|256:160,1,99.9999952316285
400,48,39991,2,0,L|400:160,1,99.9999952316285
320,240,40497,2,0,L|320:352,1,99.9999952316285
464,340,40877,2,0,L|464:240,1,99.9999952316285
192,256,41383,1,0,0:0:0:0:
192,256,41510,2,0,P|144:240|96:192,1,99.9999952316285
240,96,41890,2,0,P|288:112|320:160,1,99.9999952316285
368,304,42396,1,0,0:0:0:0:
368,304,42522,2,0,P|330:337|264:355,1,99.9999952316285
253,182,42902,2,0,P|320:128|400:144,1,149.999992847443
448,264,43535,5,0,0:0:0:0:
447,248,43662,1,0,0:0:0:0:
447,232,43788,1,0,0:0:0:0:
447,216,43915,1,0,0:0:0:0:
447,200,44041,1,0,0:0:0:0:
368,256,44168,1,8,0:0:0:0:
296,192,44295,1,8,0:0:0:0:
224,256,44421,1,8,0:0:0:0:
224,128,44548,6,0,P|272:112|336:112,1,99.9999952316285
288,320,44801,2,0,P|240:336|176:336,1,99.9999952316285
240,112,45054,2,0,P|290:104|353:115,1,99.9999952316285
269,312,45307,2,0,P|218:319|155:308,1,99.9999952316285
256,80,45560,2,0,P|306:81|366:103,1,99.9999952316285
249,281,45814,2,0,P|198:279|138:257,1,99.9999952316285
272,64,46067,2,0,P|321:74|376:106,1,99.9999952316285
230,260,46320,1,0,0:0:0:0:
192,160,46447,1,0,0:0:0:0:
304,224,46573,6,0,P|352:192|364:144,1,99.9999952316285
272,64,46826,1,0,0:0:0:0:
352,256,46953,2,0,P|377:204|363:156,1,99.9999952316285
256,32,47206,1,0,0:0:0:0:
160,256,47333,2,0,P|134:204|148:156,1,99.9999952316285
176,48,47586,2,0,B|112:64|112:64|96:96,1,99.9999952316285
288,272,47839,2,0,P|336:240|352:192,1,99.9999952316285
160,144,48092,2,0,P|112:176|96:224,1,99.9999952316285
416,272,48345,2,0,P|412:214|378:176,1,99.9999952316285
288,96,48598,6,0,L|194:63,1,99.9999952316285
64,112,48852,2,0,L|176:160,1,99.9999952316285
288,256,49105,2,0,L|194:223,1,99.9999952316285
64,272,49358,2,0,L|176:320,1,99.9999952316285
323,329,49611,6,0,L|368:240,1,99.9999952316285
416,144,49864,1,0,0:0:0:0:
256,320,49991,2,0,L|339:264,1,99.9999952316285
429,205,50244,1,0,0:0:0:0:
208,288,50371,2,0,L|307:282,1,99.9999952316285
414,275,50624,2,0,L|336:200,1,99.9999952316285
96,196,50877,6,0,P|136:168|192:172,1,99.9999952316285
313,306,51130,2,0,P|263:307|223:279,1,99.9999952316285
308,160,51383,2,0,P|357:158|397:186,1,99.9999952316285
224,280,51636,2,0,P|174:281|134:253,1,99.9999952316285
285,138,51890,1,0,0:0:0:0:
285,138,52016,2,0,P|326:112|375:116,1,99.9999952316285
420,204,52269,1,8,0:0:0:0:
328,256,52396,1,8,0:0:0:0:
228,224,52522,1,8,0:0:0:0:
128,264,52649,6,0,P|140:313|180:350,1,99.9999952316285
304,224,52902,2,0,P|292:175|252:138,1,99.9999952316285
111,215,53155,2,0,P|105:266|130:314,1,99.9999952316285
290,238,53409,2,0,P|295:188|270:139,1,99.9999952316285
111,164,53662,2,0,P|89:210|96:264,1,99.9999952316285
272,247,53915,2,0,P|294:202|287:148,1,99.9999952316285
129,117,54168,2,0,P|93:152|81:205,1,99.9999952316285
252,249,54421,1,0,0:0:0:0:
300,167,54548,1,0,0:0:0:0:
352,88,54674,6,0,L|456:104,1,99.9999952316285
488,232,54928,2,0,L|389:216,1,99.9999952316285
104,48,55181,2,0,L|208:64,1,99.9999952316285
240,200,55434,2,0,L|141:184,1,99.9999952316285
96,240,55687,6,0,B|88:232|33:246|20:285,1,99.9999952316285
208,288,55940,1,0,0:0:0:0:
96,240,56067,2,0,P|56:280|64:320,1,99.9999952316285
304,232,56320,1,0,0:0:0:0:
93,153,56447,2,0,P|38:168|25:206,1,99.9999952316285
208,288,56700,6,0,L|222:189,1,99.9999952316285
304,136,56953,2,0,L|289:37,1,99.9999952316285
200,32,57206,1,0,0:0:0:0:
392,48,57333,2,0,L|406:146,1,99.9999952316285
376,248,57586,1,0,0:0:0:0:
304,328,57712,2,0,P|256:352|200:336,1,99.9999952316285
376,248,57966,1,0,0:0:0:0:
280,298,58092,2,0,P|226:304|179:269,1,99.9999952316285
376,248,58345,1,0,0:0:0:0:
268,262,58472,2,0,P|215:249|184:200,1,99.9999952316285
328,88,58725,6,0,P|381:101|412:150,1,99.9999952316285
176,296,58978,2,0,P|128:269|110:214,1,99.9999952316285
448,216,59231,2,0,P|487:253|489:311,1,99.9999952316285
64,168,59485,2,0,P|35:121|48:64,1,99.9999952316285
292,40,59738,5,0,0:0:0:0:
88,256,60117,1,0,0:0:0:0:
336,176,60497,1,0,0:0:0:0:
248,40,60750,6,0,L|168:104,1,99.9999952316285
40,216,61004,2,0,L|124:144,1,99.9999952316285
225,174,61257,2,0,L|304:112,1,99.9999952316285
171,222,61510,2,0,L|96:288,1,99.9999952316285
96,56,61763,5,0,0:0:0:0:
332,272,62143,1,0,0:0:0:0:
56,180,62522,1,0,0:0:0:0:
256,111,62776,6,0,P|215:138|209:186,1,99.9999952316285
357,290,63029,2,0,P|398:264|404:216,1,99.9999952316285
128,224,63282,2,0,P|130:273|169:302,1,99.9999952316285
296,192,63535,2,0,P|293:143|255:114,1,99.9999952316285
116,48,63788,5,0,0:0:0:0:
256,344,64168,1,0,0:0:0:0:
392,40,64548,1,0,0:0:0:0:
456,208,64801,5,0,0:0:0:0:
388,268,64928,1,8,0:0:0:0:
320,212,65054,1,8,0:0:0:0:
256,268,65181,1,8,0:0:0:0:
128,168,65307,2,0,P|176:144|224:144,1,99.9999952316285
384,168,65560,2,0,P|336:144|288:144,1,99.9999952316285
120,272,65814,6,0,P|168:288|216:272,1,99.9999952316285
304,80,66067,2,0,P|256:64|208:80,1,99.9999952316285
336,320,66320,2,0,P|352:272|336:224,1,99.9999952316285
208,288,66573,1,0,0:0:0:0:
416,320,66700,2,0,P|432:272|416:224,1,99.9999952316285
152,240,66953,2,0,P|138:288|154:334,1,99.9999952316285
352,272,67206,1,0,0:0:0:0:
72,240,67333,2,0,P|58:288|74:334,1,99.9999952316285
376,144,67586,2,0,P|391:97|375:51,1,99.9999952316285
144,64,67839,6,0,L|240:96,1,99.9999952316285
336,240,68092,2,0,L|240:208,1,99.9999952316285
112,288,68345,2,0,L|208:320,1,99.9999952316285
112,176,68598,1,0,0:0:0:0:
304,320,68725,2,0,L|400:288,1,99.9999952316285
400,144,68978,2,0,L|306:113,1,99.9999952316285
192,240,69231,1,0,0:0:0:0:
88,48,69358,2,0,L|182:79,1,99.9999952316285
400,144,69611,5,0,0:0:0:0:
272,200,69738,1,0,0:0:0:0:
378,294,69864,2,0,P|347:331|292:347,1,99.9999952316285
200,168,70117,2,0,P|230:131|286:115,1,99.9999952316285
208,304,70371,2,0,P|177:341|122:357,1,99.9999952316285
112,240,70624,1,0,0:0:0:0:
312,248,70750,2,0,P|266:252|214:225,1,99.9999952316285
104,112,71004,2,0,P|152:107|204:135,1,99.9999952316285
280,176,71257,1,0,0:0:0:0:
144,264,71383,2,0,P|98:252|60:208,1,99.9999952316285
280,96,71636,2,0,P|327:108|365:151,1,99.9999952316285
304,344,71890,6,0,L|200:320,2,99.9999952316285
192,216,72269,1,0,0:0:0:0:
392,248,72396,2,0,L|264:224,2,99.9999952316285
256,304,72776,1,0,0:0:0:0:
64,192,73029,1,0,0:0:0:0:
256,64,73282,1,0,0:0:0:0:
448,192,73535,2,0,P|464:256|512:288,1,112.499998927116
304,96,76826,6,0,L|240:152,1,74.9999992847443
400,96,77079,2,0,L|456:152,1,74.9999992847443
352,256,77333,2,0,L|352:168,1,74.9999992847443
352,32,77586,1,0,0:0:0:0:
256,32,77712,2,0,L|256:120,1,74.9999992847443
256,256,77966,1,0,0:0:0:0:
48,64,80877,5,0,0:0:0:0:
48,232,81130,1,0,0:0:0:0:
112,104,81383,1,0,0:0:0:0:
112,192,81510,1,0,0:0:0:0:
176,104,81636,1,0,0:0:0:0:
176,192,81763,1,0,0:0:0:0:
240,104,81890,1,0,0:0:0:0:
240,192,82016,6,0,P|312:224|392:208,1,149.999998569489
232,312,82522,2,0,P|160:280|80:296,1,149.999998569489
112,208,83029,2,0,P|80:144|96:64,1,149.999998569489
252,54,83535,2,0,P|270:125|239:191,1,149.999998569489
384,280,84041,2,0,P|296:320|232:320,1,149.999998569489
200,128,84548,2,0,P|169:106|153:72,1,74.9999992847443
200,56,84801,2,0,P|256:96|248:192,1,149.999998569489
208,240,85181,5,0,0:0:0:0:
64,176,85307,2,0,L|128:216,1,74.9999992847443
160,304,85560,2,0,L|240:344,1,74.9999992847443
16,248,85814,2,0,L|88:288,1,74.9999992847443
256,128,86067,6,0,P|272:96|320:64,1,74.9999992847443
480,192,86320,2,0,P|464:160|416:128,1,74.9999992847443
288,272,86573,2,0,P|304:240|352:208,1,74.9999992847443
432,304,86826,1,0,0:0:0:0:
208,288,86953,2,0,P|225:328|256:352,1,74.9999992847443
400,176,87206,2,0,P|368:144|320:144,1,74.9999992847443
288,272,87459,1,0,0:0:0:0:
144,224,87586,2,0,P|128:264|133:304,1,74.9999992847443
262,200,87839,2,0,P|262:155|229:121,1,74.9999992847443
112,48,88092,6,0,L|208:64,1,74.9999992847443
320,120,88345,2,0,L|224:136,1,74.9999992847443
56,136,88598,2,0,L|152:152,1,74.9999992847443
256,224,88852,1,0,0:0:0:0:
144,288,88978,1,0,0:0:0:0:
368,224,90117,6,0,L|440:272,1,87.4999966621399
144,224,90371,2,0,L|72:272,1,87.4999966621399
256,80,90624,1,0,0:0:0:0:
256,240,90877,5,0,0:0:0:0:
256,240,91004,1,0,0:0:0:0:
384,144,91257,5,0,0:0:0:0:
384,216,91383,1,0,0:0:0:0:
384,72,91510,1,0,0:0:0:0:
312,224,91763,5,0,0:0:0:0:
312,296,91890,1,0,0:0:0:0:
312,152,92016,1,0,0:0:0:0:
239,223,92143,2,0,P|199:207|160:224,1,87.4999966621399
56,328,92396,2,0,P|95:343|135:327,1,87.4999966621399
16,224,92649,1,0,0:0:0:0:
160,224,92902,5,0,0:0:0:0:
160,224,93029,1,0,0:0:0:0:
256,48,93282,5,0,0:0:0:0:
320,48,93409,1,0,0:0:0:0:
192,48,93535,1,0,0:0:0:0:
256,176,93788,5,0,0:0:0:0:
328,176,93915,1,0,0:0:0:0:
184,176,94041,1,0,0:0:0:0:
488,176,94168,2,0,L|392:176,1,87.4999966621399
248,96,94421,2,0,L|344:96,1,87.4999966621399
464,96,94674,1,0,0:0:0:0:
368,280,94928,5,0,0:0:0:0:
368,280,95054,1,0,0:0:0:0:
112,192,95307,5,0,0:0:0:0:
112,104,95434,1,0,0:0:0:0:
112,280,95560,1,0,0:0:0:0:
192,192,95814,5,0,0:0:0:0:
192,280,95940,1,0,0:0:0:0:
192,104,96067,1,0,0:0:0:0:
288,128,96193,2,0,P|344:136|400:112,1,112.499998927116
496,224,96700,2,0,P|440:216|384:240,1,112.499998927116
272,288,97206,5,0,0:0:0:0:
272,192,97333,2,0,L|176:128,1,99.9999952316285
304,320,97586,1,0,0:0:0:0:
337,230,97712,2,0,L|269:138,1,99.9999952316285
336,368,97966,1,0,0:0:0:0:
408,272,98092,1,0,0:0:0:0:
347,181,98219,6,0,L|318:86,1,87.4999966621399
256,232,98471,1,0,0:0:0:0:
170,294,98598,2,0,L|142:198,1,87.4999966621399
208,64,98978,5,0,0:0:0:0:
208,64,99104,1,0,0:0:0:0:
384,224,99358,5,0,0:0:0:0:
384,272,99484,1,0,0:0:0:0:
432,256,99611,1,0,0:0:0:0:
256,256,99864,5,0,0:0:0:0:
208,272,99990,1,0,0:0:0:0:
208,224,100117,1,0,0:0:0:0:
272,79,100244,2,0,P|312:63|352:80,1,87.4999966621399
175,144,100497,2,0,P|135:160|96:144,1,87.4999966621399
144,32,100750,1,0,0:0:0:0:
320,192,101003,5,0,0:0:0:0:
320,192,101130,1,0,0:0:0:0:
176,144,101383,5,0,0:0:0:0:
256,88,101509,1,0,0:0:0:0:
176,40,101636,1,0,0:0:0:0:
112,208,101889,5,0,0:0:0:0:
48,144,102016,1,0,0:0:0:0:
112,72,102143,1,0,0:0:0:0:
176,144,102269,6,0,L|288:144,1,99.9999952316285
192,272,102522,2,0,L|64:272,1,99.9999952316285
368,160,102776,2,0,L|400:256,1,99.9999952316285
288,320,103029,1,0,0:0:0:0:
192,240,103155,2,0,P|160:208|160:144,1,99.9999952316285
400,96,103409,2,0,P|432:128|432:192,1,99.9999952316285
320,336,103662,1,0,0:0:0:0:
320,176,103788,2,0,B|256:80,1,99.9999952316285
96,224,104041,2,0,B|160:320,1,99.9999952316285
144,40,104295,6,0,P|112:80|120:128,1,99.9999952316285
368,40,104801,2,0,P|400:80|392:128,1,99.9999952316285
280,280,105307,2,0,P|248:240|256:192,1,99.9999952316285
229,108,105687,2,0,P|261:148|253:196,1,99.9999952316285
192,256,106193,1,0,0:0:0:0:
192,256,106320,2,0,P|144:240|96:192,1,99.9999952316285
240,96,106700,2,0,P|288:112|320:160,1,99.9999952316285
280,304,107206,1,0,0:0:0:0:
192,304,107333,2,0,L|88:304,1,99.9999952316285
32,128,107712,2,0,L|152:128,1,99.9999952316285
392,56,108345,6,0,B|376:136|376:136|408:176,1,124.999994039536
432,200,108598,2,0,P|432:272|392:304,1,124.999994039536
360,320,108852,2,0,P|288:312|272:264,1,124.999994039536
256,232,109105,2,0,P|184:248|168:200,1,124.999994039536
192,128,109358,6,0,P|240:112|288:112,1,74.9999992847443
288,320,109738,2,0,P|240:336|128:320,1,149.999998569489
124,123,110371,6,0,P|86:160|91:207,1,99.9999952316285
238,317,110624,2,0,P|247:269|217:231,1,99.9999952316285
174,80,110877,2,0,P|122:93|103:136,1,99.9999952316285
173,305,111130,2,0,P|205:268|199:221,1,99.9999952316285
216,61,111383,2,0,P|164:46|126:74,1,99.9999952316285
105,257,111636,1,0,0:0:0:0:
105,257,111763,2,0,P|151:242|169:197,1,99.9999952316285
216,61,112016,2,0,P|164:46|126:74,2,99.9999952316285
304,224,112396,6,0,P|352:192|364:144,1,99.9999952316285
267,81,112649,1,0,0:0:0:0:
267,81,112776,2,0,P|225:105|207:151,1,99.9999952316285
287,294,113029,1,0,0:0:0:0:
287,294,113155,2,0,P|330:269|348:224,1,99.9999952316285
360,73,113409,2,0,P|312:60|267:80,1,99.9999952316285
194,301,113662,2,0,P|241:313|286:293,1,99.9999952316285
430,133,113915,2,0,P|405:90|359:72,1,99.9999952316285
123,240,114168,2,0,P|147:282|193:300,1,99.9999952316285
256,72,114421,6,0,L|162:39,1,99.9999952316285
320,248,114674,1,0,0:0:0:0:
300,240,114801,2,0,L|180:196,1,99.9999952316285
184,128,115054,1,0,0:0:0:0:
104,104,115181,2,0,L|140:212,1,99.9999952316285
352,228,115434,2,0,L|320:120,1,99.9999952316285
72,204,115687,2,0,L|157:279,1,99.9999952316285
392,152,115940,2,0,L|310:74,1,99.9999952316285
116,304,116193,2,0,L|227:326,1,99.9999952316285
352,64,116447,2,0,L|242:37,1,99.9999952316285
416,188,116700,6,0,P|376:216|320:212,1,99.9999952316285
144,80,116953,2,0,P|194:79|234:107,1,99.9999952316285
176,216,117206,2,0,P|127:218|87:190,1,99.9999952316285
352,88,117459,2,0,P|402:87|442:115,1,99.9999952316285
296,200,117712,1,0,0:0:0:0:
240,240,117839,2,0,P|199:266|150:262,1,99.9999952316285
92,180,118092,1,0,0:0:0:0:
184,128,118219,1,0,0:0:0:0:
284,160,118345,1,0,0:0:0:0:
368,248,118472,6,0,P|356:297|316:334,1,99.9999952316285
229,176,118725,2,0,P|242:126|282:89,1,99.9999952316285
410,184,118978,2,0,P|437:227|434:282,1,99.9999952316285
190,243,119231,2,0,P|164:199|167:144,1,99.9999952316285
394,112,119485,2,0,P|444:124|481:164,1,99.9999952316285
206,306,119738,1,0,0:0:0:0:
206,306,119864,2,0,P|157:293|120:253,1,99.9999952316285
329,67,120117,2,0,P|373:40|428:43,2,99.9999952316285
304,224,120497,6,0,P|352:192|364:144,1,99.9999952316285
267,81,120750,1,0,0:0:0:0:
267,81,120877,2,0,P|225:105|207:151,1,99.9999952316285
287,294,121130,1,0,0:0:0:0:
287,294,121257,2,0,P|330:269|348:224,1,99.9999952316285
216,88,121510,2,0,P|261:68|308:81,1,99.9999952316285
196,296,121763,2,0,P|151:316|103:304,1,99.9999952316285
348,192,122016,2,0,P|393:210|418:252,1,99.9999952316285
160,156,122269,2,0,P|114:138|89:95,1,99.9999952316285
348,192,122522,6,0,L|332:84,1,99.9999952316285
152,248,122776,1,0,0:0:0:0:
176,247,122902,2,0,L|275:237,1,99.9999952316285
272,64,123155,1,0,0:0:0:0:
248,68,123282,2,0,L|148:79,1,99.9999952316285
88,184,123535,2,0,L|116:288,1,99.9999952316285
336,248,123788,2,0,L|308:144,1,99.9999952316285
176,336,124041,2,0,L|276:320,1,99.9999952316285
240,116,124295,2,0,L|140:132,1,99.9999952316285
376,272,124548,6,0,P|424:252|456:204,1,99.9999952316285
136,92,124801,2,0,P|88:112|56:160,1,99.9999952316285
452,214,125054,2,0,P|471:262|460:318,1,99.9999952316285
60,150,125307,2,0,P|40:101|51:45,1,99.9999952316285
292,344,125560,5,0,0:0:0:0:
112,96,125940,1,0,0:0:0:0:
416,64,126320,1,0,0:0:0:0:
224,240,126573,6,0,P|168:264|128:256,1,99.9999952316285
350,161,126826,2,0,P|358:100|340:64,1,99.9999952316285
170,103,127079,2,0,P|219:110|256:144,1,99.9999952316285
288,337,127333,2,0,P|317:297|320:248,1,99.9999952316285
168,56,127586,5,0,0:0:0:0:
365,277,127966,1,0,0:0:0:0:
56,180,128345,1,0,0:0:0:0:
296,144,128598,6,0,L|216:216,1,99.9999952316285
296,277,128852,2,0,L|216:205,1,99.9999952316285
440,72,129105,2,0,L|360:144,1,99.9999952316285
440,344,129358,2,0,L|360:272,1,99.9999952316285
116,48,129611,5,0,0:0:0:0:
88,312,129991,1,0,0:0:0:0:
440,344,130371,1,0,0:0:0:0:
456,160,130624,5,8,0:0:0:0:
336,160,130750,1,8,0:0:0:0:
408,96,130877,1,8,0:0:0:0:
392,208,131004,1,8,0:0:0:0:
336,88,131130,1,8,0:0:0:0:
232,208,131257,2,0,P|280:232|328:232,1,99.9999952316285
288,304,131510,2,0,P|240:328|192:328,1,99.9999952316285
88,96,140244,6,0,B|224:104|224:104|360:72|416:136,1,249.999988079071
352,192,140624,1,0,0:0:0:0:
288,264,140750,2,0,B|208:160|208:160|96:176|64:104,1,249.999988079071
96,288,141130,1,0,0:0:0:0:
208,328,141257,2,0,P|336:328|424:208,1,249.999988079071
312,192,141636,1,0,0:0:0:0:
193,213,141763,2,0,P|303:276|440:217,1,249.999988079071
352,144,142143,1,0,0:0:0:0:
238,106,142269,2,0,P|302:216|449:233,1,249.999988079071
392,56,142649,6,0,L|256:40,1,124.999994039536
112,96,142902,2,0,L|240:72,1,124.999994039536
376,160,143155,1,0,0:0:0:0:
376,160,143282,2,0,L|256:200,1,124.999994039536
64,224,143535,2,0,L|208:232,1,124.999994039536
408,240,143788,2,0,L|288:280,1,124.999994039536
96,304,144041,2,0,L|240:312,1,124.999994039536
400,320,144295,6,0,P|464:192|400:56,1,249.999988079071
352,40,144674,1,0,0:0:0:0:
264,48,144801,2,0,B|128:56|128:56|232:112,1,249.999988079071
328,136,145181,1,0,0:0:0:0:
288,224,145307,2,0,B|256:312|256:312|208:312|152:192,1,249.999988079071
208,104,145687,1,0,0:0:0:0:
49,60,145814,2,0,P|41:172|161:196,1,249.999988079071
208,104,146193,1,0,0:0:0:0:
320,128,146320,6,0,P|416:40|416:216,1,374.999982118607
264,263,146826,2,0,P|398:338|391:185,1,374.999982118607
240,160,147333,6,0,P|184:200|184:264,1,124.999994039536
256,80,147586,2,0,P|312:120|312:184,1,124.999994039536
240,343,147839,2,0,P|184:303|184:239,1,124.999994039536
256,263,148092,2,0,P|312:223|312:159,1,124.999994039536
184,64,148345,6,0,P|96:160|64:296,1,249.999988079071
176,288,148725,1,0,0:0:0:0:
303,273,148852,2,0,P|215:177|183:41,1,249.999988079071
288,48,149231,6,0,L|424:72,1,124.999994039536
448,72,149485,2,0,P|336:168|368:248,1,249.999988079071
392,256,149864,2,0,P|296:336|160:304,1,249.999988079071
240,224,150244,1,0,0:0:0:0:
73,124,150371,2,0,P|84:248|203:321,1,249.999988079071
168,144,150750,2,0,B|296:128|368:224|368:224|344:256,1,249.999988079071
272,272,151130,1,0,0:0:0:0:
168,224,151257,1,0,0:0:0:0:
192,56,151383,2,0,P|328:72|408:168,1,249.999988079071
248,160,151763,5,0,0:0:0:0:
168,224,151890,2,0,L|272:312,1,124.999994039536
432,272,152143,2,0,L|328:192,1,124.999994039536
209,83,152396,6,0,B|142:75|142:75|130:138,1,124.999994039536
336,94,152649,2,0,B|403:98|403:98|404:162,1,124.999994039536
189,314,152902,2,0,B|122:310|122:310|121:246,1,124.999994039536
308,325,153155,2,0,B|375:332|375:332|387:270,1,124.999994039536
304,80,153409,6,0,B|254:34|254:34|208:78,1,124.999994039536
143,240,153662,2,0,B|98:190|98:190|142:144,1,124.999994039536
373,148,153915,2,0,B|413:190|413:190|368:240,1,124.999994039536
212,309,154168,2,0,B|254:349|254:349|304:304,1,124.999994039536
442,123,154422,6,0,L|306:99,1,124.999994039536
225,87,154675,1,0,0:0:0:0:
136,176,154801,2,0,L|272:200,1,124.999994039536
352,216,155055,1,0,0:0:0:0:
384,336,155181,2,0,L|248:312,1,124.999994039536
144,296,155434,5,0,0:0:0:0:
368,88,155814,1,0,0:0:0:0:
176,192,156193,1,0,0:0:0:0:
336,192,156447,2,0,L|288:152,1,37.4999996423721
149,31,156826,1,0,0:0:0:0:
256,360,157206,1,0,0:0:0:0:
363,31,157459,2,0,L|311:68,1,37.4999996423721
83,234,157839,1,0,0:0:0:0:
428,234,158219,1,0,0:0:0:0:
144,192,158472,6,0,L|272:192,1,112.499998927116
369,192,158978,2,0,L|257:192,1,112.499998927116
256,192,159485,12,0,160877,0:0:0:0:
256,192,161004,6,0,L|256:112,4,66.6666634877523
144,256,161763,6,0,L|240:288,1,99.9999952316285
352,280,162269,1,0,0:0:0:0:
392,200,162396,1,0,0:0:0:0:
304,208,162522,2,0,L|336:104,1,99.9999952316285
168,72,162902,2,0,L|138:167,1,99.9999952316285
168,248,163282,1,0,0:0:0:0:
248,280,163409,1,0,0:0:0:0:
320,232,163535,6,0,P|336:176|320:128,1,99.9999952316285
256,80,163788,1,0,0:0:0:0:
224,200,163915,2,0,P|280:185|314:148,1,99.9999952316285
344,72,164168,1,0,0:0:0:0:
152,160,164295,2,0,P|208:176|256:160,1,99.9999952316285
128,48,164548,2,0,P|72:32|24:48,1,99.9999952316285
272,240,164801,2,0,P|313:199|324:149,1,99.9999952316285
91,212,165054,2,0,P|49:252|39:302,1,99.9999952316285
400,304,165307,2,0,P|415:247|400:200,1,99.9999952316285
288,56,165560,6,0,L|192:88,1,99.9999952316285
201,223,165814,2,0,L|296:192,1,99.9999952316285
128,32,166067,2,0,L|32:64,1,99.9999952316285
41,199,166320,2,0,L|135:167,1,99.9999952316285
304,80,166573,5,8,0:0:0:0:
232,64,166700,1,0,0:0:0:0:
248,136,166826,1,8,0:0:0:0:
376,216,166953,5,0,0:0:0:0:
296,232,167079,1,8,0:0:0:0:
320,152,167206,1,0,0:0:0:0:
224,208,167333,5,8,0:0:0:0:
146,181,167459,1,0,0:0:0:0:
207,124,167586,2,0,P|152:96|104:112,1,99.9999952316285
104,280,167839,6,0,L|216:264,1,99.9999952316285
376,128,168092,2,0,L|312:216,1,99.9999952316285
56,160,168345,2,0,L|168:176,1,99.9999952316285
376,289,168598,2,0,L|312:201,1,99.9999952316285
216,96,168852,5,8,0:0:0:0:
296,96,168978,1,8,0:0:0:0:
256,160,169105,1,8,0:0:0:0:
120,72,169231,5,8,0:0:0:0:
392,72,169358,1,8,0:0:0:0:
256,256,169485,1,8,0:0:0:0:
168,192,169611,6,0,P|128:232|112:280,1,99.9999952316285
344,192,169864,2,0,P|384:232|400:280,1,99.9999952316285
136,152,170117,2,0,P|81:166|43:200,1,99.9999952316285
376,152,170371,2,0,P|430:166|468:200,1,99.9999952316285
168,104,170624,2,0,P|113:89|63:99,1,99.9999952316285
344,104,170877,2,0,P|398:89|448:99,1,99.9999952316285
256,240,171130,2,0,L|256:352,1,99.9999952316285
256,128,171383,1,0,0:0:0:0:
256,32,171510,1,0,0:0:0:0:
120,96,171636,6,0,P|88:144|96:192,1,99.9999952316285
352,288,171890,1,0,0:0:0:0:
392,240,172016,2,0,P|424:192|416:144,1,99.9999952316285
200,192,172269,1,0,0:0:0:0:
264,205,172396,2,0,P|321:208|359:177,1,99.9999952316285
208,56,172649,2,0,P|150:52|112:83,1,99.9999952316285
176,232,172902,2,0,P|172:289|203:327,1,99.9999952316285
416,144,173155,2,0,P|419:86|388:48,1,99.9999952316285
96,144,173409,2,0,P|92:86|123:48,1,99.9999952316285
256,32,173662,6,0,L|200:120,1,99.9999952316285
424,136,173915,2,0,L|385:43,1,99.9999952316285
312,120,174168,1,0,0:0:0:0:
248,208,174295,2,0,L|352:232,1,99.9999952316285
192,120,174548,1,0,0:0:0:0:
128,240,174674,2,0,P|176:272|224:272,1,99.9999952316285
164,161,174928,1,0,0:0:0:0:
169,297,175054,2,0,P|226:301|268:277,1,99.9999952316285
161,211,175307,1,0,0:0:0:0:
233,326,175433,2,0,P|285:301|309:259,1,99.9999952316285
176,64,175687,6,0,P|128:84|96:132,1,99.9999952316285
336,344,175940,2,0,P|384:324|416:276,1,99.9999952316285
56,232,176193,2,0,P|37:280|48:336,1,99.9999952316285
456,176,176447,2,0,P|476:127|465:71,1,99.9999952316285
256,40,176700,5,0,0:0:0:0:
96,320,177079,1,0,0:0:0:0:
400,320,177459,1,0,0:0:0:0:
192,232,177712,6,0,L|88:232,1,99.9999952316285
316,232,177966,2,0,L|416:232,1,99.9999952316285
192,136,178219,2,0,L|88:136,1,99.9999952316285
316,136,178472,2,0,L|416:136,1,99.9999952316285
256,48,178725,5,0,0:0:0:0:
400,320,179105,1,0,0:0:0:0:
96,320,179485,1,0,0:0:0:0:
175,192,179738,6,0,P|202:233|250:239,1,99.9999952316285
336,96,179991,2,0,P|310:55|262:49,1,99.9999952316285
336,240,180244,2,0,P|385:238|414:199,1,99.9999952316285
184,48,180497,2,0,P|135:51|106:89,1,99.9999952316285
256,328,180750,5,0,0:0:0:0:
400,56,181130,1,0,0:0:0:0:
96,56,181510,1,0,0:0:0:0:
184,168,181763,6,0,P|136:200|88:192,1,99.9999952316285
324,116,182016,2,0,P|372:84|412:92,1,99.9999952316285
320,192,182269,1,8,0:0:0:0:
200,92,182396,1,8,0:0:0:0:
248,212,182522,1,8,0:0:0:0:
265,64,182649,1,8,0:0:0:0:
176,200,182776,5,0,0:0:0:0:
432,48,183155,1,0,0:0:0:0:
432,344,183535,1,0,0:0:0:0:
208,288,183788,2,0,B|128:240|128:152|224:120|256:192|256:192|336:128|392:224|352:288|224:312,1,499.999976158143
168,344,184548,1,8,0:0:0:0:
96,304,184674,1,8,0:0:0:0:
64,232,184801,5,8,0:0:0:0:
304,40,185181,1,0,0:0:0:0:
432,296,185560,1,0,0:0:0:0:
168,192,185814,5,8,0:0:0:0:
160,288,185940,1,8,0:0:0:0:
112,232,186067,1,8,0:0:0:0:
216,248,186193,1,8,0:0:0:0:
80,312,186320,5,8,0:0:0:0:
96,152,186447,1,8,0:0:0:0:
232,328,186573,1,8,0:0:0:0:
248,168,186700,1,8,0:0:0:0:
384,336,186826,6,0,P|400:288|384:240,1,99.9999952316285
249,74,187079,2,0,P|233:122|249:170,1,99.9999952316285
432,136,187333,2,0,P|384:120|336:136,1,99.9999952316285
429,246,187586,1,0,0:0:0:0:
344,56,187712,2,0,P|296:40|248:56,1,99.9999952316285
336,248,187966,2,0,P|384:262|430:246,1,99.9999952316285
338,134,188219,1,0,0:0:0:0:
232,328,188345,2,0,P|280:342|326:326,1,99.9999952316285
196,82,188598,2,0,P|149:67|103:83,1,99.9999952316285
88,320,188852,6,0,L|120:224,1,99.9999952316285
264,128,189105,2,0,L|232:224,1,99.9999952316285
312,352,189358,2,0,L|344:256,1,99.9999952316285
408,80,189611,1,0,0:0:0:0:
344,160,189738,2,0,L|312:64,1,99.9999952316285
96,64,189991,2,0,L|65:158,1,99.9999952316285
128,280,190244,1,0,0:0:0:0:
208,158,190371,2,0,L|240:64,1,99.9999952316285
400,152,190624,5,8,0:0:0:0:
416,240,190750,1,8,0:0:0:0:
352,299,190877,2,0,P|317:332|260:344,1,99.9999952316285
239,186,191130,2,0,P|272:153|329:141,1,99.9999952316285
182,310,191383,2,0,P|142:339|80:333,1,99.9999952316285
284,254,191636,1,0,0:0:0:0:
137,220,191763,2,0,P|89:220|41:189,1,99.9999952316285
227,107,192016,2,0,P|275:107|323:138,1,99.9999952316285
340,310,192269,1,0,0:0:0:0:
214,276,192396,2,0,P|169:259|135:213,1,99.9999952316285
344,224,192649,2,0,P|389:240|423:286,1,99.9999952316285
376,128,192902,6,0,L|328:40,1,99.9999952316283
156,96,193155,2,0,L|204:184,1,99.9999952316283
456,200,193409,2,0,L|368:248,1,99.9999952316283
208,332,193662,2,0,L|296:284,1,99.9999952316283
300,200,193915,1,0,0:0:0:0:
180,252,194041,2,0,L|80:288,1,99.9999952316285
256,176,194295,1,0,0:0:0:0:
184,96,194421,2,0,L|91:58,1,99.9999952316285
288,40,194674,5,8,0:0:0:0:
376,96,194801,1,8,0:0:0:0:
448,176,194928,2,0,P|416:224|328:208,1,124.999994039536
152,120,195181,2,0,P|208:96|264:120,1,124.999994039536
208,280,195434,2,0,P|152:304|96:280,1,124.999994039536
208,176,195687,1,0,0:0:0:0:
304,224,195814,2,0,B|368:208|368:208|400:144,1,124.999994039536
288,32,196067,2,0,L|152:32,1,124.999994039536
240,232,196320,1,0,0:0:0:0:
80,216,196447,2,0,L|168:112,1,124.999994039536
248,120,196700,2,0,L|368:152,1,124.999994039536
360,344,196953,6,0,L|232:304,1,124.999994039536
64,112,197206,2,0,L|184:152,1,124.999994039536
416,88,197459,2,0,L|288:40,1,124.999994039536
256,184,197712,1,0,0:0:0:0:
216,48,197839,2,0,L|96:88,1,124.999994039536
312,248,198092,2,0,L|432:288,1,124.999994039536
256,136,198345,1,0,0:0:0:0:
200,248,198472,2,0,L|80:288,1,124.999994039536
32,184,198725,5,8,0:0:0:0:
112,72,198852,1,8,0:0:0:0:
256,32,198978,2,0,P|320:32|360:80,1,124.999994039536
256,192,199231,2,0,P|192:192|152:144,1,124.999994039536
432,112,199485,2,0,P|448:176|408:224,1,124.999994039536
272,112,199738,1,0,0:0:0:0:
352,256,199864,2,0,P|336:320|280:344,1,124.999994039536
144,168,200117,2,0,P|160:104|216:80,1,124.999994039536
376,160,200371,1,0,0:0:0:0:
248,344,200497,2,0,P|200:298|207:237,1,124.999994039536
400,88,200750,2,0,P|447:133|440:194,1,124.999994039536
128,88,201004,6,0,L|32:216,2,124.999994039536
280,88,201383,1,0,0:0:0:0:
208,216,201510,2,0,L|224:352,2,124.999994039536
376,120,201890,6,0,P|432:160|424:216,1,124.999994039536
136,120,202143,2,0,P|80:160|88:216,1,124.999994039536
384,256,202396,2,0,P|377:324|324:345,1,124.999994039536
128,256,202649,2,0,P|134:324|187:345,1,124.999994039536
256,192,202902,1,0,0:0:0:0:
256,96,203029,1,0,0:0:0:0:
