osu file format v14

[General]
AudioFilename: audio.ogg
AudioLeadIn: 0
PreviewTime: 61078
Countdown: 0
SampleSet: Soft
StackLeniency: 0.7
Mode: 3
LetterboxInBreaks: 0
SpecialStyle: 0
WidescreenStoryboard: 0

[Editor]
DistanceSpacing: 0.8
BeatDivisor: 4
GridSize: 4
TimelineZoom: 1.7

[Metadata]
Title:Junai Lens
TitleUnicode:純愛レンズ
Artist:Tojo Nozomi (CV: Kusuda Aina)
ArtistUnicode:東條希 (CV: 楠田亜衣奈)
Creator:Crisper
Version:Pure Love
Source:Love Live! School Idol Project
Tags:J-pop Jpop Japanese pop u's µ'sic muse love live lovelive school idol project ラブライブ otome shiki renai juku 乙女式れんあい塾 llsifas llas sifas school idol festival all stars allstars renzu toujo toujou LACM-4943
BeatmapID:3910913
BeatmapSetID:1897551

[Difficulty]
HPDrainRate:8
CircleSize:4
OverallDifficulty:8
ApproachRate:5
SliderMultiplier:1.4
SliderTickRate:1

[Events]
//Background and Video events
0,0,"bg3.jpg",0,0
//Break Periods
//Storyboard Layer 0 (Background)
//Storyboard Layer 1 (Fail)
//Storyboard Layer 2 (Pass)
//Storyboard Layer 3 (Foreground)
//Storyboard Layer 4 (Overlay)
//Storyboard Sound Samples

[TimingPoints]
433,322.58064516129,4,2,1,60,1,0
61078,-100,4,2,1,60,0,1
88174,-100,4,2,1,60,0,0

[HitObjects]
448,192,433,5,0,0:0:0:0:
64,192,433,128,0,1078:0:0:0:0:
320,192,433,1,0,0:0:0:0:
192,192,594,1,0,0:0:0:0:
448,192,755,1,0,0:0:0:0:
192,192,916,128,0,1078:0:0:0:0:
320,192,1078,128,0,1400:0:0:0:0:
64,192,1239,1,0,0:0:0:0:
448,192,1400,1,0,0:0:0:0:
192,192,1562,128,0,1884:0:0:0:0:
320,192,1723,1,0,0:0:0:0:
64,192,1884,128,0,2207:0:0:0:0:
320,192,2045,128,0,2368:0:0:0:0:
192,192,2207,128,0,2368:0:0:0:0:
448,192,2368,128,0,2691:0:0:0:0:
64,192,2529,1,0,0:0:0:0:
320,192,2691,128,0,3013:0:0:0:0:
192,192,2852,1,0,0:0:0:0:
448,192,3013,1,0,0:0:0:0:
64,192,3013,128,0,3658:0:0:0:0:
192,192,3174,1,0,0:0:0:0:
448,192,3336,1,0,0:0:0:0:
192,192,3497,128,0,3658:0:0:0:0:
320,192,3658,128,0,4303:0:0:0:0:
64,192,3820,1,0,0:0:0:0:
448,192,3981,1,0,0:0:0:0:
192,192,4142,1,0,0:0:0:0:
64,192,4303,1,0,0:0:0:0:
448,192,4465,1,0,0:0:0:0:
192,192,4626,128,0,4949:0:0:0:0:
320,192,4787,1,0,0:0:0:0:
64,192,4949,128,0,5271:0:0:0:0:
448,192,5110,1,0,0:0:0:0:
320,192,5271,128,0,5594:0:0:0:0:
192,192,5432,1,0,0:0:0:0:
64,192,5594,1,0,0:0:0:0:
448,192,5594,128,0,6239:0:0:0:0:
320,192,5755,1,0,0:0:0:0:
192,192,5916,1,0,0:0:0:0:
320,192,6078,128,0,6239:0:0:0:0:
64,192,6239,128,0,6562:0:0:0:0:
448,192,6400,1,0,0:0:0:0:
192,192,6562,1,0,0:0:0:0:
320,192,6723,128,0,7045:0:0:0:0:
64,192,6884,1,0,0:0:0:0:
192,192,7045,128,0,7368:0:0:0:0:
448,192,7207,128,0,7529:0:0:0:0:
320,192,7368,128,0,7529:0:0:0:0:
64,192,7529,128,0,7852:0:0:0:0:
448,192,7691,1,0,0:0:0:0:
192,192,7852,128,0,8174:0:0:0:0:
320,192,8013,1,0,0:0:0:0:
64,192,8174,1,0,0:0:0:0:
448,192,8174,128,0,8820:0:0:0:0:
320,192,8336,1,0,0:0:0:0:
64,192,8497,1,0,0:0:0:0:
192,192,8497,1,0,0:0:0:0:
320,192,8658,128,0,8820:0:0:0:0:
64,192,8820,1,0,0:0:0:0:
192,192,8820,1,0,0:0:0:0:
448,192,8981,1,0,0:0:0:0:
64,192,8981,1,0,0:0:0:0:
320,192,9142,1,0,0:0:0:0:
192,192,9142,1,0,0:0:0:0:
64,192,9303,1,0,0:0:0:0:
448,192,9303,1,0,0:0:0:0:
320,192,9303,1,0,0:0:0:0:
192,192,9465,1,0,0:0:0:0:
320,192,9626,1,0,0:0:0:0:
448,192,9626,1,0,0:0:0:0:
64,192,9787,1,0,0:0:0:0:
192,192,9787,1,0,0:0:0:0:
320,192,9787,1,0,0:0:0:0:
192,192,9949,1,0,0:0:0:0:
448,192,9949,1,0,0:0:0:0:
64,192,10110,1,0,0:0:0:0:
320,192,10110,1,0,0:0:0:0:
448,192,10110,1,0,0:0:0:0:
192,192,10271,1,0,0:0:0:0:
320,192,10271,1,0,0:0:0:0:
448,192,10352,1,0,0:0:0:0:
64,192,10432,1,0,0:0:0:0:
192,192,10432,1,0,0:0:0:0:
320,192,10513,1,0,0:0:0:0:
64,192,10594,1,0,0:0:0:0:
448,192,10594,1,0,0:0:0:0:
192,192,10674,1,0,0:0:0:0:
448,192,10755,1,0,0:0:0:0:
64,192,10755,1,0,0:0:0:0:
320,192,10755,128,0,10916:0:0:0:0:
192,192,10916,1,0,0:0:0:0:
448,192,11078,1,0,0:0:0:0:
64,192,11078,1,0,0:0:0:0:
192,192,11078,128,0,11239:0:0:0:0:
320,192,11239,1,0,0:0:0:0:
448,192,11239,1,0,0:0:0:0:
320,192,11400,128,0,11562:0:0:0:0:
64,192,11400,1,0,0:0:0:0:
448,192,11562,1,0,0:0:0:0:
64,192,11562,128,0,11723:0:0:0:0:
320,192,11723,1,0,0:0:0:0:
192,192,11723,1,0,0:0:0:0:
448,192,11723,1,0,0:0:0:0:
192,192,11884,128,0,12045:0:0:0:0:
64,192,12045,1,0,0:0:0:0:
320,192,12045,1,0,0:0:0:0:
320,192,12207,128,0,12368:0:0:0:0:
64,192,12368,1,0,0:0:0:0:
192,192,12368,1,0,0:0:0:0:
448,192,12368,1,0,0:0:0:0:
192,192,12529,128,0,12691:0:0:0:0:
320,192,12691,128,0,12852:0:0:0:0:
448,192,12691,1,0,0:0:0:0:
64,192,12852,1,0,0:0:0:0:
192,192,12852,1,0,0:0:0:0:
320,192,13013,1,0,0:0:0:0:
192,192,13013,128,0,13174:0:0:0:0:
448,192,13013,1,0,0:0:0:0:
64,192,13174,1,0,0:0:0:0:
448,192,13174,1,0,0:0:0:0:
64,192,13336,128,0,13497:0:0:0:0:
320,192,13497,1,0,0:0:0:0:
448,192,13497,1,0,0:0:0:0:
64,192,13658,1,0,0:0:0:0:
192,192,13658,1,0,0:0:0:0:
448,192,13658,128,0,13820:0:0:0:0:
320,192,13820,1,0,0:0:0:0:
64,192,13981,128,0,14142:0:0:0:0:
448,192,13981,1,0,0:0:0:0:
192,192,14142,1,0,0:0:0:0:
448,192,14142,128,0,14303:0:0:0:0:
320,192,14303,1,0,0:0:0:0:
192,192,14303,1,0,0:0:0:0:
64,192,14303,1,0,0:0:0:0:
320,192,14465,128,0,14626:0:0:0:0:
64,192,14465,1,0,0:0:0:0:
448,192,14465,1,0,0:0:0:0:
192,192,14626,1,0,0:0:0:0:
192,192,14787,128,0,14949:0:0:0:0:
448,192,14787,1,0,0:0:0:0:
448,192,14949,1,0,0:0:0:0:
320,192,14949,1,0,0:0:0:0:
64,192,14949,1,0,0:0:0:0:
320,192,15110,128,0,15271:0:0:0:0:
192,192,15110,1,0,0:0:0:0:
192,192,15271,128,0,15432:0:0:0:0:
64,192,15271,1,0,0:0:0:0:
448,192,15271,1,0,0:0:0:0:
448,192,15432,1,0,0:0:0:0:
320,192,15432,1,0,0:0:0:0:
64,192,15513,1,0,0:0:0:0:
320,192,15594,1,0,0:0:0:0:
192,192,15594,1,0,0:0:0:0:
448,192,15674,1,0,0:0:0:0:
192,192,15755,1,0,0:0:0:0:
64,192,15755,1,0,0:0:0:0:
320,192,15836,1,0,0:0:0:0:
64,192,15916,1,0,0:0:0:0:
448,192,15916,1,0,0:0:0:0:
192,192,15916,128,0,16239:0:0:0:0:
320,192,16078,128,0,16239:0:0:0:0:
64,192,16239,1,0,0:0:0:0:
448,192,16239,1,0,0:0:0:0:
64,192,16400,128,0,16723:0:0:0:0:
192,192,16400,1,0,0:0:0:0:
320,192,16562,1,0,0:0:0:0:
192,192,16723,1,0,0:0:0:0:
448,192,16723,128,0,17045:0:0:0:0:
320,192,16884,128,0,17045:0:0:0:0:
64,192,16884,1,0,0:0:0:0:
192,192,17045,128,0,17368:0:0:0:0:
448,192,17207,1,0,0:0:0:0:
320,192,17207,1,0,0:0:0:0:
64,192,17368,128,0,17529:0:0:0:0:
448,192,17529,1,0,0:0:0:0:
320,192,17529,128,0,17691:0:0:0:0:
192,192,17691,1,0,0:0:0:0:
64,192,17691,128,0,17852:0:0:0:0:
320,192,17852,128,0,18013:0:0:0:0:
448,192,17852,128,0,18013:0:0:0:0:
192,192,18013,1,0,0:0:0:0:
192,192,18174,128,0,18497:0:0:0:0:
64,192,18174,128,0,18336:0:0:0:0:
448,192,18174,128,0,18336:0:0:0:0:
320,192,18174,128,0,18336:0:0:0:0:
64,192,18497,1,0,0:0:0:0:
448,192,18497,128,0,19142:0:0:0:0:
320,192,18497,128,0,18820:0:0:0:0:
64,192,18820,1,0,0:0:0:0:
192,192,18820,1,0,0:0:0:0:
192,192,18981,1,0,0:0:0:0:
64,192,19142,1,0,0:0:0:0:
320,192,19142,1,0,0:0:0:0:
320,192,19303,128,0,19626:0:0:0:0:
448,192,19303,1,0,0:0:0:0:
64,192,19465,1,0,0:0:0:0:
192,192,19465,128,0,19626:0:0:0:0:
64,192,19626,1,0,0:0:0:0:
448,192,19626,128,0,20110:0:0:0:0:
320,192,19787,1,0,0:0:0:0:
192,192,19949,1,0,0:0:0:0:
64,192,19949,1,0,0:0:0:0:
64,192,20110,1,0,0:0:0:0:
320,192,20110,128,0,20271:0:0:0:0:
448,192,20271,128,0,20594:0:0:0:0:
64,192,20432,1,0,0:0:0:0:
192,192,20432,1,0,0:0:0:0:
320,192,20594,1,0,0:0:0:0:
64,192,20594,128,0,20755:0:0:0:0:
448,192,20755,1,0,0:0:0:0:
320,192,20755,1,0,0:0:0:0:
192,192,20755,1,0,0:0:0:0:
448,192,20916,128,0,21239:0:0:0:0:
64,192,21078,1,0,0:0:0:0:
192,192,21078,1,0,0:0:0:0:
192,192,21239,128,0,21400:0:0:0:0:
448,192,21400,1,0,0:0:0:0:
64,192,21400,128,0,21884:0:0:0:0:
448,192,21562,1,0,0:0:0:0:
320,192,21562,1,0,0:0:0:0:
192,192,21723,1,0,0:0:0:0:
448,192,21884,1,0,0:0:0:0:
320,192,21884,128,0,22207:0:0:0:0:
192,192,22045,128,0,22207:0:0:0:0:
64,192,22045,1,0,0:0:0:0:
448,192,22207,128,0,23013:0:0:0:0:
64,192,22368,1,0,0:0:0:0:
192,192,22368,1,0,0:0:0:0:
320,192,22529,1,0,0:0:0:0:
64,192,22691,1,0,0:0:0:0:
192,192,22691,1,0,0:0:0:0:
64,192,22852,1,0,0:0:0:0:
320,192,22852,1,0,0:0:0:0:
192,192,23013,1,0,0:0:0:0:
320,192,23013,1,0,0:0:0:0:
448,192,23174,1,0,0:0:0:0:
192,192,23174,128,0,23336:0:0:0:0:
448,192,23336,1,0,0:0:0:0:
320,192,23336,128,0,23658:0:0:0:0:
64,192,23336,1,0,0:0:0:0:
192,192,23497,128,0,23658:0:0:0:0:
64,192,23658,128,0,24303:0:0:0:0:
448,192,23658,1,0,0:0:0:0:
192,192,23820,1,0,0:0:0:0:
448,192,23981,1,0,0:0:0:0:
320,192,23981,1,0,0:0:0:0:
320,192,24142,1,0,0:0:0:0:
448,192,24303,1,0,0:0:0:0:
192,192,24303,1,0,0:0:0:0:
192,192,24465,128,0,24787:0:0:0:0:
64,192,24465,1,0,0:0:0:0:
448,192,24626,1,0,0:0:0:0:
320,192,24626,128,0,24787:0:0:0:0:
448,192,24787,1,0,0:0:0:0:
64,192,24787,128,0,25271:0:0:0:0:
192,192,24949,1,0,0:0:0:0:
320,192,25110,1,0,0:0:0:0:
448,192,25110,1,0,0:0:0:0:
448,192,25271,1,0,0:0:0:0:
192,192,25271,128,0,25432:0:0:0:0:
64,192,25432,128,0,25755:0:0:0:0:
320,192,25594,1,0,0:0:0:0:
448,192,25594,1,0,0:0:0:0:
320,192,25755,128,0,25916:0:0:0:0:
192,192,25755,1,0,0:0:0:0:
64,192,25916,1,0,0:0:0:0:
192,192,25916,1,0,0:0:0:0:
448,192,25916,1,0,0:0:0:0:
320,192,25997,1,0,0:0:0:0:
64,192,26078,1,0,0:0:0:0:
448,192,26078,1,0,0:0:0:0:
192,192,26158,1,0,0:0:0:0:
64,192,26239,1,0,0:0:0:0:
448,192,26239,1,0,0:0:0:0:
320,192,26239,128,0,26562:0:0:0:0:
192,192,26400,128,0,26562:0:0:0:0:
64,192,26562,1,0,0:0:0:0:
448,192,26562,128,0,26723:0:0:0:0:
64,192,26723,1,0,0:0:0:0:
192,192,26723,1,0,0:0:0:0:
320,192,26884,1,0,0:0:0:0:
448,192,26884,1,0,0:0:0:0:
64,192,27045,1,0,0:0:0:0:
320,192,27045,128,0,27207:0:0:0:0:
448,192,27207,1,0,0:0:0:0:
192,192,27207,128,0,27368:0:0:0:0:
320,192,27368,128,0,27529:0:0:0:0:
64,192,27368,128,0,27529:0:0:0:0:
448,192,27368,128,0,27529:0:0:0:0:
64,192,27691,128,0,28820:0:0:0:0:
448,192,27691,128,0,28658:0:0:0:0:
192,192,27691,128,0,28820:0:0:0:0:
448,192,28820,1,0,0:0:0:0:
320,192,28820,128,0,29142:0:0:0:0:
448,192,29142,1,0,0:0:0:0:
192,192,29142,128,0,29465:0:0:0:0:
448,192,29465,1,0,0:0:0:0:
64,192,29465,128,0,29787:0:0:0:0:
448,192,29787,1,0,0:0:0:0:
448,192,30110,1,0,0:0:0:0:
192,192,30110,128,0,30432:0:0:0:0:
448,192,30432,1,0,0:0:0:0:
320,192,30432,128,0,30594:0:0:0:0:
64,192,30594,128,0,30755:0:0:0:0:
448,192,30755,1,0,0:0:0:0:
64,192,30916,128,0,31078:0:0:0:0:
448,192,31078,1,0,0:0:0:0:
192,192,31239,128,0,31400:0:0:0:0:
320,192,31400,128,0,31562:0:0:0:0:
64,192,31400,1,0,0:0:0:0:
64,192,31723,1,0,0:0:0:0:
192,192,31723,128,0,31884:0:0:0:0:
320,192,31884,128,0,32045:0:0:0:0:
64,192,32045,1,0,0:0:0:0:
448,192,32045,128,0,32368:0:0:0:0:
64,192,32368,1,0,0:0:0:0:
64,192,32691,1,0,0:0:0:0:
320,192,32691,128,0,33013:0:0:0:0:
64,192,33013,1,0,0:0:0:0:
192,192,33013,128,0,33174:0:0:0:0:
448,192,33174,128,0,33336:0:0:0:0:
64,192,33336,1,0,0:0:0:0:
448,192,33497,128,0,33658:0:0:0:0:
64,192,33658,1,0,0:0:0:0:
192,192,33820,128,0,33981:0:0:0:0:
320,192,33981,128,0,34142:0:0:0:0:
448,192,33981,1,0,0:0:0:0:
448,192,34303,1,0,0:0:0:0:
192,192,34303,128,0,34626:0:0:0:0:
64,192,34626,128,0,34949:0:0:0:0:
448,192,34626,1,0,0:0:0:0:
448,192,34949,1,0,0:0:0:0:
448,192,35271,1,0,0:0:0:0:
192,192,35271,128,0,35594:0:0:0:0:
448,192,35594,1,0,0:0:0:0:
320,192,35594,128,0,35755:0:0:0:0:
64,192,35755,128,0,35916:0:0:0:0:
448,192,35916,1,0,0:0:0:0:
64,192,36078,128,0,36239:0:0:0:0:
448,192,36239,1,0,0:0:0:0:
320,192,36400,128,0,36562:0:0:0:0:
64,192,36562,1,0,0:0:0:0:
192,192,36562,128,0,36723:0:0:0:0:
64,192,36884,1,0,0:0:0:0:
320,192,36884,128,0,37045:0:0:0:0:
64,192,37207,1,0,0:0:0:0:
448,192,37207,128,0,37368:0:0:0:0:
64,192,37529,1,0,0:0:0:0:
192,192,37529,128,0,37691:0:0:0:0:
64,192,37852,1,0,0:0:0:0:
320,192,37852,128,0,38336:0:0:0:0:
192,192,38013,1,0,0:0:0:0:
64,192,38174,1,0,0:0:0:0:
448,192,38336,128,0,38497:0:0:0:0:
64,192,38497,1,0,0:0:0:0:
192,192,38497,1,0,0:0:0:0:
320,192,38578,1,0,0:0:0:0:
448,192,38658,1,0,0:0:0:0:
64,192,38658,1,0,0:0:0:0:
192,192,38739,1,0,0:0:0:0:
320,192,38820,1,0,0:0:0:0:
448,192,38820,1,0,0:0:0:0:
64,192,38900,1,0,0:0:0:0:
192,192,38900,1,0,0:0:0:0:
320,192,38981,1,0,0:0:0:0:
448,192,38981,1,0,0:0:0:0:
192,192,39062,1,0,0:0:0:0:
320,192,39142,1,0,0:0:0:0:
448,192,39142,1,0,0:0:0:0:
64,192,39142,128,0,39465:0:0:0:0:
320,192,39303,1,0,0:0:0:0:
192,192,39465,1,0,0:0:0:0:
448,192,39465,128,0,39787:0:0:0:0:
192,192,39626,1,0,0:0:0:0:
64,192,39787,1,0,0:0:0:0:
320,192,39787,1,0,0:0:0:0:
320,192,39949,1,0,0:0:0:0:
448,192,39949,1,0,0:0:0:0:
192,192,40110,1,0,0:0:0:0:
64,192,40110,1,0,0:0:0:0:
448,192,40271,1,0,0:0:0:0:
64,192,40271,1,0,0:0:0:0:
192,192,40432,128,0,40755:0:0:0:0:
320,192,40594,1,0,0:0:0:0:
448,192,40594,1,0,0:0:0:0:
64,192,40755,1,0,0:0:0:0:
448,192,40755,128,0,41078:0:0:0:0:
320,192,40916,128,0,41078:0:0:0:0:
64,192,41078,1,0,0:0:0:0:
192,192,41078,1,0,0:0:0:0:
448,192,41239,1,0,0:0:0:0:
64,192,41239,128,0,41400:0:0:0:0:
320,192,41400,1,0,0:0:0:0:
448,192,41400,1,0,0:0:0:0:
192,192,41562,128,0,41723:0:0:0:0:
64,192,41723,1,0,0:0:0:0:
320,192,41723,128,0,41884:0:0:0:0:
64,192,41884,128,0,42207:0:0:0:0:
448,192,42045,1,0,0:0:0:0:
192,192,42045,128,0,42207:0:0:0:0:
448,192,42207,1,0,0:0:0:0:
192,192,42368,1,0,0:0:0:0:
320,192,42368,128,0,42529:0:0:0:0:
192,192,42529,1,0,0:0:0:0:
64,192,42529,1,0,0:0:0:0:
320,192,42691,1,0,0:0:0:0:
448,192,42691,128,0,42852:0:0:0:0:
64,192,42852,1,0,0:0:0:0:
192,192,42852,1,0,0:0:0:0:
192,192,43013,128,0,43336:0:0:0:0:
320,192,43174,1,0,0:0:0:0:
448,192,43174,1,0,0:0:0:0:
64,192,43336,1,0,0:0:0:0:
448,192,43336,1,0,0:0:0:0:
320,192,43497,128,0,43658:0:0:0:0:
448,192,43658,1,0,0:0:0:0:
192,192,43658,128,0,43820:0:0:0:0:
64,192,43820,1,0,0:0:0:0:
320,192,43820,1,0,0:0:0:0:
192,192,43981,1,0,0:0:0:0:
64,192,43981,128,0,44142:0:0:0:0:
320,192,44142,1,0,0:0:0:0:
192,192,44303,1,0,0:0:0:0:
448,192,44303,128,0,44465:0:0:0:0:
192,192,44465,1,0,0:0:0:0:
320,192,44626,1,0,0:0:0:0:
64,192,44626,128,0,44787:0:0:0:0:
320,192,44787,1,0,0:0:0:0:
64,192,44949,1,0,0:0:0:0:
448,192,44949,128,0,45110:0:0:0:0:
64,192,45110,1,0,0:0:0:0:
192,192,45110,1,0,0:0:0:0:
320,192,45271,128,0,45594:0:0:0:0:
448,192,45271,1,0,0:0:0:0:
64,192,45432,1,0,0:0:0:0:
192,192,45432,1,0,0:0:0:0:
448,192,45594,128,0,45916:0:0:0:0:
64,192,45755,1,0,0:0:0:0:
192,192,45755,1,0,0:0:0:0:
64,192,45916,1,0,0:0:0:0:
320,192,45916,1,0,0:0:0:0:
320,192,46078,1,0,0:0:0:0:
64,192,46239,1,0,0:0:0:0:
448,192,46239,128,0,46400:0:0:0:0:
192,192,46400,1,0,0:0:0:0:
64,192,46400,1,0,0:0:0:0:
320,192,46562,1,0,0:0:0:0:
448,192,46562,1,0,0:0:0:0:
320,192,46723,1,0,0:0:0:0:
192,192,46723,1,0,0:0:0:0:
64,192,46884,1,0,0:0:0:0:
192,192,46884,1,0,0:0:0:0:
448,192,46884,128,0,47207:0:0:0:0:
320,192,47045,128,0,47207:0:0:0:0:
64,192,47207,1,0,0:0:0:0:
192,192,47207,128,0,47529:0:0:0:0:
320,192,47368,128,0,47529:0:0:0:0:
448,192,47368,1,0,0:0:0:0:
64,192,47529,1,0,0:0:0:0:
448,192,47529,128,0,47691:0:0:0:0:
64,192,47691,1,0,0:0:0:0:
192,192,47691,1,0,0:0:0:0:
320,192,47771,1,0,0:0:0:0:
192,192,47852,1,0,0:0:0:0:
448,192,47852,1,0,0:0:0:0:
64,192,47932,1,0,0:0:0:0:
320,192,48013,128,0,48174:0:0:0:0:
448,192,48013,128,0,48174:0:0:0:0:
64,192,48336,1,0,0:0:0:0:
320,192,48336,128,0,48658:0:0:0:0:
448,192,48336,128,0,48658:0:0:0:0:
192,192,48658,1,0,0:0:0:0:
64,192,48658,1,0,0:0:0:0:
192,192,48820,1,0,0:0:0:0:
64,192,48820,1,0,0:0:0:0:
320,192,48981,1,0,0:0:0:0:
448,192,48981,1,0,0:0:0:0:
320,192,49142,1,0,0:0:0:0:
448,192,49142,1,0,0:0:0:0:
192,192,49142,128,0,49465:0:0:0:0:
64,192,49303,128,0,49465:0:0:0:0:
320,192,49465,1,0,0:0:0:0:
448,192,49465,128,0,50110:0:0:0:0:
64,192,49787,1,0,0:0:0:0:
192,192,49949,1,0,0:0:0:0:
320,192,49949,1,0,0:0:0:0:
64,192,50110,1,0,0:0:0:0:
320,192,50110,1,0,0:0:0:0:
64,192,50271,1,0,0:0:0:0:
192,192,50271,1,0,0:0:0:0:
448,192,50432,1,0,0:0:0:0:
320,192,50432,128,0,50594:0:0:0:0:
192,192,50594,1,0,0:0:0:0:
320,192,50755,1,0,0:0:0:0:
64,192,50755,128,0,51239:0:0:0:0:
192,192,51078,1,0,0:0:0:0:
448,192,51239,128,0,51562:0:0:0:0:
320,192,51239,1,0,0:0:0:0:
64,192,51400,1,0,0:0:0:0:
192,192,51400,1,0,0:0:0:0:
64,192,51562,1,0,0:0:0:0:
320,192,51562,1,0,0:0:0:0:
192,192,51723,1,0,0:0:0:0:
448,192,51723,1,0,0:0:0:0:
192,192,51884,128,0,52045:0:0:0:0:
320,192,52045,1,0,0:0:0:0:
448,192,52045,128,0,52207:0:0:0:0:
192,192,52207,1,0,0:0:0:0:
64,192,52368,128,0,52529:0:0:0:0:
320,192,52529,1,0,0:0:0:0:
448,192,52529,1,0,0:0:0:0:
448,192,52691,128,0,52852:0:0:0:0:
192,192,52691,1,0,0:0:0:0:
64,192,52852,1,0,0:0:0:0:
192,192,52852,1,0,0:0:0:0:
448,192,53013,1,0,0:0:0:0:
320,192,53013,128,0,53174:0:0:0:0:
192,192,53174,1,0,0:0:0:0:
448,192,53336,1,0,0:0:0:0:
64,192,53336,128,0,53820:0:0:0:0:
320,192,53658,1,0,0:0:0:0:
448,192,53820,1,0,0:0:0:0:
192,192,53820,128,0,53981:0:0:0:0:
320,192,53981,1,0,0:0:0:0:
448,192,53981,1,0,0:0:0:0:
64,192,54142,1,0,0:0:0:0:
192,192,54142,1,0,0:0:0:0:
448,192,54303,1,0,0:0:0:0:
64,192,54303,128,0,54626:0:0:0:0:
192,192,54465,1,0,0:0:0:0:
448,192,54626,128,0,55271:0:0:0:0:
320,192,54626,1,0,0:0:0:0:
64,192,54949,1,0,0:0:0:0:
192,192,55110,1,0,0:0:0:0:
320,192,55110,1,0,0:0:0:0:
64,192,55271,1,0,0:0:0:0:
320,192,55271,1,0,0:0:0:0:
64,192,55432,1,0,0:0:0:0:
192,192,55432,1,0,0:0:0:0:
448,192,55594,1,0,0:0:0:0:
320,192,55594,128,0,55755:0:0:0:0:
192,192,55755,1,0,0:0:0:0:
320,192,55916,1,0,0:0:0:0:
64,192,55916,128,0,56400:0:0:0:0:
320,192,56239,1,0,0:0:0:0:
192,192,56400,1,0,0:0:0:0:
448,192,56400,128,0,56723:0:0:0:0:
320,192,56562,1,0,0:0:0:0:
64,192,56723,1,0,0:0:0:0:
192,192,56723,1,0,0:0:0:0:
320,192,56884,1,0,0:0:0:0:
448,192,56884,1,0,0:0:0:0:
320,192,57045,128,0,57207:0:0:0:0:
448,192,57207,1,0,0:0:0:0:
64,192,57207,128,0,57368:0:0:0:0:
192,192,57207,1,0,0:0:0:0:
320,192,57368,1,0,0:0:0:0:
192,192,57529,128,0,57691:0:0:0:0:
64,192,57529,1,0,0:0:0:0:
320,192,57691,1,0,0:0:0:0:
448,192,57852,128,0,58013:0:0:0:0:
64,192,57852,1,0,0:0:0:0:
64,192,58013,1,0,0:0:0:0:
192,192,58013,1,0,0:0:0:0:
320,192,58174,1,0,0:0:0:0:
448,192,58174,1,0,0:0:0:0:
192,192,58255,1,0,0:0:0:0:
64,192,58336,1,0,0:0:0:0:
448,192,58336,1,0,0:0:0:0:
320,192,58416,1,0,0:0:0:0:
192,192,58497,1,0,0:0:0:0:
64,192,58497,1,0,0:0:0:0:
320,192,58658,1,0,0:0:0:0:
448,192,58658,1,0,0:0:0:0:
448,192,58820,1,0,0:0:0:0:
192,192,58820,128,0,59142:0:0:0:0:
64,192,58820,128,0,59303:0:0:0:0:
320,192,59142,1,0,0:0:0:0:
192,192,59303,1,0,0:0:0:0:
448,192,59303,1,0,0:0:0:0:
64,192,59465,1,0,0:0:0:0:
192,192,59465,1,0,0:0:0:0:
320,192,59626,1,0,0:0:0:0:
64,192,59787,1,0,0:0:0:0:
192,192,59787,1,0,0:0:0:0:
448,192,59787,1,0,0:0:0:0:
320,192,59868,1,0,0:0:0:0:
64,192,59949,1,0,0:0:0:0:
448,192,59949,1,0,0:0:0:0:
192,192,60029,1,0,0:0:0:0:
320,192,60110,1,0,0:0:0:0:
448,192,60110,1,0,0:0:0:0:
192,192,60191,1,0,0:0:0:0:
64,192,60271,1,0,0:0:0:0:
320,192,60271,1,0,0:0:0:0:
448,192,60352,1,0,0:0:0:0:
64,192,60432,1,0,0:0:0:0:
192,192,60432,1,0,0:0:0:0:
64,192,60594,1,0,0:0:0:0:
448,192,60594,1,0,0:0:0:0:
320,192,60755,1,0,0:0:0:0:
448,192,60755,1,0,0:0:0:0:
64,192,60836,1,0,0:0:0:0:
192,192,60836,1,0,0:0:0:0:
320,192,60916,1,0,0:0:0:0:
448,192,60916,1,0,0:0:0:0:
192,192,60997,1,0,0:0:0:0:
64,192,61078,1,0,0:0:0:0:
320,192,61078,128,0,61400:0:0:0:0:
448,192,61078,128,0,61400:0:0:0:0:
64,192,61400,1,0,0:0:0:0:
192,192,61400,1,0,0:0:0:0:
192,192,61562,128,0,61884:0:0:0:0:
64,192,61723,128,0,61884:0:0:0:0:
448,192,61723,1,0,0:0:0:0:
320,192,61884,1,0,0:0:0:0:
448,192,61884,1,0,0:0:0:0:
64,192,62045,1,0,0:0:0:0:
192,192,62045,1,0,0:0:0:0:
448,192,62207,1,0,0:0:0:0:
64,192,62207,128,0,62691:0:0:0:0:
320,192,62368,1,0,0:0:0:0:
192,192,62529,128,0,62691:0:0:0:0:
448,192,62529,1,0,0:0:0:0:
320,192,62691,1,0,0:0:0:0:
448,192,62691,128,0,63013:0:0:0:0:
192,192,62852,128,0,63013:0:0:0:0:
320,192,63013,128,0,63336:0:0:0:0:
64,192,63013,1,0,0:0:0:0:
64,192,63174,1,0,0:0:0:0:
192,192,63174,1,0,0:0:0:0:
448,192,63336,1,0,0:0:0:0:
192,192,63336,128,0,63658:0:0:0:0:
320,192,63497,1,0,0:0:0:0:
64,192,63658,1,0,0:0:0:0:
448,192,63658,128,0,63981:0:0:0:0:
192,192,63820,1,0,0:0:0:0:
64,192,63981,1,0,0:0:0:0:
320,192,63981,1,0,0:0:0:0:
320,192,64142,128,0,64465:0:0:0:0:
448,192,64303,128,0,64465:0:0:0:0:
192,192,64303,1,0,0:0:0:0:
64,192,64465,1,0,0:0:0:0:
192,192,64465,1,0,0:0:0:0:
320,192,64626,1,0,0:0:0:0:
448,192,64626,1,0,0:0:0:0:
64,192,64787,1,0,0:0:0:0:
448,192,64787,1,0,0:0:0:0:
192,192,64949,1,0,0:0:0:0:
320,192,65110,1,0,0:0:0:0:
448,192,65110,1,0,0:0:0:0:
448,192,65271,1,0,0:0:0:0:
192,192,65271,128,0,65594:0:0:0:0:
64,192,65432,1,0,0:0:0:0:
320,192,65594,1,0,0:0:0:0:
448,192,65594,128,0,66078:0:0:0:0:
64,192,65755,1,0,0:0:0:0:
192,192,65755,1,0,0:0:0:0:
64,192,65916,1,0,0:0:0:0:
320,192,65916,128,0,66078:0:0:0:0:
192,192,66078,1,0,0:0:0:0:
448,192,66239,1,0,0:0:0:0:
64,192,66239,128,0,66562:0:0:0:0:
320,192,66400,1,0,0:0:0:0:
192,192,66562,1,0,0:0:0:0:
448,192,66562,1,0,0:0:0:0:
64,192,66723,1,0,0:0:0:0:
192,192,66723,128,0,67045:0:0:0:0:
320,192,66884,128,0,67045:0:0:0:0:
64,192,67045,1,0,0:0:0:0:
448,192,67045,1,0,0:0:0:0:
192,192,67207,1,0,0:0:0:0:
64,192,67207,1,0,0:0:0:0:
320,192,67368,128,0,67691:0:0:0:0:
64,192,67529,1,0,0:0:0:0:
448,192,67529,1,0,0:0:0:0:
64,192,67691,128,0,67852:0:0:0:0:
448,192,67852,128,0,68013:0:0:0:0:
192,192,67852,1,0,0:0:0:0:
64,192,68013,1,0,0:0:0:0:
192,192,68013,128,0,68174:0:0:0:0:
448,192,68174,1,0,0:0:0:0:
320,192,68174,128,0,68336:0:0:0:0:
64,192,68336,1,0,0:0:0:0:
192,192,68336,1,0,0:0:0:0:
448,192,68497,1,0,0:0:0:0:
64,192,68497,128,0,68820:0:0:0:0:
320,192,68658,1,0,0:0:0:0:
448,192,68820,128,0,69465:0:0:0:0:
192,192,68820,1,0,0:0:0:0:
320,192,68981,1,0,0:0:0:0:
64,192,69142,1,0,0:0:0:0:
192,192,69142,1,0,0:0:0:0:
320,192,69303,128,0,69465:0:0:0:0:
64,192,69465,1,0,0:0:0:0:
192,192,69465,128,0,69787:0:0:0:0:
320,192,69626,1,0,0:0:0:0:
448,192,69626,1,0,0:0:0:0:
64,192,69787,1,0,0:0:0:0:
448,192,69787,1,0,0:0:0:0:
192,192,69949,1,0,0:0:0:0:
320,192,69949,1,0,0:0:0:0:
64,192,70110,1,0,0:0:0:0:
320,192,70271,1,0,0:0:0:0:
448,192,70271,1,0,0:0:0:0:
64,192,70432,1,0,0:0:0:0:
448,192,70432,128,0,70755:0:0:0:0:
320,192,70594,1,0,0:0:0:0:
192,192,70755,128,0,70916:0:0:0:0:
64,192,70755,1,0,0:0:0:0:
320,192,70916,1,0,0:0:0:0:
448,192,70916,1,0,0:0:0:0:
64,192,71078,1,0,0:0:0:0:
448,192,71078,1,0,0:0:0:0:
320,192,71158,1,0,0:0:0:0:
64,192,71239,1,0,0:0:0:0:
192,192,71239,1,0,0:0:0:0:
320,192,71320,1,0,0:0:0:0:
448,192,71400,1,0,0:0:0:0:
192,192,71400,128,0,71723:0:0:0:0:
64,192,71400,128,0,71723:0:0:0:0:
448,192,71723,1,0,0:0:0:0:
320,192,71723,1,0,0:0:0:0:
320,192,71884,128,0,72207:0:0:0:0:
448,192,72045,128,0,72207:0:0:0:0:
64,192,72045,1,0,0:0:0:0:
192,192,72207,1,0,0:0:0:0:
64,192,72207,1,0,0:0:0:0:
448,192,72368,1,0,0:0:0:0:
320,192,72368,1,0,0:0:0:0:
64,192,72529,1,0,0:0:0:0:
448,192,72529,128,0,73013:0:0:0:0:
192,192,72691,1,0,0:0:0:0:
320,192,72852,128,0,73013:0:0:0:0:
64,192,72852,1,0,0:0:0:0:
192,192,73013,1,0,0:0:0:0:
64,192,73013,128,0,73336:0:0:0:0:
320,192,73174,128,0,73336:0:0:0:0:
192,192,73336,128,0,73658:0:0:0:0:
448,192,73336,1,0,0:0:0:0:
448,192,73497,1,0,0:0:0:0:
320,192,73497,1,0,0:0:0:0:
64,192,73658,1,0,0:0:0:0:
320,192,73658,128,0,73981:0:0:0:0:
192,192,73820,1,0,0:0:0:0:
448,192,73981,1,0,0:0:0:0:
64,192,73981,128,0,74303:0:0:0:0:
320,192,74142,1,0,0:0:0:0:
448,192,74303,1,0,0:0:0:0:
192,192,74303,1,0,0:0:0:0:
192,192,74465,128,0,74787:0:0:0:0:
64,192,74626,128,0,74787:0:0:0:0:
320,192,74626,1,0,0:0:0:0:
448,192,74787,1,0,0:0:0:0:
320,192,74787,1,0,0:0:0:0:
192,192,74949,1,0,0:0:0:0:
64,192,74949,1,0,0:0:0:0:
448,192,75110,1,0,0:0:0:0:
64,192,75110,1,0,0:0:0:0:
320,192,75271,1,0,0:0:0:0:
192,192,75432,1,0,0:0:0:0:
64,192,75432,1,0,0:0:0:0:
448,192,75594,128,0,75916:0:0:0:0:
64,192,75594,1,0,0:0:0:0:
320,192,75755,128,0,75916:0:0:0:0:
192,192,75916,1,0,0:0:0:0:
64,192,75916,128,0,76400:0:0:0:0:
448,192,76078,1,0,0:0:0:0:
320,192,76078,1,0,0:0:0:0:
448,192,76239,1,0,0:0:0:0:
192,192,76239,128,0,76400:0:0:0:0:
320,192,76400,1,0,0:0:0:0:
64,192,76562,1,0,0:0:0:0:
448,192,76562,128,0,76884:0:0:0:0:
192,192,76723,1,0,0:0:0:0:
320,192,76884,1,0,0:0:0:0:
64,192,76884,1,0,0:0:0:0:
448,192,77045,1,0,0:0:0:0:
320,192,77045,128,0,77368:0:0:0:0:
192,192,77207,128,0,77368:0:0:0:0:
448,192,77368,1,0,0:0:0:0:
64,192,77368,1,0,0:0:0:0:
320,192,77529,1,0,0:0:0:0:
448,192,77529,1,0,0:0:0:0:
192,192,77691,128,0,78013:0:0:0:0:
448,192,77852,1,0,0:0:0:0:
64,192,77852,1,0,0:0:0:0:
448,192,78013,128,0,78174:0:0:0:0:
64,192,78174,128,0,78336:0:0:0:0:
320,192,78174,1,0,0:0:0:0:
320,192,78336,128,0,78497:0:0:0:0:
64,192,78497,1,0,0:0:0:0:
192,192,78497,128,0,78658:0:0:0:0:
448,192,78658,1,0,0:0:0:0:
320,192,78658,1,0,0:0:0:0:
64,192,78820,1,0,0:0:0:0:
448,192,78820,128,0,79142:0:0:0:0:
192,192,78981,1,0,0:0:0:0:
64,192,79142,128,0,79787:0:0:0:0:
320,192,79142,1,0,0:0:0:0:
192,192,79303,1,0,0:0:0:0:
448,192,79465,1,0,0:0:0:0:
320,192,79465,1,0,0:0:0:0:
192,192,79626,128,0,79787:0:0:0:0:
448,192,79787,1,0,0:0:0:0:
320,192,79787,128,0,80110:0:0:0:0:
192,192,79949,1,0,0:0:0:0:
64,192,79949,1,0,0:0:0:0:
448,192,80110,1,0,0:0:0:0:
64,192,80110,1,0,0:0:0:0:
320,192,80271,1,0,0:0:0:0:
192,192,80271,1,0,0:0:0:0:
448,192,80432,1,0,0:0:0:0:
64,192,80432,1,0,0:0:0:0:
320,192,80594,1,0,0:0:0:0:
448,192,80594,1,0,0:0:0:0:
64,192,80755,128,0,81078:0:0:0:0:
192,192,80755,1,0,0:0:0:0:
320,192,80916,1,0,0:0:0:0:
448,192,80916,1,0,0:0:0:0:
320,192,81078,128,0,81239:0:0:0:0:
448,192,81078,1,0,0:0:0:0:
192,192,81239,1,0,0:0:0:0:
64,192,81239,1,0,0:0:0:0:
448,192,81400,1,0,0:0:0:0:
64,192,81400,1,0,0:0:0:0:
192,192,81481,1,0,0:0:0:0:
448,192,81562,1,0,0:0:0:0:
320,192,81562,1,0,0:0:0:0:
192,192,81642,1,0,0:0:0:0:
320,192,81723,128,0,82045:0:0:0:0:
448,192,81723,128,0,82045:0:0:0:0:
64,192,81723,128,0,81884:0:0:0:0:
64,192,82045,1,0,0:0:0:0:
192,192,82045,128,0,82368:0:0:0:0:
320,192,82207,128,0,82368:0:0:0:0:
64,192,82368,1,0,0:0:0:0:
448,192,82368,1,0,0:0:0:0:
192,192,82529,1,0,0:0:0:0:
64,192,82529,128,0,82691:0:0:0:0:
320,192,82691,1,0,0:0:0:0:
448,192,82691,1,0,0:0:0:0:
448,192,82852,128,0,83336:0:0:0:0:
64,192,82852,128,0,83013:0:0:0:0:
192,192,82852,128,0,83013:0:0:0:0:
320,192,83174,128,0,83336:0:0:0:0:
64,192,83174,1,0,0:0:0:0:
192,192,83336,1,0,0:0:0:0:
64,192,83336,128,0,83658:0:0:0:0:
448,192,83497,1,0,0:0:0:0:
192,192,83658,1,0,0:0:0:0:
320,192,83658,1,0,0:0:0:0:
192,192,83820,1,0,0:0:0:0:
448,192,83820,1,0,0:0:0:0:
64,192,83981,1,0,0:0:0:0:
320,192,83981,128,0,84303:0:0:0:0:
192,192,84142,1,0,0:0:0:0:
64,192,84303,1,0,0:0:0:0:
448,192,84303,128,0,84787:0:0:0:0:
320,192,84465,1,0,0:0:0:0:
64,192,84626,1,0,0:0:0:0:
192,192,84626,1,0,0:0:0:0:
320,192,84787,1,0,0:0:0:0:
192,192,84949,1,0,0:0:0:0:
64,192,84949,128,0,85271:0:0:0:0:
448,192,85110,1,0,0:0:0:0:
320,192,85110,1,0,0:0:0:0:
192,192,85271,1,0,0:0:0:0:
448,192,85271,1,0,0:0:0:0:
64,192,85432,1,0,0:0:0:0:
192,192,85432,1,0,0:0:0:0:
320,192,85594,128,0,85755:0:0:0:0:
448,192,85594,128,0,85755:0:0:0:0:
192,192,85755,1,0,0:0:0:0:
64,192,85755,1,0,0:0:0:0:
64,192,85916,1,0,0:0:0:0:
320,192,85916,128,0,86239:0:0:0:0:
448,192,85916,128,0,86239:0:0:0:0:
64,192,86239,1,0,0:0:0:0:
192,192,86239,1,0,0:0:0:0:
64,192,86400,1,0,0:0:0:0:
448,192,86400,1,0,0:0:0:0:
320,192,86562,1,0,0:0:0:0:
448,192,86562,1,0,0:0:0:0:
192,192,86723,128,0,86884:0:0:0:0:
64,192,86723,128,0,86884:0:0:0:0:
448,192,86884,1,0,0:0:0:0:
320,192,86884,1,0,0:0:0:0:
192,192,86965,1,0,0:0:0:0:
64,192,87045,1,0,0:0:0:0:
320,192,87045,128,0,87368:0:0:0:0:
448,192,87045,128,0,87368:0:0:0:0:
64,192,87368,1,0,0:0:0:0:
192,192,87368,1,0,0:0:0:0:
64,192,87529,1,0,0:0:0:0:
192,192,87529,1,0,0:0:0:0:
320,192,87691,1,0,0:0:0:0:
448,192,87691,1,0,0:0:0:0:
320,192,87852,1,0,0:0:0:0:
448,192,87852,1,0,0:0:0:0:
64,192,87852,128,0,88013:0:0:0:0:
192,192,88013,128,0,88174:0:0:0:0:
448,192,88174,1,0,0:0:0:0:
64,192,88174,1,0,0:0:0:0:
320,192,88174,128,0,88336:0:0:0:0:
192,192,88336,1,0,0:0:0:0:
448,192,88497,1,0,0:0:0:0:
64,192,88497,1,0,0:0:0:0:
192,192,88497,128,0,88658:0:0:0:0:
320,192,88658,1,0,0:0:0:0:
448,192,88658,1,0,0:0:0:0:
320,192,88820,128,0,88981:0:0:0:0:
64,192,88820,1,0,0:0:0:0:
448,192,88981,1,0,0:0:0:0:
64,192,88981,128,0,89142:0:0:0:0:
320,192,89142,1,0,0:0:0:0:
192,192,89142,1,0,0:0:0:0:
448,192,89142,1,0,0:0:0:0:
192,192,89303,128,0,89465:0:0:0:0:
64,192,89465,1,0,0:0:0:0:
320,192,89465,1,0,0:0:0:0:
320,192,89626,128,0,89787:0:0:0:0:
64,192,89787,1,0,0:0:0:0:
192,192,89787,1,0,0:0:0:0:
448,192,89787,1,0,0:0:0:0:
192,192,89949,128,0,90110:0:0:0:0:
320,192,90110,128,0,90271:0:0:0:0:
448,192,90110,1,0,0:0:0:0:
64,192,90271,1,0,0:0:0:0:
192,192,90271,1,0,0:0:0:0:
320,192,90432,1,0,0:0:0:0:
192,192,90432,128,0,90594:0:0:0:0:
448,192,90432,1,0,0:0:0:0:
64,192,90594,1,0,0:0:0:0:
448,192,90594,1,0,0:0:0:0:
64,192,90755,128,0,90916:0:0:0:0:
320,192,90916,1,0,0:0:0:0:
448,192,90916,1,0,0:0:0:0:
64,192,91078,1,0,0:0:0:0:
448,192,91078,1,0,0:0:0:0:
192,192,91078,128,0,91239:0:0:0:0:
320,192,91239,1,0,0:0:0:0:
64,192,91400,128,0,91562:0:0:0:0:
448,192,91400,1,0,0:0:0:0:
192,192,91562,1,0,0:0:0:0:
320,192,91562,128,0,91723:0:0:0:0:
448,192,91723,1,0,0:0:0:0:
192,192,91723,1,0,0:0:0:0:
64,192,91723,1,0,0:0:0:0:
320,192,91803,1,0,0:0:0:0:
64,192,91884,1,0,0:0:0:0:
448,192,91884,1,0,0:0:0:0:
192,192,91965,1,0,0:0:0:0:
64,192,92045,1,0,0:0:0:0:
320,192,92045,1,0,0:0:0:0:
448,192,92045,1,0,0:0:0:0:
192,192,92207,1,0,0:0:0:0:
320,192,92207,128,0,92368:0:0:0:0:
448,192,92368,1,0,0:0:0:0:
192,192,92368,1,0,0:0:0:0:
64,192,92368,1,0,0:0:0:0:
320,192,92529,1,0,0:0:0:0:
64,192,92529,128,0,92691:0:0:0:0:
448,192,92691,1,0,0:0:0:0:
192,192,92691,1,0,0:0:0:0:
320,192,92691,1,0,0:0:0:0:
64,192,92852,1,0,0:0:0:0:
448,192,92852,1,0,0:0:0:0:
64,192,93013,1,0,0:0:0:0:
192,192,93013,1,0,0:0:0:0:
320,192,93013,128,0,93174:0:0:0:0:
448,192,93174,1,0,0:0:0:0:
192,192,93174,1,0,0:0:0:0:
320,192,93336,1,0,0:0:0:0:
64,192,93336,1,0,0:0:0:0:
448,192,93336,128,0,93497:0:0:0:0:
192,192,93497,1,0,0:0:0:0:
64,192,93497,1,0,0:0:0:0:
448,192,93658,1,0,0:0:0:0:
320,192,93658,1,0,0:0:0:0:
192,192,93658,128,0,93820:0:0:0:0:
64,192,93820,1,0,0:0:0:0:
448,192,93981,128,0,94142:0:0:0:0:
192,192,93981,1,0,0:0:0:0:
320,192,94142,1,0,0:0:0:0:
64,192,94142,128,0,94303:0:0:0:0:
320,192,94303,1,0,0:0:0:0:
192,192,94303,1,0,0:0:0:0:
448,192,94303,1,0,0:0:0:0:
192,192,94465,128,0,94626:0:0:0:0:
64,192,94626,1,0,0:0:0:0:
320,192,94626,1,0,0:0:0:0:
320,192,94787,128,0,94949:0:0:0:0:
192,192,94787,1,0,0:0:0:0:
64,192,94949,1,0,0:0:0:0:
192,192,94949,1,0,0:0:0:0:
448,192,94949,1,0,0:0:0:0:
64,192,95110,128,0,95271:0:0:0:0:
320,192,95110,1,0,0:0:0:0:
448,192,95271,1,0,0:0:0:0:
320,192,95271,1,0,0:0:0:0:
64,192,95352,1,0,0:0:0:0:
192,192,95352,1,0,0:0:0:0:
320,192,95432,1,0,0:0:0:0:
448,192,95432,1,0,0:0:0:0:
64,192,95513,1,0,0:0:0:0:
192,192,95513,1,0,0:0:0:0:
320,192,95594,1,0,0:0:0:0:
448,192,95594,1,0,0:0:0:0:
192,192,95674,1,0,0:0:0:0:
64,192,95755,1,0,0:0:0:0:
448,192,95755,1,0,0:0:0:0:
320,192,95836,1,0,0:0:0:0:
448,192,95916,128,0,96078:0:0:0:0:
192,192,95916,1,0,0:0:0:0:
64,192,95916,1,0,0:0:0:0:
192,192,96078,1,0,0:0:0:0:
64,192,96078,1,0,0:0:0:0:
192,192,96239,128,0,96400:0:0:0:0:
320,192,96239,1,0,0:0:0:0:
448,192,96239,1,0,0:0:0:0:
64,192,96400,1,0,0:0:0:0:
448,192,96400,1,0,0:0:0:0:
64,192,96562,128,0,96723:0:0:0:0:
320,192,96562,1,0,0:0:0:0:
192,192,96723,1,0,0:0:0:0:
320,192,96723,128,0,96884:0:0:0:0:
448,192,96884,1,0,0:0:0:0:
192,192,96884,1,0,0:0:0:0:
64,192,96884,1,0,0:0:0:0:
320,192,97045,1,0,0:0:0:0:
64,192,97045,128,0,97207:0:0:0:0:
192,192,97207,1,0,0:0:0:0:
448,192,97207,1,0,0:0:0:0:
448,192,97368,128,0,97529:0:0:0:0:
64,192,97368,1,0,0:0:0:0:
192,192,97529,1,0,0:0:0:0:
64,192,97529,1,0,0:0:0:0:
320,192,97529,1,0,0:0:0:0:
320,192,97691,1,0,0:0:0:0:
448,192,97691,1,0,0:0:0:0:
192,192,97771,1,0,0:0:0:0:
64,192,97852,1,0,0:0:0:0:
448,192,97852,1,0,0:0:0:0:
64,192,98013,1,0,0:0:0:0:
320,192,98013,1,0,0:0:0:0:
192,192,98174,1,0,0:0:0:0:
320,192,98174,128,0,98336:0:0:0:0:
448,192,98174,1,0,0:0:0:0:
64,192,98336,1,0,0:0:0:0:
192,192,98336,1,0,0:0:0:0:
448,192,98497,128,0,99626:0:0:0:0:
320,192,98497,128,0,98820:0:0:0:0:
64,192,98497,1,0,0:0:0:0:
192,192,98820,128,0,99303:0:0:0:0:
320,192,98981,128,0,99303:0:0:0:0:
64,192,99303,128,0,99465:0:0:0:0:
320,192,99465,128,0,99626:0:0:0:0:
64,192,99626,1,0,0:0:0:0:
192,192,99626,1,0,0:0:0:0:
192,192,99787,128,0,100110:0:0:0:0:
64,192,99787,1,0,0:0:0:0:
448,192,99787,128,0,100916:0:0:0:0:
320,192,100110,128,0,100594:0:0:0:0:
192,192,100271,128,0,100594:0:0:0:0:
64,192,100594,128,0,100755:0:0:0:0:
320,192,100755,128,0,100916:0:0:0:0:
192,192,100916,1,0,0:0:0:0:
64,192,100916,1,0,0:0:0:0:
64,192,101078,1,0,0:0:0:0:
320,192,101078,1,0,0:0:0:0:
448,192,101078,1,0,0:0:0:0:
192,192,101239,1,0,0:0:0:0:
320,192,101239,1,0,0:0:0:0:
64,192,101400,1,0,0:0:0:0:
192,192,101400,1,0,0:0:0:0:
448,192,101400,1,0,0:0:0:0:
64,192,101562,1,0,0:0:0:0:
320,192,101562,1,0,0:0:0:0:
192,192,101723,1,0,0:0:0:0:
320,192,101723,1,0,0:0:0:0:
448,192,101723,1,0,0:0:0:0:
64,192,101884,1,0,0:0:0:0:
192,192,101884,1,0,0:0:0:0:
320,192,102045,1,0,0:0:0:0:
448,192,102045,1,0,0:0:0:0:
192,192,102126,1,0,0:0:0:0:
448,192,102207,1,0,0:0:0:0:
64,192,102207,1,0,0:0:0:0:
320,192,102287,1,0,0:0:0:0:
64,192,102368,128,0,102610:0:0:0:0:
192,192,102368,128,0,102610:0:0:0:0:
64,192,102691,128,0,103174:0:0:0:0:
192,192,102691,128,0,103013:0:0:0:0:
448,192,102691,1,0,0:0:0:0:
320,192,102691,1,0,0:0:0:0:
320,192,103013,1,0,0:0:0:0:
448,192,103013,1,0,0:0:0:0:
192,192,103174,1,0,0:0:0:0:
448,192,103174,128,0,103497:0:0:0:0:
64,192,103336,1,0,0:0:0:0:
320,192,103336,128,0,103497:0:0:0:0:
192,192,103497,1,0,0:0:0:0:
64,192,103497,128,0,103981:0:0:0:0:
448,192,103658,1,0,0:0:0:0:
192,192,103820,1,0,0:0:0:0:
320,192,103820,1,0,0:0:0:0:
448,192,103981,1,0,0:0:0:0:
192,192,103981,128,0,104142:0:0:0:0:
64,192,104142,128,0,104465:0:0:0:0:
448,192,104303,1,0,0:0:0:0:
320,192,104303,1,0,0:0:0:0:
192,192,104465,1,0,0:0:0:0:
448,192,104465,128,0,104626:0:0:0:0:
64,192,104626,1,0,0:0:0:0:
192,192,104626,1,0,0:0:0:0:
320,192,104626,1,0,0:0:0:0:
64,192,104787,128,0,105110:0:0:0:0:
448,192,104949,1,0,0:0:0:0:
320,192,104949,1,0,0:0:0:0:
320,192,105110,128,0,105271:0:0:0:0:
64,192,105271,1,0,0:0:0:0:
448,192,105271,128,0,105755:0:0:0:0:
64,192,105432,1,0,0:0:0:0:
192,192,105432,1,0,0:0:0:0:
320,192,105594,1,0,0:0:0:0:
64,192,105755,1,0,0:0:0:0:
192,192,105755,128,0,106078:0:0:0:0:
320,192,105916,128,0,106078:0:0:0:0:
448,192,105916,1,0,0:0:0:0:
64,192,106078,128,0,106884:0:0:0:0:
448,192,106239,1,0,0:0:0:0:
320,192,106239,1,0,0:0:0:0:
192,192,106400,1,0,0:0:0:0:
448,192,106562,1,0,0:0:0:0:
320,192,106562,1,0,0:0:0:0:
448,192,106723,1,0,0:0:0:0:
192,192,106723,1,0,0:0:0:0:
320,192,106884,1,0,0:0:0:0:
192,192,106884,1,0,0:0:0:0:
64,192,107045,1,0,0:0:0:0:
320,192,107045,128,0,107207:0:0:0:0:
64,192,107207,1,0,0:0:0:0:
192,192,107207,128,0,107529:0:0:0:0:
448,192,107207,1,0,0:0:0:0:
320,192,107368,128,0,107529:0:0:0:0:
448,192,107529,128,0,108174:0:0:0:0:
64,192,107529,1,0,0:0:0:0:
320,192,107691,1,0,0:0:0:0:
64,192,107852,1,0,0:0:0:0:
192,192,107852,1,0,0:0:0:0:
192,192,108013,1,0,0:0:0:0:
64,192,108174,1,0,0:0:0:0:
320,192,108174,1,0,0:0:0:0:
320,192,108336,128,0,108658:0:0:0:0:
448,192,108336,1,0,0:0:0:0:
64,192,108497,1,0,0:0:0:0:
192,192,108497,128,0,108658:0:0:0:0:
64,192,108658,1,0,0:0:0:0:
448,192,108658,128,0,109142:0:0:0:0:
320,192,108820,1,0,0:0:0:0:
192,192,108981,1,0,0:0:0:0:
64,192,108981,1,0,0:0:0:0:
64,192,109142,1,0,0:0:0:0:
320,192,109142,128,0,109303:0:0:0:0:
448,192,109303,128,0,109626:0:0:0:0:
64,192,109465,1,0,0:0:0:0:
192,192,109465,1,0,0:0:0:0:
192,192,109626,128,0,109787:0:0:0:0:
320,192,109626,1,0,0:0:0:0:
448,192,109787,1,0,0:0:0:0:
320,192,109787,1,0,0:0:0:0:
64,192,109787,1,0,0:0:0:0:
192,192,109868,1,0,0:0:0:0:
448,192,109949,1,0,0:0:0:0:
64,192,109949,1,0,0:0:0:0:
320,192,110029,1,0,0:0:0:0:
64,192,110110,1,0,0:0:0:0:
192,192,110110,128,0,110432:0:0:0:0:
320,192,110271,128,0,110432:0:0:0:0:
448,192,110432,1,0,0:0:0:0:
64,192,110432,128,0,110916:0:0:0:0:
448,192,110594,1,0,0:0:0:0:
320,192,110594,1,0,0:0:0:0:
192,192,110755,1,0,0:0:0:0:
448,192,110916,1,0,0:0:0:0:
320,192,110916,128,0,111239:0:0:0:0:
192,192,111078,128,0,111239:0:0:0:0:
64,192,111078,1,0,0:0:0:0:
448,192,111239,128,0,112045:0:0:0:0:
64,192,111400,1,0,0:0:0:0:
192,192,111400,1,0,0:0:0:0:
320,192,111562,1,0,0:0:0:0:
64,192,111723,1,0,0:0:0:0:
192,192,111723,1,0,0:0:0:0:
64,192,111884,1,0,0:0:0:0:
320,192,111884,1,0,0:0:0:0:
192,192,112045,1,0,0:0:0:0:
320,192,112045,1,0,0:0:0:0:
448,192,112207,1,0,0:0:0:0:
192,192,112207,128,0,112368:0:0:0:0:
448,192,112368,1,0,0:0:0:0:
320,192,112368,128,0,112691:0:0:0:0:
64,192,112368,1,0,0:0:0:0:
192,192,112529,128,0,112691:0:0:0:0:
448,192,112691,1,0,0:0:0:0:
64,192,112691,128,0,113336:0:0:0:0:
192,192,112852,1,0,0:0:0:0:
320,192,113013,1,0,0:0:0:0:
448,192,113013,1,0,0:0:0:0:
320,192,113174,1,0,0:0:0:0:
192,192,113336,1,0,0:0:0:0:
448,192,113336,1,0,0:0:0:0:
64,192,113497,1,0,0:0:0:0:
192,192,113497,128,0,113820:0:0:0:0:
320,192,113658,128,0,113820:0:0:0:0:
448,192,113658,1,0,0:0:0:0:
64,192,113820,128,0,114303:0:0:0:0:
448,192,113820,1,0,0:0:0:0:
192,192,113981,1,0,0:0:0:0:
448,192,114142,1,0,0:0:0:0:
320,192,114142,1,0,0:0:0:0:
192,192,114303,128,0,114465:0:0:0:0:
448,192,114303,1,0,0:0:0:0:
64,192,114465,128,0,114787:0:0:0:0:
320,192,114626,1,0,0:0:0:0:
448,192,114626,1,0,0:0:0:0:
192,192,114787,1,0,0:0:0:0:
320,192,114787,128,0,114949:0:0:0:0:
448,192,114949,1,0,0:0:0:0:
192,192,114949,1,0,0:0:0:0:
64,192,114949,1,0,0:0:0:0:
320,192,115029,1,0,0:0:0:0:
448,192,115110,1,0,0:0:0:0:
64,192,115110,1,0,0:0:0:0:
192,192,115191,1,0,0:0:0:0:
320,192,115271,128,0,115594:0:0:0:0:
448,192,115271,1,0,0:0:0:0:
64,192,115432,1,0,0:0:0:0:
448,192,115594,128,0,115916:0:0:0:0:
192,192,115594,1,0,0:0:0:0:
192,192,115755,1,0,0:0:0:0:
64,192,115755,1,0,0:0:0:0:
64,192,115916,128,0,116239:0:0:0:0:
448,192,116078,1,0,0:0:0:0:
320,192,116078,1,0,0:0:0:0:
320,192,116239,1,0,0:0:0:0:
192,192,116239,128,0,116884:0:0:0:0:
64,192,116400,128,0,116723:0:0:0:0:
320,192,116562,1,0,0:0:0:0:
448,192,116562,1,0,0:0:0:0:
320,192,116723,1,0,0:0:0:0:
64,192,116884,1,0,0:0:0:0:
448,192,116884,128,0,117368:0:0:0:0:
192,192,117045,1,0,0:0:0:0:
320,192,117045,1,0,0:0:0:0:
64,192,117207,1,0,0:0:0:0:
320,192,117207,128,0,117368:0:0:0:0:
64,192,117368,1,0,0:0:0:0:
192,192,117368,1,0,0:0:0:0:
448,192,117529,1,0,0:0:0:0:
320,192,117529,1,0,0:0:0:0:
192,192,117529,128,0,117691:0:0:0:0:
320,192,117691,128,0,117852:0:0:0:0:
64,192,117852,1,0,0:0:0:0:
192,192,117852,1,0,0:0:0:0:
448,192,117852,128,0,118658:0:0:0:0:
64,192,118174,1,0,0:0:0:0:
320,192,118174,1,0,0:0:0:0:
320,192,118336,1,0,0:0:0:0:
64,192,118497,1,0,0:0:0:0:
192,192,118497,1,0,0:0:0:0:
192,192,118658,1,0,0:0:0:0:
320,192,118658,1,0,0:0:0:0:
64,192,118820,1,0,0:0:0:0:
448,192,118820,1,0,0:0:0:0:
320,192,118820,128,0,118981:0:0:0:0:
64,192,118981,128,0,119626:0:0:0:0:
448,192,119142,1,0,0:0:0:0:
320,192,119142,1,0,0:0:0:0:
192,192,119303,1,0,0:0:0:0:
448,192,119303,1,0,0:0:0:0:
320,192,119465,1,0,0:0:0:0:
192,192,119465,128,0,119626:0:0:0:0:
448,192,119626,1,0,0:0:0:0:
192,192,119787,128,0,120110:0:0:0:0:
64,192,119787,1,0,0:0:0:0:
320,192,119949,1,0,0:0:0:0:
448,192,119949,1,0,0:0:0:0:
64,192,120110,1,0,0:0:0:0:
320,192,120110,1,0,0:0:0:0:
448,192,120110,1,0,0:0:0:0:
192,192,120191,1,0,0:0:0:0:
64,192,120271,1,0,0:0:0:0:
448,192,120271,1,0,0:0:0:0:
320,192,120352,1,0,0:0:0:0:
448,192,120432,1,0,0:0:0:0:
64,192,120432,128,0,120755:0:0:0:0:
192,192,120432,128,0,120755:0:0:0:0:
320,192,120755,1,0,0:0:0:0:
448,192,120755,1,0,0:0:0:0:
320,192,120916,128,0,121239:0:0:0:0:
448,192,120916,128,0,121239:0:0:0:0:
64,192,120916,1,0,0:0:0:0:
64,192,121239,1,0,0:0:0:0:
192,192,121239,1,0,0:0:0:0:
64,192,121400,1,0,0:0:0:0:
320,192,121400,1,0,0:0:0:0:
448,192,121400,1,0,0:0:0:0:
192,192,121481,1,0,0:0:0:0:
64,192,121562,1,0,0:0:0:0:
448,192,121562,1,0,0:0:0:0:
320,192,121642,1,0,0:0:0:0:
448,192,121723,1,0,0:0:0:0:
192,192,121723,128,0,122852:0:0:0:0:
64,192,121723,128,0,122852:0:0:0:0:
448,192,122045,1,0,0:0:0:0:
320,192,122045,1,0,0:0:0:0:
448,192,122368,1,0,0:0:0:0:
320,192,122368,1,0,0:0:0:0:
448,192,122529,1,0,0:0:0:0:
320,192,122529,1,0,0:0:0:0:
320,192,122691,1,0,0:0:0:0:
448,192,122691,1,0,0:0:0:0:
320,192,122852,1,0,0:0:0:0:
448,192,122852,1,0,0:0:0:0:
64,192,123013,1,0,0:0:0:0:
192,192,123013,1,0,0:0:0:0:
448,192,123013,128,0,123658:0:0:0:0:
64,192,123174,1,0,0:0:0:0:
192,192,123174,1,0,0:0:0:0:
320,192,123336,1,0,0:0:0:0:
192,192,123336,1,0,0:0:0:0:
64,192,123497,1,0,0:0:0:0:
320,192,123578,1,0,0:0:0:0:
192,192,123658,1,0,0:0:0:0:
64,192,123658,128,0,124142:0:0:0:0:
448,192,123820,1,0,0:0:0:0:
320,192,123820,1,0,0:0:0:0:
192,192,123981,1,0,0:0:0:0:
448,192,123981,1,0,0:0:0:0:
192,192,124142,1,0,0:0:0:0:
320,192,124142,1,0,0:0:0:0:
64,192,124303,1,0,0:0:0:0:
320,192,124303,1,0,0:0:0:0:
448,192,124303,1,0,0:0:0:0:
