osu file format v14

[General]
AudioFilename: audioLunatic206.399993896484BPM.mp3
AudioLeadIn: 0
PreviewTime: 95541
Countdown: 0
SampleSet: Soft
StackLeniency: 0.7
Mode: 0
LetterboxInBreaks: 0
WidescreenStoryboard: 1

[Editor]
DistanceSpacing: 0.6
BeatDivisor: 2
GridSize: 32
TimelineZoom: 1.8

[Metadata]
Title:Voyage 1969 & Voyage 1970
TitleUnicode:Voyage 1969 & Voyage 1970
Artist:Toho Grand Orchestra
ArtistUnicode:Toho Grand Orchestra
Creator:Exile-
Version:Lunatic (221 BPM)
Source:
Tags:
BeatmapID:1308198
BeatmapSetID:620512

[Difficulty]
HPDrainRate:5
CircleSize:4
OverallDifficulty:5
ApproachRate:10
SliderMultiplier:1.414
SliderTickRate:1

[Events]
//Background and Video events
0,0,"violin.jpg",0,0
//Break Periods
//Storyboard Layer 0 (Background)
//Storyboard Layer 1 (Fail)
//Storyboard Layer 2 (Pass)
//Storyboard Layer 3 (Foreground)
//Storyboard Sound Samples

[TimingPoints]
7334,271.7391,4,2,0,20,1,0
7334,-133.3333,4,2,1,20,0,0
16029,-80,4,2,1,25,0,0
20378,-57.14286,4,2,1,35,0,0
22551,-57.14286,4,2,1,25,0,0
31247,-57.14286,4,2,1,35,0,0
66030,-80,4,2,1,25,0,0
72551,-80,4,2,1,35,0,0
79617,-40,4,2,1,50,0,1
105024,-80,4,2,1,50,0,1
105704,-40,4,2,1,50,0,1
120921,290.6977,4,2,1,40,1,0

[HitObjects]
256,192,5772,5,0,0:0:0:0:
256,192,5839,12,0,7198,0:0:0:0:
224,109,7334,6,0,P|268:118|305:103,1,70.7
347,180,7606,2,0,P|316:204|313:240,1,52.5
215,255,7878,2,0,P|174:222|148:226,1,52.5
93,159,8149,2,0,P|129:153|155:131,1,52.5
207,62,8421,6,0,L|217:134,1,52.5
318,129,8693,2,0,L|306:201,1,52.5
209,213,8965,2,0,L|228:279,1,52.5
327,275,9236,2,0,L|312:340,1,52.5
215,360,9440,1,0,0:0:0:0:
215,360,9508,6,0,P|190:351|164:352,1,52.5
91,276,9780,2,0,P|115:267|141:268,1,52.5
203,183,10051,2,0,P|178:174|152:175,1,52.5
79,99,10323,2,0,P|103:90|129:91,1,52.5
224,43,10594,6,0,L|162:22,1,52.5
265,77,10867,2,0,L|203:56,1,52.5
302,118,11139,2,0,L|240:97,1,52.5
343,152,11410,2,0,L|281:131,1,52.5
200,185,11614,1,0,0:0:0:0:
200,185,11682,6,0,P|190:227|201:254,1,52.5
283,286,11954,2,0,P|293:244|282:217,1,52.5
272,132,12225,2,0,P|270:105|280:81,1,52.5
371,133,12497,2,0,P|372:159|362:183,1,52.5
290,259,12769,6,0,L|233:253,1,52.5
188,161,13040,2,0,L|152:221,1,52.5
56,196,13312,2,0,L|68:267,1,52.5
6,335,13584,2,0,L|76:348,1,52.5
162,355,13788,1,0,0:0:0:0:
162,355,13856,6,0,P|197:345|232:356,1,52.5
309,307,14128,2,0,P|344:297|379:308,1,52.5
435,226,14399,2,0,P|400:216|365:227,1,52.5
288,178,14671,2,0,P|253:168|218:179,1,52.5
256,192,14944,12,0,15894,0:0:0:0:
162,142,16029,6,0,P|143:81|169:43,1,87.5
373,105,16301,2,0,P|319:157|283:142,1,87.5
226,333,16573,2,0,P|210:274|239:224,1,87.5
31,171,16845,2,0,P|92:156|137:177,1,87.5
360,316,17117,6,0,P|419:328|453:306,1,87.5
436,80,17389,2,0,P|377:68|343:90,1,87.5
360,316,17660,2,0,P|419:328|453:306,1,87.5
436,80,17932,2,0,P|377:68|343:90,1,87.5
205,253,18135,1,0,0:0:0:0:
205,253,18204,6,0,L|103:239,1,87.5
61,72,18475,2,0,L|163:58,1,87.5
400,288,18747,2,0,L|298:274,1,87.5
267,43,19019,2,0,L|369:29,1,87.5
400,288,19290,6,0,P|407:341|385:380,1,87.5
285,201,19562,2,0,P|278:148|300:109,1,87.5
491,301,19834,2,0,P|498:354|476:393,1,87.5
193,194,20106,2,0,P|186:141|208:102,1,87.5
437,44,20310,1,0,0:0:0:0:
437,44,20378,6,0,L|352:50,1,61.25
130,69,20649,2,0,L|215:75,1,61.25
476,88,20921,2,0,L|391:94,1,61.25
65,111,21193,2,0,L|150:117,1,61.25
493,138,21464,5,2,0:0:0:0:
395,145,21600,1,0,0:0:0:0:
297,152,21736,1,2,0:0:0:0:
199,159,21872,1,0,0:0:0:0:
38,226,22008,5,2,0:0:0:0:
160,235,22144,1,0,0:0:0:0:
282,244,22279,1,2,0:0:0:0:
404,254,22415,1,0,0:0:0:0:
302,349,22551,5,4,0:0:0:0:
327,213,22687,1,0,0:0:0:0:
417,306,22823,1,0,0:0:0:0:
271,268,22959,1,0,0:0:0:0:
373,171,23095,1,0,0:0:0:0:
339,312,23231,1,0,0:0:0:0:
290,179,23367,1,0,0:0:0:0:
415,93,23503,1,0,0:0:0:0:
404,247,23639,5,0,0:0:0:0:
326,102,23774,1,0,0:0:0:0:
464,162,23910,1,0,0:0:0:0:
320,220,24046,1,0,0:0:0:0:
245,87,24182,1,0,0:0:0:0:
386,155,24318,1,0,0:0:0:0:
234,199,24454,1,0,0:0:0:0:
324,47,24589,1,0,0:0:0:0:
276,288,24725,5,4,0:0:0:0:
145,211,24861,1,0,0:0:0:0:
186,339,24997,1,0,0:0:0:0:
62,257,25133,1,0,0:0:0:0:
220,262,25269,1,0,0:0:0:0:
94,162,25404,1,0,0:0:0:0:
263,175,25540,1,0,0:0:0:0:
137,78,25676,1,0,0:0:0:0:
158,224,25812,5,0,0:0:0:0:
248,90,25948,1,0,0:0:0:0:
260,257,26084,1,0,0:0:0:0:
352,99,26220,1,0,0:0:0:0:
202,169,26356,1,0,0:0:0:0:
394,180,26492,1,0,0:0:0:0:
239,253,26628,1,0,0:0:0:0:
431,264,26764,1,0,0:0:0:0:
202,345,26899,5,4,0:0:0:0:
170,203,27035,1,0,0:0:0:0:
296,306,27171,1,0,0:0:0:0:
268,165,27307,1,0,0:0:0:0:
193,323,27443,1,0,0:0:0:0:
157,161,27579,1,0,0:0:0:0:
297,284,27714,1,0,0:0:0:0:
261,131,27850,1,0,0:0:0:0:
29,274,27986,5,4,0:0:0:0:
73,125,28122,1,0,0:0:0:0:
127,303,28258,1,0,0:0:0:0:
174,133,28394,1,0,0:0:0:0:
38,238,28529,1,0,0:0:0:0:
88,82,28665,1,0,0:0:0:0:
139,261,28801,1,0,0:0:0:0:
190,88,28937,1,0,0:0:0:0:
379,293,29073,5,4,0:0:0:0:
345,145,29209,1,0,0:0:0:0:
463,271,29344,1,0,0:0:0:0:
429,112,29480,1,0,0:0:0:0:
362,263,29616,1,0,0:0:0:0:
332,115,29753,1,0,0:0:0:0:
450,236,29889,1,0,0:0:0:0:
412,80,30024,1,0,0:0:0:0:
346,232,30160,5,0,0:0:0:0:
311,78,30296,1,0,0:0:0:0:
435,205,30432,1,0,0:0:0:0:
399,39,30568,1,0,0:0:0:0:
328,204,30704,1,0,0:0:0:0:
290,38,30839,1,0,0:0:0:0:
426,180,30975,1,0,0:0:0:0:
381,2,31111,1,0,0:0:0:0:
251,230,31247,5,2,0:0:0:0:
106,228,31383,1,0,0:0:0:0:
251,230,31519,1,0,0:0:0:0:
180,23,31654,1,0,0:0:0:0:
251,230,31790,1,2,0:0:0:0:
106,228,31926,1,0,0:0:0:0:
251,230,32062,1,0,0:0:0:0:
344,91,32198,2,0,P|358:72|397:61,1,61.25
412,138,32334,6,0,P|369:169|271:117,1,122.5
104,60,32606,1,0,0:0:0:0:
104,237,32742,1,0,0:0:0:0:
244,100,32878,1,0,0:0:0:0:
30,105,33014,1,0,0:0:0:0:
188,275,33150,1,0,0:0:0:0:
187,46,33285,1,8,0:0:0:0:
373,241,33421,5,10,0:0:0:0:
481,155,33557,1,0,0:0:0:0:
373,241,33693,1,0,0:0:0:0:
286,37,33829,1,0,0:0:0:0:
211,241,33965,1,2,0:0:0:0:
103,155,34100,1,0,0:0:0:0:
211,241,34236,1,0,0:0:0:0:
352,95,34372,2,0,L|427:80,1,61.25
474,94,34508,2,0,L|321:95,1,122.5
132,227,34780,5,2,0:0:0:0:
315,227,34915,1,8,0:0:0:0:
185,98,35051,1,2,0:0:0:0:
192,295,35187,1,8,0:0:0:0:
352,148,35323,1,0,0:0:0:0:
113,145,35459,1,8,0:0:0:0:
413,314,35595,5,10,0:0:0:0:
475,190,35731,1,0,0:0:0:0:
413,314,35867,1,0,0:0:0:0:
227,190,36003,1,0,0:0:0:0:
413,66,36139,1,2,0:0:0:0:
475,190,36275,1,0,0:0:0:0:
413,66,36410,1,0,0:0:0:0:
296,298,36546,2,0,P|255:324|211:311,1,61.25
240,249,36682,6,0,L|239:117,1,122.5
337,34,36954,1,0,0:0:0:0:
143,73,37090,1,0,0:0:0:0:
365,136,37225,1,0,0:0:0:0:
126,184,37361,1,0,0:0:0:0:
391,239,37497,1,0,0:0:0:0:
109,289,37633,1,8,0:0:0:0:
102,40,37769,6,0,B|139:34|162:6|162:6|160:199|160:199|127:209|127:209|197:209,1,367.5
340,114,38312,2,0,B|304:122|287:99|283:70|293:45|311:30|359:11|377:34|381:56|376:76|371:122|371:122|368:202|322:209|270:184,1,367.5
86,313,38856,5,0,0:0:0:0:
268,343,38992,1,0,0:0:0:0:
406,150,39128,1,2,0:0:0:0:
370,314,39264,1,8,0:0:0:0:
198,106,39400,1,2,0:0:0:0:
222,262,39535,1,8,0:0:0:0:
400,47,39671,1,2,0:0:0:0:
373,230,39807,1,0,0:0:0:0:
119,62,39943,5,2,0:0:0:0:
261,38,40079,1,0,0:0:0:0:
119,62,40215,1,0,0:0:0:0:
172,270,40350,1,0,0:0:0:0:
418,330,40486,1,2,0:0:0:0:
412,190,40622,1,0,0:0:0:0:
418,330,40758,1,0,0:0:0:0:
405,103,40894,2,0,L|402:27,1,61.25
361,13,41029,6,0,L|369:157,1,122.5
296,295,41301,1,0,0:0:0:0:
108,292,41437,1,0,0:0:0:0:
241,161,41573,1,0,0:0:0:0:
244,365,41709,1,0,0:0:0:0:
77,210,41845,1,0,0:0:0:0:
325,212,41981,1,8,0:0:0:0:
137,41,42117,5,10,0:0:0:0:
23,143,42253,1,0,0:0:0:0:
137,41,42389,1,0,0:0:0:0:
256,196,42524,1,0,0:0:0:0:
375,41,42660,1,2,0:0:0:0:
489,143,42796,1,0,0:0:0:0:
375,41,42932,1,0,0:0:0:0:
256,196,43068,2,0,P|252:246|232:265,1,61.25
178,217,43204,6,0,P|232:201|321:227,1,122.5
471,315,43475,1,2,0:0:0:0:
413,123,43611,1,8,0:0:0:0:
355,331,43747,1,2,0:0:0:0:
413,96,43883,1,8,0:0:0:0:
484,348,44019,1,2,0:0:0:0:
413,59,44154,1,8,0:0:0:0:
257,279,44290,5,10,0:0:0:0:
103,237,44426,1,0,0:0:0:0:
257,279,44562,1,0,0:0:0:0:
239,54,44698,1,0,0:0:0:0:
257,279,44834,1,2,0:0:0:0:
103,237,44970,1,0,0:0:0:0:
257,279,45106,1,0,0:0:0:0:
353,115,45242,2,0,P|382:89|423:92,1,61.25
419,167,45378,6,0,P|365:195|305:178,1,122.5
103,103,45649,1,0,0:0:0:0:
107,268,45785,1,0,0:0:0:0:
243,143,45921,1,0,0:0:0:0:
29,157,46057,1,0,0:0:0:0:
199,296,46193,1,0,0:0:0:0:
182,86,46329,1,8,0:0:0:0:
435,310,46464,5,10,0:0:0:0:
290,322,46600,1,0,0:0:0:0:
435,310,46736,1,0,0:0:0:0:
355,103,46872,1,0,0:0:0:0:
435,310,47008,1,2,0:0:0:0:
290,322,47144,1,0,0:0:0:0:
435,310,47279,1,0,0:0:0:0:
355,103,47415,1,0,0:0:0:0:
88,125,47551,6,0,B|122:116|153:129|153:129|156:118|156:118|184:125|213:118|213:118|135:341,1,367.5
108,226,48095,2,0,L|230:226,1,122.5
230,226,48367,2,0,L|108:226,1,122.5
254,31,48639,5,2,0:0:0:0:
395,107,48774,1,0,0:0:0:0:
254,31,48910,1,0,0:0:0:0:
173,235,49046,1,0,0:0:0:0:
284,6,49182,1,2,0:0:0:0:
425,82,49318,1,0,0:0:0:0:
284,6,49454,1,0,0:0:0:0:
374,264,49589,2,0,P|406:278|439:274,1,61.25
374,264,49725,6,0,P|354:346|293:363,1,122.5
153,183,49997,1,0,0:0:0:0:
347,185,50133,1,0,0:0:0:0:
215,317,50269,1,0,0:0:0:0:
215,113,50404,1,0,0:0:0:0:
382,265,50540,1,0,0:0:0:0:
143,267,50676,1,8,0:0:0:0:
356,66,50812,5,10,0:0:0:0:
484,143,50948,1,0,0:0:0:0:
356,66,51084,1,0,0:0:0:0:
109,151,51220,1,0,0:0:0:0:
356,220,51356,1,2,0:0:0:0:
484,143,51492,1,0,0:0:0:0:
356,220,51628,1,0,0:0:0:0:
109,151,51764,2,0,P|85:107|93:74,1,61.25
166,93,51899,6,0,P|194:147|156:217,1,122.5
50,278,52171,1,2,0:0:0:0:
73,296,52239,1,0,0:0:0:0:
102,303,52307,1,0,0:0:0:0:
132,302,52375,1,0,0:0:0:0:
161,293,52443,1,2,0:0:0:0:
187,277,52511,1,0,0:0:0:0:
214,263,52579,1,0,0:0:0:0:
243,255,52646,1,0,0:0:0:0:
273,256,52714,1,2,0:0:0:0:
302,264,52782,1,0,0:0:0:0:
328,279,52850,1,8,0:0:0:0:
352,298,52919,1,0,0:0:0:0:
357,327,52986,5,10,0:0:0:0:
430,204,53122,1,0,0:0:0:0:
357,327,53258,1,0,0:0:0:0:
256,125,53394,1,0,0:0:0:0:
155,327,53529,1,2,0:0:0:0:
82,204,53665,1,0,0:0:0:0:
155,327,53801,1,0,0:0:0:0:
318,206,53937,2,0,L|400:199,1,61.25
449,242,54073,6,0,P|412:186|445:121,1,122.5
249,48,54345,1,0,0:0:0:0:
251,241,54481,1,0,0:0:0:0:
400,100,54617,1,0,0:0:0:0:
174,100,54753,1,0,0:0:0:0:
347,279,54889,1,0,0:0:0:0:
328,36,55024,1,8,0:0:0:0:
56,195,55160,6,0,B|97:168|155:175|183:264|135:299|75:341|75:341|106:331|133:340|149:335|175:341|228:329,1,367.5
330,103,55704,2,0,B|296:200|296:200|379:200|379:200|380:175|380:175|381:349,1,367.5
170,244,56247,5,0,0:0:0:0:
225,46,56383,1,0,0:0:0:0:
393,137,56519,1,2,0:0:0:0:
166,127,56654,1,8,0:0:0:0:
322,269,56790,1,2,0:0:0:0:
103,203,56926,1,8,0:0:0:0:
160,384,57062,1,2,0:0:0:0:
9,236,57198,1,8,0:0:0:0:
175,57,57334,5,2,0:0:0:0:
202,43,57402,1,0,0:0:0:0:
232,42,57469,1,0,0:0:0:0:
260,53,57538,1,0,0:0:0:0:
268,82,57605,1,0,0:0:0:0:
259,111,57674,1,0,0:0:0:0:
234,129,57742,1,0,0:0:0:0:
205,140,57809,1,0,0:0:0:0:
128,179,57878,5,2,0:0:0:0:
99,190,57945,1,0,0:0:0:0:
74,208,58014,1,0,0:0:0:0:
65,237,58082,1,0,0:0:0:0:
73,266,58149,1,0,0:0:0:0:
101,277,58218,1,0,0:0:0:0:
130,278,58285,2,0,P|166:259|197:258,1,61.25
246,306,58421,6,0,P|226:246|251:177,1,122.5
317,43,58693,1,0,0:0:0:0:
301,69,58760,1,0,0:0:0:0:
280,91,58829,1,0,0:0:0:0:
251,100,58897,1,0,0:0:0:0:
220,96,58964,1,0,0:0:0:0:
190,85,59033,1,0,0:0:0:0:
159,81,59100,1,0,0:0:0:0:
128,84,59169,1,0,0:0:0:0:
102,100,59236,1,0,0:0:0:0:
81,123,59304,1,0,0:0:0:0:
75,152,59372,2,0,P|80:193|132:221,1,61.25
236,318,59508,5,10,0:0:0:0:
264,328,59576,1,0,0:0:0:0:
294,328,59644,1,0,0:0:0:0:
323,319,59712,1,0,0:0:0:0:
347,300,59779,1,0,0:0:0:0:
362,273,59848,1,0,0:0:0:0:
365,242,59915,1,0,0:0:0:0:
356,212,59984,1,0,0:0:0:0:
319,135,60051,5,2,0:0:0:0:
310,105,60119,1,0,0:0:0:0:
313,74,60187,1,0,0:0:0:0:
328,47,60254,1,0,0:0:0:0:
352,28,60323,1,0,0:0:0:0:
381,19,60391,1,0,0:0:0:0:
411,19,60459,2,0,P|449:21|485:43,1,61.25
423,100,60594,2,0,P|400:149|427:219,1,122.5
487,314,60866,5,0,0:0:0:0:
460,299,60934,1,0,0:0:0:0:
430,289,61002,1,0,0:0:0:0:
399,287,61070,1,0,0:0:0:0:
369,294,61138,1,0,0:0:0:0:
342,309,61206,1,0,0:0:0:0:
312,318,61274,1,0,0:0:0:0:
281,320,61342,1,0,0:0:0:0:
251,312,61409,1,0,0:0:0:0:
223,298,61478,1,0,0:0:0:0:
195,284,61546,2,0,P|160:276|111:291,1,61.25
41,324,61682,5,10,0:0:0:0:
21,300,61749,1,0,0:0:0:0:
17,269,61818,1,0,0:0:0:0:
25,239,61886,1,0,0:0:0:0:
45,215,61954,1,0,0:0:0:0:
71,199,62022,1,0,0:0:0:0:
101,202,62089,1,0,0:0:0:0:
125,220,62158,1,0,0:0:0:0:
174,290,62225,5,2,0:0:0:0:
198,308,62293,1,0,0:0:0:0:
228,311,62361,1,0,0:0:0:0:
254,295,62429,1,0,0:0:0:0:
274,271,62497,1,0,0:0:0:0:
282,241,62565,1,0,0:0:0:0:
278,210,62633,2,0,P|265:142|281:118,1,61.25
284,66,62769,2,0,P|212:88|156:62,1,122.5
42,90,63040,5,0,0:0:0:0:
70,78,63108,1,0,0:0:0:0:
100,78,63176,1,0,0:0:0:0:
124,96,63244,1,0,0:0:0:0:
138,122,63312,1,0,0:0:0:0:
138,152,63380,1,0,0:0:0:0:
154,177,63448,1,0,0:0:0:0:
180,193,63516,1,0,0:0:0:0:
209,198,63584,1,0,0:0:0:0:
239,195,63652,1,0,0:0:0:0:
267,182,63719,1,8,0:0:0:0:
287,159,63788,1,0,0:0:0:0:
290,128,63856,5,10,0:0:0:0:
148,67,63992,1,0,0:0:0:0:
290,128,64128,1,0,0:0:0:0:
182,316,64264,1,0,0:0:0:0:
290,128,64399,1,2,0:0:0:0:
148,67,64535,1,0,0:0:0:0:
290,128,64671,1,0,0:0:0:0:
182,316,64807,1,0,0:0:0:0:
400,58,64943,6,0,B|316:98|208:45|208:45|197:176|197:176|344:133|394:183|430:237|420:360|319:413|165:305,1,857.5
38,97,66030,6,0,L|22:143,1,43.75
77,107,66165,2,0,L|73:161,1,43.75
124,108,66302,2,0,L|132:158,1,43.75
168,94,66438,2,0,L|196:141,1,43.75
202,68,66573,2,0,L|258:100,1,43.75
219,26,66710,2,0,L|290:36,1,43.75
401,88,66845,6,0,L|348:109,1,43.75
409,159,66981,2,0,L|346:157,1,43.75
400,224,67117,2,0,L|336:197,1,43.75
363,274,67253,2,0,L|330:237,1,43.75
299,302,67389,2,0,L|292:252,1,43.75
237,304,67525,2,0,L|245:255,1,43.75
63,267,67660,6,0,L|119:295,1,43.75
77,213,67796,2,0,L|133:241,1,43.75
94,164,67932,2,0,L|150:192,1,43.75
108,110,68068,2,0,L|164:138,1,43.75
130,60,68204,2,0,L|186:88,1,43.75
144,6,68340,2,0,L|200:34,1,43.75
350,147,68475,6,0,L|357:84,1,43.75
294,152,68611,2,0,L|301:89,1,43.75
242,153,68747,2,0,L|249:90,1,43.75
187,158,68883,2,0,L|194:95,1,43.75
132,154,69019,2,0,L|139:91,1,43.75
77,160,69155,2,0,L|84:97,1,43.75
188,271,69290,6,0,L|176:320,1,43.75
250,211,69426,2,0,L|261:161,1,43.75
267,299,69563,2,0,L|255:348,1,43.75
329,239,69699,2,0,L|340:189,1,43.75
347,322,69835,2,0,L|335:371,1,43.75
409,262,69970,2,0,L|420:212,1,43.75
347,2,70106,6,0,L|358:45,1,43.75
342,171,70242,2,0,L|332:129,1,43.75
259,26,70378,2,0,L|270:69,1,43.75
262,194,70514,2,0,L|252:152,1,43.75
179,49,70650,2,0,L|190:92,1,43.75
183,222,70785,2,0,L|173:180,1,43.75
26,41,70921,6,0,L|107:28,21,43.75
118,102,72415,2,0,L|196:87,1,43.75
315,61,72552,6,0,P|337:97|329:133,1,43.75
374,209,72688,2,0,P|351:172|359:136,1,43.75
239,109,72824,2,0,P|261:145|253:181,1,43.75
298,257,72960,2,0,P|275:220|283:184,1,43.75
170,171,73095,2,0,P|192:207|184:243,1,43.75
229,319,73231,2,0,P|206:282|214:246,1,43.75
27,162,73367,6,0,L|101:155,1,43.75
137,98,73503,2,0,L|211:91,1,43.75
335,212,73639,6,0,P|338:178|319:149,1,43.75
418,100,73775,2,0,P|384:97|355:116,1,43.75
307,7,73910,2,0,P|304:41|323:70,1,43.75
224,119,74046,2,0,P|258:122|287:103,1,43.75
439,197,74182,6,0,P|448:227|445:255,1,43.75
315,234,74318,2,0,P|306:204|309:176,1,43.75
428,219,74454,2,0,P|437:249|434:277,1,43.75
304,256,74590,2,0,P|295:226|298:198,1,43.75
410,250,74725,2,0,P|419:280|416:308,1,43.75
286,287,74861,2,0,P|277:257|280:229,1,43.75
45,158,74997,6,0,P|46:179|54:200,1,43.75
217,203,75133,2,0,P|215:181|208:161,1,43.75
56,136,75269,2,0,P|57:157|65:178,1,43.75
228,181,75405,2,0,P|226:159|219:139,1,43.75
74,104,75540,2,0,P|75:125|83:146,1,43.75
246,150,75676,2,0,P|244:128|237:108,1,43.75
132,256,75812,6,0,P|118:287|126:318,1,43.75
284,265,75948,2,0,P|298:234|290:203,1,43.75
216,241,76084,2,0,P|202:272|210:303,1,43.75
368,250,76220,2,0,P|382:219|374:188,1,43.75
297,224,76356,2,0,P|283:255|291:286,1,43.75
449,233,76492,2,0,P|463:202|455:171,1,43.75
379,89,76628,6,0,P|393:120|385:151,1,43.75
227,98,76764,2,0,P|213:67|221:36,1,43.75
295,74,76900,2,0,P|309:105|301:136,1,43.75
143,83,77035,2,0,P|129:52|137:21,1,43.75
214,57,77171,2,0,P|228:88|220:119,1,43.75
62,66,77307,2,0,P|48:35|56:4,1,43.75
197,169,77443,6,0,L|184:238,1,43.75
146,283,77579,2,0,L|159:214,1,43.75
233,185,77715,2,0,L|197:234,1,43.75
110,267,77850,2,0,L|146:218,1,43.75
267,215,77986,2,0,L|214:242,1,43.75
76,237,78122,2,0,L|129:210,1,43.75
295,244,78258,2,0,L|245:249,1,43.75
48,208,78394,2,0,L|98:203,1,43.75
308,273,78530,2,0,L|245:275,1,43.75
35,179,78665,2,0,L|98:177,1,43.75
312,302,78801,2,0,L|257:296,1,43.75
31,150,78937,2,0,L|86:156,1,43.75
323,336,79073,2,0,L|251:317,1,43.75
20,116,79210,2,0,L|92:135,1,43.75
323,379,79345,2,0,L|268:341,1,43.75
20,73,79481,2,0,L|75:111,1,43.75
370,239,79617,5,4,0:0:0:0:
427,42,79753,1,0,0:0:0:0:
370,239,79889,1,0,0:0:0:0:
168,46,80025,1,0,0:0:0:0:
206,333,80160,1,2,0:0:0:0:
3,283,80296,1,0,0:0:0:0:
206,333,80432,1,0,0:0:0:0:
317,126,80568,2,0,P|344:114|411:136,1,87.5
359,201,80704,6,0,B|313:215|282:201|282:201|272:214|272:214|232:200|192:213,1,175
63,58,80975,1,0,0:0:0:0:
308,57,81111,1,0,0:0:0:0:
131,261,81247,1,0,0:0:0:0:
125,7,81383,1,0,0:0:0:0:
359,192,81519,1,0,0:0:0:0:
59,190,81655,1,8,0:0:0:0:
453,91,81790,5,12,0:0:0:0:
403,308,81926,1,0,0:0:0:0:
453,91,82062,1,0,0:0:0:0:
256,327,82198,1,0,0:0:0:0:
59,91,82334,1,2,0:0:0:0:
109,308,82470,1,0,0:0:0:0:
59,91,82606,1,0,0:0:0:0:
306,174,82742,2,0,P|343:188|413:161,1,87.5
351,105,82878,6,0,L|350:298,1,175
135,323,83149,1,2,0:0:0:0:
142,69,83285,1,8,0:0:0:0:
345,270,83421,1,2,0:0:0:0:
54,267,83557,1,8,0:0:0:0:
268,34,83693,1,2,0:0:0:0:
277,342,83829,1,8,0:0:0:0:
38,112,83964,5,12,0:0:0:0:
255,117,84100,1,0,0:0:0:0:
38,112,84236,1,0,0:0:0:0:
258,265,84372,1,0,0:0:0:0:
472,112,84508,1,2,0:0:0:0:
255,117,84644,1,0,0:0:0:0:
472,112,84779,1,0,0:0:0:0:
258,265,84915,2,0,L|151:271,1,87.5
41,178,85051,6,0,P|136:197|206:138,1,175
451,280,85324,1,0,0:0:0:0:
197,283,85459,1,0,0:0:0:0:
360,76,85595,1,0,0:0:0:0:
375,353,85731,1,0,0:0:0:0:
159,145,85867,1,0,0:0:0:0:
462,146,86003,1,8,0:0:0:0:
137,70,86139,6,0,B|219:48|271:112|262:200|170:227|170:227|267:235|267:347|192:389|99:341,1,525
421,116,86682,2,0,B|351:114|311:168|310:217|308:270|311:352|377:368|443:353|487:323|478:262|468:222|399:209|343:237,1,525
106,323,87225,1,2,0:0:0:0:
49,56,87361,1,2,0:0:0:0:
376,7,87497,1,2,0:0:0:0:
418,19,87565,1,0,0:0:0:0:
441,55,87633,1,0,0:0:0:0:
438,98,87701,1,0,0:0:0:0:
407,128,87769,1,2,0:0:0:0:
363,129,87837,1,0,0:0:0:0:
319,129,87904,1,0,0:0:0:0:
279,148,87973,1,0,0:0:0:0:
261,187,88040,1,2,0:0:0:0:
269,230,88109,1,0,0:0:0:0:
295,264,88176,1,0,0:0:0:0:
337,275,88244,1,0,0:0:0:0:
378,261,88312,5,4,0:0:0:0:
409,51,88448,1,0,0:0:0:0:
378,261,88584,1,0,0:0:0:0:
123,84,88719,1,0,0:0:0:0:
452,313,88856,1,2,0:0:0:0:
483,103,88992,1,0,0:0:0:0:
452,313,89128,1,0,0:0:0:0:
241,222,89264,2,0,P|194:206|147:225,1,87.5
114,147,89399,6,0,P|212:124|316:184,1,175
195,298,89671,1,0,0:0:0:0:
195,53,89807,1,0,0:0:0:0:
396,240,89943,1,0,0:0:0:0:
113,237,90079,1,0,0:0:0:0:
333,41,90214,1,0,0:0:0:0:
333,313,90350,1,8,0:0:0:0:
58,88,90486,5,12,0:0:0:0:
267,78,90622,1,0,0:0:0:0:
58,88,90758,1,0,0:0:0:0:
159,288,90894,1,0,0:0:0:0:
20,13,91029,1,2,0:0:0:0:
229,3,91165,1,0,0:0:0:0:
20,13,91301,1,0,0:0:0:0:
159,288,91437,2,0,P|221:310|271:286,1,87.5
372,223,91573,6,0,P|290:186|208:233,1,175
411,322,91845,1,2,0:0:0:0:
405,69,91981,1,8,0:0:0:0:
187,266,92117,1,2,0:0:0:0:
493,266,92253,1,8,0:0:0:0:
245,13,92389,1,2,0:0:0:0:
255,345,92524,1,8,0:0:0:0:
456,89,92660,5,12,0:0:0:0:
258,113,92796,1,0,0:0:0:0:
456,89,92932,1,0,0:0:0:0:
256,258,93068,1,0,0:0:0:0:
59,10,93204,1,0,0:0:0:0:
257,34,93339,1,0,0:0:0:0:
59,10,93475,1,0,0:0:0:0:
146,269,93611,2,0,L|141:366,1,87.5
78,166,93747,6,0,P|167:140|251:206,1,175
434,283,94019,1,0,0:0:0:0:
176,286,94154,1,0,0:0:0:0:
356,89,94290,1,0,0:0:0:0:
353,346,94426,1,0,0:0:0:0:
123,135,94562,1,0,0:0:0:0:
442,137,94698,1,8,0:0:0:0:
140,286,94834,5,12,0:0:0:0:
112,54,94969,1,0,0:0:0:0:
140,286,95105,1,0,0:0:0:0:
449,242,95242,1,0,0:0:0:0:
140,286,95378,1,2,0:0:0:0:
112,54,95514,1,0,0:0:0:0:
140,286,95649,1,0,0:0:0:0:
449,242,95785,1,0,0:0:0:0:
251,190,95921,6,0,B|203:286|127:310|56:298|14:257|4:222|-2:178|13:128|65:78|143:82|199:88|239:136|252:179|261:192|261:192|272:248|303:280|363:297|418:303|480:266|496:225|508:185|492:154|467:111|433:85|368:66|295:78|269:120|256:139|239:233|239:233,1,1225
109,350,97009,5,2,0:0:0:0:
126,330,97076,1,0,0:0:0:0:
141,309,97144,1,0,0:0:0:0:
148,283,97212,1,0,0:0:0:0:
149,256,97280,1,2,0:0:0:0:
142,230,97348,1,0,0:0:0:0:
124,211,97416,1,0,0:0:0:0:
107,190,97484,1,0,0:0:0:0:
99,165,97552,1,2,0:0:0:0:
99,138,97620,1,0,0:0:0:0:
106,113,97688,1,0,0:0:0:0:
120,91,97755,1,0,0:0:0:0:
141,76,97824,1,2,0:0:0:0:
166,69,97891,1,0,0:0:0:0:
192,69,97959,1,0,0:0:0:0:
216,78,98027,1,0,0:0:0:0:
236,94,98095,1,2,0:0:0:0:
260,103,98163,1,0,0:0:0:0:
286,105,98231,1,0,0:0:0:0:
311,98,98299,1,0,0:0:0:0:
327,77,98367,1,2,0:0:0:0:
327,50,98434,1,0,0:0:0:0:
307,32,98503,1,0,0:0:0:0:
281,27,98570,1,0,0:0:0:0:
261,44,98639,1,2,0:0:0:0:
249,67,98706,1,0,0:0:0:0:
256,92,98774,1,0,0:0:0:0:
273,111,98842,1,0,0:0:0:0:
294,125,98910,1,2,0:0:0:0:
311,144,98978,1,0,0:0:0:0:
322,167,99046,1,0,0:0:0:0:
325,192,99114,1,0,0:0:0:0:
319,217,99182,5,2,0:0:0:0:
286,188,99249,1,0,0:0:0:0:
276,144,99318,1,0,0:0:0:0:
290,103,99385,1,0,0:0:0:0:
322,73,99454,1,2,0:0:0:0:
364,65,99521,1,0,0:0:0:0:
405,78,99589,1,0,0:0:0:0:
433,111,99657,1,0,0:0:0:0:
443,153,99725,1,2,0:0:0:0:
434,196,99794,1,0,0:0:0:0:
403,227,99861,1,0,0:0:0:0:
362,244,99929,1,0,0:0:0:0:
319,234,99997,1,2,0:0:0:0:
291,199,100064,1,0,0:0:0:0:
279,157,100133,1,0,0:0:0:0:
253,121,100200,1,0,0:0:0:0:
213,102,100269,1,2,0:0:0:0:
169,99,100336,1,0,0:0:0:0:
136,127,100404,1,0,0:0:0:0:
129,170,100472,1,0,0:0:0:0:
146,209,100540,1,2,0:0:0:0:
184,230,100609,1,0,0:0:0:0:
227,232,100677,1,0,0:0:0:0:
261,205,100744,1,0,0:0:0:0:
279,165,100813,1,2,0:0:0:0:
268,122,100880,1,0,0:0:0:0:
248,83,100949,1,0,0:0:0:0:
262,41,101016,1,0,0:0:0:0:
301,22,101084,1,2,0:0:0:0:
344,24,101152,1,0,0:0:0:0:
378,51,101220,1,0,0:0:0:0:
388,93,101289,1,0,0:0:0:0:
377,135,101356,5,2,0:0:0:0:
343,126,101424,1,0,0:0:0:0:
307,124,101492,1,0,0:0:0:0:
272,129,101559,1,0,0:0:0:0:
239,141,101628,1,0,0:0:0:0:
204,142,101695,1,0,0:0:0:0:
168,138,101764,1,0,0:0:0:0:
135,126,101831,1,0,0:0:0:0:
102,113,101899,2,0,P|64:105|8:116,1,87.5
314,206,102035,2,0,P|352:214|408:203,1,87.5
85,201,102171,2,0,P|47:193|-9:204,1,87.5
297,294,102307,2,0,P|335:302|391:291,1,87.5
447,39,102443,5,2,0:0:0:0:
396,52,102510,1,0,0:0:0:0:
361,92,102579,1,0,0:0:0:0:
356,143,102646,1,0,0:0:0:0:
376,191,102714,1,0,0:0:0:0:
409,231,102783,1,0,0:0:0:0:
406,283,102850,1,0,0:0:0:0:
374,325,102918,1,0,0:0:0:0:
324,340,102986,2,0,P|264:348|212:330,1,87.5
54,63,103122,2,0,P|114:55|166:73,1,87.5
355,364,103258,2,0,P|295:372|243:354,1,87.5
27,43,103394,2,0,P|87:35|139:53,1,87.5
436,170,103529,5,2,0:0:0:0:
408,191,103597,1,0,0:0:0:0:
373,197,103665,1,0,0:0:0:0:
337,194,103733,1,0,0:0:0:0:
306,177,103801,1,0,0:0:0:0:
274,160,103869,1,0,0:0:0:0:
240,150,103937,1,0,0:0:0:0:
204,147,104005,1,0,0:0:0:0:
170,156,104073,6,0,P|116:205|135:303,1,175
381,298,104345,2,0,P|400:216|342:156,1,175
69,47,104617,5,2,0:0:0:0:
104,71,104684,1,0,0:0:0:0:
145,85,104753,1,0,0:0:0:0:
188,90,104820,1,0,0:0:0:0:
231,87,104889,1,0,0:0:0:0:
273,80,104956,1,0,0:0:0:0:
315,67,105024,6,0,B|326:126|326:126|311:184|311:184|335:245|335:245|296:320|296:320|408:321,1,350
422,65,105704,5,6,0:0:0:0:
144,47,105839,1,0,0:0:0:0:
422,65,105975,1,0,0:0:0:0:
106,197,106111,1,0,0:0:0:0:
422,319,106247,1,2,0:0:0:0:
144,337,106383,1,0,0:0:0:0:
422,319,106519,1,0,0:0:0:0:
252,86,106654,2,0,P|226:40|240:2,1,87.5
426,86,106790,6,0,L|227:85,1,175
94,294,107062,1,0,0:0:0:0:
421,306,107198,1,0,0:0:0:0:
184,29,107334,1,0,0:0:0:0:
199,358,107470,1,0,0:0:0:0:
474,177,107606,2,0,B|473:85|372:102|372:102|279:122|216:99,1,262.5
89,75,107878,5,6,0:0:0:0:
119,317,108014,1,0,0:0:0:0:
89,75,108149,1,0,0:0:0:0:
459,39,108285,1,0,0:0:0:0:
89,75,108421,1,2,0:0:0:0:
119,317,108557,1,0,0:0:0:0:
89,75,108693,1,0,0:0:0:0:
350,293,108829,2,0,P|394:312|444:303,1,87.5
291,222,108964,6,0,P|206:176|106:210,1,175
275,316,109236,1,2,0:0:0:0:
458,83,109372,1,8,0:0:0:0:
277,350,109508,1,2,0:0:0:0:
82,43,109644,1,8,0:0:0:0:
278,378,109779,1,2,0:0:0:0:
484,17,109915,1,8,0:0:0:0:
157,323,110051,5,14,0:0:0:0:
457,319,110187,1,0,0:0:0:0:
157,323,110323,1,0,0:0:0:0:
490,189,110459,1,0,0:0:0:0:
157,61,110595,1,2,0:0:0:0:
457,65,110731,1,0,0:0:0:0:
157,61,110867,1,0,0:0:0:0:
399,254,111003,2,0,L|398:155,1,87.5
319,332,111139,6,0,P|414:359|518:291,1,175
323,118,111410,1,0,0:0:0:0:
53,117,111546,1,0,0:0:0:0:
261,308,111682,1,0,0:0:0:0:
247,36,111818,1,0,0:0:0:0:
22,261,111954,1,0,0:0:0:0:
349,254,112089,1,8,0:0:0:0:
90,53,112225,6,0,B|89:214|89:214|212:62|212:62|212:257,1,525
382,39,112769,2,0,B|316:64|289:120|309:173|318:218|344:249|374:264|402:265|451:238|462:210|472:178|481:141|482:109|446:58|382:36|372:17|356:32|342:38,1,525
112,319,113312,1,0,0:0:0:0:
454,303,113448,1,0,0:0:0:0:
472,34,113584,5,2,0:0:0:0:
457,84,113651,1,0,0:0:0:0:
417,118,113719,1,0,0:0:0:0:
366,131,113787,1,0,0:0:0:0:
315,115,113855,1,2,0:0:0:0:
278,77,113924,1,0,0:0:0:0:
232,49,113992,1,0,0:0:0:0:
180,41,114059,1,0,0:0:0:0:
132,63,114128,1,2,0:0:0:0:
103,106,114195,1,0,0:0:0:0:
97,158,114264,1,0,0:0:0:0:
115,206,114331,1,0,0:0:0:0:
157,237,114399,5,6,0:0:0:0:
381,24,114535,1,0,0:0:0:0:
157,237,114671,1,0,0:0:0:0:
504,308,114807,1,0,0:0:0:0:
60,222,114943,1,2,0:0:0:0:
284,9,115079,1,0,0:0:0:0:
60,222,115214,1,0,0:0:0:0:
401,163,115350,2,0,P|447:147|504:170,1,87.5
306,298,115486,2,0,B|320:239|320:239|303:184|303:184|313:102,1,175
435,194,115758,5,0,0:0:0:0:
82,289,115894,1,0,0:0:0:0:
466,194,116029,1,0,0:0:0:0:
40,84,116165,1,0,0:0:0:0:
493,194,116301,2,0,P|411:287|275:188,1,262.5
191,81,116573,5,6,0:0:0:0:
57,320,116709,1,0,0:0:0:0:
191,81,116844,1,0,0:0:0:0:
257,353,116981,1,0,0:0:0:0:
321,81,117117,1,2,0:0:0:0:
455,320,117253,1,0,0:0:0:0:
321,81,117389,1,0,0:0:0:0:
72,226,117524,2,0,L|171:237,1,87.5
413,209,117660,6,0,L|238:194,1,175
67,43,117932,1,2,0:0:0:0:
103,80,117999,1,0,0:0:0:0:
151,100,118068,1,0,0:0:0:0:
203,100,118135,1,0,0:0:0:0:
247,71,118204,1,2,0:0:0:0:
291,43,118271,1,0,0:0:0:0:
343,37,118340,1,0,0:0:0:0:
387,64,118408,1,0,0:0:0:0:
408,111,118475,1,2,0:0:0:0:
387,159,118544,1,0,0:0:0:0:
344,189,118612,1,8,0:0:0:0:
291,185,118679,1,0,0:0:0:0:
252,149,118748,5,14,0:0:0:0:
500,109,118884,1,0,0:0:0:0:
252,149,119019,1,0,0:0:0:0:
377,371,119154,1,0,0:0:0:0:
200,68,119290,1,2,0:0:0:0:
448,28,119426,1,0,0:0:0:0:
200,68,119562,1,0,0:0:0:0:
455,267,119698,2,0,L|352:273,1,87.5
91,290,119834,6,0,P|168:256|279:315,1,175
441,92,120106,1,0,0:0:0:0:
170,353,120242,1,0,0:0:0:0:
491,201,120378,1,0,0:0:0:0:
96,229,120514,1,0,0:0:0:0:
470,329,120649,1,0,0:0:0:0:
95,112,120785,1,8,0:0:0:0:
416,51,120921,5,10,0:0:0:0:
409,227,121066,1,0,0:0:0:0:
416,51,121212,1,0,0:0:0:0:
185,36,121358,1,0,0:0:0:0:
416,51,121503,5,2,0:0:0:0:
409,227,121648,1,0,0:0:0:0:
416,51,121793,1,0,0:0:0:0:
185,36,121939,1,0,0:0:0:0:
166,344,122084,5,2,0:0:0:0:
