osu file format v14

[General]
AudioFilename: audio.mp3
AudioLeadIn: 0
PreviewTime: 49861
Countdown: 1
SampleSet: Normal
StackLeniency: 0.7
Mode: 1
LetterboxInBreaks: 0
WidescreenStoryboard: 0

[Editor]
DistanceSpacing: 0.8
BeatDivisor: 3
GridSize: 8
TimelineZoom: 1

[Metadata]
Title:Gaikotsu Gakudan to Lilia
TitleUnicode:骸骨楽団とリリア
Artist:Tohma feat. Hatsune Miku
ArtistUnicode:トーマ feat. 初音ミク
Creator:mintong89
Version:Inner Oni
Source:
Tags:Vocaloid Vocalocluster japanese hatsune miku project diva arcade 初音ミク Project mirai 2 初音ミク Project DIVA Future Tone DX
BeatmapID:1985215
BeatmapSetID:950589

[Difficulty]
HPDrainRate:6
CircleSize:5
OverallDifficulty:7
ApproachRate:5
SliderMultiplier:1.4
SliderTickRate:1

[Events]
//Background and Video events
0,0,"Gaikotsu.Gakudan.to.Riria.full.735812_waifu2x_art_noise1_scale_tta_1_waifu2x_art_noise1_scale_tta_1.jpg",0,100
//Break Periods
//Storyboard Layer 0 (Background)
//Storyboard Layer 1 (Fail)
//Storyboard Layer 2 (Pass)
//Storyboard Layer 3 (Foreground)
//Storyboard Layer 4 (Overlay)
//Storyboard Sound Samples

[TimingPoints]
535,230.769230769231,4,1,0,35,1,0
535,-200,4,1,0,35,0,0
7227,-160,4,1,0,35,0,0
7458,-133.333333333333,4,1,0,35,0,0
7688,-114.285714285714,4,1,0,35,0,0
7919,-100,4,1,0,70,0,0
19111,-117.647058823529,4,1,0,60,0,0
22688,-100,4,1,0,70,0,0
26496,-117.647058823529,4,1,0,60,0,0
30073,-100,4,1,0,70,0,0
33535,-117.647058823529,4,1,0,60,0,0
46458,-100,4,1,0,70,0,0
49861,-100,4,1,0,30,0,0
50381,-100,4,1,0,70,0,1
63304,-100,4,1,0,70,0,0
72650,-117.647058823529,4,1,0,60,0,0
76227,-100,4,1,0,70,0,0
80035,-117.647058823529,4,1,0,60,0,0
83611,-100,4,1,0,70,0,0
87419,-117.647058823529,4,1,0,60,0,0
98150,-100,4,1,0,70,0,0
101554,-117.647058823529,4,1,0,30,0,0
102073,-100,4,1,0,70,0,1
114996,-100,4,1,0,70,0,0
121919,307.692307692308,4,1,0,70,1,0
121919,-75,4,1,0,70,0,0
122226,193.548387096774,4,1,0,70,1,0
122226,-119.230769230769,4,1,0,70,0,0
123387,230.769230769231,4,1,0,70,1,0
123848,230.769230769231,4,1,0,70,1,0
129344,230.769230769231,4,1,0,70,1,0
144228,-117.647058823529,4,1,0,60,0,0
159113,-200,4,1,0,40,0,0
162574,-200,4,1,0,60,0,0
163036,-160,4,1,0,60,0,0
163497,-133.333333333333,4,1,0,60,0,0
163959,-114.285714285714,4,1,0,60,0,0
164190,-100,4,1,0,70,0,0
165747,-100,4,1,0,30,0,0
166267,-100,4,1,0,70,0,1
173651,-100,4,1,0,70,0,0
173882,-100,4,1,0,70,0,1
193959,-100,4,1,0,70,0,0
194074,-100,4,1,0,60,0,0
195612,230.769230769231,4,1,0,60,1,0
195612,-50,4,1,0,60,0,0

[HitObjects]
380,211,535,5,0,0:0:0:0:
243,203,765,1,0,0:0:0:0:
243,203,881,1,0,0:0:0:0:
199,84,996,1,8,0:0:0:0:
199,84,1111,1,8,0:0:0:0:
199,112,1227,1,0,0:0:0:0:
199,112,1342,1,8,0:0:0:0:
194,104,1458,1,0,0:0:0:0:
194,104,1573,1,0,0:0:0:0:
194,104,1688,1,8,0:0:0:0:
174,128,1919,1,8,0:0:0:0:
204,72,2035,1,0,0:0:0:0:
204,72,2150,1,8,0:0:0:0:
204,72,2265,1,8,0:0:0:0:
204,72,2381,1,0,0:0:0:0:
219,103,2496,1,8,0:0:0:0:
219,103,2611,1,0,0:0:0:0:
219,103,2727,1,8,0:0:0:0:
219,103,2842,1,0,0:0:0:0:
219,103,2958,1,0,0:0:0:0:
219,103,3073,1,8,0:0:0:0:
219,103,3188,1,8,0:0:0:0:
226,119,3304,1,0,0:0:0:0:
323,216,3419,1,8,0:0:0:0:
323,216,3650,1,8,0:0:0:0:
323,216,3881,1,8,0:0:0:0:
323,216,4111,1,8,0:0:0:0:
296,159,4227,1,0,0:0:0:0:
217,90,4342,1,8,0:0:0:0:
201,227,4458,1,0,0:0:0:0:
201,227,4573,1,8,0:0:0:0:
201,227,4688,1,0,0:0:0:0:
201,227,4804,1,0,0:0:0:0:
201,227,4919,1,8,0:0:0:0:
160,208,5035,1,8,0:0:0:0:
169,161,5150,1,0,0:0:0:0:
169,161,5265,1,8,0:0:0:0:
169,161,5381,1,8,0:0:0:0:
169,161,5496,1,8,0:0:0:0:
169,161,5611,1,0,0:0:0:0:
169,161,5727,1,8,0:0:0:0:
169,161,5842,1,8,0:0:0:0:
169,161,5958,1,0,0:0:0:0:
147,149,6073,1,8,0:0:0:0:
147,149,6304,1,8,0:0:0:0:
147,149,6419,1,0,0:0:0:0:
147,149,6535,1,8,0:0:0:0:
147,149,6650,1,8,0:0:0:0:
147,149,6765,1,0,0:0:0:0:
147,149,6881,1,8,0:0:0:0:
160,186,6996,1,0,0:0:0:0:
160,186,7227,1,8,0:0:0:0:
160,186,7458,1,8,0:0:0:0:
160,186,7688,1,8,0:0:0:0:
88,251,7919,1,0,0:0:0:0:
145,245,7977,1,0,0:0:0:0:
125,244,8035,1,8,0:0:0:0:
145,245,8150,1,8,0:0:0:0:
145,245,8265,1,0,0:0:0:0:
224,284,8381,1,0,0:0:0:0:
224,284,8438,1,0,0:0:0:0:
224,284,8496,1,0,0:0:0:0:
220,278,8611,1,8,0:0:0:0:
153,202,8727,1,0,0:0:0:0:
196,148,8842,1,0,0:0:0:0:
196,148,8958,1,0,0:0:0:0:
196,148,9015,1,0,0:0:0:0:
196,148,9073,1,8,0:0:0:0:
251,199,9188,1,8,0:0:0:0:
267,225,9304,1,0,0:0:0:0:
267,225,9419,1,8,0:0:0:0:
267,225,9477,1,8,0:0:0:0:
267,225,9535,1,0,0:0:0:0:
267,225,9650,1,8,0:0:0:0:
119,182,9765,1,0,0:0:0:0:
119,182,9823,1,0,0:0:0:0:
119,182,9881,1,8,0:0:0:0:
119,182,9996,1,8,0:0:0:0:
119,182,10111,1,8,0:0:0:0:
153,214,10227,1,0,0:0:0:0:
153,214,10285,1,0,0:0:0:0:
153,214,10342,1,0,0:0:0:0:
153,214,10458,1,8,0:0:0:0:
153,214,10574,1,8,0:0:0:0:
142,230,10688,1,0,0:0:0:0:
142,230,10804,1,8,0:0:0:0:
141,229,10861,1,8,0:0:0:0:
141,228,10919,1,0,0:0:0:0:
171,159,11035,1,8,0:0:0:0:
174,216,11150,1,0,0:0:0:0:
174,216,11208,1,0,0:0:0:0:
174,216,11265,1,8,0:0:0:0:
174,216,11323,1,8,0:0:0:0:
174,214,11381,1,0,0:0:0:0:
190,229,11496,1,8,0:0:0:0:
88,251,11611,1,0,0:0:0:0:
145,245,11669,1,0,0:0:0:0:
125,244,11727,1,8,0:0:0:0:
145,245,11842,1,8,0:0:0:0:
145,245,11957,1,0,0:0:0:0:
224,284,12073,1,0,0:0:0:0:
224,284,12130,1,0,0:0:0:0:
224,284,12188,1,0,0:0:0:0:
220,278,12303,1,8,0:0:0:0:
153,202,12419,1,0,0:0:0:0:
196,148,12534,1,0,0:0:0:0:
196,148,12650,1,0,0:0:0:0:
196,148,12707,1,0,0:0:0:0:
196,148,12765,1,8,0:0:0:0:
251,199,12880,1,8,0:0:0:0:
267,225,12996,1,0,0:0:0:0:
267,225,13111,1,8,0:0:0:0:
267,225,13169,1,8,0:0:0:0:
267,225,13227,1,0,0:0:0:0:
267,225,13342,1,8,0:0:0:0:
119,182,13457,1,0,0:0:0:0:
119,182,13515,1,0,0:0:0:0:
119,182,13573,1,8,0:0:0:0:
119,182,13688,1,8,0:0:0:0:
119,182,13803,1,8,0:0:0:0:
153,214,13919,1,0,0:0:0:0:
153,214,13977,1,0,0:0:0:0:
153,214,14034,1,0,0:0:0:0:
153,214,14150,1,8,0:0:0:0:
153,214,14266,1,8,0:0:0:0:
142,230,14380,1,0,0:0:0:0:
142,230,14496,1,8,0:0:0:0:
141,229,14553,1,8,0:0:0:0:
141,228,14611,1,0,0:0:0:0:
171,159,14727,1,8,0:0:0:0:
174,216,14842,1,0,0:0:0:0:
175,72,14900,1,0,0:0:0:0:
175,72,14958,1,0,0:0:0:0:
110,172,15015,1,0,0:0:0:0:
174,214,15073,1,0,0:0:0:0:
190,229,15188,1,8,0:0:0:0:
117,182,15304,1,4,0:0:0:0:
197,217,15535,1,8,0:0:0:0:
313,226,15650,1,0,0:0:0:0:
197,217,15765,1,0,0:0:0:0:
197,217,15881,1,0,0:0:0:0:
197,217,15996,1,8,0:0:0:0:
161,206,16111,1,0,0:0:0:0:
218,239,16342,1,0,0:0:0:0:
218,239,16458,1,8,0:0:0:0:
216,186,16688,1,0,0:0:0:0:
216,186,16804,1,0,0:0:0:0:
266,145,16919,1,6,0:0:0:0:
257,206,17035,1,0,0:0:0:0:
266,145,17150,1,6,0:0:0:0:
284,193,17381,1,8,0:0:0:0:
284,193,17496,1,0,0:0:0:0:
284,193,17611,1,0,0:0:0:0:
284,193,17727,1,0,0:0:0:0:
284,193,17842,1,8,0:0:0:0:
284,193,17958,1,0,0:0:0:0:
76,105,18073,1,8,0:0:0:0:
76,105,18150,1,0,0:0:0:0:
76,105,18227,1,0,0:0:0:0:
76,105,18304,1,8,0:0:0:0:
76,105,18381,1,0,0:0:0:0:
76,105,18458,1,0,0:0:0:0:
76,105,18535,1,8,0:0:0:0:
276,256,18765,1,0,0:0:0:0:
134,168,18996,1,4,0:0:0:0:
210,139,19227,1,8,0:0:0:0:
210,139,19381,1,8,0:0:0:0:
210,139,19458,1,0,0:0:0:0:
221,111,19688,1,8,0:0:0:0:
221,111,19842,1,0,0:0:0:0:
185,60,20073,1,0,0:0:0:0:
185,60,20150,1,8,0:0:0:0:
228,207,20304,1,8,0:0:0:0:
228,207,20381,1,0,0:0:0:0:
228,207,20535,1,8,0:0:0:0:
233,202,20611,1,8,0:0:0:0:
233,202,20765,1,8,0:0:0:0:
233,202,20842,1,0,0:0:0:0:
343,211,21073,1,8,0:0:0:0:
324,234,21304,1,0,0:0:0:0:
240,128,21458,1,0,0:0:0:0:
240,128,21535,1,8,0:0:0:0:
240,128,21688,1,8,0:0:0:0:
155,162,21919,1,0,0:0:0:0:
160,161,21996,1,8,0:0:0:0:
160,161,22150,1,0,0:0:0:0:
160,161,22227,1,8,0:0:0:0:
160,161,22381,1,8,0:0:0:0:
216,192,22458,1,8,0:0:0:0:
419,129,22573,1,8,0:0:0:0:
209,154,22688,1,0,0:0:0:0:
209,154,22746,1,0,0:0:0:0:
214,158,22804,1,8,0:0:0:0:
214,158,22919,1,0,0:0:0:0:
214,158,23035,1,8,0:0:0:0:
242,198,23150,1,0,0:0:0:0:
242,198,23208,1,0,0:0:0:0:
242,198,23265,1,0,0:0:0:0:
242,198,23381,1,8,0:0:0:0:
242,198,23496,1,8,0:0:0:0:
242,198,23611,1,0,0:0:0:0:
242,198,23727,1,8,0:0:0:0:
242,198,23785,1,8,0:0:0:0:
242,198,23842,1,0,0:0:0:0:
242,198,23900,1,0,0:0:0:0:
242,198,23958,1,8,0:0:0:0:
242,198,24073,1,0,0:0:0:0:
243,193,24131,1,0,0:0:0:0:
243,193,24188,1,8,0:0:0:0:
270,109,24304,1,8,0:0:0:0:
270,109,24419,1,0,0:0:0:0:
275,114,24535,1,8,0:0:0:0:
275,114,24592,1,8,0:0:0:0:
275,114,24650,1,0,0:0:0:0:
248,145,24765,1,8,0:0:0:0:
203,120,24881,1,0,0:0:0:0:
203,120,24996,1,0,0:0:0:0:
203,120,25054,1,0,0:0:0:0:
203,120,25111,1,8,0:0:0:0:
203,120,25227,1,0,0:0:0:0:
77,154,25342,1,8,0:0:0:0:
77,154,25458,1,0,0:0:0:0:
77,154,25515,1,0,0:0:0:0:
77,154,25573,1,0,0:0:0:0:
77,154,25631,1,0,0:0:0:0:
77,154,25688,1,8,0:0:0:0:
77,154,25804,1,0,0:0:0:0:
142,192,25919,1,8,0:0:0:0:
142,192,25977,1,8,0:0:0:0:
142,192,26035,1,0,0:0:0:0:
142,192,26150,1,0,0:0:0:0:
142,192,26265,1,0,0:0:0:0:
142,192,26381,1,4,0:0:0:0:
472,255,26611,1,8,0:0:0:0:
472,255,26765,1,8,0:0:0:0:
472,255,26842,1,0,0:0:0:0:
312,196,27073,1,0,0:0:0:0:
312,196,27227,1,8,0:0:0:0:
184,86,27458,1,0,0:0:0:0:
184,86,27535,1,8,0:0:0:0:
203,122,27688,1,8,0:0:0:0:
196,123,27765,1,8,0:0:0:0:
203,122,27919,1,0,0:0:0:0:
203,122,27996,1,8,0:0:0:0:
205,146,28150,1,8,0:0:0:0:
205,146,28227,1,0,0:0:0:0:
181,161,28458,1,8,0:0:0:0:
181,161,28611,1,8,0:0:0:0:
181,161,28688,1,8,0:0:0:0:
294,188,28842,1,0,0:0:0:0:
294,188,28919,1,8,0:0:0:0:
181,161,29073,1,8,0:0:0:0:
294,188,29150,1,0,0:0:0:0:
181,161,29304,1,0,0:0:0:0:
181,161,29381,1,8,0:0:0:0:
181,161,29535,1,0,0:0:0:0:
181,161,29611,1,8,0:0:0:0:
251,133,29842,1,8,0:0:0:0:
264,140,30073,1,0,0:0:0:0:
264,140,30131,1,0,0:0:0:0:
264,140,30188,1,0,0:0:0:0:
216,168,30304,1,8,0:0:0:0:
216,168,30419,1,8,0:0:0:0:
192,198,30535,1,8,0:0:0:0:
192,198,30592,1,8,0:0:0:0:
192,192,30650,1,0,0:0:0:0:
190,189,30765,1,0,0:0:0:0:
189,187,30881,1,8,0:0:0:0:
166,213,30996,1,0,0:0:0:0:
166,213,31054,1,0,0:0:0:0:
166,213,31111,1,8,0:0:0:0:
166,213,31227,1,0,0:0:0:0:
164,148,31342,1,0,0:0:0:0:
164,148,31400,1,0,0:0:0:0:
164,148,31458,1,8,0:0:0:0:
164,148,31515,1,8,0:0:0:0:
164,148,31573,1,8,0:0:0:0:
164,148,31688,1,0,0:0:0:0:
164,148,31804,1,8,0:0:0:0:
164,148,31919,1,0,0:0:0:0:
164,148,32035,1,8,0:0:0:0:
164,148,32092,1,8,0:0:0:0:
164,148,32150,1,0,0:0:0:0:
201,101,32265,1,0,0:0:0:0:
164,148,32381,1,8,0:0:0:0:
201,101,32496,1,0,0:0:0:0:
201,101,32554,1,0,0:0:0:0:
201,101,32611,1,8,0:0:0:0:
201,101,32727,1,8,0:0:0:0:
203,110,32842,1,0,0:0:0:0:
155,213,32958,1,0,0:0:0:0:
155,213,33015,1,0,0:0:0:0:
155,213,33073,1,8,0:0:0:0:
155,213,33131,1,8,0:0:0:0:
155,213,33188,1,0,0:0:0:0:
311,164,33304,1,8,0:0:0:0:
177,167,33535,1,8,0:0:0:0:
177,167,33650,1,0,0:0:0:0:
177,167,33765,1,4,0:0:0:0:
175,91,33996,1,0,0:0:0:0:
175,91,34111,1,8,0:0:0:0:
269,97,34342,1,8,0:0:0:0:
175,91,34573,1,0,0:0:0:0:
175,91,34804,1,8,0:0:0:0:
175,91,34919,1,0,0:0:0:0:
175,91,35035,1,0,0:0:0:0:
175,91,35150,1,8,0:0:0:0:
272,236,35381,1,0,0:0:0:0:
272,236,35496,1,8,0:0:0:0:
247,130,35611,1,0,0:0:0:0:
255,196,35842,1,8,0:0:0:0:
278,107,36073,1,8,0:0:0:0:
278,107,36188,1,8,0:0:0:0:
278,107,36304,1,0,0:0:0:0:
278,107,36419,1,8,0:0:0:0:
278,107,36650,1,0,0:0:0:0:
278,107,36765,1,8,0:0:0:0:
278,107,36880,1,0,0:0:0:0:
278,107,36996,1,8,0:0:0:0:
198,149,37227,1,8,0:0:0:0:
198,149,37342,1,0,0:0:0:0:
106,235,37458,1,4,0:0:0:0:
275,186,37688,1,0,0:0:0:0:
275,186,37804,1,8,0:0:0:0:
275,186,37919,1,0,0:0:0:0:
275,186,38035,1,0,0:0:0:0:
275,186,38150,1,8,0:0:0:0:
275,186,38265,1,8,0:0:0:0:
275,186,38496,1,0,0:0:0:0:
275,186,38611,1,8,0:0:0:0:
275,186,38727,1,8,0:0:0:0:
275,186,38842,1,0,0:0:0:0:
275,186,38958,1,8,0:0:0:0:
275,186,39073,1,8,0:0:0:0:
275,186,39188,1,8,0:0:0:0:
275,186,39304,1,0,0:0:0:0:
204,204,39535,1,0,0:0:0:0:
204,204,39650,1,0,0:0:0:0:
204,204,39708,1,0,0:0:0:0:
204,204,39765,1,8,0:0:0:0:
204,204,39881,1,0,0:0:0:0:
204,204,39996,1,8,0:0:0:0:
204,204,40111,1,8,0:0:0:0:
204,204,40227,1,0,0:0:0:0:
204,204,40342,1,8,0:0:0:0:
204,204,40458,1,8,0:0:0:0:
204,204,40573,1,0,0:0:0:0:
222,124,40688,1,0,0:0:0:0:
222,124,40804,1,6,0:0:0:0:
172,188,41035,1,0,0:0:0:0:
222,124,41150,1,4,0:0:0:0:
152,157,41381,1,8,0:0:0:0:
152,157,41496,1,8,0:0:0:0:
169,97,41727,1,8,0:0:0:0:
169,97,41958,1,8,0:0:0:0:
208,105,42188,1,8,0:0:0:0:
208,105,42304,1,0,0:0:0:0:
208,105,42419,1,0,0:0:0:0:
208,105,42535,1,8,0:0:0:0:
233,156,42765,1,0,0:0:0:0:
233,156,42881,1,8,0:0:0:0:
233,156,42996,1,0,0:0:0:0:
259,107,43227,1,8,0:0:0:0:
259,107,43458,1,8,0:0:0:0:
259,107,43573,1,8,0:0:0:0:
259,107,43688,1,0,0:0:0:0:
259,107,43804,1,8,0:0:0:0:
251,108,44035,1,0,0:0:0:0:
252,108,44150,1,8,0:0:0:0:
252,108,44265,1,8,0:0:0:0:
252,108,44381,1,0,0:0:0:0:
252,108,44611,1,8,0:0:0:0:
252,108,44727,1,0,0:0:0:0:
252,108,44842,1,4,0:0:0:0:
156,196,45073,1,8,0:0:0:0:
156,196,45188,1,8,0:0:0:0:
174,190,45419,1,8,0:0:0:0:
174,190,45650,1,0,0:0:0:0:
152,121,45881,1,8,0:0:0:0:
152,121,45996,1,8,0:0:0:0:
152,121,46111,1,0,0:0:0:0:
152,121,46227,1,8,0:0:0:0:
179,195,46458,1,8,0:0:0:0:
179,195,46573,1,0,0:0:0:0:
246,209,46688,1,0,0:0:0:0:
246,209,46746,1,0,0:0:0:0:
246,209,46804,1,0,0:0:0:0:
246,209,46919,1,8,0:0:0:0:
246,209,47035,1,0,0:0:0:0:
246,209,47150,1,0,0:0:0:0:
246,209,47208,1,0,0:0:0:0:
246,209,47265,1,8,0:0:0:0:
246,209,47381,1,8,0:0:0:0:
246,209,47496,1,0,0:0:0:0:
83,177,47611,1,0,0:0:0:0:
83,177,47669,1,0,0:0:0:0:
83,177,47727,1,0,0:0:0:0:
83,177,47785,1,0,0:0:0:0:
83,177,47842,1,8,0:0:0:0:
168,197,47958,1,0,0:0:0:0:
168,197,48073,1,8,0:0:0:0:
168,197,48188,1,8,0:0:0:0:
168,197,48304,1,0,0:0:0:0:
168,197,48361,1,0,0:0:0:0:
169,191,48419,1,8,0:0:0:0:
207,177,48535,1,0,0:0:0:0:
207,177,48592,1,0,0:0:0:0:
207,177,48650,1,0,0:0:0:0:
207,177,48765,1,8,0:0:0:0:
207,177,48881,1,0,0:0:0:0:
214,160,48996,1,8,0:0:0:0:
214,160,49054,1,8,0:0:0:0:
214,159,49111,1,0,0:0:0:0:
214,159,49169,1,0,0:0:0:0:
214,159,49227,1,8,0:0:0:0:
214,159,49285,1,8,0:0:0:0:
214,159,49342,1,0,0:0:0:0:
214,159,49400,1,0,0:0:0:0:
214,159,49458,1,8,0:0:0:0:
214,159,49573,1,0,0:0:0:0:
214,159,49688,1,8,0:0:0:0:
186,76,49919,1,0,0:0:0:0:
186,76,50150,1,8,0:0:0:0:
152,242,50381,1,0,0:0:0:0:
156,239,50438,1,0,0:0:0:0:
152,242,50496,1,8,0:0:0:0:
195,199,50611,1,0,0:0:0:0:
195,199,50727,1,8,0:0:0:0:
181,205,50842,1,0,0:0:0:0:
181,205,50900,1,0,0:0:0:0:
181,205,50958,1,8,0:0:0:0:
195,200,51073,1,8,0:0:0:0:
195,199,51188,1,0,0:0:0:0:
172,183,51304,1,0,0:0:0:0:
156,84,51419,1,8,0:0:0:0:
172,183,51535,1,8,0:0:0:0:
172,183,51592,1,8,0:0:0:0:
172,183,51650,1,0,0:0:0:0:
172,183,51708,1,0,0:0:0:0:
172,183,51765,1,8,0:0:0:0:
183,71,51881,1,8,0:0:0:0:
183,71,51996,1,0,0:0:0:0:
183,71,52054,1,0,0:0:0:0:
183,71,52111,1,8,0:0:0:0:
187,170,52227,1,0,0:0:0:0:
187,170,52285,1,0,0:0:0:0:
187,170,52342,1,0,0:0:0:0:
190,169,52458,1,8,0:0:0:0:
216,136,52573,1,0,0:0:0:0:
166,83,52688,1,8,0:0:0:0:
166,83,52746,1,8,0:0:0:0:
166,82,52804,1,0,0:0:0:0:
166,84,52919,1,8,0:0:0:0:
166,84,53035,1,8,0:0:0:0:
237,76,53150,1,0,0:0:0:0:
237,76,53265,1,0,0:0:0:0:
237,76,53323,1,0,0:0:0:0:
237,76,53381,1,8,0:0:0:0:
237,76,53438,1,8,0:0:0:0:
237,76,53496,1,0,0:0:0:0:
239,144,53611,1,8,0:0:0:0:
239,144,53669,1,8,0:0:0:0:
239,144,53727,1,0,0:0:0:0:
239,144,53842,1,8,0:0:0:0:
239,144,53900,1,8,0:0:0:0:
239,144,53958,1,0,0:0:0:0:
239,144,54015,1,0,0:0:0:0:
239,144,54073,1,0,0:0:0:0:
260,119,54188,1,0,0:0:0:0:
260,119,54304,1,8,0:0:0:0:
260,119,54419,1,0,0:0:0:0:
260,119,54477,1,0,0:0:0:0:
260,119,54535,1,8,0:0:0:0:
260,119,54650,1,0,0:0:0:0:
233,200,54765,1,8,0:0:0:0:
192,127,54881,1,8,0:0:0:0:
192,127,54938,1,8,0:0:0:0:
150,214,54996,1,0,0:0:0:0:
164,191,55111,1,0,0:0:0:0:
164,191,55227,1,8,0:0:0:0:
179,185,55342,1,0,0:0:0:0:
179,185,55400,1,0,0:0:0:0:
179,185,55458,1,8,0:0:0:0:
179,185,55515,1,8,0:0:0:0:
179,185,55573,1,0,0:0:0:0:
179,184,55688,1,8,0:0:0:0:
99,209,55804,1,0,0:0:0:0:
251,199,55919,1,4,0:0:0:0:
299,182,56150,1,0,0:0:0:0:
299,182,56265,1,0,0:0:0:0:
251,199,56381,1,6,0:0:0:0:
299,182,56611,1,8,0:0:0:0:
299,182,56727,1,8,0:0:0:0:
251,199,56842,1,4,0:0:0:0:
299,182,57073,1,0,0:0:0:0:
299,182,57188,1,0,0:0:0:0:
251,199,57304,1,6,0:0:0:0:
283,177,57419,1,0,0:0:0:0:
299,182,57535,1,8,0:0:0:0:
283,177,57650,1,8,0:0:0:0:
161,260,57765,1,0,0:0:0:0:
161,260,57823,1,0,0:0:0:0:
161,260,57881,1,8,0:0:0:0:
161,260,57996,1,0,0:0:0:0:
161,260,58111,1,8,0:0:0:0:
161,260,58227,1,0,0:0:0:0:
161,260,58285,1,0,0:0:0:0:
161,260,58342,1,8,0:0:0:0:
161,260,58458,1,8,0:0:0:0:
161,260,58573,1,0,0:0:0:0:
89,192,58688,1,0,0:0:0:0:
126,218,58804,1,8,0:0:0:0:
126,218,58919,1,8,0:0:0:0:
126,218,58977,1,8,0:0:0:0:
126,218,59035,1,0,0:0:0:0:
126,218,59092,1,0,0:0:0:0:
126,218,59150,1,8,0:0:0:0:
126,218,59265,1,8,0:0:0:0:
40,178,59381,1,0,0:0:0:0:
40,178,59438,1,0,0:0:0:0:
40,178,59496,1,8,0:0:0:0:
201,174,59611,1,0,0:0:0:0:
174,118,59727,1,0,0:0:0:0:
174,118,59785,1,0,0:0:0:0:
174,118,59842,1,8,0:0:0:0:
247,133,59958,1,8,0:0:0:0:
247,133,60073,1,8,0:0:0:0:
247,133,60131,1,8,0:0:0:0:
247,133,60188,1,0,0:0:0:0:
247,133,60246,1,0,0:0:0:0:
247,133,60304,1,0,0:0:0:0:
247,133,60419,1,8,0:0:0:0:
172,169,60535,1,0,0:0:0:0:
269,176,60650,1,0,0:0:0:0:
269,176,60708,1,0,0:0:0:0:
269,176,60765,1,8,0:0:0:0:
269,176,60823,1,8,0:0:0:0:
269,176,60881,1,0,0:0:0:0:
195,197,60996,1,8,0:0:0:0:
195,197,61054,1,8,0:0:0:0:
195,197,61111,1,0,0:0:0:0:
195,197,61227,1,8,0:0:0:0:
195,197,61285,1,8,0:0:0:0:
195,197,61342,1,8,0:0:0:0:
200,193,61400,1,8,0:0:0:0:
200,193,61458,1,0,0:0:0:0:
294,208,61573,1,0,0:0:0:0:
284,186,61688,1,8,0:0:0:0:
174,128,61804,1,0,0:0:0:0:
174,128,61861,1,0,0:0:0:0:
174,128,61919,1,8,0:0:0:0:
174,128,62035,1,0,0:0:0:0:
218,75,62092,1,0,0:0:0:0:
218,75,62150,1,8,0:0:0:0:
218,75,62265,1,8,0:0:0:0:
174,128,62323,1,8,0:0:0:0:
174,128,62381,1,0,0:0:0:0:
218,75,62438,1,0,0:0:0:0:
218,75,62496,1,0,0:0:0:0:
218,75,62611,1,8,0:0:0:0:
218,75,62727,1,8,0:0:0:0:
199,75,62842,1,8,0:0:0:0:
201,75,62900,1,8,0:0:0:0:
201,75,62958,1,0,0:0:0:0:
201,75,63015,1,0,0:0:0:0:
201,75,63073,1,8,0:0:0:0:
201,75,63131,1,8,0:0:0:0:
201,75,63188,1,0,0:0:0:0:
201,75,63246,1,8,0:0:0:0:
201,75,63304,1,0,0:0:0:0:
214,84,63535,1,8,0:0:0:0:
245,156,63765,1,8,0:0:0:0:
245,156,63842,1,8,0:0:0:0:
245,156,63919,1,8,0:0:0:0:
245,156,63996,1,8,0:0:0:0:
272,112,64150,1,8,0:0:0:0:
270,107,64227,1,0,0:0:0:0:
270,107,64381,1,0,0:0:0:0:
269,106,64458,1,8,0:0:0:0:
269,106,64611,1,8,0:0:0:0:
224,85,64842,1,0,0:0:0:0:
224,85,64919,1,8,0:0:0:0:
224,85,65073,1,8,0:0:0:0:
224,85,65150,1,0,0:0:0:0:
119,120,65208,1,0,0:0:0:0:
119,120,65265,1,0,0:0:0:0:
140,171,65381,1,8,0:0:0:0:
140,171,65496,1,0,0:0:0:0:
140,171,65611,1,0,0:0:0:0:
140,171,65669,1,0,0:0:0:0:
140,171,65727,1,8,0:0:0:0:
140,171,65842,1,8,0:0:0:0:
140,171,65958,1,0,0:0:0:0:
140,171,66073,1,0,0:0:0:0:
125,312,66188,1,0,0:0:0:0:
125,312,66246,1,0,0:0:0:0:
125,312,66304,1,8,0:0:0:0:
125,312,66419,1,8,0:0:0:0:
188,286,66535,1,0,0:0:0:0:
188,286,66592,1,0,0:0:0:0:
188,286,66650,1,8,0:0:0:0:
188,286,66708,1,0,0:0:0:0:
188,286,66765,1,8,0:0:0:0:
188,286,66881,1,8,0:0:0:0:
349,273,66996,1,0,0:0:0:0:
349,273,67111,1,8,0:0:0:0:
349,273,67169,1,8,0:0:0:0:
349,273,67227,1,0,0:0:0:0:
349,273,67342,1,8,0:0:0:0:
142,238,67458,1,0,0:0:0:0:
142,238,67573,1,0,0:0:0:0:
142,238,67631,1,0,0:0:0:0:
142,238,67688,1,8,0:0:0:0:
142,238,67804,1,8,0:0:0:0:
142,238,67919,1,0,0:0:0:0:
142,238,68035,1,0,0:0:0:0:
142,238,68092,1,0,0:0:0:0:
142,238,68150,1,0,0:0:0:0:
142,238,68265,1,8,0:0:0:0:
142,238,68381,1,8,0:0:0:0:
142,238,68438,1,8,0:0:0:0:
142,238,68496,1,8,0:0:0:0:
142,238,68554,1,8,0:0:0:0:
142,238,68611,1,0,0:0:0:0:
142,238,68727,1,8,0:0:0:0:
224,85,68842,1,0,0:0:0:0:
119,120,68900,1,0,0:0:0:0:
119,120,68957,1,0,0:0:0:0:
140,171,69073,1,8,0:0:0:0:
140,171,69188,1,0,0:0:0:0:
140,171,69303,1,0,0:0:0:0:
140,171,69361,1,0,0:0:0:0:
140,171,69419,1,8,0:0:0:0:
140,171,69534,1,8,0:0:0:0:
140,171,69650,1,0,0:0:0:0:
140,171,69765,1,0,0:0:0:0:
125,312,69880,1,0,0:0:0:0:
125,312,69938,1,0,0:0:0:0:
125,312,69996,1,8,0:0:0:0:
125,312,70111,1,8,0:0:0:0:
188,286,70227,1,0,0:0:0:0:
188,286,70284,1,0,0:0:0:0:
188,286,70342,1,8,0:0:0:0:
188,286,70400,1,0,0:0:0:0:
188,286,70457,1,8,0:0:0:0:
188,286,70573,1,8,0:0:0:0:
349,273,70688,1,0,0:0:0:0:
349,273,70803,1,8,0:0:0:0:
349,273,70861,1,8,0:0:0:0:
349,273,70919,1,0,0:0:0:0:
349,273,71034,1,8,0:0:0:0:
142,238,71150,1,0,0:0:0:0:
142,238,71265,1,0,0:0:0:0:
142,238,71323,1,0,0:0:0:0:
142,238,71380,1,8,0:0:0:0:
142,238,71496,1,8,0:0:0:0:
142,238,71611,1,0,0:0:0:0:
142,238,71727,1,0,0:0:0:0:
142,238,71784,1,0,0:0:0:0:
142,238,71842,1,0,0:0:0:0:
142,238,71957,1,8,0:0:0:0:
128,123,72073,1,0,0:0:0:0:
128,123,72131,1,0,0:0:0:0:
128,123,72188,1,0,0:0:0:0:
128,123,72246,1,0,0:0:0:0:
128,123,72304,1,8,0:0:0:0:
162,335,72419,1,0,0:0:0:0:
162,335,72535,1,4,0:0:0:0:
279,161,72765,1,8,0:0:0:0:
311,241,72919,1,8,0:0:0:0:
311,241,72996,1,0,0:0:0:0:
311,241,73227,1,8,0:0:0:0:
94,206,73381,1,0,0:0:0:0:
232,252,73611,1,0,0:0:0:0:
232,252,73688,1,8,0:0:0:0:
232,252,73842,1,0,0:0:0:0:
232,252,73919,1,0,0:0:0:0:
232,252,74073,1,0,0:0:0:0:
232,252,74150,1,8,0:0:0:0:
232,252,74304,1,8,0:0:0:0:
232,252,74381,1,0,0:0:0:0:
232,252,74611,1,8,0:0:0:0:
232,252,74842,1,0,0:0:0:0:
232,252,74996,1,0,0:0:0:0:
232,252,75073,1,8,0:0:0:0:
232,252,75227,1,8,0:0:0:0:
232,252,75458,1,8,0:0:0:0:
232,252,75535,1,8,0:0:0:0:
232,252,75688,1,8,0:0:0:0:
232,252,75765,1,0,0:0:0:0:
232,252,75919,1,0,0:0:0:0:
232,252,75996,1,8,0:0:0:0:
368,139,76111,1,8,0:0:0:0:
103,218,76227,1,0,0:0:0:0:
103,218,76285,1,0,0:0:0:0:
103,218,76342,1,0,0:0:0:0:
187,234,76458,1,8,0:0:0:0:
124,233,76573,1,0,0:0:0:0:
124,233,76688,1,8,0:0:0:0:
124,233,76746,1,8,0:0:0:0:
124,233,76804,1,0,0:0:0:0:
150,235,76919,1,0,0:0:0:0:
150,235,77035,1,8,0:0:0:0:
179,241,77150,1,0,0:0:0:0:
179,241,77208,1,0,0:0:0:0:
179,241,77265,1,0,0:0:0:0:
179,241,77323,1,0,0:0:0:0:
179,241,77381,1,8,0:0:0:0:
179,241,77496,1,0,0:0:0:0:
179,241,77611,1,8,0:0:0:0:
192,265,77727,1,0,0:0:0:0:
192,265,77785,1,0,0:0:0:0:
192,265,77842,1,8,0:0:0:0:
192,265,77958,1,8,0:0:0:0:
256,332,78073,1,0,0:0:0:0:
280,258,78188,1,8,0:0:0:0:
280,258,78246,1,8,0:0:0:0:
280,258,78304,1,0,0:0:0:0:
280,258,78419,1,8,0:0:0:0:
273,237,78535,1,0,0:0:0:0:
273,236,78650,1,8,0:0:0:0:
273,236,78708,1,8,0:0:0:0:
273,236,78765,1,8,0:0:0:0:
273,236,78881,1,8,0:0:0:0:
173,140,78996,1,0,0:0:0:0:
173,140,79054,1,0,0:0:0:0:
173,140,79111,1,8,0:0:0:0:
173,140,79169,1,8,0:0:0:0:
173,140,79227,1,0,0:0:0:0:
173,140,79342,1,8,0:0:0:0:
185,162,79458,1,0,0:0:0:0:
185,162,79515,1,0,0:0:0:0:
185,162,79573,1,0,0:0:0:0:
185,162,79631,1,0,0:0:0:0:
185,162,79688,1,8,0:0:0:0:
182,163,79804,1,8,0:0:0:0:
72,212,79919,1,4,0:0:0:0:
271,182,80150,1,8,0:0:0:0:
193,201,80304,1,0,0:0:0:0:
193,201,80381,1,0,0:0:0:0:
170,202,80535,1,0,0:0:0:0:
170,202,80611,1,8,0:0:0:0:
170,202,80765,1,8,0:0:0:0:
170,202,80996,1,8,0:0:0:0:
170,202,81073,1,0,0:0:0:0:
170,202,81227,1,0,0:0:0:0:
170,202,81304,1,0,0:0:0:0:
201,187,81458,1,0,0:0:0:0:
201,187,81535,1,8,0:0:0:0:
201,187,81688,1,8,0:0:0:0:
201,187,81765,1,0,0:0:0:0:
201,187,81996,1,0,0:0:0:0:
201,187,82227,1,0,0:0:0:0:
201,187,82458,1,0,0:0:0:0:
201,187,82611,1,8,0:0:0:0:
201,187,82842,1,0,0:0:0:0:
201,187,82919,1,8,0:0:0:0:
201,187,83073,1,8,0:0:0:0:
201,187,83150,1,8,0:0:0:0:
67,127,83611,1,0,0:0:0:0:
67,127,83669,1,0,0:0:0:0:
67,127,83727,1,8,0:0:0:0:
104,192,83842,1,8,0:0:0:0:
174,214,83958,1,0,0:0:0:0:
180,190,84073,1,0,0:0:0:0:
180,190,84131,1,0,0:0:0:0:
180,191,84188,1,0,0:0:0:0:
174,244,84304,1,8,0:0:0:0:
273,135,84419,1,8,0:0:0:0:
247,101,84535,1,0,0:0:0:0:
247,101,84650,1,8,0:0:0:0:
247,101,84708,1,8,0:0:0:0:
247,101,84765,1,0,0:0:0:0:
225,160,84881,1,8,0:0:0:0:
225,160,84996,1,0,0:0:0:0:
225,160,85054,1,0,0:0:0:0:
225,160,85111,1,0,0:0:0:0:
225,160,85169,1,0,0:0:0:0:
225,160,85227,1,8,0:0:0:0:
221,140,85342,1,8,0:0:0:0:
222,136,85458,1,0,0:0:0:0:
222,134,85515,1,0,0:0:0:0:
222,134,85573,1,0,0:0:0:0:
222,134,85688,1,8,0:0:0:0:
222,134,85804,1,0,0:0:0:0:
222,134,85861,1,0,0:0:0:0:
222,134,85919,1,8,0:0:0:0:
222,134,86035,1,0,0:0:0:0:
222,134,86151,1,8,0:0:0:0:
153,148,86265,1,8,0:0:0:0:
159,123,86381,1,0,0:0:0:0:
158,123,86438,1,0,0:0:0:0:
158,123,86496,1,8,0:0:0:0:
158,123,86554,1,8,0:0:0:0:
156,123,86611,1,8,0:0:0:0:
159,123,86727,1,8,0:0:0:0:
193,177,86842,1,8,0:0:0:0:
209,190,86958,1,8,0:0:0:0:
193,177,87073,1,0,0:0:0:0:
193,177,87188,1,0,0:0:0:0:
193,177,87304,1,4,0:0:0:0:
66,153,87535,1,0,0:0:0:0:
66,153,87650,1,8,0:0:0:0:
136,140,87881,1,8,0:0:0:0:
136,140,88111,1,0,0:0:0:0:
136,140,88342,1,8,0:0:0:0:
136,140,88458,1,8,0:0:0:0:
136,140,88573,1,0,0:0:0:0:
136,140,88688,1,8,0:0:0:0:
136,128,88919,1,8,0:0:0:0:
136,128,89035,1,0,0:0:0:0:
136,128,89150,1,8,0:0:0:0:
176,112,89381,1,8,0:0:0:0:
176,112,89611,1,0,0:0:0:0:
176,112,89727,1,8,0:0:0:0:
176,112,89958,1,8,0:0:0:0:
176,112,90188,1,8,0:0:0:0:
176,112,90304,1,0,0:0:0:0:
176,112,90419,1,0,0:0:0:0:
176,112,90535,1,8,0:0:0:0:
176,112,90650,1,8,0:0:0:0:
176,112,90765,1,0,0:0:0:0:
176,112,90881,1,8,0:0:0:0:
176,112,90996,1,4,0:0:0:0:
213,149,91227,1,8,0:0:0:0:
213,149,91342,1,8,0:0:0:0:
57,155,91573,1,8,0:0:0:0:
137,176,91688,1,0,0:0:0:0:
137,176,91804,1,8,0:0:0:0:
137,176,92035,1,0,0:0:0:0:
137,176,92150,1,8,0:0:0:0:
137,176,92265,1,8,0:0:0:0:
179,219,92381,1,0,0:0:0:0:
179,219,92496,1,0,0:0:0:0:
179,219,92611,1,8,0:0:0:0:
179,219,92727,1,8,0:0:0:0:
179,219,92842,1,0,0:0:0:0:
179,219,93073,1,8,0:0:0:0:
214,142,93188,1,0,0:0:0:0:
214,142,93246,1,0,0:0:0:0:
214,142,93304,1,8,0:0:0:0:
214,142,93419,1,0,0:0:0:0:
214,142,93535,1,8,0:0:0:0:
214,142,93650,1,8,0:0:0:0:
224,169,93765,1,0,0:0:0:0:
224,169,93823,1,0,0:0:0:0:
224,169,93881,1,8,0:0:0:0:
221,166,93996,1,8,0:0:0:0:
163,104,94111,1,0,0:0:0:0:
163,104,94227,1,0,0:0:0:0:
163,104,94342,1,6,0:0:0:0:
163,104,94573,1,0,0:0:0:0:
163,104,94688,1,4,0:0:0:0:
185,239,94919,1,8,0:0:0:0:
268,100,95035,1,8,0:0:0:0:
254,149,95150,1,0,0:0:0:0:
254,149,95265,1,8,0:0:0:0:
359,92,95496,1,8,0:0:0:0:
359,92,95727,1,8,0:0:0:0:
359,92,95842,1,0,0:0:0:0:
359,92,95958,1,0,0:0:0:0:
359,92,96073,1,8,0:0:0:0:
250,134,96304,1,0,0:0:0:0:
250,134,96419,1,8,0:0:0:0:
250,134,96535,1,0,0:0:0:0:
177,184,96765,1,8,0:0:0:0:
177,184,96996,1,8,0:0:0:0:
177,184,97111,1,8,0:0:0:0:
177,184,97227,1,0,0:0:0:0:
177,184,97342,1,8,0:0:0:0:
177,184,97458,1,0,0:0:0:0:
160,211,97573,1,8,0:0:0:0:
160,211,97688,1,8,0:0:0:0:
160,211,97804,1,0,0:0:0:0:
160,211,97919,1,8,0:0:0:0:
271,169,98150,1,8,0:0:0:0:
271,169,98265,1,0,0:0:0:0:
124,185,98381,1,0,0:0:0:0:
242,273,98496,1,0,0:0:0:0:
195,113,98554,1,0,0:0:0:0:
172,104,98611,1,8,0:0:0:0:
172,104,98727,1,0,0:0:0:0:
173,69,98842,1,8,0:0:0:0:
162,56,98958,1,8,0:0:0:0:
162,55,99015,1,8,0:0:0:0:
194,187,99073,1,0,0:0:0:0:
194,187,99188,1,8,0:0:0:0:
162,54,99246,1,8,0:0:0:0:
194,187,99304,1,0,0:0:0:0:
194,187,99361,1,0,0:0:0:0:
194,187,99419,1,8,0:0:0:0:
194,187,99535,1,0,0:0:0:0:
227,101,99650,1,0,0:0:0:0:
260,79,99708,1,0,0:0:0:0:
227,101,99765,1,8,0:0:0:0:
217,117,99881,1,0,0:0:0:0:
216,117,99996,1,8,0:0:0:0:
216,117,100054,1,8,0:0:0:0:
216,117,100111,1,0,0:0:0:0:
248,246,100227,1,0,0:0:0:0:
248,246,100285,1,0,0:0:0:0:
248,246,100342,1,8,0:0:0:0:
248,246,100458,1,0,0:0:0:0:
248,246,100515,1,0,0:0:0:0:
248,246,100573,1,8,0:0:0:0:
392,103,100688,1,0,0:0:0:0:
392,103,100746,1,8,0:0:0:0:
392,103,100804,1,8,0:0:0:0:
392,103,100861,1,8,0:0:0:0:
392,103,100919,1,0,0:0:0:0:
392,103,100977,1,8,0:0:0:0:
392,103,101035,1,8,0:0:0:0:
392,103,101092,1,8,0:0:0:0:
392,103,101150,1,0,0:0:0:0:
201,329,101611,1,8,0:0:0:0:
129,256,102073,1,0,0:0:0:0:
129,256,102131,1,0,0:0:0:0:
129,256,102188,1,8,0:0:0:0:
193,260,102304,1,8,0:0:0:0:
193,260,102419,1,0,0:0:0:0:
193,260,102535,1,0,0:0:0:0:
193,260,102592,1,0,0:0:0:0:
191,254,102650,1,0,0:0:0:0:
191,254,102765,1,8,0:0:0:0:
191,254,102881,1,8,0:0:0:0:
307,234,102996,1,0,0:0:0:0:
307,234,103054,1,0,0:0:0:0:
313,233,103111,1,0,0:0:0:0:
313,233,103169,1,0,0:0:0:0:
313,233,103227,1,8,0:0:0:0:
313,233,103342,1,0,0:0:0:0:
313,233,103458,1,8,0:0:0:0:
313,233,103515,1,8,0:0:0:0:
312,233,103573,1,8,0:0:0:0:
211,147,103688,1,0,0:0:0:0:
213,155,103804,1,8,0:0:0:0:
213,156,103861,1,8,0:0:0:0:
213,155,103919,1,0,0:0:0:0:
242,214,104035,1,0,0:0:0:0:
242,214,104150,1,8,0:0:0:0:
242,214,104265,1,0,0:0:0:0:
242,214,104323,1,0,0:0:0:0:
242,214,104381,1,8,0:0:0:0:
242,214,104496,1,8,0:0:0:0:
242,214,104611,1,8,0:0:0:0:
242,214,104727,1,0,0:0:0:0:
242,214,104842,1,8,0:0:0:0:
242,214,104900,1,8,0:0:0:0:
242,214,104958,1,0,0:0:0:0:
242,214,105015,1,0,0:0:0:0:
242,214,105073,1,8,0:0:0:0:
242,214,105188,1,0,0:0:0:0:
242,214,105304,1,8,0:0:0:0:
242,214,105361,1,8,0:0:0:0:
242,214,105419,1,8,0:0:0:0:
184,190,105477,1,8,0:0:0:0:
184,190,105535,1,0,0:0:0:0:
184,190,105650,1,8,0:0:0:0:
206,182,105765,1,0,0:0:0:0:
206,182,105823,1,0,0:0:0:0:
219,152,105881,1,0,0:0:0:0:
213,176,105996,1,8,0:0:0:0:
213,176,106111,1,8,0:0:0:0:
117,323,106227,1,0,0:0:0:0:
117,323,106285,1,0,0:0:0:0:
117,323,106342,1,8,0:0:0:0:
251,313,106458,1,0,0:0:0:0:
251,313,106573,1,8,0:0:0:0:
182,291,106688,1,8,0:0:0:0:
182,291,106746,1,8,0:0:0:0:
182,291,106804,1,0,0:0:0:0:
182,291,106919,1,8,0:0:0:0:
182,291,107035,1,8,0:0:0:0:
182,291,107092,1,8,0:0:0:0:
182,291,107150,1,0,0:0:0:0:
182,291,107208,1,0,0:0:0:0:
182,291,107265,1,8,0:0:0:0:
182,291,107381,1,0,0:0:0:0:
182,291,107496,1,8,0:0:0:0:
251,199,107611,1,4,0:0:0:0:
299,182,107842,1,0,0:0:0:0:
299,182,107957,1,0,0:0:0:0:
251,199,108073,1,6,0:0:0:0:
299,182,108303,1,8,0:0:0:0:
299,182,108419,1,8,0:0:0:0:
251,199,108534,1,4,0:0:0:0:
299,182,108765,1,0,0:0:0:0:
299,182,108880,1,0,0:0:0:0:
34,228,108996,1,6,0:0:0:0:
114,227,109111,1,0,0:0:0:0:
114,227,109227,1,8,0:0:0:0:
114,227,109342,1,8,0:0:0:0:
106,192,109458,1,0,0:0:0:0:
106,192,109515,1,0,0:0:0:0:
106,192,109573,1,8,0:0:0:0:
106,192,109688,1,8,0:0:0:0:
106,192,109804,1,8,0:0:0:0:
193,195,109919,1,0,0:0:0:0:
193,195,109977,1,0,0:0:0:0:
193,195,110035,1,0,0:0:0:0:
193,195,110150,1,0,0:0:0:0:
193,195,110265,1,8,0:0:0:0:
135,177,110381,1,0,0:0:0:0:
135,177,110496,1,8,0:0:0:0:
135,177,110554,1,8,0:0:0:0:
135,177,110611,1,0,0:0:0:0:
135,177,110669,1,0,0:0:0:0:
135,177,110727,1,8,0:0:0:0:
180,131,110842,1,0,0:0:0:0:
180,131,110958,1,8,0:0:0:0:
209,196,111073,1,8,0:0:0:0:
210,194,111131,1,8,0:0:0:0:
210,194,111188,1,0,0:0:0:0:
210,195,111304,1,0,0:0:0:0:
252,221,111419,1,8,0:0:0:0:
252,221,111477,1,8,0:0:0:0:
252,221,111535,1,0,0:0:0:0:
276,101,111650,1,0,0:0:0:0:
276,101,111765,1,8,0:0:0:0:
276,101,111881,1,0,0:0:0:0:
276,101,111938,1,0,0:0:0:0:
276,101,111996,1,8,0:0:0:0:
276,101,112054,1,8,0:0:0:0:
276,101,112111,1,8,0:0:0:0:
291,159,112227,1,0,0:0:0:0:
324,191,112342,1,8,0:0:0:0:
324,191,112400,1,8,0:0:0:0:
324,191,112458,1,0,0:0:0:0:
324,191,112573,1,0,0:0:0:0:
324,191,112631,1,0,0:0:0:0:
324,191,112688,1,8,0:0:0:0:
350,184,112804,1,8,0:0:0:0:
350,184,112861,1,8,0:0:0:0:
350,184,112919,1,8,0:0:0:0:
208,132,113035,1,8,0:0:0:0:
208,132,113150,1,0,0:0:0:0:
217,150,113265,1,0,0:0:0:0:
219,140,113323,1,0,0:0:0:0:
219,140,113381,1,8,0:0:0:0:
290,256,113496,1,0,0:0:0:0:
290,256,113611,1,8,0:0:0:0:
261,199,113727,1,8,0:0:0:0:
236,222,113842,1,8,0:0:0:0:
236,222,113900,1,8,0:0:0:0:
236,222,113958,1,0,0:0:0:0:
236,222,114015,1,0,0:0:0:0:
236,222,114073,1,8,0:0:0:0:
117,270,114188,1,8,0:0:0:0:
117,270,114246,1,8,0:0:0:0:
117,270,114304,1,0,0:0:0:0:
256,245,114419,1,8,0:0:0:0:
256,244,114477,1,8,0:0:0:0:
256,244,114535,1,0,0:0:0:0:
256,244,114650,1,8,0:0:0:0:
256,244,114708,1,8,0:0:0:0:
256,244,114765,1,0,0:0:0:0:
256,244,114823,1,0,0:0:0:0:
256,244,114881,1,8,0:0:0:0:
256,244,114938,1,8,0:0:0:0:
256,244,114996,1,0,0:0:0:0:
290,192,116611,1,0,0:0:0:0:
290,192,116727,1,8,0:0:0:0:
286,119,116842,1,4,0:0:0:0:
290,192,117073,1,8,0:0:0:0:
286,119,117188,1,0,0:0:0:0:
286,119,117246,1,0,0:0:0:0:
286,119,117304,1,8,0:0:0:0:
247,113,117419,1,0,0:0:0:0:
247,113,117535,1,8,0:0:0:0:
223,203,117650,1,0,0:0:0:0:
223,203,117881,1,8,0:0:0:0:
223,203,117996,1,0,0:0:0:0:
194,190,118111,1,8,0:0:0:0:
194,190,118169,1,8,0:0:0:0:
194,190,118227,1,0,0:0:0:0:
161,136,118342,1,8,0:0:0:0:
161,136,118458,1,8,0:0:0:0:
161,136,118573,1,0,0:0:0:0:
199,128,118804,1,8,0:0:0:0:
199,128,119035,1,0,0:0:0:0:
186,56,119092,1,0,0:0:0:0:
199,128,119150,1,8,0:0:0:0:
199,128,119265,1,8,0:0:0:0:
199,195,119381,1,0,0:0:0:0:
199,195,119496,1,8,0:0:0:0:
83,207,119727,1,8,0:0:0:0:
83,207,119842,1,0,0:0:0:0:
220,166,119900,1,0,0:0:0:0:
213,155,119958,1,0,0:0:0:0:
213,155,120073,1,8,0:0:0:0:
213,155,120188,1,8,0:0:0:0:
213,155,120246,1,0,0:0:0:0:
213,155,120304,1,8,0:0:0:0:
213,155,120361,1,0,0:0:0:0:
213,155,120419,1,8,0:0:0:0:
213,155,120477,1,8,0:0:0:0:
213,155,120535,1,0,0:0:0:0:
267,131,120765,1,8,0:0:0:0:
267,131,120881,1,0,0:0:0:0:
267,131,120938,1,0,0:0:0:0:
267,131,120996,1,8,0:0:0:0:
267,131,121111,1,0,0:0:0:0:
267,131,121227,1,8,0:0:0:0:
267,131,121342,1,0,0:0:0:0:
267,131,121573,1,8,0:0:0:0:
183,132,121688,1,0,0:0:0:0:
183,132,121746,1,0,0:0:0:0:
183,132,121804,1,8,0:0:0:0:
225,271,121919,1,8,0:0:0:0:
115,172,122021,1,0,0:0:0:0:
115,172,122124,1,0,0:0:0:0:
206,189,122226,1,8,0:0:0:0:
206,189,122322,1,0,0:0:0:0:
206,189,122371,1,0,0:0:0:0:
206,189,122419,1,8,0:0:0:0:
206,189,122516,1,0,0:0:0:0:
206,189,122613,1,8,0:0:0:0:
206,189,122709,1,0,0:0:0:0:
206,189,122758,1,0,0:0:0:0:
206,189,122806,1,8,0:0:0:0:
206,189,122903,1,0,0:0:0:0:
206,189,123000,1,8,0:0:0:0:
206,189,123096,1,0,0:0:0:0:
206,189,123145,1,0,0:0:0:0:
206,189,123193,1,8,0:0:0:0:
195,199,123290,1,0,0:0:0:0:
195,199,123387,1,8,0:0:0:0:
168,193,123502,1,0,0:0:0:0:
163,282,123617,1,8,0:0:0:0:
171,174,123733,1,0,0:0:0:0:
186,77,123848,1,4,0:0:0:0:
150,211,124078,1,8,0:0:0:0:
147,221,124194,1,0,0:0:0:0:
147,221,124251,1,0,0:0:0:0:
147,220,124309,1,8,0:0:0:0:
147,220,124424,1,8,0:0:0:0:
147,220,124540,1,0,0:0:0:0:
147,220,124655,1,8,0:0:0:0:
130,265,124886,1,0,0:0:0:0:
130,265,125001,1,8,0:0:0:0:
130,265,125117,1,8,0:0:0:0:
130,265,125174,1,8,0:0:0:0:
130,265,125232,1,0,0:0:0:0:
130,265,125348,1,0,0:0:0:0:
130,265,125463,1,8,0:0:0:0:
130,265,125578,1,0,0:0:0:0:
267,179,125809,1,8,0:0:0:0:
267,179,126040,1,0,0:0:0:0:
184,94,126155,1,8,0:0:0:0:
184,94,126271,1,0,0:0:0:0:
184,94,126328,1,0,0:0:0:0:
184,94,126386,1,8,0:0:0:0:
184,94,126501,1,8,0:0:0:0:
157,157,126732,1,0,0:0:0:0:
157,157,126963,1,8,0:0:0:0:
157,157,127078,1,0,0:0:0:0:
157,157,127136,1,0,0:0:0:0:
157,157,127194,1,0,0:0:0:0:
157,157,127309,1,8,0:0:0:0:
157,157,127424,1,0,0:0:0:0:
157,157,127540,1,4,0:0:0:0:
157,157,127771,1,8,0:0:0:0:
157,157,127886,1,8,0:0:0:0:
157,157,127944,1,8,0:0:0:0:
157,157,128001,1,0,0:0:0:0:
157,157,128117,1,0,0:0:0:0:
157,157,128232,1,8,0:0:0:0:
157,157,128348,1,8,0:0:0:0:
190,202,128463,1,0,0:0:0:0:
190,202,128521,1,0,0:0:0:0:
190,202,128578,1,0,0:0:0:0:
190,202,128694,1,8,0:0:0:0:
190,202,128809,1,0,0:0:0:0:
190,202,128924,1,8,0:0:0:0:
167,257,128982,1,8,0:0:0:0:
167,257,129040,1,0,0:0:0:0:
167,257,129098,1,0,0:0:0:0:
167,257,129155,1,8,0:0:0:0:
167,257,129271,1,8,0:0:0:0:
167,257,129344,1,0,0:0:0:0:
167,257,129459,1,8,0:0:0:0:
167,257,129690,1,8,0:0:0:0:
148,190,129805,1,0,0:0:0:0:
148,190,129863,1,0,0:0:0:0:
148,190,129920,1,8,0:0:0:0:
110,238,130036,1,8,0:0:0:0:
233,151,130151,1,8,0:0:0:0:
83,286,130728,1,8,0:0:0:0:
83,286,130786,1,0,0:0:0:0:
83,286,130844,1,0,0:0:0:0:
83,286,130901,1,8,0:0:0:0:
83,286,130959,1,0,0:0:0:0:
83,286,131017,1,0,0:0:0:0:
149,236,131074,1,8,0:0:0:0:
201,217,131305,1,0,0:0:0:0:
201,217,131420,1,8,0:0:0:0:
201,217,131536,1,0,0:0:0:0:
201,217,131594,1,0,0:0:0:0:
201,217,131651,1,8,0:0:0:0:
201,217,131767,1,8,0:0:0:0:
201,217,131882,1,0,0:0:0:0:
178,103,131940,1,0,0:0:0:0:
155,170,131997,1,8,0:0:0:0:
207,214,132113,1,0,0:0:0:0:
207,214,132228,1,0,0:0:0:0:
207,212,132344,1,8,0:0:0:0:
207,212,132459,1,8,0:0:0:0:
207,212,132517,1,8,0:0:0:0:
207,212,132574,1,0,0:0:0:0:
207,212,132690,1,0,0:0:0:0:
207,212,132806,1,8,0:0:0:0:
235,185,132920,1,8,0:0:0:0:
172,171,133151,1,0,0:0:0:0:
220,95,133267,1,8,0:0:0:0:
220,95,133382,1,0,0:0:0:0:
220,95,133440,1,0,0:0:0:0:
225,70,133497,1,0,0:0:0:0:
225,70,133613,1,8,0:0:0:0:
225,70,133670,1,8,0:0:0:0:
220,95,133728,1,8,0:0:0:0:
340,208,133844,1,8,0:0:0:0:
180,78,133959,1,0,0:0:0:0:
180,78,134074,1,8,0:0:0:0:
180,78,134132,1,8,0:0:0:0:
180,78,134190,1,0,0:0:0:0:
185,98,134305,1,0,0:0:0:0:
185,98,134420,1,8,0:0:0:0:
185,97,134478,1,0,0:0:0:0:
185,96,134536,1,8,0:0:0:0:
185,96,134594,1,8,0:0:0:0:
185,96,134651,1,0,0:0:0:0:
185,96,134767,1,0,0:0:0:0:
26,153,134997,1,8,0:0:0:0:
28,148,135113,1,0,0:0:0:0:
28,148,135228,1,8,0:0:0:0:
274,237,135344,1,8,0:0:0:0:
274,237,135401,1,8,0:0:0:0:
274,237,135459,1,0,0:0:0:0:
274,237,135517,1,0,0:0:0:0:
274,237,135574,1,8,0:0:0:0:
274,237,135690,1,8,0:0:0:0:
274,237,135747,1,8,0:0:0:0:
274,237,135805,1,0,0:0:0:0:
274,237,135920,1,0,0:0:0:0:
274,237,136036,1,8,0:0:0:0:
274,237,136151,1,8,0:0:0:0:
274,237,136267,1,0,0:0:0:0:
274,237,136324,1,0,0:0:0:0:
274,237,136382,1,8,0:0:0:0:
271,232,136440,1,0,0:0:0:0:
271,232,136497,1,8,0:0:0:0:
147,245,136555,1,0,0:0:0:0:
187,167,136613,1,8,0:0:0:0:
187,167,136670,1,8,0:0:0:0:
187,167,136728,1,0,0:0:0:0:
203,199,136844,1,6,0:0:0:0:
203,199,137074,1,6,0:0:0:0:
171,200,137305,1,0,0:0:0:0:
171,200,137420,1,6,0:0:0:0:
171,200,137651,1,6,0:0:0:0:
198,172,137882,1,0,0:0:0:0:
198,172,137940,1,8,0:0:0:0:
198,172,137997,1,8,0:0:0:0:
198,172,138055,1,8,0:0:0:0:
198,172,138113,1,0,0:0:0:0:
198,172,138228,1,8,0:0:0:0:
129,222,138344,1,8,0:0:0:0:
129,222,138459,1,4,0:0:0:0:
211,176,138690,1,0,0:0:0:0:
211,176,138805,1,8,0:0:0:0:
211,176,138920,1,0,0:0:0:0:
211,176,138978,1,0,0:0:0:0:
211,175,139036,1,0,0:0:0:0:
211,175,139151,1,0,0:0:0:0:
211,176,139267,1,8,0:0:0:0:
254,80,139382,1,8,0:0:0:0:
252,75,139497,1,0,0:0:0:0:
252,71,139613,1,8,0:0:0:0:
70,113,139670,1,0,0:0:0:0:
209,103,139728,1,8,0:0:0:0:
70,113,139786,1,0,0:0:0:0:
209,103,139844,1,8,0:0:0:0:
316,168,139901,1,0,0:0:0:0:
316,168,139959,1,8,0:0:0:0:
194,43,140074,1,8,0:0:0:0:
194,43,140132,1,8,0:0:0:0:
132,191,140190,1,0,0:0:0:0:
132,191,140247,1,0,0:0:0:0:
132,191,140305,1,8,0:0:0:0:
132,191,140420,1,0,0:0:0:0:
406,220,140536,1,8,0:0:0:0:
196,219,140594,1,8,0:0:0:0:
406,220,140651,1,0,0:0:0:0:
96,227,140767,1,8,0:0:0:0:
196,219,140882,1,0,0:0:0:0:
155,128,140940,1,0,0:0:0:0:
196,219,140997,1,8,0:0:0:0:
196,219,141055,1,8,0:0:0:0:
196,219,141113,1,0,0:0:0:0:
340,319,141228,1,8,0:0:0:0:
196,310,141344,1,0,0:0:0:0:
196,310,141401,1,0,0:0:0:0:
196,310,141459,1,8,0:0:0:0:
185,219,141574,1,0,0:0:0:0:
188,218,141632,1,8,0:0:0:0:
187,218,141690,1,8,0:0:0:0:
180,216,141805,1,8,0:0:0:0:
204,209,141863,1,0,0:0:0:0:
204,210,141920,1,0,0:0:0:0:
204,210,141978,1,0,0:0:0:0:
204,209,142036,1,8,0:0:0:0:
204,208,142151,1,4,0:0:0:0:
187,243,142382,1,0,0:0:0:0:
187,243,142497,1,8,0:0:0:0:
187,243,142613,1,0,0:0:0:0:
187,243,142670,1,0,0:0:0:0:
187,243,142728,1,8,0:0:0:0:
187,243,142786,1,0,0:0:0:0:
187,243,142844,1,8,0:0:0:0:
107,203,142959,1,8,0:0:0:0:
107,203,143074,1,4,0:0:0:0:
210,287,143305,1,8,0:0:0:0:
210,287,143420,1,0,0:0:0:0:
306,153,143536,1,0,0:0:0:0:
306,153,143594,1,8,0:0:0:0:
306,153,143651,1,8,0:0:0:0:
270,220,143709,1,0,0:0:0:0:
270,220,143767,1,0,0:0:0:0:
274,227,143824,1,0,0:0:0:0:
275,226,143882,1,8,0:0:0:0:
275,226,143997,1,8,0:0:0:0:
339,234,144113,1,4,0:0:0:0:
236,211,144459,1,8,0:0:0:0:
228,195,144805,1,0,0:0:0:0:
228,195,144920,1,8,0:0:0:0:
228,195,145035,1,0,0:0:0:0:
154,198,145382,1,8,0:0:0:0:
153,208,145728,1,8,0:0:0:0:
153,208,145844,1,0,0:0:0:0:
153,207,145959,1,0,0:0:0:0:
186,191,146190,1,0,0:0:0:0:
159,203,146305,1,0,0:0:0:0:
159,203,146420,1,8,0:0:0:0:
232,132,146651,1,8,0:0:0:0:
232,132,146767,1,0,0:0:0:0:
232,132,146882,1,0,0:0:0:0:
209,264,147113,1,0,0:0:0:0:
211,108,147228,1,0,0:0:0:0:
211,108,147344,1,8,0:0:0:0:
211,108,147459,1,8,0:0:0:0:
132,166,147574,1,0,0:0:0:0:
103,184,147805,1,4,0:0:0:0:
173,219,148151,1,8,0:0:0:0:
229,135,148267,1,8,0:0:0:0:
173,219,148382,1,0,0:0:0:0:
273,238,148497,1,8,0:0:0:0:
257,268,148728,1,8,0:0:0:0:
273,238,148959,1,0,0:0:0:0:
273,238,149074,1,8,0:0:0:0:
274,250,149305,1,0,0:0:0:0:
274,250,149421,1,8,0:0:0:0:
297,159,149651,1,8,0:0:0:0:
297,159,149882,1,8,0:0:0:0:
297,159,149997,1,0,0:0:0:0:
181,178,150113,1,8,0:0:0:0:
181,178,150228,1,0,0:0:0:0:
181,178,150344,1,0,0:0:0:0:
181,178,150574,1,8,0:0:0:0:
181,178,150805,1,0,0:0:0:0:
181,178,151036,1,8,0:0:0:0:
181,178,151267,1,0,0:0:0:0:
181,178,151382,1,8,0:0:0:0:
181,178,151497,1,0,0:0:0:0:
236,211,151844,1,8,0:0:0:0:
471,304,152190,1,0,0:0:0:0:
367,260,152305,1,8,0:0:0:0:
471,304,152420,1,8,0:0:0:0:
154,198,152767,1,8,0:0:0:0:
153,208,153113,1,8,0:0:0:0:
153,208,153229,1,0,0:0:0:0:
153,207,153344,1,0,0:0:0:0:
186,191,153575,1,0,0:0:0:0:
159,203,153690,1,8,0:0:0:0:
159,203,153805,1,0,0:0:0:0:
232,132,154036,1,8,0:0:0:0:
232,132,154152,1,8,0:0:0:0:
232,132,154267,1,0,0:0:0:0:
211,108,154613,1,0,0:0:0:0:
211,108,154729,1,8,0:0:0:0:
211,108,154844,1,8,0:0:0:0:
132,166,154959,1,0,0:0:0:0:
103,184,155190,1,6,0:0:0:0:
229,135,155652,1,8,0:0:0:0:
173,219,155767,1,0,0:0:0:0:
273,238,155882,1,8,0:0:0:0:
257,268,156113,1,8,0:0:0:0:
220,164,156228,1,0,0:0:0:0:
220,164,156459,1,0,0:0:0:0:
220,164,156574,1,8,0:0:0:0:
259,154,156805,1,8,0:0:0:0:
259,154,156920,1,8,0:0:0:0:
259,154,157036,1,0,0:0:0:0:
280,187,157190,1,0,0:0:0:0:
280,187,157267,1,8,0:0:0:0:
280,187,157420,1,8,0:0:0:0:
280,187,157497,1,0,0:0:0:0:
280,187,157651,1,8,0:0:0:0:
280,187,157728,1,8,0:0:0:0:
280,187,157882,1,0,0:0:0:0:
280,187,157959,1,8,0:0:0:0:
160,144,158113,1,8,0:0:0:0:
187,139,158190,1,8,0:0:0:0:
160,144,158344,1,0,0:0:0:0:
98,188,158420,1,8,0:0:0:0:
449,208,158574,1,0,0:0:0:0:
449,208,158651,1,8,0:0:0:0:
449,208,158728,1,8,0:0:0:0:
346,171,158805,1,8,0:0:0:0:
346,171,158882,1,0,0:0:0:0:
185,222,159113,1,8,0:0:0:0:
311,163,159574,1,8,0:0:0:0:
311,163,160036,1,8,0:0:0:0:
311,163,160497,1,8,0:0:0:0:
338,195,160959,1,8,0:0:0:0:
338,195,161420,1,8,0:0:0:0:
186,201,161882,1,8,0:0:0:0:
186,201,162344,1,8,0:0:0:0:
256,155,162574,1,0,0:0:0:0:
256,155,163036,1,0,0:0:0:0:
256,155,163497,1,0,0:0:0:0:
256,155,163959,1,0,0:0:0:0:
120,193,164190,1,4,0:0:0:0:
227,117,164305,1,0,0:0:0:0:
151,152,164363,1,0,0:0:0:0:
151,152,164420,1,8,0:0:0:0:
151,152,164536,1,0,0:0:0:0:
151,152,164651,1,8,0:0:0:0:
174,156,164767,1,8,0:0:0:0:
174,156,164824,1,0,0:0:0:0:
180,153,164882,1,0,0:0:0:0:
184,149,164940,1,0,0:0:0:0:
184,149,164997,1,8,0:0:0:0:
189,146,165113,1,0,0:0:0:0:
189,146,165170,1,0,0:0:0:0:
189,146,165228,1,8,0:0:0:0:
189,146,165344,1,8,0:0:0:0:
230,171,165805,1,8,0:0:0:0:
230,171,166036,1,8,0:0:0:0:
218,266,166267,1,0,0:0:0:0:
218,266,166324,1,0,0:0:0:0:
218,266,166382,1,8,0:0:0:0:
218,266,166497,1,0,0:0:0:0:
218,266,166612,1,8,0:0:0:0:
218,266,166728,1,0,0:0:0:0:
94,222,166786,1,0,0:0:0:0:
94,222,166844,1,0,0:0:0:0:
94,222,166959,1,8,0:0:0:0:
94,222,167074,1,8,0:0:0:0:
150,180,167190,1,0,0:0:0:0:
64,161,167305,1,0,0:0:0:0:
64,161,167363,1,0,0:0:0:0:
64,161,167420,1,8,0:0:0:0:
64,161,167478,1,8,0:0:0:0:
64,161,167536,1,0,0:0:0:0:
64,161,167651,1,8,0:0:0:0:
102,192,167767,1,8,0:0:0:0:
156,187,167882,1,8,0:0:0:0:
156,187,167940,1,8,0:0:0:0:
156,187,167997,1,0,0:0:0:0:
156,187,168113,1,8,0:0:0:0:
169,171,168228,1,0,0:0:0:0:
171,170,168286,1,0,0:0:0:0:
171,169,168344,1,8,0:0:0:0:
174,165,168459,1,0,0:0:0:0:
174,165,168574,1,8,0:0:0:0:
174,165,168632,1,8,0:0:0:0:
174,165,168690,1,8,0:0:0:0:
174,165,168805,1,8,0:0:0:0:
174,165,168920,1,0,0:0:0:0:
174,165,169036,1,8,0:0:0:0:
174,165,169094,1,8,0:0:0:0:
173,161,169151,1,0,0:0:0:0:
173,161,169209,1,0,0:0:0:0:
173,161,169267,1,8,0:0:0:0:
173,161,169382,1,0,0:0:0:0:
174,165,169440,1,0,0:0:0:0:
174,165,169497,1,8,0:0:0:0:
174,165,169613,1,0,0:0:0:0:
174,165,169728,1,8,0:0:0:0:
174,165,169786,1,8,0:0:0:0:
174,165,169844,1,8,0:0:0:0:
155,187,169959,1,0,0:0:0:0:
155,187,170074,1,0,0:0:0:0:
155,187,170190,1,8,0:0:0:0:
155,187,170247,1,8,0:0:0:0:
155,187,170305,1,0,0:0:0:0:
140,262,170420,1,0,0:0:0:0:
140,262,170536,1,8,0:0:0:0:
140,262,170651,1,0,0:0:0:0:
144,260,170709,1,0,0:0:0:0:
145,259,170767,1,8,0:0:0:0:
257,277,170882,1,0,0:0:0:0:
103,204,170997,1,8,0:0:0:0:
103,204,171055,1,8,0:0:0:0:
111,177,171113,1,0,0:0:0:0:
108,188,171170,1,0,0:0:0:0:
257,277,171228,1,0,0:0:0:0:
122,259,171344,1,8,0:0:0:0:
122,256,171401,1,8,0:0:0:0:
121,247,171459,1,0,0:0:0:0:
121,247,171574,1,8,0:0:0:0:
121,247,171690,1,0,0:0:0:0:
251,199,171805,1,4,0:0:0:0:
299,182,172036,1,0,0:0:0:0:
299,182,172151,1,0,0:0:0:0:
251,199,172267,1,6,0:0:0:0:
299,182,172497,1,8,0:0:0:0:
299,182,172613,1,8,0:0:0:0:
251,199,172728,1,4,0:0:0:0:
171,185,172844,1,8,0:0:0:0:
299,182,172959,1,0,0:0:0:0:
299,182,173074,1,0,0:0:0:0:
251,199,173190,1,6,0:0:0:0:
173,179,173305,1,0,0:0:0:0:
173,179,173420,1,8,0:0:0:0:
173,179,173536,1,8,0:0:0:0:
173,179,173882,1,6,0:0:0:0:
69,249,173997,1,0,0:0:0:0:
69,249,174055,1,0,0:0:0:0:
69,249,174113,1,8,0:0:0:0:
69,249,174228,1,0,0:0:0:0:
287,151,174344,1,8,0:0:0:0:
272,177,174401,1,8,0:0:0:0:
272,177,174459,1,8,0:0:0:0:
257,147,174574,1,0,0:0:0:0:
257,147,174690,1,8,0:0:0:0:
219,159,174747,1,8,0:0:0:0:
219,159,174805,1,0,0:0:0:0:
219,159,174863,1,0,0:0:0:0:
219,159,174920,1,0,0:0:0:0:
221,154,175036,1,8,0:0:0:0:
221,154,175094,1,8,0:0:0:0:
221,154,175151,1,0,0:0:0:0:
221,154,175267,1,8,0:0:0:0:
221,153,175324,1,8,0:0:0:0:
219,159,175382,1,8,0:0:0:0:
221,154,175497,1,0,0:0:0:0:
221,154,175613,1,0,0:0:0:0:
241,106,175728,1,8,0:0:0:0:
141,220,175844,1,8,0:0:0:0:
241,106,175901,1,0,0:0:0:0:
241,106,175959,1,8,0:0:0:0:
241,106,176074,1,0,0:0:0:0:
241,106,176190,1,8,0:0:0:0:
184,205,176305,1,8,0:0:0:0:
285,180,176420,1,0,0:0:0:0:
285,180,176478,1,0,0:0:0:0:
285,180,176536,1,0,0:0:0:0:
285,180,176651,1,8,0:0:0:0:
285,180,176767,1,0,0:0:0:0:
231,158,176882,1,8,0:0:0:0:
231,158,176940,1,8,0:0:0:0:
231,158,176997,1,0,0:0:0:0:
197,70,177055,1,0,0:0:0:0:
231,158,177113,1,8,0:0:0:0:
231,158,177228,1,8,0:0:0:0:
222,86,177344,1,0,0:0:0:0:
222,86,177459,1,0,0:0:0:0:
222,86,177517,1,0,0:0:0:0:
222,86,177574,1,8,0:0:0:0:
224,80,177690,1,8,0:0:0:0:
197,70,177805,1,0,0:0:0:0:
197,70,177863,1,0,0:0:0:0:
197,70,177920,1,0,0:0:0:0:
197,70,177978,1,0,0:0:0:0:
193,73,178036,1,8,0:0:0:0:
184,77,178151,1,8,0:0:0:0:
230,118,178267,1,0,0:0:0:0:
230,118,178324,1,0,0:0:0:0:
230,118,178382,1,0,0:0:0:0:
230,118,178497,1,8,0:0:0:0:
230,118,178555,1,8,0:0:0:0:
230,118,178613,1,0,0:0:0:0:
224,115,178728,1,0,0:0:0:0:
224,115,178786,1,8,0:0:0:0:
224,115,178844,1,8,0:0:0:0:
224,115,178901,1,8,0:0:0:0:
224,115,178959,1,0,0:0:0:0:
224,114,179017,1,8,0:0:0:0:
224,113,179074,1,8,0:0:0:0:
224,113,179132,1,8,0:0:0:0:
236,199,179190,1,0,0:0:0:0:
229,178,179305,1,0,0:0:0:0:
214,144,179420,1,8,0:0:0:0:
258,122,179651,1,8,0:0:0:0:
348,203,179767,1,0,0:0:0:0:
258,122,179882,1,8,0:0:0:0:
258,122,179940,1,8,0:0:0:0:
258,122,179997,1,8,0:0:0:0:
247,167,180113,1,0,0:0:0:0:
246,163,180170,1,0,0:0:0:0:
247,161,180228,1,8,0:0:0:0:
247,162,180344,1,0,0:0:0:0:
248,158,180401,1,0,0:0:0:0:
248,158,180459,1,8,0:0:0:0:
248,158,180574,1,0,0:0:0:0:
248,156,180632,1,0,0:0:0:0:
248,156,180690,1,8,0:0:0:0:
248,156,180747,1,8,0:0:0:0:
248,156,180805,1,0,0:0:0:0:
249,150,180863,1,0,0:0:0:0:
249,149,180920,1,8,0:0:0:0:
249,148,180978,1,8,0:0:0:0:
250,148,181036,1,0,0:0:0:0:
252,223,181151,1,0,0:0:0:0:
252,223,181267,1,8,0:0:0:0:
252,223,181382,1,0,0:0:0:0:
252,223,181440,1,0,0:0:0:0:
252,223,181497,1,8,0:0:0:0:
252,223,181613,1,0,0:0:0:0:
252,223,181729,1,8,0:0:0:0:
252,223,181844,1,8,0:0:0:0:
156,234,181959,1,8,0:0:0:0:
156,234,182017,1,8,0:0:0:0:
156,234,182074,1,0,0:0:0:0:
156,234,182190,1,8,0:0:0:0:
156,234,182305,1,0,0:0:0:0:
156,234,182363,1,0,0:0:0:0:
156,234,182420,1,8,0:0:0:0:
156,234,182536,1,0,0:0:0:0:
156,228,182651,1,8,0:0:0:0:
156,228,182767,1,0,0:0:0:0:
155,190,182882,1,0,0:0:0:0:
155,190,182940,1,0,0:0:0:0:
156,185,182997,1,0,0:0:0:0:
156,185,183055,1,0,0:0:0:0:
156,184,183113,1,8,0:0:0:0:
155,190,183228,1,0,0:0:0:0:
185,105,183344,1,8,0:0:0:0:
185,105,183401,1,0,0:0:0:0:
189,97,183459,1,0,0:0:0:0:
190,94,183517,1,0,0:0:0:0:
190,94,183574,1,8,0:0:0:0:
191,94,183690,1,8,0:0:0:0:
247,149,183805,1,0,0:0:0:0:
247,149,183863,1,0,0:0:0:0:
247,149,183920,1,8,0:0:0:0:
260,222,184036,1,8,0:0:0:0:
264,209,184094,1,8,0:0:0:0:
270,204,184151,1,0,0:0:0:0:
258,197,184267,1,8,0:0:0:0:
258,197,184382,1,8,0:0:0:0:
258,197,184440,1,8,0:0:0:0:
147,231,184497,1,8,0:0:0:0:
147,231,184555,1,8,0:0:0:0:
147,231,184613,1,8,0:0:0:0:
147,231,184728,1,0,0:0:0:0:
147,231,184844,1,0,0:0:0:0:
147,231,184901,1,0,0:0:0:0:
147,231,184959,1,8,0:0:0:0:
178,248,185074,1,0,0:0:0:0:
178,248,185190,1,8,0:0:0:0:
178,248,185305,1,8,0:0:0:0:
173,245,185363,1,8,0:0:0:0:
173,245,185420,1,0,0:0:0:0:
173,245,185536,1,8,0:0:0:0:
199,153,185651,1,0,0:0:0:0:
199,153,185709,1,0,0:0:0:0:
199,153,185767,1,0,0:0:0:0:
199,153,185882,1,8,0:0:0:0:
199,153,185997,1,0,0:0:0:0:
225,86,186113,1,8,0:0:0:0:
199,153,186228,1,8,0:0:0:0:
199,153,186286,1,8,0:0:0:0:
186,50,186344,1,0,0:0:0:0:
186,50,186401,1,0,0:0:0:0:
199,153,186459,1,8,0:0:0:0:
242,119,186574,1,4,0:0:0:0:
242,119,186805,1,0,0:0:0:0:
242,119,186920,1,0,0:0:0:0:
242,119,187036,1,6,0:0:0:0:
242,119,187267,1,8,0:0:0:0:
242,119,187382,1,8,0:0:0:0:
242,119,187497,1,4,0:0:0:0:
242,119,187728,1,0,0:0:0:0:
242,119,187844,1,0,0:0:0:0:
242,119,187959,1,6,0:0:0:0:
232,101,188074,1,0,0:0:0:0:
232,101,188190,1,8,0:0:0:0:
232,101,188247,1,8,0:0:0:0:
232,101,188305,1,8,0:0:0:0:
232,101,188363,1,8,0:0:0:0:
232,101,188420,1,0,0:0:0:0:
245,168,188651,1,8,0:0:0:0:
209,244,188882,1,0,0:0:0:0:
209,244,188997,1,0,0:0:0:0:
209,244,189113,1,8,0:0:0:0:
209,244,189228,1,0,0:0:0:0:
145,158,189459,1,0,0:0:0:0:
145,158,189574,1,8,0:0:0:0:
145,158,189805,1,0,0:0:0:0:
145,158,189920,1,0,0:0:0:0:
252,167,190036,1,8,0:0:0:0:
84,232,190267,1,0,0:0:0:0:
84,232,190497,1,8,0:0:0:0:
84,232,190728,1,0,0:0:0:0:
84,232,190959,1,8,0:0:0:0:
100,207,191190,1,0,0:0:0:0:
100,207,191305,1,0,0:0:0:0:
100,207,191420,1,8,0:0:0:0:
131,140,191651,1,0,0:0:0:0:
131,140,191767,1,8,0:0:0:0:
131,140,191882,1,8,0:0:0:0:
141,216,191940,1,8,0:0:0:0:
131,140,191997,1,8,0:0:0:0:
141,216,192113,1,0,0:0:0:0:
141,216,192228,1,8,0:0:0:0:
41,233,192344,1,0,0:0:0:0:
41,233,192401,1,0,0:0:0:0:
41,233,192459,1,8,0:0:0:0:
148,76,192574,1,0,0:0:0:0:
300,295,192632,1,0,0:0:0:0:
148,76,192690,1,8,0:0:0:0:
81,169,192747,1,0,0:0:0:0:
81,169,192805,1,8,0:0:0:0:
316,331,192863,1,8,0:0:0:0:
316,331,192920,1,0,0:0:0:0:
162,202,193036,1,6,0:0:0:0:
162,202,193267,1,6,0:0:0:0:
162,202,193497,1,4,0:0:0:0:
195,188,193728,1,6,0:0:0:0:
195,188,193959,1,4,0:0:0:0:
105,246,194113,1,0,0:0:0:0:
105,246,194190,1,8,0:0:0:0:
163,244,194344,1,8,0:0:0:0:
163,244,194420,1,0,0:0:0:0:
163,244,194574,1,0,0:0:0:0:
163,244,194651,1,8,0:0:0:0:
163,244,194805,1,8,0:0:0:0:
163,244,194882,1,0,0:0:0:0:
163,244,194959,1,8,0:0:0:0:
163,244,195036,1,0,0:0:0:0:
163,244,195113,1,0,0:0:0:0:
163,244,195267,1,0,0:0:0:0:
193,184,195612,1,6,0:0:0:0:
