osu file format v14

[General]
AudioFilename: Envy Catwalk.mp3
AudioLeadIn: 0
PreviewTime: -1
Countdown: 0
SampleSet: None
StackLeniency: 0.9
Mode: 0
LetterboxInBreaks: 0
WidescreenStoryboard: 0

[Editor]
DistanceSpacing: 1.3
BeatDivisor: 4
GridSize: 4
TimelineZoom: 1.7

[Metadata]
Title:Envy Catwalk
TitleUnicode:Envy Catwalk
Artist:Tohma
ArtistUnicode:Tohma
Creator:Sakshi
Version:Kitten Whiskers
Source:Project DIVA F 2nd
Tags:vocaloid hatsune miku eureka
BeatmapID:867078
BeatmapSetID:396250

[Difficulty]
HPDrainRate:7
CircleSize:4
OverallDifficulty:8
ApproachRate:9
SliderMultiplier:2
SliderTickRate:1

[Events]
//Background and Video events
0,0,"BlackMapBG.jpg",0,0
//Break Periods
2,19103,36304
//Storyboard Layer 0 (Background)
//Storyboard Layer 1 (Fail)
//Storyboard Layer 2 (Pass)
//Storyboard Layer 3 (Foreground)
//Storyboard Sound Samples

[TimingPoints]
904,375,4,2,0,100,1,0
11591,-133.333333333333,4,2,0,100,0,0
12154,-200,4,2,0,100,0,0
12904,-133.333333333333,4,2,0,100,0,0
36904,-83.3333333333333,4,2,0,100,0,0
146404,315.789473684211,4,2,0,100,1,0
183035,375,4,2,0,100,1,0
206941,375,4,2,0,100,1,0

[HitObjects]
60,72,11591,5,0,0:0:0:0:
60,72,11685,1,0,0:0:0:0:
60,72,11779,1,0,0:0:0:0:
137,76,11966,1,0,0:0:0:0:
168,79,12060,1,0,0:0:0:0:
192,82,12154,2,0,P|196:132|192:188,1,100
48,312,12904,6,0,P|85:319|120:304,1,75.0000028610231
160,284,13185,1,0,0:0:0:0:
204,268,13279,2,0,P|242:265|272:244,1,75.0000028610231
304,208,13560,1,0,0:0:0:0:
300,160,13654,1,0,0:0:0:0:
268,124,13747,1,0,0:0:0:0:
220,120,13841,1,0,0:0:0:0:
160,284,14029,5,0,0:0:0:0:
344,284,14216,2,0,L|420:284,2,75.0000028610231
344,176,14779,1,0,0:0:0:0:
256,108,14966,1,0,0:0:0:0:
208,100,15061,1,0,0:0:0:0:
164,124,15154,1,0,0:0:0:0:
148,168,15247,1,0,0:0:0:0:
148,216,15341,2,0,L|148:291,2,75.0000028610231
152,104,15904,5,0,0:0:0:0:
40,56,16091,1,0,0:0:0:0:
24,104,16185,1,0,0:0:0:0:
40,156,16279,1,0,0:0:0:0:
52,276,16466,1,0,0:0:0:0:
85,313,16560,1,0,0:0:0:0:
138,326,16654,2,0,P|172:336|216:328,1,75.0000028610231
380,212,17029,5,0,0:0:0:0:
472,212,17216,2,0,L|472:288,2,75.0000028610231
336,124,17779,1,0,0:0:0:0:
336,36,17966,2,0,L|260:36,1,75.0000028610231
148,52,18341,1,0,0:0:0:0:
104,72,18435,1,0,0:0:0:0:
88,116,18529,1,0,0:0:0:0:
96,164,18622,1,0,0:0:0:0:
128,200,18716,2,0,B|148:236|112:236|132:272,1,75.0000028610231
276,72,36904,5,0,0:0:0:0:
328,70,36997,1,0,0:0:0:0:
370,104,37091,1,0,0:0:0:0:
386,156,37185,1,0,0:0:0:0:
365,204,37278,1,0,0:0:0:0:
236,212,37466,2,0,L|176:212,1,59.9999981689454
76,272,37654,2,0,P|120:312|184:312,1,119.999996337891
340,204,37935,1,0,0:0:0:0:
340,152,38028,2,0,P|296:112|232:112,2,119.999996337891
256,332,38591,6,0,L|256:264,1,59.9999981689454
256,204,38779,2,0,L|256:136,1,59.9999981689454
256,332,38966,2,0,L|295:276,1,59.9999981689454
329,227,39154,2,0,P|344:196|369:171,1,59.9999981689454
256,332,39341,2,0,L|216:276,1,59.9999981689454
183,227,39529,2,0,P|168:196|143:171,1,59.9999981689454
256,88,39716,1,0,0:0:0:0:
416,151,39904,6,0,P|432:94|416:37,2,119.999996337891
184,196,40466,1,0,0:0:0:0:
224,168,40560,1,0,0:0:0:0:
272,172,40654,2,0,P|300:188|312:216,1,59.9999981689454
248,336,40841,1,0,2:0:0:0:
200,356,40934,2,0,P|145:332|118:274,1,119.999996337891,0|0,2:0|2:0,2:0:0:0:
224,140,41216,2,0,L|268:100,2,59.9999981689454
252,268,41591,5,0,0:0:0:0:
305,275,41685,1,0,0:0:0:0:
352,251,41779,1,0,0:0:0:0:
385,208,41872,1,0,0:0:0:0:
386,155,41966,1,0,0:0:0:0:
192,64,42154,2,0,B|116:120|176:156|176:156|128:192,1,179.999994506836
174,248,42529,2,0,B|221:211|221:211|240:279|314:220,1,179.999994506836
392,228,42904,6,0,P|364:280|300:312,2,119.999996337891
384,96,43466,1,0,0:0:0:0:
336,60,43560,1,0,0:0:0:0:
280,44,43654,2,0,P|251:34|220:36,1,59.9999981689454
288,160,43841,1,0,0:0:0:0:
336,196,43935,1,0,0:0:0:0:
392,212,44029,2,0,P|424:212|452:220,1,59.9999981689454
512,296,44216,1,0,0:0:0:0:
464,332,44310,1,0,0:0:0:0:
408,348,44404,2,0,P|380:360|348:356,2,59.9999981689454
