osu file format v14

[General]
AudioFilename: audio.mp3
AudioLeadIn: 0
PreviewTime: 11306
Countdown: 0
SampleSet: Soft
StackLeniency: 0.7
Mode: 3
LetterboxInBreaks: 0
StoryFireInFront: 0
SpecialStyle: 0
WidescreenStoryboard: 0

[Editor]
Bookmarks: 8
DistanceSpacing: 1
BeatDivisor: 2
GridSize: 4
TimelineZoom: 1.5

[Metadata]
Title:My Brain Is Slime
TitleUnicode:My Brain Is Slime
Artist:Togenom
ArtistUnicode:とげのむ
Creator:YyottaCat
Version:Cerebral Infection
Source:
Tags:16edo 16tet Xenharmonics, Vol.3 vol. 3 xenharmonic microtonal microtone 大聖竜 水神竜 daiseiryuu mizushinryuu electronic instrumental experimental chibi rice hybrid jack
BeatmapID:4269531
BeatmapSetID:2045441

[Difficulty]
HPDrainRate:7.8
CircleSize:5
OverallDifficulty:7.8
ApproachRate:5
SliderMultiplier:1.4
SliderTickRate:1

[Events]
//Background and Video events
0,0,"bg.jpg",0,0
//Break Periods
//Storyboard Layer 0 (Background)
//Storyboard Layer 1 (Fail)
//Storyboard Layer 2 (Pass)
//Storyboard Layer 3 (Foreground)
//Storyboard Layer 4 (Overlay)
//Storyboard Sound Samples

[TimingPoints]
807,333.333333333333,4,2,1,35,1,0
22140,333.333333333333,7,2,1,35,1,0
29640,333.333333333333,4,2,1,35,1,0

[HitObjects]
51,384,807,5,0,0:0:0:0:
256,384,807,1,0,0:0:0:0:
51,384,973,1,0,0:0:0:0:
154,384,1140,1,0,0:0:0:0:
256,384,1140,1,0,0:0:0:0:
154,384,1306,1,0,0:0:0:0:
256,384,1473,1,0,0:0:0:0:
461,384,1473,1,0,0:0:0:0:
461,384,1640,1,0,0:0:0:0:
256,384,1806,1,0,0:0:0:0:
358,384,1806,1,0,0:0:0:0:
358,384,1973,1,0,0:0:0:0:
51,384,2140,1,0,0:0:0:0:
256,384,2140,1,0,0:0:0:0:
51,384,2306,1,0,0:0:0:0:
154,384,2473,1,0,0:0:0:0:
256,384,2473,1,0,0:0:0:0:
154,384,2640,1,0,0:0:0:0:
256,384,2806,1,0,0:0:0:0:
461,384,2806,1,0,0:0:0:0:
461,384,2973,1,0,0:0:0:0:
256,384,3140,1,0,0:0:0:0:
358,384,3140,1,0,0:0:0:0:
358,384,3306,1,0,0:0:0:0:
51,384,3473,1,0,0:0:0:0:
256,384,3473,1,0,0:0:0:0:
51,384,3640,1,0,0:0:0:0:
154,384,3806,1,0,0:0:0:0:
256,384,3806,1,0,0:0:0:0:
154,384,3973,1,0,0:0:0:0:
256,384,4140,1,0,0:0:0:0:
461,384,4140,1,0,0:0:0:0:
461,384,4306,1,0,0:0:0:0:
256,384,4473,1,0,0:0:0:0:
358,384,4473,1,0,0:0:0:0:
358,384,4640,1,0,0:0:0:0:
51,384,4806,1,0,0:0:0:0:
256,384,4806,1,0,0:0:0:0:
51,384,4973,1,0,0:0:0:0:
154,384,5140,1,0,0:0:0:0:
256,384,5140,1,0,0:0:0:0:
154,384,5306,1,0,0:0:0:0:
256,384,5473,1,0,0:0:0:0:
461,384,5473,1,0,0:0:0:0:
461,384,5640,1,0,0:0:0:0:
256,384,5806,1,0,0:0:0:0:
358,384,5806,1,0,0:0:0:0:
358,384,5973,1,0,0:0:0:0:
51,384,6140,1,0,0:0:0:0:
154,384,6140,1,0,0:0:0:0:
256,384,6140,1,0,0:0:0:0:
461,384,6140,1,0,0:0:0:0:
51,384,6306,1,0,0:0:0:0:
154,384,6473,1,0,0:0:0:0:
256,384,6473,1,0,0:0:0:0:
358,384,6473,1,0,0:0:0:0:
154,384,6640,1,0,0:0:0:0:
256,384,6806,1,0,0:0:0:0:
461,384,6806,1,0,0:0:0:0:
154,384,6973,1,0,0:0:0:0:
461,384,6973,1,0,0:0:0:0:
51,384,7140,1,0,0:0:0:0:
256,384,7140,1,0,0:0:0:0:
358,384,7140,1,0,0:0:0:0:
358,384,7306,1,0,0:0:0:0:
51,384,7473,1,0,0:0:0:0:
256,384,7473,1,0,0:0:0:0:
51,384,7640,1,0,0:0:0:0:
154,384,7806,1,0,0:0:0:0:
256,384,7806,1,0,0:0:0:0:
461,384,7806,1,0,0:0:0:0:
154,384,7973,1,0,0:0:0:0:
256,384,8140,1,0,0:0:0:0:
461,384,8140,1,0,0:0:0:0:
51,384,8306,1,0,0:0:0:0:
461,384,8306,1,0,0:0:0:0:
154,384,8473,1,0,0:0:0:0:
256,384,8473,1,0,0:0:0:0:
358,384,8473,1,0,0:0:0:0:
358,384,8640,1,0,0:0:0:0:
51,384,8806,1,0,0:0:0:0:
256,384,8806,1,0,0:0:0:0:
51,384,8973,1,0,0:0:0:0:
154,384,9140,1,0,0:0:0:0:
256,384,9140,1,0,0:0:0:0:
358,384,9140,1,0,0:0:0:0:
154,384,9306,1,0,0:0:0:0:
256,384,9473,1,0,0:0:0:0:
461,384,9473,1,0,0:0:0:0:
154,384,9640,1,0,0:0:0:0:
461,384,9640,1,0,0:0:0:0:
51,384,9806,1,0,0:0:0:0:
256,384,9806,1,0,0:0:0:0:
358,384,9806,1,0,0:0:0:0:
358,384,9973,1,0,0:0:0:0:
51,384,10140,1,0,0:0:0:0:
256,384,10140,1,0,0:0:0:0:
51,384,10306,1,0,0:0:0:0:
154,384,10473,1,0,0:0:0:0:
256,384,10473,1,0,0:0:0:0:
461,384,10473,1,0,0:0:0:0:
154,384,10640,1,0,0:0:0:0:
256,384,10806,1,0,0:0:0:0:
461,384,10806,1,0,0:0:0:0:
51,384,10973,1,0,0:0:0:0:
461,384,10973,1,0,0:0:0:0:
154,384,11140,1,0,0:0:0:0:
256,384,11140,1,0,0:0:0:0:
358,384,11140,1,0,0:0:0:0:
358,384,11306,1,0,0:0:0:0:
51,384,11473,1,0,0:0:0:0:
154,384,11473,1,0,0:0:0:0:
256,384,11473,1,0,0:0:0:0:
461,384,11473,128,0,11640:0:0:0:0:
51,384,11640,128,0,11806:0:0:0:0:
154,384,11806,1,0,0:0:0:0:
256,384,11806,1,0,0:0:0:0:
358,384,11806,1,0,0:0:0:0:
154,384,11973,128,0,12140:0:0:0:0:
256,384,12140,128,0,12306:0:0:0:0:
461,384,12140,1,0,0:0:0:0:
154,384,12306,128,0,12473:0:0:0:0:
461,384,12306,1,0,0:0:0:0:
51,384,12473,128,0,12640:0:0:0:0:
256,384,12473,1,0,0:0:0:0:
358,384,12473,1,0,0:0:0:0:
358,384,12640,128,0,12806:0:0:0:0:
51,384,12806,1,0,0:0:0:0:
256,384,12806,128,0,12973:0:0:0:0:
51,384,12973,128,0,13140:0:0:0:0:
154,384,13140,1,0,0:0:0:0:
256,384,13140,1,0,0:0:0:0:
461,384,13140,1,0,0:0:0:0:
154,384,13306,128,0,13473:0:0:0:0:
256,384,13473,128,0,13640:0:0:0:0:
461,384,13473,1,0,0:0:0:0:
51,384,13640,1,0,0:0:0:0:
461,384,13640,1,0,0:0:0:0:
154,384,13806,1,0,0:0:0:0:
256,384,13806,1,0,0:0:0:0:
358,384,13806,1,0,0:0:0:0:
358,384,13973,1,0,0:0:0:0:
51,384,14140,1,0,0:0:0:0:
256,384,14140,128,0,14306:0:0:0:0:
51,384,14306,128,0,14473:0:0:0:0:
154,384,14473,1,0,0:0:0:0:
256,384,14473,1,0,0:0:0:0:
358,384,14473,1,0,0:0:0:0:
154,384,14640,128,0,14806:0:0:0:0:
256,384,14806,128,0,14973:0:0:0:0:
461,384,14806,1,0,0:0:0:0:
154,384,14973,1,0,0:0:0:0:
461,384,14973,128,0,15140:0:0:0:0:
51,384,15140,1,0,0:0:0:0:
256,384,15140,128,0,15306:0:0:0:0:
358,384,15140,1,0,0:0:0:0:
358,384,15306,128,0,15473:0:0:0:0:
51,384,15473,1,0,0:0:0:0:
256,384,15473,1,0,0:0:0:0:
51,384,15640,1,0,0:0:0:0:
154,384,15806,1,0,0:0:0:0:
256,384,15806,1,0,0:0:0:0:
461,384,15806,1,0,0:0:0:0:
154,384,15973,1,0,0:0:0:0:
256,384,16140,1,0,0:0:0:0:
461,384,16140,1,0,0:0:0:0:
51,384,16306,1,0,0:0:0:0:
461,384,16306,1,0,0:0:0:0:
154,384,16473,1,0,0:0:0:0:
256,384,16473,1,0,0:0:0:0:
358,384,16473,1,0,0:0:0:0:
358,384,16640,1,0,0:0:0:0:
51,384,16806,1,0,0:0:0:0:
154,384,16806,1,0,0:0:0:0:
256,384,16806,1,0,0:0:0:0:
461,384,16806,128,0,16973:0:0:0:0:
51,384,16973,128,0,17140:0:0:0:0:
154,384,17140,1,0,0:0:0:0:
256,384,17140,1,0,0:0:0:0:
358,384,17140,1,0,0:0:0:0:
154,384,17306,128,0,17473:0:0:0:0:
256,384,17473,128,0,17640:0:0:0:0:
461,384,17473,1,0,0:0:0:0:
154,384,17640,128,0,17806:0:0:0:0:
461,384,17640,1,0,0:0:0:0:
51,384,17806,128,0,17973:0:0:0:0:
256,384,17806,1,0,0:0:0:0:
358,384,17806,1,0,0:0:0:0:
358,384,17973,128,0,18140:0:0:0:0:
51,384,18140,1,0,0:0:0:0:
256,384,18140,128,0,18306:0:0:0:0:
51,384,18306,128,0,18473:0:0:0:0:
154,384,18473,1,0,0:0:0:0:
256,384,18473,1,0,0:0:0:0:
461,384,18473,1,0,0:0:0:0:
154,384,18640,128,0,18806:0:0:0:0:
256,384,18806,128,0,18973:0:0:0:0:
461,384,18806,1,0,0:0:0:0:
51,384,18973,1,0,0:0:0:0:
461,384,18973,1,0,0:0:0:0:
154,384,19140,1,0,0:0:0:0:
256,384,19140,1,0,0:0:0:0:
358,384,19140,1,0,0:0:0:0:
358,384,19306,1,0,0:0:0:0:
51,384,19473,1,0,0:0:0:0:
256,384,19473,128,0,19640:0:0:0:0:
51,384,19640,128,0,19806:0:0:0:0:
154,384,19806,1,0,0:0:0:0:
256,384,19806,1,0,0:0:0:0:
358,384,19806,1,0,0:0:0:0:
154,384,19973,128,0,20140:0:0:0:0:
460,384,20140,128,0,20306:0:0:0:0:
256,384,20140,1,0,0:0:0:0:
153,384,20306,1,0,0:0:0:0:
358,384,20306,128,0,20473:0:0:0:0:
460,384,20473,1,0,0:0:0:0:
256,384,20473,128,0,20640:0:0:0:0:
51,384,20473,1,0,0:0:0:0:
153,384,20640,128,0,20806:0:0:0:0:
256,192,20806,1,0,0:0:0:0:
51,192,20806,128,0,20973:0:0:0:0:
358,384,20973,128,0,21140:0:0:0:0:
154,384,21140,1,0,0:0:0:0:
256,384,21140,1,0,0:0:0:0:
461,384,21140,128,0,21306:0:0:0:0:
154,384,21306,128,0,21473:0:0:0:0:
256,384,21473,128,0,21640:0:0:0:0:
461,384,21473,1,0,0:0:0:0:
51,384,21640,1,0,0:0:0:0:
461,384,21640,128,0,21806:0:0:0:0:
154,384,21806,128,0,21973:0:0:0:0:
256,384,21806,1,0,0:0:0:0:
358,384,21806,1,0,0:0:0:0:
358,384,21973,1,0,0:0:0:0:
51,384,22140,128,0,22473:0:0:0:0:
154,384,22140,1,0,0:0:0:0:
256,384,22140,1,0,0:0:0:0:
461,384,22140,1,0,0:0:0:0:
256,384,22306,1,0,0:0:0:0:
154,384,22473,1,0,0:0:0:0:
358,384,22473,1,0,0:0:0:0:
461,384,22473,1,0,0:0:0:0:
154,384,22640,1,0,0:0:0:0:
358,384,22640,128,0,23306:0:0:0:0:
460,384,22806,1,0,0:0:0:0:
51,384,22973,1,0,0:0:0:0:
154,384,22973,1,0,0:0:0:0:
256,384,22973,1,0,0:0:0:0:
154,384,23140,1,0,0:0:0:0:
256,384,23140,1,0,0:0:0:0:
51,384,23140,1,0,0:0:0:0:
51,384,23306,1,0,0:0:0:0:
461,384,23306,128,0,23640:0:0:0:0:
256,384,23473,1,0,0:0:0:0:
51,384,23640,1,0,0:0:0:0:
154,384,23640,1,0,0:0:0:0:
358,384,23640,1,0,0:0:0:0:
153,384,23806,128,0,24473:0:0:0:0:
358,384,23806,1,0,0:0:0:0:
51,384,23973,1,0,0:0:0:0:
256,384,24139,1,0,0:0:0:0:
358,384,24139,1,0,0:0:0:0:
461,384,24139,1,0,0:0:0:0:
460,384,24306,1,0,0:0:0:0:
256,384,24306,1,0,0:0:0:0:
358,384,24306,1,0,0:0:0:0:
51,384,24473,128,0,24639:0:0:0:0:
461,384,24473,1,0,0:0:0:0:
154,384,24639,128,0,24806:0:0:0:0:
256,384,24806,1,0,0:0:0:0:
358,384,24806,128,0,25139:0:0:0:0:
461,384,24806,1,0,0:0:0:0:
51,384,24973,1,0,0:0:0:0:
256,384,24973,1,0,0:0:0:0:
154,384,25139,128,0,25306:0:0:0:0:
256,384,25306,128,0,25473:0:0:0:0:
358,384,25306,1,0,0:0:0:0:
461,384,25306,1,0,0:0:0:0:
51,384,25473,1,0,0:0:0:0:
154,384,25473,1,0,0:0:0:0:
461,384,25473,128,0,25639:0:0:0:0:
51,384,25639,1,0,0:0:0:0:
358,384,25639,128,0,25764:0:0:0:0:
256,384,25764,128,0,25889:0:0:0:0:
154,384,25889,128,0,26014:0:0:0:0:
256,384,25973,1,0,0:0:0:0:
358,384,25973,1,0,0:0:0:0:
461,384,25973,1,0,0:0:0:0:
51,384,26014,128,0,26139:0:0:0:0:
256,384,26139,128,0,26639:0:0:0:0:
461,384,26139,1,0,0:0:0:0:
51,384,26306,1,0,0:0:0:0:
153,384,26473,1,0,0:0:0:0:
358,384,26473,1,0,0:0:0:0:
461,384,26473,1,0,0:0:0:0:
153,384,26639,1,0,0:0:0:0:
358,384,26639,1,0,0:0:0:0:
461,384,26639,1,0,0:0:0:0:
51,384,26806,128,0,27139:0:0:0:0:
154,384,26806,1,0,0:0:0:0:
256,384,26806,1,0,0:0:0:0:
461,384,26806,1,0,0:0:0:0:
256,384,26973,1,0,0:0:0:0:
154,384,27139,1,0,0:0:0:0:
358,384,27139,1,0,0:0:0:0:
461,384,27139,1,0,0:0:0:0:
256,384,27306,1,0,0:0:0:0:
358,384,27306,128,0,27973:0:0:0:0:
460,384,27473,1,0,0:0:0:0:
51,384,27639,1,0,0:0:0:0:
154,384,27639,1,0,0:0:0:0:
256,384,27639,1,0,0:0:0:0:
51,384,27806,1,0,0:0:0:0:
256,384,27806,1,0,0:0:0:0:
153,384,27806,1,0,0:0:0:0:
51,384,27973,1,0,0:0:0:0:
461,384,27973,128,0,28306:0:0:0:0:
256,384,28139,1,0,0:0:0:0:
51,384,28306,1,0,0:0:0:0:
154,384,28306,1,0,0:0:0:0:
358,384,28306,1,0,0:0:0:0:
256,384,28473,128,0,29556:0:0:0:0:
358,384,28473,1,0,0:0:0:0:
154,384,28639,1,0,0:0:0:0:
51,384,28806,1,0,0:0:0:0:
358,384,28806,1,0,0:0:0:0:
461,384,28806,1,0,0:0:0:0:
51,384,28973,1,0,0:0:0:0:
358,384,28973,1,0,0:0:0:0:
461,384,28973,1,0,0:0:0:0:
51,384,29139,128,0,29556:0:0:0:0:
154,384,29139,128,0,29556:0:0:0:0:
358,384,29139,128,0,29556:0:0:0:0:
461,384,29139,128,0,29556:0:0:0:0:
51,384,29640,1,0,0:0:0:0:
256,384,29640,128,0,29806:0:0:0:0:
51,384,29806,128,0,29973:0:0:0:0:
154,384,29973,1,0,0:0:0:0:
256,384,29973,1,0,0:0:0:0:
358,384,29973,1,0,0:0:0:0:
154,384,30140,128,0,30306:0:0:0:0:
256,384,30306,128,0,30473:0:0:0:0:
461,384,30306,1,0,0:0:0:0:
358,384,30473,1,0,0:0:0:0:
51,384,30473,128,0,30640:0:0:0:0:
153,384,30640,1,0,0:0:0:0:
460,384,30640,128,0,30806:0:0:0:0:
256,384,30640,1,0,0:0:0:0:
358,384,30806,128,0,30973:0:0:0:0:
51,384,30973,1,0,0:0:0:0:
256,384,30973,128,0,31140:0:0:0:0:
153,384,31140,128,0,31306:0:0:0:0:
51,384,31306,1,0,0:0:0:0:
256,384,31306,1,0,0:0:0:0:
461,384,31306,1,0,0:0:0:0:
154,384,31473,128,0,31639:0:0:0:0:
256,384,31639,128,0,31806:0:0:0:0:
461,384,31639,1,0,0:0:0:0:
51,384,31806,1,0,0:0:0:0:
461,384,31806,1,0,0:0:0:0:
154,384,31973,1,0,0:0:0:0:
256,384,31973,1,0,0:0:0:0:
358,384,31973,1,0,0:0:0:0:
358,384,32139,1,0,0:0:0:0:
51,384,32306,1,0,0:0:0:0:
256,384,32306,128,0,32473:0:0:0:0:
51,384,32473,128,0,32639:0:0:0:0:
154,384,32639,1,0,0:0:0:0:
256,384,32639,1,0,0:0:0:0:
358,384,32639,1,0,0:0:0:0:
153,384,32806,128,0,32973:0:0:0:0:
256,384,32973,128,0,33140:0:0:0:0:
460,384,32973,1,0,0:0:0:0:
153,384,33140,1,0,0:0:0:0:
358,384,33140,128,0,33306:0:0:0:0:
51,384,33306,1,0,0:0:0:0:
460,384,33306,128,0,33473:0:0:0:0:
256,384,33306,1,0,0:0:0:0:
153,384,33473,128,0,33639:0:0:0:0:
51,384,33639,1,0,0:0:0:0:
256,384,33639,1,0,0:0:0:0:
51,384,33806,1,0,0:0:0:0:
154,384,33973,1,0,0:0:0:0:
256,384,33973,1,0,0:0:0:0:
461,384,33973,1,0,0:0:0:0:
154,384,34139,1,0,0:0:0:0:
256,384,34306,1,0,0:0:0:0:
461,384,34306,1,0,0:0:0:0:
51,384,34473,1,0,0:0:0:0:
461,384,34473,1,0,0:0:0:0:
154,384,34639,1,0,0:0:0:0:
256,384,34639,1,0,0:0:0:0:
358,384,34639,1,0,0:0:0:0:
358,384,34806,1,0,0:0:0:0:
51,384,34973,1,0,0:0:0:0:
154,384,34973,1,0,0:0:0:0:
256,384,34973,128,0,35139:0:0:0:0:
461,384,34973,1,0,0:0:0:0:
51,384,35139,128,0,35306:0:0:0:0:
154,384,35306,1,0,0:0:0:0:
256,384,35306,1,0,0:0:0:0:
358,384,35306,1,0,0:0:0:0:
358,384,35473,128,0,35639:0:0:0:0:
153,384,35639,128,0,35806:0:0:0:0:
461,384,35639,1,0,0:0:0:0:
256,384,35806,1,0,0:0:0:0:
461,384,35806,128,0,35973:0:0:0:0:
51,384,35973,1,0,0:0:0:0:
153,384,35973,128,0,36139:0:0:0:0:
358,384,35973,1,0,0:0:0:0:
256,384,36139,128,0,36306:0:0:0:0:
51,384,36306,1,0,0:0:0:0:
358,384,36306,128,0,36473:0:0:0:0:
51,384,36473,128,0,36639:0:0:0:0:
154,384,36639,1,0,0:0:0:0:
256,384,36639,1,0,0:0:0:0:
461,384,36639,1,0,0:0:0:0:
51,384,36806,128,0,36973:0:0:0:0:
256,384,36973,128,0,37139:0:0:0:0:
461,384,36973,1,0,0:0:0:0:
153,384,37139,1,0,0:0:0:0:
461,384,37139,1,0,0:0:0:0:
51,384,37306,1,0,0:0:0:0:
256,384,37306,1,0,0:0:0:0:
358,384,37306,1,0,0:0:0:0:
358,384,37473,1,0,0:0:0:0:
51,384,37639,1,0,0:0:0:0:
256,384,37639,128,0,37806:0:0:0:0:
51,384,37806,128,0,37973:0:0:0:0:
154,384,37973,1,0,0:0:0:0:
256,384,37973,1,0,0:0:0:0:
358,384,37973,1,0,0:0:0:0:
154,384,38139,128,0,38306:0:0:0:0:
256,384,38306,128,0,38473:0:0:0:0:
461,384,38306,1,0,0:0:0:0:
154,384,38473,128,0,38639:0:0:0:0:
461,384,38473,1,0,0:0:0:0:
51,384,38639,1,0,0:0:0:0:
256,384,38639,128,0,38806:0:0:0:0:
358,384,38639,1,0,0:0:0:0:
358,384,38806,128,0,38973:0:0:0:0:
51,384,38973,1,0,0:0:0:0:
256,384,38973,128,0,39139:0:0:0:0:
51,384,39139,128,0,39306:0:0:0:0:
154,384,39306,1,0,0:0:0:0:
256,384,39306,1,0,0:0:0:0:
461,384,39306,128,0,39473:0:0:0:0:
154,384,39473,128,0,39639:0:0:0:0:
256,384,39639,128,0,39806:0:0:0:0:
461,384,39639,1,0,0:0:0:0:
51,384,39806,1,0,0:0:0:0:
461,384,39806,1,0,0:0:0:0:
154,384,39973,1,0,0:0:0:0:
256,384,39973,1,0,0:0:0:0:
358,384,39973,1,0,0:0:0:0:
358,384,40139,1,0,0:0:0:0:
51,384,40306,1,0,0:0:0:0:
154,384,40306,1,0,0:0:0:0:
256,384,40306,1,0,0:0:0:0:
461,384,40306,128,0,40473:0:0:0:0:
51,384,40473,128,0,40639:0:0:0:0:
154,384,40639,1,0,0:0:0:0:
256,384,40639,1,0,0:0:0:0:
358,384,40639,1,0,0:0:0:0:
154,384,40806,128,0,40973:0:0:0:0:
256,384,40973,128,0,41139:0:0:0:0:
461,384,40973,1,0,0:0:0:0:
154,384,41139,128,0,41306:0:0:0:0:
461,384,41139,1,0,0:0:0:0:
51,384,41306,128,0,41473:0:0:0:0:
256,384,41306,1,0,0:0:0:0:
358,384,41306,1,0,0:0:0:0:
358,384,41473,128,0,41639:0:0:0:0:
51,384,41639,1,0,0:0:0:0:
256,384,41639,128,0,41806:0:0:0:0:
51,384,41806,128,0,41973:0:0:0:0:
154,384,41973,1,0,0:0:0:0:
256,384,41973,1,0,0:0:0:0:
461,384,41973,1,0,0:0:0:0:
154,384,42139,128,0,42306:0:0:0:0:
256,384,42306,128,0,42473:0:0:0:0:
461,384,42306,1,0,0:0:0:0:
51,384,42473,1,0,0:0:0:0:
461,384,42473,1,0,0:0:0:0:
154,384,42639,1,0,0:0:0:0:
256,384,42639,1,0,0:0:0:0:
358,384,42639,1,0,0:0:0:0:
358,384,42806,1,0,0:0:0:0:
51,384,42973,1,0,0:0:0:0:
256,384,42973,128,0,43139:0:0:0:0:
51,384,43139,128,0,43306:0:0:0:0:
154,384,43306,1,0,0:0:0:0:
256,384,43306,1,0,0:0:0:0:
358,384,43306,1,0,0:0:0:0:
154,384,43473,128,0,43639:0:0:0:0:
256,384,43639,128,0,43806:0:0:0:0:
461,384,43639,1,0,0:0:0:0:
154,384,43806,1,0,0:0:0:0:
461,384,43806,128,0,43973:0:0:0:0:
51,384,43973,1,0,0:0:0:0:
256,384,43973,128,0,44139:0:0:0:0:
358,384,43973,1,0,0:0:0:0:
358,384,44139,128,0,44306:0:0:0:0:
51,384,44306,1,0,0:0:0:0:
256,384,44306,128,0,44473:0:0:0:0:
51,384,44473,128,0,44639:0:0:0:0:
154,384,44639,1,0,0:0:0:0:
256,384,44639,1,0,0:0:0:0:
461,384,44639,128,0,44806:0:0:0:0:
154,384,44806,128,0,44973:0:0:0:0:
256,384,44973,128,0,45139:0:0:0:0:
461,384,44973,1,0,0:0:0:0:
51,384,45139,1,0,0:0:0:0:
461,384,45139,1,0,0:0:0:0:
154,384,45306,1,0,0:0:0:0:
256,384,45306,1,0,0:0:0:0:
358,384,45306,1,0,0:0:0:0:
358,384,45473,1,0,0:0:0:0:
51,384,45639,128,0,45806:0:0:0:0:
153,192,46139,1,0,0:0:0:0:
358,192,46139,1,0,0:0:0:0:
51,384,46306,1,0,0:0:0:0:
154,384,46306,1,0,0:0:0:0:
358,384,46306,1,0,0:0:0:0:
461,384,46306,1,0,0:0:0:0:
256,192,46306,1,0,0:0:0:0:
