osu file format v14

[General]
AudioFilename: audio.mp3
AudioLeadIn: 0
PreviewTime: 44988
Countdown: 0
SampleSet: Soft
StackLeniency: 0.5
Mode: 0
LetterboxInBreaks: 0
WidescreenStoryboard: 0

[Editor]
DistanceSpacing: 0.5
BeatDivisor: 4
GridSize: 8
TimelineZoom: 1.6

[Metadata]
Title:Ngud Tung Ngud
TitleUnicode:งัดถั่งงัด
Artist:Toey Atibdintr
ArtistUnicode:เต้ย อธิบดินทร์
Creator:Deppyforce
Version:Insane
Source:
Tags:thai -_frontier_- seaweed shyotamaze
BeatmapID:2006813
BeatmapSetID:958112

[Difficulty]
HPDrainRate:6.5
CircleSize:4
OverallDifficulty:7
ApproachRate:8
SliderMultiplier:1.82
SliderTickRate:1

[Events]
//Background and Video events
0,0,"dab.jpg",0,0
//Break Periods
//Storyboard Layer 0 (Background)
//Storyboard Layer 1 (Fail)
//Storyboard Layer 2 (Pass)
//Storyboard Layer 3 (Foreground)
//Storyboard Layer 4 (Overlay)
//Storyboard Sound Samples

[TimingPoints]
2488,500,4,2,0,100,1,0
2488,-81.9672131147541,4,2,0,100,0,0
12488,-98.0392156862745,4,2,0,100,0,0
28488,-89.2857142857143,4,2,0,100,0,0
46488,-121.951219512195,4,2,0,100,0,0
52488,-81.9672131147541,4,2,0,100,0,1
60488,-98.0392156862745,4,2,0,100,0,0
62488,-81.9672131147541,4,2,0,100,0,0
72488,-89.2857142857143,4,2,0,100,0,0
94488,-81.9672131147541,4,2,0,100,0,0
112488,-89.2857142857143,4,2,0,100,0,0
130488,-121.951219512195,4,2,0,100,0,0
136488,-81.9672131147541,4,2,0,100,0,1
144488,-98.0392156862745,4,2,0,100,0,0
146488,-89.2857142857143,4,2,0,100,0,0
166488,-161.290322580645,4,2,0,100,0,0
168488,-121.951219512195,4,2,0,100,0,0
174488,-81.9672131147541,4,2,0,100,0,1
184488,-108.695652173913,4,2,0,100,0,0

[Colours]
Combo1 : 238,215,123
Combo2 : 175,188,133
Combo3 : 232,173,145
Combo4 : 173,220,194

[HitObjects]
203,229,2488,6,0,P|114:239|42:263,1,166.529993139176
32,269,2988,2,0,P|44:213|43:199,1,55.5099977130586
159,321,3238,2,0,P|171:377|170:391,1,55.5099977130586
300,253,3488,6,0,B|294:197|294:197|321:150|321:150|314:95,1,166.529993139176
311,83,3988,2,0,P|255:77|251:77,1,55.5099977130586
406,149,4238,2,0,P|430:199|432:203,1,55.5099977130586
261,180,4488,6,0,P|181:158|98:163,1,166.529993139176
89,170,4988,2,0,P|73:223|74:236,1,55.5099977130586
205,310,5238,2,0,P|189:257|190:244,1,55.5099977130586
224,81,5488,1,0,0:0:0:0:
224,81,5613,1,0,0:0:0:0:
224,81,5738,2,0,L|281:67,1,55.5099977130586
116,132,5988,1,0,0:0:0:0:
116,132,6113,1,0,0:0:0:0:
116,132,6238,2,0,L|59:118,1,55.5099977130586
244,188,6488,6,0,L|437:140,1,166.529993139176
416,146,6988,2,0,P|402:89|400:86,1,55.5099977130586
379,259,7238,2,0,P|393:316|395:319,1,55.5099977130586
491,177,7488,6,0,P|487:94|449:21,1,166.529993139176
440,14,7988,2,0,P|384:20|373:24,1,55.5099977130586
278,86,8238,2,0,P|222:80|211:76,1,55.5099977130586
416,146,8488,6,0,B|378:172|378:172|365:305,1,166.529993139176
365,303,8988,2,0,P|310:295|306:293,1,55.5099977130586
458,219,9238,2,0,P|513:227|517:229,1,55.5099977130586
306,350,9488,5,0,0:0:0:0:
306,350,9613,1,0,0:0:0:0:
306,350,9738,2,0,L|310:295,1,55.5099977130586
184,202,9988,1,0,0:0:0:0:
184,202,10113,1,0,0:0:0:0:
184,201,10238,2,0,L|189:257,1,55.5099977130586
416,146,10488,6,0,B|293:167|329:86|205:100,2,222.039990852234
351,47,11738,1,0,0:0:0:0:
288,248,11988,1,0,0:0:0:0:
288,248,12051,1,0,0:0:0:0:
288,248,12488,6,0,L|183:263,1,92.8200005665283
132,115,12988,2,0,L|224:129,1,92.8200005665283
53,225,13488,2,0,P|36:161|71:50,1,185.640001133057
158,196,14238,1,0,0:0:0:0:
97,45,14488,5,0,0:0:0:0:
235,108,14738,1,0,0:0:0:0:
57,146,14988,1,0,0:0:0:0:
205,90,15238,1,0,0:0:0:0:
155,284,15488,2,0,B|143:236|143:236|158:196,1,92.8200005665283
314,272,15988,2,0,B|326:320|326:320|311:360,1,92.8200005665283
298,168,16488,6,0,P|366:161|391:150,1,92.8200005665283
473,8,16988,1,0,0:0:0:0:
347,74,17238,1,0,0:0:0:0:
465,193,17488,2,0,L|473:8,1,185.640001133057
328,82,18238,1,0,0:0:0:0:
469,209,18488,6,0,P|425:197|379:197,1,92.8200005665283
355,364,18988,2,0,P|388:331|411:291,1,92.8200005665283
304,104,19488,2,0,P|287:165|311:296,1,185.640001133057
389,172,20238,1,0,0:0:0:0:
153,112,20488,5,0,0:0:0:0:
260,176,20738,1,0,0:0:0:0:
100,249,20988,1,0,0:0:0:0:
236,174,21238,1,0,0:0:0:0:
85,62,21488,2,0,P|69:106|78:151,1,92.8200005665283
229,262,21988,2,0,P|245:218|236:174,1,92.8200005665283
23,281,22488,5,0,0:0:0:0:
156,156,22738,1,0,0:0:0:0:
121,335,22988,1,0,0:0:0:0:
43,169,23238,1,0,0:0:0:0:
202,257,23488,2,0,P|110:251|23:281,1,185.640001133057
161,133,24238,1,0,0:0:0:0:
296,300,24488,6,0,B|311:255|311:255|295:212,1,92.8200005665283
190,53,24988,2,0,B|175:98|175:98|191:141,1,92.8200005665283
373,130,25488,2,0,B|309:121|277:136|277:136|241:153|187:139,1,185.640001133057
105,33,26238,1,0,0:0:0:0:
29,192,26488,6,0,L|15:100,1,92.8200005665283
216,165,26988,2,0,L|202:256,1,92.8200005665283
63,207,27488,2,0,L|49:115,1,92.8200005665283
189,132,27988,1,0,0:0:0:0:
185,154,28113,1,0,0:0:0:0:
182,177,28238,1,0,0:0:0:0:
178,200,28363,1,0,0:0:0:0:
175,223,28488,5,0,0:0:0:0:
83,130,28738,1,0,0:0:0:0:
226,57,28988,2,0,P|262:91|272:140,1,101.920001244141
176,328,29488,2,0,P|160:228|189:132,1,203.840002488281
256,275,30238,1,0,0:0:0:0:
373,131,30488,6,0,L|272:140,1,101.920001244141
256,275,30988,2,0,L|357:283,1,101.920001244141
384,117,31488,2,0,L|263:127,1,101.920001244141
244,288,31988,1,0,0:0:0:0:
367,208,32238,1,0,0:0:0:0:
221,69,32488,6,0,P|199:115|209:164,1,101.920001244141
403,94,32988,2,0,P|357:72|308:82,1,101.920001244141
378,275,33488,2,0,P|399:229|389:180,1,101.920001244141
197,250,33988,2,0,P|242:271|291:261,1,101.920001244141
313,63,34488,6,0,B|260:54|216:78|216:78|170:103|115:90,1,203.840002488281
0,19,35238,1,0,0:0:0:0:
115,68,35488,1,0,0:0:0:0:
0,172,35738,1,0,0:0:0:0:
115,221,35988,1,0,0:0:0:0:
140,216,36113,1,0,0:0:0:0:
165,212,36238,1,0,0:0:0:0:
190,208,36363,1,0,0:0:0:0:
215,204,36488,6,0,B|228:152|228:152|208:106,1,101.920001244141
97,243,36988,2,0,B|84:295|84:295|104:341,1,101.920001244141
127,144,37488,2,0,B|75:131|75:131|29:151,1,101.920001244141
185,303,37988,2,0,B|237:316|237:316|283:296,1,101.920001244141
115,221,38488,5,0,0:0:0:0:
281,178,38738,1,0,0:0:0:0:
111,118,38988,1,0,0:0:0:0:
211,223,39238,1,0,0:0:0:0:
91,364,39488,2,0,P|83:289|115:221,1,152.880001866211
121,212,39988,2,0,P|65:230|22:225,1,101.920001244141
128,85,40488,5,0,0:0:0:0:
128,85,40738,1,0,0:0:0:0:
276,194,40988,2,0,L|280:295,1,101.920001244141
121,212,41488,2,0,L|125:110,1,101.920001244141
305,188,41988,1,0,0:0:0:0:
186,278,42238,1,0,0:0:0:0:
365,355,42488,6,0,P|378:305|362:258,1,101.920001244141
444,207,42988,2,0,P|395:220|362:258,1,101.920001244141
277,211,43488,2,0,P|312:246|362:257,1,101.920001244141
491,138,43988,1,0,0:0:0:0:
491,138,44113,1,0,0:0:0:0:
491,138,44238,2,0,L|496:88,2,50.9600006220703
58,297,46488,6,0,L|207:285,1,149.240002277222
96,209,47238,1,0,0:0:0:0:
151,376,47488,1,0,0:0:0:0:
197,201,47738,1,0,0:0:0:0:
151,333,47988,1,0,0:0:0:0:
51,185,48238,1,0,0:0:0:0:
237,282,48488,6,0,P|283:225|275:153,1,149.240002277222
190,86,49238,1,0,0:0:0:0:
123,212,49488,2,0,L|197:201,1,74.6200011386109
346,134,49988,2,0,L|272:122,1,74.6200011386109
237,281,50488,2,0,L|385:258,1,149.240002277222
275,153,51238,1,0,0:0:0:0:
156,245,51488,2,0,P|148:280|157:316,1,74.6200011386109
241,153,51988,2,0,P|249:117|240:81,1,74.6200011386109
74,210,52488,5,0,0:0:0:0:
34,51,52738,1,0,0:0:0:0:
34,51,52863,1,0,0:0:0:0:
34,51,52988,1,0,0:0:0:0:
165,118,53238,2,0,L|110:126,2,55.5099977130586
0,225,53738,2,0,L|55:233,2,55.5099977130586
142,332,54238,1,0,0:0:0:0:
114,335,54363,1,0,0:0:0:0:
87,339,54488,1,0,0:0:0:0:
225,186,54738,5,0,0:0:0:0:
73,258,54988,1,0,0:0:0:0:
238,363,55238,2,0,P|244:335|242:308,2,55.5099977130586
138,179,55738,2,0,P|140:207|151:232,2,55.5099977130586
315,241,56238,1,0,0:0:0:0:
342,243,56363,1,0,0:0:0:0:
370,246,56488,1,0,0:0:0:0:
361,46,56738,5,0,0:0:0:0:
315,241,56988,1,0,0:0:0:0:
448,135,57238,2,0,L|392:141,2,55.5099977130586
372,278,57738,2,0,L|316:272,2,55.5099977130586
320,77,58238,1,0,0:0:0:0:
320,77,58363,1,0,0:0:0:0:
320,77,58488,6,0,P|268:115|258:161,1,111.019995426117
261,185,58863,1,0,0:0:0:0:
264,212,58988,1,0,0:0:0:0:
182,88,59238,2,0,P|143:44|141:35,2,55.5099977130586
130,241,59738,2,0,P|111:296|104:303,2,55.5099977130586
0,149,60238,1,0,0:0:0:0:
39,150,60363,1,0,0:0:0:0:
74,132,60488,1,0,0:0:0:0:
256,192,60613,12,0,62488,0:0:0:0:
256,192,62738,5,0,0:0:0:0:
392,290,62988,1,0,0:0:0:0:
392,290,63113,1,0,0:0:0:0:
392,290,63238,2,0,L|383:346,1,55.5099977130586
354,168,63488,6,0,P|436:168|503:121,1,166.529993139176
509,111,63988,2,0,P|508:49|506:44,1,55.5099977130586
376,35,64238,2,0,P|377:97|379:102,1,55.5099977130586
432,265,64488,6,0,B|377:253|377:253|266:276,1,166.529993139176
259,280,64988,2,0,P|250:339|252:351,1,55.5099977130586
203,170,65238,2,0,P|158:209|151:219,1,55.5099977130586
50,363,65488,5,0,0:0:0:0:
50,363,65613,1,0,0:0:0:0:
50,363,65738,2,0,L|105:360,1,55.5099977130586
58,234,65988,1,0,0:0:0:0:
58,234,66113,1,0,0:0:0:0:
58,234,66238,2,0,L|3:231,1,55.5099977130586
200,334,66488,6,0,P|212:237|194:142,1,166.529993139176
198,159,66988,2,0,P|138:168|131:168,1,55.5099977130586
293,244,67238,2,0,P|353:253|360:253,1,55.5099977130586
248,70,67488,6,0,B|165:79|165:79|84:60,1,166.529993139176
73,57,67988,2,0,P|59:116|59:120,1,55.5099977130586
157,221,68238,2,0,P|147:194|143:167,1,55.5099977130586
317,159,68488,6,0,P|339:260|325:361,1,166.529993139176
332,333,68988,2,0,P|280:354|273:360,1,55.5099977130586
438,235,69238,2,0,P|490:256|497:262,1,55.5099977130586
260,247,69488,5,0,0:0:0:0:
260,247,69613,1,0,0:0:0:0:
260,247,69738,2,0,L|243:176,1,55.5099977130586
427,324,69988,1,0,0:0:0:0:
427,324,70113,1,0,0:0:0:0:
427,324,70238,2,0,L|410:395,1,55.5099977130586
471,135,70488,6,0,B|398:128|398:128|362:63|362:63|287:54,2,222.039990852234
348,240,71738,1,0,0:0:0:0:
263,53,71988,1,0,0:0:0:0:
263,53,72050,1,0,0:0:0:0:
196,149,72238,1,0,0:0:0:0:
348,239,72488,6,0,P|334:191|298:157,1,101.920001244141
302,336,72988,2,0,P|350:349|398:334,1,101.920001244141
242,249,73488,2,0,P|206:284|195:333,1,101.920001244141
52,256,73988,1,0,0:0:0:0:
52,256,74238,1,0,0:0:0:0:
196,149,74488,6,0,P|374:134|402:126,2,203.840002488281
100,55,75738,1,0,0:0:0:0:
143,227,75988,1,0,0:0:0:0:
238,75,76238,1,0,0:0:0:0:
281,247,76488,1,0,0:0:0:0:
164,134,76738,1,0,0:0:0:0:
111,315,76988,6,0,L|216:306,1,101.920001244141
297,157,77488,2,0,L|196:149,1,101.920001244141
310,275,77988,1,0,0:0:0:0:
310,275,78238,1,0,0:0:0:0:
414,134,78488,6,0,B|390:90|390:90|238:76,2,203.840002488281
310,275,79738,1,0,0:0:0:0:
196,149,79988,1,0,0:0:0:0:
221,151,80113,1,0,0:0:0:0:
246,153,80238,1,0,0:0:0:0:
272,155,80363,1,0,0:0:0:0:
297,157,80488,6,0,P|338:249|345:350,1,203.840002488281
244,233,81238,1,0,0:0:0:0:
425,286,81488,2,0,P|474:271|507:233,1,101.920001244141
501,56,81988,1,0,0:0:0:0:
419,185,82238,1,0,0:0:0:0:
348,49,82488,5,0,0:0:0:0:
419,185,82738,1,0,0:0:0:0:
244,233,82988,2,0,L|256:131,1,101.920001244141
102,187,83488,2,0,L|90:85,1,101.920001244141
0,222,83988,1,0,0:0:0:0:
161,247,84238,1,0,0:0:0:0:
61,80,84488,6,0,L|84:282,2,203.840002488281
201,15,85738,1,0,0:0:0:0:
26,71,85988,1,0,0:0:0:0:
195,118,86238,1,0,0:0:0:0:
84,282,86488,5,0,0:0:0:0:
69,148,86738,1,0,0:0:0:0:
182,307,86988,2,0,P|158:351|116:378,1,101.920001244141
155,210,87488,2,0,P|238:197|386:235,1,203.840002488281
269,318,88238,1,0,0:0:0:0:
155,180,88488,6,0,P|238:167|386:205,1,203.840002488281
269,288,89238,1,0,0:0:0:0:
362,162,89488,1,0,0:0:0:0:
396,346,89738,1,0,0:0:0:0:
493,188,89988,2,0,P|447:209|414:247,1,101.920001244141
497,59,90488,6,0,L|386:66,1,101.920001244141
365,70,90863,1,0,0:0:0:0:
365,70,90988,1,0,0:0:0:0:
236,200,91238,1,0,0:0:0:0:
414,247,91488,1,0,0:0:0:0:
336,64,91738,5,0,0:0:0:0:
336,64,91863,1,0,0:0:0:0:
336,64,91988,1,0,0:0:0:0:
258,241,92238,1,0,0:0:0:0:
451,220,92488,1,0,0:0:0:0:
256,192,92613,12,0,94238,0:0:0:0:
176,346,94488,5,0,0:0:0:0:
0,266,94738,1,0,0:0:0:0:
158,152,94988,1,0,0:0:0:0:
150,359,95238,5,0,0:0:0:0:
131,362,95363,1,0,0:0:0:0:
112,362,95488,1,0,0:0:0:0:
0,236,95738,1,0,0:0:0:0:
182,167,95988,1,0,0:0:0:0:
132,365,96238,5,0,0:0:0:0:
113,363,96363,1,0,0:0:0:0:
95,359,96488,1,0,0:0:0:0:
19,208,96738,1,0,0:0:0:0:
213,188,96988,1,0,0:0:0:0:
33,304,97238,6,0,P|-24:315|-30:315,2,55.5099977130586
128,185,97738,2,0,P|148:130|149:124,2,55.5099977130586
256,334,98238,1,0,0:0:0:0:
256,334,98363,1,0,0:0:0:0:
255,333,98488,2,0,P|284:287|333:263,2,111.019995426117
93,256,99238,5,0,0:0:0:0:
93,256,99363,1,0,0:0:0:0:
93,256,99488,1,0,0:0:0:0:
170,93,99738,2,0,L|153:38,2,55.5099977130586
333,170,100238,1,0,0:0:0:0:
331,197,100363,1,0,0:0:0:0:
329,225,100488,1,0,0:0:0:0:
93,256,100738,6,0,B|185:275|241:211|241:211|245:152,1,222.039990852234
202,16,101488,1,0,0:0:0:0:
202,16,101613,1,0,0:0:0:0:
202,16,101738,2,0,L|146:12,1,55.5099977130586
189,149,101988,1,0,0:0:0:0:
189,149,102113,1,0,0:0:0:0:
189,149,102238,2,0,L|244:152,1,55.5099977130586
353,48,102488,5,0,0:0:0:0:
457,240,102738,2,0,L|232:261,1,222.039990852234
320,122,103488,1,0,0:0:0:0:
320,122,103613,1,0,0:0:0:0:
320,122,103738,2,0,P|340:182|340:188,1,55.5099977130586
255,312,103988,1,0,0:0:0:0:
255,312,104113,1,0,0:0:0:0:
255,312,104238,2,0,P|235:252|235:246,1,55.5099977130586
167,116,104488,5,0,0:0:0:0:
53,329,104738,2,0,B|128:343|128:343|181:296|181:296|255:312,1,222.039990852234
296,324,105363,1,0,0:0:0:0:
340,322,105488,1,0,0:0:0:0:
379,302,105613,1,0,0:0:0:0:
406,268,105738,1,0,0:0:0:0:
417,225,105863,1,0,0:0:0:0:
408,182,105988,2,0,L|353:197,3,55.5099977130586
470,126,106488,5,0,0:0:0:0:
263,13,106738,2,0,P|249:122|278:229,1,222.039990852234
306,263,107363,1,0,0:0:0:0:
268,240,107488,1,0,0:0:0:0:
224,233,107613,1,0,0:0:0:0:
181,244,107738,1,0,0:0:0:0:
146,271,107863,1,0,0:0:0:0:
124,309,107988,2,0,L|128:364,3,55.5099977130586
13,303,108488,6,0,L|-2:95,1,166.529993139176
0,125,108988,1,0,0:0:0:0:
169,155,109238,1,0,0:0:0:0:
92,7,109488,1,0,0:0:0:0:
72,46,109613,1,0,0:0:0:0:
72,90,109738,1,0,0:0:0:0:
234,215,109988,2,0,P|249:191|258:165,2,55.5099977130586
102,308,110488,5,0,0:0:0:0:
113,308,110613,1,0,0:0:0:0:
124,309,110738,1,0,0:0:0:0:
135,310,110863,1,0,0:0:0:0:
146,310,110988,1,0,0:0:0:0:
157,311,111113,1,0,0:0:0:0:
168,312,111238,1,0,0:0:0:0:
179,312,111363,1,0,0:0:0:0:
190,313,111488,1,0,0:0:0:0:
201,314,111613,1,0,0:0:0:0:
212,314,111738,1,0,0:0:0:0:
223,315,111863,1,0,0:0:0:0:
234,316,111988,2,0,L|290:319,1,55.5099977130586
268,217,112238,2,0,L|212:214,1,55.5099977130586
418,269,112488,6,0,P|426:319|418:369,1,101.920001244141
368,138,112988,2,0,P|418:130|468:139,1,101.920001244141
239,189,113488,2,0,P|231:139|239:90,1,101.920001244141
290,319,113988,2,0,P|240:327|190:318,1,101.920001244141
368,138,114488,6,0,L|383:348,2,203.840002488281
239,88,115738,1,0,0:0:0:0:
409,54,115988,1,0,0:0:0:0:
276,182,116238,1,0,0:0:0:0:
484,221,116488,6,0,P|478:170|453:127,1,101.920001244141
350,247,116988,2,0,P|356:297|382:341,1,101.920001244141
358,149,117488,2,0,P|256:148|157:170,1,203.840002488281
129,321,118238,1,0,0:0:0:0:
264,253,118488,6,0,B|267:150|267:150|243:51,1,203.840002488281
157,169,119238,1,0,0:0:0:0:
345,113,119488,1,0,0:0:0:0:
143,71,119738,1,0,0:0:0:0:
266,203,119988,1,0,0:0:0:0:
265,228,120113,1,0,0:0:0:0:
264,253,120238,1,0,0:0:0:0:
263,279,120363,1,0,0:0:0:0:
262,304,120488,6,0,L|141:319,1,101.920001244141
361,258,120988,2,0,L|462:270,1,101.920001244141
266,203,121488,2,0,L|145:218,1,101.920001244141
365,157,121988,2,0,L|466:169,1,101.920001244141
261,303,122488,5,0,0:0:0:0:
279,102,122738,1,0,0:0:0:0:
361,258,122988,1,0,0:0:0:0:
280,127,123238,1,0,0:0:0:0:
176,297,123488,2,0,P|156:224|156:148,1,152.880001866211
160,138,123988,6,0,B|108:144|108:144|71:109,1,101.920001244141
214,28,124488,1,0,0:0:0:0:
214,28,124738,1,0,0:0:0:0:
305,201,124988,2,0,P|350:179|401:176,1,101.920001244141
273,322,125488,2,0,P|227:301|177:298,1,101.920001244141
372,259,125988,1,0,0:0:0:0:
484,378,126238,1,0,0:0:0:0:
512,194,126488,6,0,L|402:183,1,101.920001244141
273,322,126988,2,0,L|383:311,1,101.920001244141
278,137,127488,2,0,L|168:126,1,101.920001244141
39,265,127988,1,0,0:0:0:0:
39,265,128113,1,0,0:0:0:0:
39,265,128238,2,0,L|127:256,2,50.9600006220703
275,6,130488,6,0,P|307:71|277:137,1,149.240002277222
164,223,131238,1,0,0:0:0:0:
150,81,131488,2,0,P|186:73|224:73,1,74.6200011386109
237,214,131988,2,0,P|201:222|164:223,1,74.6200011386109
98,345,132488,6,0,P|110:273|164:223,1,149.240002277222
321,259,133238,1,0,0:0:0:0:
237,376,133488,1,0,0:0:0:0:
185,248,133738,1,0,0:0:0:0:
365,351,133988,1,0,0:0:0:0:
417,223,134238,1,0,0:0:0:0:
279,106,134488,6,0,B|264:139|264:139|287:249,1,149.240002277222
393,370,135238,1,0,0:0:0:0:
491,218,135488,2,0,L|416:222,1,74.6200011386109
282,324,135988,2,0,L|287:248,1,74.6200011386109
380,36,136488,5,0,0:0:0:0:
416,222,136738,1,0,0:0:0:0:
416,222,136863,1,0,0:0:0:0:
416,222,136988,1,0,0:0:0:0:
295,92,137238,1,0,0:0:0:0:
251,85,137363,1,0,0:0:0:0:
207,93,137488,1,0,0:0:0:0:
403,138,137738,2,0,P|430:139|456:147,2,55.5099977130586
282,324,138238,1,0,0:0:0:0:
282,324,138363,1,0,0:0:0:0:
282,324,138488,6,0,L|270:211,1,111.019995426117
130,63,138988,2,0,L|118:173,1,111.019995426117
114,201,139363,1,0,0:0:0:0:
110,228,139488,1,0,0:0:0:0:
218,133,139738,1,0,0:0:0:0:
257,112,139863,1,0,0:0:0:0:
284,77,139988,1,0,0:0:0:0:
59,19,140238,1,0,0:0:0:0:
59,19,140363,1,0,0:0:0:0:
59,19,140488,5,0,0:0:0:0:
106,255,140738,1,0,0:0:0:0:
176,61,140988,1,0,0:0:0:0:
256,301,141238,2,0,P|268:363|267:378,2,55.5099977130586
110,228,141738,2,0,P|82:231|56:239,2,55.5099977130586
378,212,142238,1,0,0:0:0:0:
378,212,142363,1,0,0:0:0:0:
378,212,142488,6,0,P|436:164|450:130,1,111.019995426117
263,34,142988,1,0,0:0:0:0:
195,252,143238,1,0,0:0:0:0:
195,252,143363,1,0,0:0:0:0:
195,252,143488,1,0,0:0:0:0:
350,108,143738,2,0,P|405:120|413:125,2,55.5099977130586
296,344,144238,1,0,0:0:0:0:
293,299,144363,1,0,0:0:0:0:
291,255,144488,1,0,0:0:0:0:
256,192,144613,12,0,146238,0:0:0:0:
409,293,146488,6,0,L|510:306,1,101.920001244141
357,187,146988,2,0,L|458:200,1,101.920001244141
309,277,147488,1,0,0:0:0:0:
322,111,147738,1,0,0:0:0:0:
458,200,147988,1,0,0:0:0:0:
445,366,148238,1,0,0:0:0:0:
211,302,148488,6,0,P|261:216|356:186,2,203.840002488281
194,135,149738,1,0,0:0:0:0:
318,290,149988,1,0,0:0:0:0:
204,163,150238,1,0,0:0:0:0:
127,321,150488,5,0,0:0:0:0:
275,214,150738,1,0,0:0:0:0:
102,135,150988,2,0,L|114:238,1,101.920001244141
263,315,151488,2,0,L|275:214,1,101.920001244141
298,49,151988,1,0,0:0:0:0:
298,49,152238,1,0,0:0:0:0:
475,141,152488,6,0,B|396:149|396:149|360:119|360:119|283:129,2,203.840002488281
316,241,153738,1,0,0:0:0:0:
298,49,153988,1,0,0:0:0:0:
323,45,154113,1,0,0:0:0:0:
348,42,154238,1,0,0:0:0:0:
373,38,154363,1,0,0:0:0:0:
399,35,154488,6,0,P|406:136|402:238,1,203.840002488281
320,367,155238,1,0,0:0:0:0:
202,213,155488,2,0,P|251:203|302:205,1,101.920001244141
468,298,155988,1,0,0:0:0:0:
446,145,156238,1,0,0:0:0:0:
329,286,156488,5,0,0:0:0:0:
512,213,156738,1,0,0:0:0:0:
394,39,156988,2,0,B|381:92|381:92|398:136,1,101.920001244141
303,304,157488,2,0,B|316:251|316:251|298:206,1,101.920001244141
218,71,157988,1,0,0:0:0:0:
218,71,158238,1,0,0:0:0:0:
104,231,158488,6,0,B|157:247|201:217|201:217|246:188|298:206,2,203.840002488281
138,116,159738,1,0,0:0:0:0:
231,257,159988,1,0,0:0:0:0:
298,114,160238,1,0,0:0:0:0:
228,288,160488,5,0,0:0:0:0:
124,145,160738,1,0,0:0:0:0:
321,214,160988,2,0,P|365:190|394:149,1,101.920001244141
215,53,161488,2,0,L|231:257,1,203.840002488281
370,142,162238,1,0,0:0:0:0:
183,50,162488,6,0,L|198:253,1,203.840002488281
337,138,163238,1,0,0:0:0:0:
414,285,163488,1,0,0:0:0:0:
333,160,163738,1,0,0:0:0:0:
259,333,163988,2,0,P|213:354|163:347,1,101.920001244141
240,151,164488,6,0,P|287:131|337:138,1,101.920001244141
362,156,164863,1,0,0:0:0:0:
362,156,164988,1,0,0:0:0:0:
198,253,165238,1,0,0:0:0:0:
195,62,165488,1,0,0:0:0:0:
32,161,165738,5,0,0:0:0:0:
32,161,165863,1,0,0:0:0:0:
32,161,165988,2,0,L|88:151,1,50.9600006220703
191,266,166238,2,0,L|135:256,1,50.9600006220703
281,73,166488,6,0,B|238:125|254:178|254:178|335:240|441:188|441:188|421:116|330:134,1,451.359982093262
329,134,168988,5,0,0:0:0:0:
354,300,169238,1,0,0:0:0:0:
229,200,169488,1,0,0:0:0:0:
409,225,169738,1,0,0:0:0:0:
209,292,169988,1,0,0:0:0:0:
389,317,170238,1,0,0:0:0:0:
207,180,170488,6,0,P|180:111|201:41,1,149.240002277222
301,107,171238,1,0,0:0:0:0:
210,269,171488,2,0,L|135:272,1,74.6200011386109
309,204,171988,2,0,L|383:207,1,74.6200011386109
187,144,172488,6,0,L|29:151,1,149.240002277222
181,43,173238,1,0,0:0:0:0:
220,239,173488,2,0,P|228:276|225:313,1,74.6200011386109
335,167,173988,2,0,P|342:130|339:93,1,74.6200011386109
374,363,174488,5,0,0:0:0:0:
199,326,174738,1,0,0:0:0:0:
199,326,174863,1,0,0:0:0:0:
199,326,174988,1,0,0:0:0:0:
410,258,175238,1,0,0:0:0:0:
453,251,175363,1,0,0:0:0:0:
496,260,175488,1,0,0:0:0:0:
303,175,175738,2,0,P|288:116|286:91,2,55.5099977130586
175,350,176238,1,0,0:0:0:0:
182,306,176363,1,0,0:0:0:0:
175,262,176488,5,0,0:0:0:0:
353,345,176738,1,0,0:0:0:0:
375,101,176988,2,0,P|326:125|303:175,1,111.019995426117
304,206,177363,1,0,0:0:0:0:
304,206,177488,1,0,0:0:0:0:
161,83,177738,2,0,L|155:28,2,55.5099977130586
83,261,178238,1,0,0:0:0:0:
78,305,178363,1,0,0:0:0:0:
73,349,178488,1,0,0:0:0:0:
214,164,178738,5,0,0:0:0:0:
8,121,178988,1,0,0:0:0:0:
167,274,179238,2,0,P|219:247|224:240,2,55.5099977130586
202,63,179738,1,0,0:0:0:0:
202,63,179863,1,0,0:0:0:0:
202,63,179988,1,0,0:0:0:0:
361,216,180238,1,0,0:0:0:0:
375,257,180363,1,0,0:0:0:0:
372,301,180488,5,0,0:0:0:0:
189,157,180738,1,0,0:0:0:0:
432,77,180988,1,0,0:0:0:0:
248,271,181238,2,0,P|242:326|244:344,2,55.5099977130586
135,92,181738,1,0,0:0:0:0:
126,48,181863,1,0,0:0:0:0:
129,5,181988,1,0,0:0:0:0:
35,329,182238,2,0,P|29:356|28:383,2,55.5099977130586
216,37,182988,5,0,0:0:0:0:
311,368,183488,5,0,0:0:0:0:
492,76,183988,5,0,0:0:0:0:
256,192,184488,12,0,186488,0:0:0:0:
