osu file format v14

[General]
AudioFilename: audio.mp3
AudioLeadIn: 0
PreviewTime: 44988
Countdown: 0
SampleSet: Soft
StackLeniency: 0.7
Mode: 0
LetterboxInBreaks: 0
WidescreenStoryboard: 1

[Editor]
Bookmarks: 62488,112488
DistanceSpacing: 0.7
BeatDivisor: 4
GridSize: 32
TimelineZoom: 1

[Metadata]
Title:Ngud Tung Ngud
TitleUnicode:งัดถั่งงัด
Artist:Toey Atibdintr
ArtistUnicode:เต้ย อธิบดินทร์
Creator:Deppyforce
Version:Collab Normal
Source:
Tags:thai -_frontier_- seaweed shyotamaze
BeatmapID:2256120
BeatmapSetID:958112

[Difficulty]
HPDrainRate:4
CircleSize:3.5
OverallDifficulty:4
ApproachRate:5
SliderMultiplier:1.4
SliderTickRate:1

[Events]
//Background and Video events
0,0,"dab.jpg",0,0
//Break Periods
//Storyboard Layer 0 (Background)
//Storyboard Layer 1 (Fail)
//Storyboard Layer 2 (Pass)
//Storyboard Layer 3 (Foreground)
//Storyboard Layer 4 (Overlay)
//Storyboard Sound Samples

[TimingPoints]
2488,500,4,2,0,100,1,0
52488,-100,4,2,0,100,0,1
60488,-100,4,2,0,100,0,0
136488,-100,4,2,0,100,0,1
144488,-100,4,2,0,100,0,0
174488,-100,4,2,0,100,0,1
184488,-100,4,2,0,100,0,0

[Colours]
Combo1 : 238,215,123
Combo2 : 175,188,133
Combo3 : 232,173,145
Combo4 : 173,220,194

[HitObjects]
64,329,2488,6,0,P|130:340|181:295,1,140
195,247,3238,1,0,0:0:0:0:
195,247,3488,2,0,B|204:178|204:178|179:111,1,140
256,51,4488,2,0,L|397:58,1,140
444,60,5238,1,0,0:0:0:0:
444,60,5488,2,0,P|460:136|452:161,1,70
426,161,5988,2,0,P|411:192|408:227,1,70
423,273,6488,6,0,P|321:289|307:337,1,140
302,360,7238,1,0,0:0:0:0:
302,360,7488,2,0,B|287:288|287:288|227:261,1,140
131,283,8488,2,0,L|115:138,1,140
110,95,9238,1,0,0:0:0:0:
110,95,9488,2,0,P|154:77|188:77,1,70
219,97,9988,2,0,P|263:115|297:115,1,70
329,95,10488,2,0,B|381:89|381:89|410:68|410:68|462:63,2,140
325,192,11988,1,0,0:0:0:0:
321,289,12488,6,0,P|337:363|345:381,2,70
277,265,13238,1,0,0:0:0:0:
277,265,13488,2,0,P|196:261|151:313,1,140
61,320,14488,2,0,L|51:246,1,70
11,222,14988,2,0,L|16:151,1,70
22,103,15488,1,0,0:0:0:0:
111,64,15988,1,0,0:0:0:0:
186,126,16488,6,0,P|198:202|196:216,2,70
214,85,17238,1,0,0:0:0:0:
213,85,17488,2,0,P|281:72|342:103,1,140
393,187,18488,2,0,B|398:264|368:244|376:325,2,140
440,100,19988,1,0,0:0:0:0:
342,103,20488,6,0,P|269:125|256:137,1,70
240,155,20988,2,0,L|248:238,1,70
257,272,21488,2,0,L|408:257,1,140
488,291,22488,2,0,P|510:359|508:379,2,70
507,245,23238,1,0,0:0:0:0:
507,245,23488,1,0,0:0:0:0:
467,155,23988,1,0,0:0:0:0:
483,58,24488,6,0,L|412:63,1,70
392,18,24988,2,0,L|321:23,1,70
273,29,25488,2,0,B|247:93|252:171,1,140
161,204,26488,2,0,B|115:147|115:147|47:142,2,140
199,294,27988,1,0,0:0:0:0:
247,297,28238,1,0,0:0:0:0:
295,300,28488,6,0,P|321:231|300:164,1,140
390,124,29488,2,0,P|436:181|505:196,1,140
495,295,30488,2,0,P|422:306|374:358,2,140
498,196,31988,2,0,P|464:193|432:178,1,70
394,146,32488,6,0,L|381:5,1,140
284,21,33488,2,0,L|271:160,1,140
258,257,34488,1,0,0:0:0:0:
179,197,34988,2,0,B|82:212|137:176|37:194,1,140
1,282,35988,1,0,0:0:0:0:
9,330,36238,1,0,0:0:0:0:
17,378,36488,6,0,B|86:385|86:385|140:340,1,140
229,381,37488,2,0,B|236:312|236:312|190:256,1,140
232,169,38488,2,0,B|163:162|163:162,1,70
135,120,38988,2,0,B|66:127|66:127,1,70
16,134,39488,1,0,0:0:0:0:
34,37,39988,1,0,0:0:0:0:
128,16,40488,6,0,P|195:35|234:91,1,140
234,140,41238,1,0,0:0:0:0:
234,140,41488,2,0,P|293:91|356:98,1,140
387,131,42238,1,0,0:0:0:0:
387,131,42488,2,0,B|402:190|402:190|394:209|394:209|406:274,2,140
404,34,43988,1,0,0:0:0:0:
452,38,44238,1,0,0:0:0:0:
500,42,44488,1,0,0:0:0:0:
256,348,46488,6,0,L|109:360,1,140
73,336,47238,1,0,0:0:0:0:
73,336,47488,2,0,P|51:263|55:246,1,70
91,244,47988,2,0,P|103:211|102:176,1,70
71,138,48488,1,0,0:0:0:0:
110,48,48988,6,0,L|183:43,1,70
204,85,49488,2,0,L|277:80,1,70
315,53,49988,2,0,L|388:48,1,70
433,43,50488,1,0,0:0:0:0:
499,114,50988,6,0,P|507:185|502:196,1,70
475,217,51488,2,0,P|413:180|401:180,1,70
373,203,51988,2,0,P|360:235|363:270,1,70
335,310,52488,5,0,0:0:0:0:
286,318,52738,1,0,0:0:0:0:
237,326,52988,2,0,P|194:262|204:188,1,140
219,157,53738,1,0,0:0:0:0:
219,157,53988,2,0,L|290:151,1,70
337,146,54488,1,0,0:0:0:0:
337,48,54988,6,0,P|293:19|269:16,1,70
227,16,55488,2,0,P|186:79|186:102,1,70
152,105,55988,2,0,P|115:91|79:91,1,70
40,110,56488,1,0,0:0:0:0:
33,158,56738,1,0,0:0:0:0:
26,206,56988,6,0,B|54:348,1,140
100,355,57738,1,0,0:0:0:0:
100,355,57988,2,0,P|148:310|156:284,1,70
159,259,58488,1,0,0:0:0:0:
256,278,58988,6,0,L|326:273,1,70
363,242,59488,2,0,P|372:173|354:143,1,70
339,138,59988,2,0,P|317:62|323:46,1,70
331,28,60488,6,0,B|263:20|230:41|230:41|192:66|114:54,1,210
27,280,62488,6,0,P|96:292|173:276,1,140
206,255,63238,1,0,0:0:0:0:
206,255,63488,2,0,L|218:108,1,140
252,80,64238,1,0,0:0:0:0:
252,80,64488,6,0,P|321:68|398:84,1,140
420,117,65238,1,0,0:0:0:0:
420,117,65488,2,0,P|423:161|420:190,1,70
385,221,65988,2,0,P|382:265|385:294,1,70
398,337,66488,6,0,B|308:334|350:359|247:352,1,140
211,347,67238,1,0,0:0:0:0:
211,347,67488,2,0,B|186:277|186:277|114:257,1,140
75,245,68238,1,0,0:0:0:0:
75,245,68488,6,0,B|51:171|51:171|64:104,1,140
83,65,69238,1,0,0:0:0:0:
83,65,69488,2,0,L|160:65,1,70
187,99,69988,2,0,L|264:99,1,70
291,64,70488,6,0,B|329:87|341:125|341:125|353:162|389:192,2,140
245,45,71738,1,0,0:0:0:0:
196,41,71988,2,0,P|157:39|121:43,1,70
97,82,72488,6,0,B|59:105|47:143|47:143|35:180|-1:210,1,140
85,262,73488,2,0,P|116:292|130:323,1,70
172,335,73988,2,0,P|203:305|217:274,1,70
259,260,74488,6,0,P|322:240|401:265,1,140
478,304,75488,1,0,0:0:0:0:
487,255,75738,1,0,0:0:0:0:
498,207,75988,2,0,L|510:132,1,70
481,97,76488,6,0,P|433:81|399:80,1,70
379,114,76988,2,0,P|331:130|235:119,1,140
208,87,77738,1,0,0:0:0:0:
208,87,77988,2,0,P|160:71|126:70,1,70
105,103,78488,6,0,B|63:180|121:161|90:246,1,140
58,329,79488,1,0,0:0:0:0:
152,354,79988,2,0,P|193:357|244:352,1,70
256,320,80488,6,0,B|301:313|328:323|328:323|358:337|397:332,2,140
193,243,81988,2,0,P|183:200|185:165,1,70
218,139,82488,6,0,P|223:87|218:51,1,70
186,34,82988,2,0,B|254:21|237:54|348:29,1,140
423,33,83988,1,0,0:0:0:0:
479,113,84488,6,0,P|491:180|482:259,1,140
408,313,85488,2,0,L|330:320,1,70
301,286,85988,2,0,L|223:279,1,70
185,297,86488,6,0,L|107:304,1,70
77,272,86988,1,0,0:0:0:0:
39,181,87488,2,0,B|23:106|45:43|45:43|84:65|84:65|134:38|192:46,1,280
273,49,88988,5,0,0:0:0:0:
332,126,89488,1,0,0:0:0:0:
267,199,89988,2,0,B|196:202|196:202|150:239|150:239|53:248,2,210
362,221,91988,5,0,0:0:0:0:
440,279,92488,2,0,B|465:206|423:146|423:146|384:94|406:6,1,280
211,45,94488,6,0,P|156:64|109:140,1,140
101,177,95238,1,0,0:0:0:0:
101,177,95488,2,0,P|156:196|203:272,1,140
200,310,96238,1,0,0:0:0:0:
200,310,96488,6,0,P|156:348|66:350,1,140
35,327,97238,1,0,0:0:0:0:
35,327,97488,2,0,L|23:238,1,70
56,219,97988,2,0,L|68:130,1,70
42,106,98488,5,0,0:0:0:0:
111,37,98988,2,0,P|152:33|182:36,1,70
221,62,99488,2,0,P|262:66|292:63,1,70
335,42,99988,1,0,0:0:0:0:
404,111,100488,5,0,0:0:0:0:
404,111,100738,2,0,P|418:184|403:248,1,140
366,279,101488,1,0,0:0:0:0:
366,279,101738,2,0,L|287:283,1,70
261,317,102238,1,0,0:0:0:0:
261,317,102488,6,0,L|182:321,1,70
99,284,103238,1,0,0:0:0:0:
99,284,103488,2,0,P|92:242|96:208,1,70
129,180,103988,2,0,P|136:138|132:104,1,70
98,76,104488,5,0,0:0:0:0:
98,76,104738,2,0,B|182:45|155:104|259:64,1,140
283,76,105488,2,0,P|297:113|294:144,1,70
312,188,105988,2,0,P|350:196|385:189,1,70
418,221,106488,5,0,0:0:0:0:
418,221,106738,2,0,P|435:285|422:358,1,140
373,351,107488,2,0,P|337:347|295:353,1,70
257,366,107988,2,0,P|221:370|179:364,1,70
140,351,108488,5,0,0:0:0:0:
71,281,108988,2,0,P|93:213|75:134,1,140
135,65,109988,1,0,0:0:0:0:
256,192,110488,12,0,112488,0:0:0:0:
43,65,113488,6,0,P|88:116|155:129,1,140
252,110,114488,2,0,P|200:155|187:222,2,140
349,91,115988,2,0,P|378:72|400:45,1,70
420,0,116488,6,0,L|432:139,1,140
347,188,117488,2,0,L|334:327,1,140
418,380,118488,1,0,0:0:0:0:
512,355,118988,2,0,B|492:289|492:289|421:283,1,140
335,327,119988,1,0,0:0:0:0:
286,331,120238,1,0,0:0:0:0:
237,335,120488,6,0,P|208:271|224:204,1,140
280,126,121488,2,0,P|216:154|149:138,1,140
72,82,122488,2,0,P|91:111|100:144,1,70
94,192,122988,2,0,P|76:222|50:245,1,70
2,257,123488,1,0,0:0:0:0:
3,157,123988,1,0,0:0:0:0:
94,192,124488,6,0,B|163:186|163:186|209:133,1,140
207,83,125238,1,0,0:0:0:0:
207,83,125488,2,0,B|153:38|153:38|84:42,1,140
35,50,126238,1,0,0:0:0:0:
35,50,126488,2,0,B|47:193,2,140
131,65,127988,1,0,0:0:0:0:
135,113,128238,1,0,0:0:0:0:
139,161,128488,1,0,0:0:0:0:
491,331,130488,6,0,P|424:348|361:321,1,140
328,284,131238,1,0,0:0:0:0:
328,284,131488,2,0,L|334:214,1,70
368,179,131988,2,0,L|361:110,1,70
341,64,132488,1,0,0:0:0:0:
250,26,132988,6,0,P|215:30|187:51,1,70
183,99,133488,2,0,P|217:104|244:125,1,70
250,174,133988,2,0,P|215:178|187:199,1,70
184,247,134488,1,0,0:0:0:0:
116,317,134988,6,0,L|46:310,1,70
12,275,135488,2,0,L|18:206,1,70
54,172,135988,2,0,L|60:103,1,70
42,56,136488,5,0,0:0:0:0:
90,63,136738,1,0,0:0:0:0:
137,70,136988,2,0,P|181:123|183:192,1,140
159,235,137738,1,0,0:0:0:0:
159,235,137988,2,0,P|154:269|160:303,1,70
193,340,138488,1,0,0:0:0:0:
288,360,138988,6,0,L|357:353,1,70
398,327,139488,2,0,L|427:263,1,70
427,214,139988,2,0,L|386:156,1,70
341,137,140488,1,0,0:0:0:0:
292,141,140738,1,0,0:0:0:0:
243,145,140988,6,0,P|194:95|185:27,1,140
227,0,141738,1,0,0:0:0:0:
227,0,141988,2,0,P|261:7|290:25,1,70
319,65,142488,1,0,0:0:0:0:
387,134,142988,6,0,L|380:204,1,70
345,238,143488,2,0,L|276:232,1,70
242,196,143988,2,0,L|173:190,1,70
126,208,144488,6,0,P|136:99|81:21,1,210
0,140,145988,2,0,L|6:209,1,70
0,258,146488,2,0,B|68:266|68:266|114:319,1,140
206,352,147488,1,0,0:0:0:0:
296,313,147988,2,0,L|302:243,1,70
320,197,148488,6,0,B|180:209,2,140
411,163,149988,2,0,L|405:94,1,70
373,55,150488,2,0,B|304:48|304:48|247:91,1,140
199,177,151488,1,0,0:0:0:0:
101,184,151988,2,0,L|95:254,1,70
77,300,152488,6,0,B|217:288,2,140
18,222,153988,2,0,L|12:153,1,70
0,105,154488,2,0,B|69:88|69:88|108:32,1,140
205,19,155488,1,0,0:0:0:0:
275,87,155988,2,0,L|269:157,1,70
251,203,156488,6,0,B|391:191,2,140
170,259,157988,2,0,L|176:328,1,70
208,367,158488,2,0,B|277:374|277:374|334:331,1,140
423,292,159488,2,0,L|429:222,1,70
391,191,159988,2,0,L|385:122,1,70
406,77,160488,6,0,L|476:83,1,70
510,118,160988,1,0,0:0:0:0:
477,210,161488,2,0,B|338:222,2,140
510,302,162988,2,0,L|504:372,2,70
461,306,163738,1,0,0:0:0:0:
461,306,163988,6,0,B|321:318|321:318|282:376,2,210
477,210,165988,2,0,L|407:216,1,70
358,222,166488,2,0,B|268:231|268:231|209:317|209:317|123:326,1,280
0,173,168488,6,0,P|49:124|117:116,1,140
164,132,169238,1,0,0:0:0:0:
164,132,169488,2,0,L|157:201,1,70
132,243,169988,2,0,L|138:311,1,70
156,358,170488,1,0,0:0:0:0:
252,373,170988,6,0,P|284:360|305:333,1,70
322,287,171488,2,0,P|287:281|260:260,1,70
252,211,171988,2,0,P|284:198|305:171,1,70
322,125,172488,1,0,0:0:0:0:
374,42,172988,6,0,L|444:49,1,70
478,84,173488,2,0,L|472:153,1,70
436,187,173988,2,0,L|430:256,1,70
448,303,174488,5,0,0:0:0:0:
400,296,174738,1,0,0:0:0:0:
352,288,174988,2,0,P|284:296|235:345,1,140
195,372,175738,1,0,0:0:0:0:
195,372,175988,2,0,P|162:359|135:336,1,70
114,292,176488,1,0,0:0:0:0:
107,194,176988,6,0,L|175:200,1,70
221,180,177488,2,0,L|261:122,1,70
304,98,177988,2,0,L|372:104,1,70
415,129,178488,1,0,0:0:0:0:
419,178,178738,1,0,0:0:0:0:
422,225,178988,6,0,P|386:284|323:312,1,140
284,282,179738,1,0,0:0:0:0:
284,282,179988,2,0,P|249:290|219:309,1,70
212,357,180488,1,0,0:0:0:0:
118,330,180988,6,0,L|47:335,1,70
8,307,181488,2,0,L|1:238,1,70
32,198,181988,2,0,L|25:129,1,70
0,86,182488,5,0,0:0:0:0:
59,8,182988,1,0,0:0:0:0:
151,40,183488,1,0,0:0:0:0:
151,139,183988,1,0,0:0:0:0:
256,192,184488,12,0,186488,0:0:0:0:
