osu file format v14

[General]
AudioFilename: audio.mp3
AudioLeadIn: 0
PreviewTime: 61462
Countdown: 0
SampleSet: None
StackLeniency: 0.7
Mode: 3
LetterboxInBreaks: 0
SpecialStyle: 0
WidescreenStoryboard: 0

[Editor]
Bookmarks: 25862,38662,51462
DistanceSpacing: 1
BeatDivisor: 4
GridSize: 16
TimelineZoom: 1.6

[Metadata]
Title:Expensive
TitleUnicode:Expensive
Artist:Todrick Hall
ArtistUnicode:Todrick Hall
Creator:Umo-
Version:rich
Source:
Tags:
BeatmapID:1842890
BeatmapSetID:881403

[Difficulty]
HPDrainRate:8
CircleSize:4
OverallDifficulty:8
ApproachRate:5
SliderMultiplier:1.4
SliderTickRate:1

[Events]
//Background and Video events
0,0,"bg.jpg",0,0
//Break Periods
//Storyboard Layer 0 (Background)
//Storyboard Layer 1 (Fail)
//Storyboard Layer 2 (Pass)
//Storyboard Layer 3 (Foreground)
//Storyboard Sound Samples

[TimingPoints]
262,400,4,1,0,100,1,0
51462,-100,4,1,0,100,0,1
51662,-100,4,1,0,100,0,0
64262,-100,4,1,0,100,0,1
64462,-100,4,1,0,100,0,0
77062,-100,4,1,0,100,0,1
88262,-100,4,1,0,100,0,0

[HitObjects]
448,192,262,128,0,328:0:0:0:0:
320,192,262,128,0,328:0:0:0:0:
192,192,262,128,0,328:0:0:0:0:
64,192,262,128,0,328:0:0:0:0:
192,192,662,128,0,728:0:0:0:0:
448,192,1062,128,0,1128:0:0:0:0:
64,192,1462,128,0,1528:0:0:0:0:
448,192,1862,128,0,1928:0:0:0:0:
448,192,2262,128,0,2328:0:0:0:0:
192,192,2662,128,0,2728:0:0:0:0:
64,192,3062,128,0,3128:0:0:0:0:
192,192,3862,128,0,3928:0:0:0:0:
320,192,4262,128,0,4328:0:0:0:0:
64,192,4662,128,0,4728:0:0:0:0:
448,192,5062,128,0,5128:0:0:0:0:
448,192,5462,128,0,5528:0:0:0:0:
320,192,5862,128,0,5928:0:0:0:0:
64,192,6262,128,0,6328:0:0:0:0:
192,192,7062,128,0,7128:0:0:0:0:
320,192,7462,128,0,7528:0:0:0:0:
64,192,7862,128,0,7928:0:0:0:0:
448,192,8262,128,0,8328:0:0:0:0:
448,192,8662,128,0,8728:0:0:0:0:
320,192,9062,128,0,9128:0:0:0:0:
64,192,9462,128,0,9528:0:0:0:0:
192,192,10262,128,0,10328:0:0:0:0:
320,192,10662,128,0,10728:0:0:0:0:
64,192,11062,128,0,11128:0:0:0:0:
448,192,11462,128,0,11528:0:0:0:0:
448,192,11862,128,0,11928:0:0:0:0:
320,192,12262,128,0,12328:0:0:0:0:
64,192,12662,128,0,12728:0:0:0:0:
448,192,13062,1,0,0:0:0:0:
64,192,13062,1,0,0:0:0:0:
320,192,13062,128,0,13128:0:0:0:0:
192,192,13462,128,0,13528:0:0:0:0:
64,192,13862,1,0,0:0:0:0:
448,192,13862,128,0,13928:0:0:0:0:
64,192,14262,1,0,0:0:0:0:
320,192,14262,1,0,0:0:0:0:
192,192,14262,128,0,14328:0:0:0:0:
192,192,14862,1,0,0:0:0:0:
64,192,14862,1,0,0:0:0:0:
448,192,14862,128,0,14928:0:0:0:0:
192,192,15128,128,0,15195:0:0:0:0:
448,192,15462,1,0,0:0:0:0:
320,192,15462,128,0,15528:0:0:0:0:
64,192,15812,1,0,0:0:0:0:
192,192,15862,1,0,0:0:0:0:
64,192,16262,1,0,0:0:0:0:
320,192,16262,1,0,0:0:0:0:
448,192,16262,1,0,0:0:0:0:
192,192,16795,128,0,16862:0:0:0:0:
320,192,16862,1,0,0:0:0:0:
448,192,16862,1,0,0:0:0:0:
64,192,17062,1,0,0:0:0:0:
320,192,17062,1,0,0:0:0:0:
192,192,17462,1,0,0:0:0:0:
320,192,17462,1,0,0:0:0:0:
448,192,17462,128,0,17528:0:0:0:0:
64,192,18062,1,0,0:0:0:0:
448,192,18062,1,0,0:0:0:0:
320,192,18328,128,0,18395:0:0:0:0:
448,192,18662,1,0,0:0:0:0:
192,192,18662,128,0,18728:0:0:0:0:
64,192,19062,128,0,19128:0:0:0:0:
192,192,19462,1,0,0:0:0:0:
320,192,19462,1,0,0:0:0:0:
448,192,19462,1,0,0:0:0:0:
320,192,19995,128,0,20062:0:0:0:0:
64,192,20262,1,0,0:0:0:0:
448,192,20262,1,0,0:0:0:0:
320,192,20662,1,0,0:0:0:0:
64,192,20662,1,0,0:0:0:0:
192,192,20662,128,0,20728:0:0:0:0:
320,192,21062,128,0,21128:0:0:0:0:
64,192,21262,1,0,0:0:0:0:
448,192,21262,1,0,0:0:0:0:
192,192,21262,1,0,0:0:0:0:
192,192,21528,128,0,21595:0:0:0:0:
448,192,21862,1,0,0:0:0:0:
320,192,21862,128,0,21928:0:0:0:0:
192,192,22262,1,0,0:0:0:0:
64,192,22312,1,0,0:0:0:0:
320,192,22662,1,0,0:0:0:0:
448,192,22662,1,0,0:0:0:0:
192,192,22662,1,0,0:0:0:0:
192,192,23262,1,0,0:0:0:0:
448,192,23262,1,0,0:0:0:0:
64,192,23262,128,0,23328:0:0:0:0:
320,192,23528,128,0,23595:0:0:0:0:
192,192,23862,1,0,0:0:0:0:
64,192,23862,1,0,0:0:0:0:
448,192,23862,128,0,23928:0:0:0:0:
192,192,24328,128,0,24395:0:0:0:0:
64,192,24462,1,0,0:0:0:0:
448,192,24462,1,0,0:0:0:0:
320,192,24462,1,0,0:0:0:0:
448,192,24728,128,0,24795:0:0:0:0:
64,192,25062,1,0,0:0:0:0:
192,192,25062,128,0,25262:0:0:0:0:
192,192,25362,128,0,25462:0:0:0:0:
192,192,25562,128,0,25762:0:0:0:0:
320,192,25862,1,0,0:0:0:0:
448,192,25862,1,0,0:0:0:0:
192,192,25862,1,0,0:0:0:0:
64,192,25862,1,0,0:0:0:0:
64,192,26262,1,0,0:0:0:0:
192,192,26328,1,0,0:0:0:0:
448,192,26395,1,0,0:0:0:0:
320,192,26462,1,0,0:0:0:0:
192,192,26528,1,0,0:0:0:0:
64,192,26595,1,0,0:0:0:0:
320,192,26662,1,0,0:0:0:0:
448,192,26662,1,0,0:0:0:0:
320,192,26862,1,0,0:0:0:0:
64,192,27062,1,0,0:0:0:0:
192,192,27062,1,0,0:0:0:0:
448,192,27062,1,0,0:0:0:0:
64,192,27262,1,0,0:0:0:0:
320,192,27462,1,0,0:0:0:0:
320,192,27662,1,0,0:0:0:0:
448,192,27662,1,0,0:0:0:0:
64,192,27662,1,0,0:0:0:0:
64,192,27862,1,0,0:0:0:0:
192,192,28262,1,0,0:0:0:0:
448,192,28262,1,0,0:0:0:0:
448,192,28612,1,0,0:0:0:0:
320,192,28662,1,0,0:0:0:0:
320,192,28862,1,0,0:0:0:0:
192,192,29062,1,0,0:0:0:0:
64,192,29062,1,0,0:0:0:0:
448,192,29062,1,0,0:0:0:0:
192,192,29462,1,0,0:0:0:0:
64,192,29528,1,0,0:0:0:0:
320,192,29595,1,0,0:0:0:0:
192,192,29662,1,0,0:0:0:0:
448,192,29728,1,0,0:0:0:0:
320,192,29795,1,0,0:0:0:0:
192,192,29862,1,0,0:0:0:0:
64,192,29862,1,0,0:0:0:0:
64,192,30062,1,0,0:0:0:0:
192,192,30262,1,0,0:0:0:0:
320,192,30262,1,0,0:0:0:0:
448,192,30262,1,0,0:0:0:0:
448,192,30462,1,0,0:0:0:0:
64,192,30662,1,0,0:0:0:0:
192,192,30795,1,0,0:0:0:0:
448,192,30928,1,0,0:0:0:0:
192,192,31062,1,0,0:0:0:0:
320,192,31195,1,0,0:0:0:0:
64,192,31328,1,0,0:0:0:0:
192,192,31462,1,0,0:0:0:0:
448,192,31462,1,0,0:0:0:0:
320,192,31595,1,0,0:0:0:0:
192,192,31728,1,0,0:0:0:0:
448,192,31862,1,0,0:0:0:0:
192,192,31962,1,0,0:0:0:0:
320,192,32062,1,0,0:0:0:0:
64,192,32262,1,0,0:0:0:0:
192,192,32262,1,0,0:0:0:0:
448,192,32262,1,0,0:0:0:0:
320,192,32662,1,0,0:0:0:0:
448,192,32728,1,0,0:0:0:0:
64,192,32795,1,0,0:0:0:0:
192,192,32862,1,0,0:0:0:0:
320,192,32928,1,0,0:0:0:0:
448,192,32995,1,0,0:0:0:0:
192,192,33062,1,0,0:0:0:0:
64,192,33062,1,0,0:0:0:0:
64,192,33262,1,0,0:0:0:0:
320,192,33462,1,0,0:0:0:0:
448,192,33462,1,0,0:0:0:0:
192,192,33462,1,0,0:0:0:0:
448,192,33662,1,0,0:0:0:0:
192,192,33862,1,0,0:0:0:0:
192,192,34062,1,0,0:0:0:0:
320,192,34062,1,0,0:0:0:0:
448,192,34062,1,0,0:0:0:0:
64,192,34262,1,0,0:0:0:0:
192,192,34662,1,0,0:0:0:0:
448,192,34662,1,0,0:0:0:0:
192,192,35012,1,0,0:0:0:0:
320,192,35062,1,0,0:0:0:0:
320,192,35262,1,0,0:0:0:0:
64,192,35462,1,0,0:0:0:0:
192,192,35462,1,0,0:0:0:0:
448,192,35462,1,0,0:0:0:0:
320,192,36062,1,0,0:0:0:0:
448,192,36062,1,0,0:0:0:0:
64,192,36062,1,0,0:0:0:0:
192,192,36662,1,0,0:0:0:0:
320,192,36662,1,0,0:0:0:0:
64,192,36662,1,0,0:0:0:0:
448,192,37062,1,0,0:0:0:0:
320,192,37195,1,0,0:0:0:0:
64,192,37262,1,0,0:0:0:0:
448,192,37262,1,0,0:0:0:0:
192,192,37262,1,0,0:0:0:0:
320,192,37328,1,0,0:0:0:0:
64,192,37462,1,0,0:0:0:0:
192,192,37595,1,0,0:0:0:0:
448,192,37728,1,0,0:0:0:0:
320,192,37862,1,0,0:0:0:0:
64,192,37862,128,0,38662:0:0:0:0:
448,192,37995,1,0,0:0:0:0:
320,192,38128,1,0,0:0:0:0:
448,192,38262,1,0,0:0:0:0:
320,192,38362,1,0,0:0:0:0:
192,192,38462,1,0,0:0:0:0:
448,192,38662,1,0,0:0:0:0:
320,192,38662,1,0,0:0:0:0:
192,192,38662,1,0,0:0:0:0:
320,192,39062,1,0,0:0:0:0:
448,192,39062,1,0,0:0:0:0:
192,192,39062,1,0,0:0:0:0:
192,192,39462,1,0,0:0:0:0:
320,192,39462,1,0,0:0:0:0:
448,192,39462,1,0,0:0:0:0:
192,192,39862,1,0,0:0:0:0:
320,192,39862,1,0,0:0:0:0:
448,192,39862,1,0,0:0:0:0:
192,192,40262,1,0,0:0:0:0:
320,192,40262,1,0,0:0:0:0:
448,192,40262,1,0,0:0:0:0:
64,192,40662,1,0,0:0:0:0:
192,192,40662,1,0,0:0:0:0:
320,192,40662,1,0,0:0:0:0:
64,192,41062,1,0,0:0:0:0:
192,192,41062,1,0,0:0:0:0:
320,192,41062,1,0,0:0:0:0:
320,192,41462,1,0,0:0:0:0:
64,192,41462,1,0,0:0:0:0:
192,192,41462,1,0,0:0:0:0:
64,192,41862,1,0,0:0:0:0:
192,192,41862,1,0,0:0:0:0:
320,192,41862,1,0,0:0:0:0:
64,192,42262,1,0,0:0:0:0:
320,192,42262,1,0,0:0:0:0:
448,192,42262,1,0,0:0:0:0:
64,192,42662,1,0,0:0:0:0:
320,192,42662,1,0,0:0:0:0:
448,192,42662,1,0,0:0:0:0:
64,192,43062,1,0,0:0:0:0:
320,192,43062,1,0,0:0:0:0:
448,192,43062,1,0,0:0:0:0:
64,192,43462,1,0,0:0:0:0:
320,192,43462,1,0,0:0:0:0:
448,192,43462,1,0,0:0:0:0:
64,192,43862,1,0,0:0:0:0:
192,192,43862,1,0,0:0:0:0:
448,192,43862,1,0,0:0:0:0:
64,192,44262,1,0,0:0:0:0:
192,192,44262,1,0,0:0:0:0:
448,192,44262,1,0,0:0:0:0:
320,192,44662,128,0,44728:0:0:0:0:
448,192,44662,128,0,44728:0:0:0:0:
192,192,45062,1,0,0:0:0:0:
64,192,45062,1,0,0:0:0:0:
320,192,45062,1,0,0:0:0:0:
448,192,45062,1,0,0:0:0:0:
64,192,45462,1,0,0:0:0:0:
192,192,45462,1,0,0:0:0:0:
448,192,45462,1,0,0:0:0:0:
192,192,45862,1,0,0:0:0:0:
64,192,45862,1,0,0:0:0:0:
448,192,45862,1,0,0:0:0:0:
192,192,46262,1,0,0:0:0:0:
64,192,46262,1,0,0:0:0:0:
448,192,46262,1,0,0:0:0:0:
192,192,46662,1,0,0:0:0:0:
320,192,46662,1,0,0:0:0:0:
448,192,46662,1,0,0:0:0:0:
192,192,47062,1,0,0:0:0:0:
320,192,47062,1,0,0:0:0:0:
448,192,47062,1,0,0:0:0:0:
192,192,47462,5,0,0:0:0:0:
320,192,47462,1,0,0:0:0:0:
448,192,47462,1,0,0:0:0:0:
192,192,47862,1,0,0:0:0:0:
320,192,47862,1,0,0:0:0:0:
448,192,47862,1,0,0:0:0:0:
320,192,48262,5,0,0:0:0:0:
192,192,48262,1,0,0:0:0:0:
448,192,48262,1,0,0:0:0:0:
192,192,48395,1,0,0:0:0:0:
448,192,48528,1,0,0:0:0:0:
320,192,48662,1,0,0:0:0:0:
192,192,48662,1,0,0:0:0:0:
64,192,48662,1,0,0:0:0:0:
448,192,48728,1,0,0:0:0:0:
64,192,48795,1,0,0:0:0:0:
192,192,48862,1,0,0:0:0:0:
448,192,48928,1,0,0:0:0:0:
320,192,48995,1,0,0:0:0:0:
192,192,49062,1,0,0:0:0:0:
64,192,49062,1,0,0:0:0:0:
448,192,49062,1,0,0:0:0:0:
320,192,49195,1,0,0:0:0:0:
192,192,49328,1,0,0:0:0:0:
64,192,49462,1,0,0:0:0:0:
320,192,49462,1,0,0:0:0:0:
448,192,49462,1,0,0:0:0:0:
192,192,49595,1,0,0:0:0:0:
320,192,49728,1,0,0:0:0:0:
448,192,49862,1,0,0:0:0:0:
192,192,49862,1,0,0:0:0:0:
64,192,49862,1,0,0:0:0:0:
320,192,49995,1,0,0:0:0:0:
448,192,49995,1,0,0:0:0:0:
320,192,50128,1,0,0:0:0:0:
448,192,50128,1,0,0:0:0:0:
64,192,50262,1,0,0:0:0:0:
320,192,50262,1,0,0:0:0:0:
448,192,50262,1,0,0:0:0:0:
192,192,50395,1,0,0:0:0:0:
64,192,50395,1,0,0:0:0:0:
64,192,50528,1,0,0:0:0:0:
192,192,50528,1,0,0:0:0:0:
64,192,50662,1,0,0:0:0:0:
192,192,50662,1,0,0:0:0:0:
448,192,50662,1,0,0:0:0:0:
320,192,50795,1,0,0:0:0:0:
448,192,50795,1,0,0:0:0:0:
320,192,50928,1,0,0:0:0:0:
448,192,50928,1,0,0:0:0:0:
320,192,51062,1,0,0:0:0:0:
448,192,51062,1,0,0:0:0:0:
64,192,51062,1,0,0:0:0:0:
64,192,51195,1,0,0:0:0:0:
192,192,51195,1,0,0:0:0:0:
192,192,51328,1,0,0:0:0:0:
320,192,51328,1,0,0:0:0:0:
320,192,51462,1,0,0:0:0:0:
64,192,51462,1,0,0:0:0:0:
448,192,51462,128,0,52262:0:0:0:0:
64,192,51862,1,0,0:0:0:0:
192,192,51928,1,0,0:0:0:0:
320,192,51995,1,0,0:0:0:0:
64,192,52062,1,0,0:0:0:0:
192,192,52128,1,0,0:0:0:0:
320,192,52195,1,0,0:0:0:0:
64,192,52262,1,0,0:0:0:0:
192,192,52262,1,0,0:0:0:0:
64,192,52462,1,0,0:0:0:0:
192,192,52662,1,0,0:0:0:0:
320,192,52662,1,0,0:0:0:0:
448,192,52662,1,0,0:0:0:0:
320,192,52862,1,0,0:0:0:0:
192,192,53062,1,0,0:0:0:0:
192,192,53262,1,0,0:0:0:0:
64,192,53262,1,0,0:0:0:0:
448,192,53262,1,0,0:0:0:0:
448,192,53462,1,0,0:0:0:0:
192,192,53862,1,0,0:0:0:0:
64,192,53862,128,0,54262:0:0:0:0:
320,192,54162,128,0,54262:0:0:0:0:
448,192,54262,1,0,0:0:0:0:
192,192,54262,1,0,0:0:0:0:
448,192,54462,1,0,0:0:0:0:
192,192,54662,1,0,0:0:0:0:
320,192,54662,1,0,0:0:0:0:
64,192,54662,128,0,55462:0:0:0:0:
448,192,55062,1,0,0:0:0:0:
320,192,55128,1,0,0:0:0:0:
192,192,55195,1,0,0:0:0:0:
448,192,55262,1,0,0:0:0:0:
320,192,55328,1,0,0:0:0:0:
192,192,55395,1,0,0:0:0:0:
448,192,55462,1,0,0:0:0:0:
320,192,55462,1,0,0:0:0:0:
448,192,55662,1,0,0:0:0:0:
192,192,55862,1,0,0:0:0:0:
64,192,55862,1,0,0:0:0:0:
320,192,55862,1,0,0:0:0:0:
320,192,56062,1,0,0:0:0:0:
64,192,56262,1,0,0:0:0:0:
192,192,56395,1,0,0:0:0:0:
320,192,56462,1,0,0:0:0:0:
448,192,56462,1,0,0:0:0:0:
64,192,56462,1,0,0:0:0:0:
192,192,56528,1,0,0:0:0:0:
320,192,56662,1,0,0:0:0:0:
64,192,56795,1,0,0:0:0:0:
448,192,56928,1,0,0:0:0:0:
192,192,57062,1,0,0:0:0:0:
320,192,57062,1,0,0:0:0:0:
64,192,57195,1,0,0:0:0:0:
192,192,57328,1,0,0:0:0:0:
448,192,57462,1,0,0:0:0:0:
192,192,57562,1,0,0:0:0:0:
320,192,57662,1,0,0:0:0:0:
448,192,57762,1,0,0:0:0:0:
192,192,57862,1,0,0:0:0:0:
64,192,57862,128,0,58662:0:0:0:0:
192,192,58262,1,0,0:0:0:0:
320,192,58328,1,0,0:0:0:0:
448,192,58395,1,0,0:0:0:0:
192,192,58462,1,0,0:0:0:0:
320,192,58528,1,0,0:0:0:0:
448,192,58595,1,0,0:0:0:0:
192,192,58662,1,0,0:0:0:0:
320,192,58662,1,0,0:0:0:0:
192,192,58862,1,0,0:0:0:0:
448,192,59062,1,0,0:0:0:0:
320,192,59062,1,0,0:0:0:0:
64,192,59062,1,0,0:0:0:0:
448,192,59262,1,0,0:0:0:0:
64,192,59462,1,0,0:0:0:0:
64,192,59662,1,0,0:0:0:0:
192,192,59662,1,0,0:0:0:0:
320,192,59662,1,0,0:0:0:0:
64,192,59862,1,0,0:0:0:0:
192,192,59862,1,0,0:0:0:0:
320,192,59862,1,0,0:0:0:0:
448,192,60262,1,0,0:0:0:0:
192,192,60262,1,0,0:0:0:0:
64,192,60662,1,0,0:0:0:0:
320,192,60662,1,0,0:0:0:0:
320,192,60862,1,0,0:0:0:0:
448,192,61062,1,0,0:0:0:0:
192,192,61062,1,0,0:0:0:0:
64,192,61062,1,0,0:0:0:0:
192,192,61812,1,0,0:0:0:0:
320,192,61862,1,0,0:0:0:0:
64,192,62662,1,0,0:0:0:0:
64,192,62795,1,0,0:0:0:0:
320,192,62928,1,0,0:0:0:0:
320,192,63062,1,0,0:0:0:0:
192,192,63195,1,0,0:0:0:0:
192,192,63328,1,0,0:0:0:0:
64,192,63462,1,0,0:0:0:0:
320,192,63462,1,0,0:0:0:0:
448,192,63462,1,0,0:0:0:0:
448,192,63595,1,0,0:0:0:0:
320,192,63595,1,0,0:0:0:0:
192,192,63728,1,0,0:0:0:0:
64,192,63728,1,0,0:0:0:0:
64,192,63862,1,0,0:0:0:0:
192,192,63862,1,0,0:0:0:0:
448,192,63862,1,0,0:0:0:0:
192,192,63995,1,0,0:0:0:0:
320,192,63995,1,0,0:0:0:0:
320,192,64128,1,0,0:0:0:0:
64,192,64128,1,0,0:0:0:0:
192,192,64262,1,0,0:0:0:0:
64,192,64262,1,0,0:0:0:0:
448,192,64262,128,0,65062:0:0:0:0:
64,192,64662,1,0,0:0:0:0:
192,192,64728,1,0,0:0:0:0:
320,192,64795,1,0,0:0:0:0:
64,192,64862,1,0,0:0:0:0:
192,192,64928,1,0,0:0:0:0:
320,192,64995,1,0,0:0:0:0:
64,192,65062,1,0,0:0:0:0:
192,192,65062,1,0,0:0:0:0:
192,192,65262,1,0,0:0:0:0:
64,192,65462,1,0,0:0:0:0:
320,192,65462,1,0,0:0:0:0:
448,192,65462,1,0,0:0:0:0:
320,192,65662,1,0,0:0:0:0:
192,192,65862,1,0,0:0:0:0:
192,192,66062,1,0,0:0:0:0:
64,192,66062,1,0,0:0:0:0:
448,192,66062,1,0,0:0:0:0:
64,192,66262,1,0,0:0:0:0:
320,192,66662,1,0,0:0:0:0:
448,192,66662,128,0,67062:0:0:0:0:
64,192,66962,128,0,67062:0:0:0:0:
192,192,67062,1,0,0:0:0:0:
320,192,67062,1,0,0:0:0:0:
448,192,67262,1,0,0:0:0:0:
192,192,67462,1,0,0:0:0:0:
320,192,67462,1,0,0:0:0:0:
64,192,67462,128,0,68262:0:0:0:0:
448,192,67862,1,0,0:0:0:0:
192,192,67928,1,0,0:0:0:0:
320,192,67995,1,0,0:0:0:0:
448,192,68062,1,0,0:0:0:0:
320,192,68128,1,0,0:0:0:0:
192,192,68195,1,0,0:0:0:0:
448,192,68262,1,0,0:0:0:0:
320,192,68262,1,0,0:0:0:0:
448,192,68462,1,0,0:0:0:0:
192,192,68662,1,0,0:0:0:0:
64,192,68662,1,0,0:0:0:0:
320,192,68662,1,0,0:0:0:0:
320,192,68862,1,0,0:0:0:0:
64,192,69062,1,0,0:0:0:0:
448,192,69195,1,0,0:0:0:0:
320,192,69262,1,0,0:0:0:0:
192,192,69262,1,0,0:0:0:0:
64,192,69262,1,0,0:0:0:0:
448,192,69328,1,0,0:0:0:0:
192,192,69462,1,0,0:0:0:0:
64,192,69595,1,0,0:0:0:0:
320,192,69728,1,0,0:0:0:0:
192,192,69862,1,0,0:0:0:0:
448,192,69862,1,0,0:0:0:0:
64,192,69995,1,0,0:0:0:0:
192,192,70128,1,0,0:0:0:0:
320,192,70262,1,0,0:0:0:0:
192,192,70362,1,0,0:0:0:0:
320,192,70462,1,0,0:0:0:0:
448,192,70562,1,0,0:0:0:0:
192,192,70662,1,0,0:0:0:0:
64,192,70662,128,0,71462:0:0:0:0:
192,192,71062,1,0,0:0:0:0:
448,192,71128,1,0,0:0:0:0:
320,192,71195,1,0,0:0:0:0:
192,192,71262,1,0,0:0:0:0:
320,192,71328,1,0,0:0:0:0:
448,192,71395,1,0,0:0:0:0:
192,192,71462,1,0,0:0:0:0:
320,192,71462,1,0,0:0:0:0:
192,192,71662,1,0,0:0:0:0:
448,192,71862,1,0,0:0:0:0:
320,192,71862,1,0,0:0:0:0:
64,192,71862,1,0,0:0:0:0:
320,192,72062,1,0,0:0:0:0:
192,192,72262,1,0,0:0:0:0:
192,192,72462,1,0,0:0:0:0:
448,192,72462,1,0,0:0:0:0:
320,192,72462,1,0,0:0:0:0:
192,192,72662,1,0,0:0:0:0:
448,192,72662,1,0,0:0:0:0:
320,192,72662,1,0,0:0:0:0:
448,192,73062,1,0,0:0:0:0:
64,192,73062,1,0,0:0:0:0:
64,192,73462,1,0,0:0:0:0:
320,192,73462,1,0,0:0:0:0:
320,192,73662,1,0,0:0:0:0:
448,192,73862,1,0,0:0:0:0:
192,192,73862,1,0,0:0:0:0:
64,192,73862,1,0,0:0:0:0:
192,192,74612,1,0,0:0:0:0:
320,192,74662,1,0,0:0:0:0:
192,192,75462,1,0,0:0:0:0:
192,192,75595,1,0,0:0:0:0:
448,192,75728,1,0,0:0:0:0:
448,192,75862,1,0,0:0:0:0:
192,192,75995,1,0,0:0:0:0:
192,192,76128,1,0,0:0:0:0:
64,192,76262,1,0,0:0:0:0:
320,192,76262,1,0,0:0:0:0:
448,192,76262,1,0,0:0:0:0:
448,192,76395,1,0,0:0:0:0:
320,192,76395,1,0,0:0:0:0:
64,192,76395,1,0,0:0:0:0:
192,192,76528,1,0,0:0:0:0:
320,192,76528,1,0,0:0:0:0:
64,192,76662,1,0,0:0:0:0:
192,192,76662,1,0,0:0:0:0:
320,192,76662,1,0,0:0:0:0:
320,192,76795,1,0,0:0:0:0:
192,192,76795,1,0,0:0:0:0:
64,192,76795,1,0,0:0:0:0:
448,192,76928,1,0,0:0:0:0:
192,192,76928,1,0,0:0:0:0:
64,192,77062,5,0,0:0:0:0:
320,192,77062,1,0,0:0:0:0:
448,192,77062,1,0,0:0:0:0:
64,192,77162,1,0,0:0:0:0:
320,192,77262,1,0,0:0:0:0:
320,192,77362,1,0,0:0:0:0:
64,192,77462,1,0,0:0:0:0:
448,192,77462,1,0,0:0:0:0:
192,192,77528,1,0,0:0:0:0:
320,192,77595,1,0,0:0:0:0:
448,192,77662,1,0,0:0:0:0:
192,192,77662,1,0,0:0:0:0:
64,192,77662,1,0,0:0:0:0:
320,192,77728,1,0,0:0:0:0:
192,192,77795,1,0,0:0:0:0:
448,192,77862,1,0,0:0:0:0:
64,192,77862,1,0,0:0:0:0:
320,192,77962,1,0,0:0:0:0:
320,192,78062,1,0,0:0:0:0:
64,192,78162,1,0,0:0:0:0:
64,192,78262,1,0,0:0:0:0:
320,192,78262,1,0,0:0:0:0:
448,192,78262,1,0,0:0:0:0:
448,192,78362,1,0,0:0:0:0:
192,192,78462,1,0,0:0:0:0:
192,192,78562,1,0,0:0:0:0:
64,192,78662,1,0,0:0:0:0:
320,192,78662,1,0,0:0:0:0:
64,192,78762,1,0,0:0:0:0:
448,192,78862,1,0,0:0:0:0:
320,192,78862,1,0,0:0:0:0:
192,192,78862,1,0,0:0:0:0:
448,192,78962,1,0,0:0:0:0:
64,192,79062,1,0,0:0:0:0:
192,192,79062,1,0,0:0:0:0:
192,192,79162,1,0,0:0:0:0:
448,192,79262,1,0,0:0:0:0:
448,192,79362,1,0,0:0:0:0:
320,192,79462,1,0,0:0:0:0:
64,192,79462,1,0,0:0:0:0:
320,192,79562,1,0,0:0:0:0:
192,192,79662,1,0,0:0:0:0:
192,192,79762,1,0,0:0:0:0:
64,192,79862,1,0,0:0:0:0:
448,192,79862,1,0,0:0:0:0:
64,192,79962,1,0,0:0:0:0:
320,192,80062,1,0,0:0:0:0:
320,192,80162,1,0,0:0:0:0:
448,192,80262,1,0,0:0:0:0:
192,192,80262,1,0,0:0:0:0:
64,192,80262,1,0,0:0:0:0:
192,192,80362,1,0,0:0:0:0:
320,192,80462,1,0,0:0:0:0:
320,192,80562,1,0,0:0:0:0:
64,192,80662,1,0,0:0:0:0:
448,192,80662,1,0,0:0:0:0:
64,192,80762,1,0,0:0:0:0:
320,192,80862,1,0,0:0:0:0:
448,192,80862,1,0,0:0:0:0:
192,192,80862,1,0,0:0:0:0:
64,192,80928,1,0,0:0:0:0:
448,192,80995,1,0,0:0:0:0:
320,192,81062,1,0,0:0:0:0:
192,192,81062,1,0,0:0:0:0:
192,192,81162,1,0,0:0:0:0:
448,192,81262,1,0,0:0:0:0:
448,192,81362,1,0,0:0:0:0:
64,192,81462,1,0,0:0:0:0:
192,192,81462,1,0,0:0:0:0:
320,192,81462,1,0,0:0:0:0:
64,192,81562,1,0,0:0:0:0:
320,192,81662,1,0,0:0:0:0:
320,192,81762,1,0,0:0:0:0:
448,192,81862,1,0,0:0:0:0:
192,192,81862,1,0,0:0:0:0:
192,192,81962,1,0,0:0:0:0:
320,192,82062,1,0,0:0:0:0:
448,192,82062,1,0,0:0:0:0:
64,192,82062,1,0,0:0:0:0:
448,192,82162,1,0,0:0:0:0:
64,192,82262,1,0,0:0:0:0:
192,192,82262,1,0,0:0:0:0:
64,192,82362,1,0,0:0:0:0:
320,192,82462,1,0,0:0:0:0:
320,192,82562,1,0,0:0:0:0:
448,192,82662,1,0,0:0:0:0:
192,192,82662,1,0,0:0:0:0:
192,192,82762,1,0,0:0:0:0:
64,192,82862,1,0,0:0:0:0:
64,192,82962,1,0,0:0:0:0:
320,192,83062,1,0,0:0:0:0:
448,192,83062,1,0,0:0:0:0:
448,192,83162,1,0,0:0:0:0:
192,192,83262,1,0,0:0:0:0:
192,192,83362,1,0,0:0:0:0:
64,192,83462,1,0,0:0:0:0:
320,192,83462,1,0,0:0:0:0:
448,192,83462,1,0,0:0:0:0:
64,192,83562,1,0,0:0:0:0:
320,192,83662,1,0,0:0:0:0:
320,192,83762,1,0,0:0:0:0:
448,192,83862,1,0,0:0:0:0:
192,192,83862,1,0,0:0:0:0:
64,192,83928,1,0,0:0:0:0:
320,192,83995,1,0,0:0:0:0:
192,192,84062,1,0,0:0:0:0:
64,192,84062,1,0,0:0:0:0:
448,192,84062,1,0,0:0:0:0:
320,192,84128,1,0,0:0:0:0:
64,192,84195,1,0,0:0:0:0:
192,192,84262,1,0,0:0:0:0:
320,192,84262,1,0,0:0:0:0:
448,192,84362,1,0,0:0:0:0:
320,192,84462,1,0,0:0:0:0:
320,192,84562,1,0,0:0:0:0:
192,192,84662,1,0,0:0:0:0:
64,192,84662,1,0,0:0:0:0:
448,192,84662,1,0,0:0:0:0:
64,192,84762,1,0,0:0:0:0:
320,192,84862,1,0,0:0:0:0:
320,192,84962,1,0,0:0:0:0:
448,192,85062,1,0,0:0:0:0:
64,192,85062,1,0,0:0:0:0:
448,192,85162,1,0,0:0:0:0:
192,192,85262,1,0,0:0:0:0:
64,192,85262,1,0,0:0:0:0:
320,192,85262,1,0,0:0:0:0:
192,192,85362,1,0,0:0:0:0:
320,192,85462,1,0,0:0:0:0:
448,192,85462,1,0,0:0:0:0:
64,192,85462,1,0,0:0:0:0:
320,192,85562,1,0,0:0:0:0:
448,192,85662,1,0,0:0:0:0:
448,192,85762,1,0,0:0:0:0:
192,192,85862,1,0,0:0:0:0:
64,192,85862,1,0,0:0:0:0:
192,192,85962,1,0,0:0:0:0:
448,192,86062,1,0,0:0:0:0:
448,192,86162,1,0,0:0:0:0:
320,192,86262,1,0,0:0:0:0:
192,192,86262,1,0,0:0:0:0:
320,192,86362,1,0,0:0:0:0:
64,192,86462,1,0,0:0:0:0:
64,192,86562,1,0,0:0:0:0:
192,192,86662,1,0,0:0:0:0:
320,192,86662,1,0,0:0:0:0:
448,192,86662,1,0,0:0:0:0:
192,192,86762,1,0,0:0:0:0:
448,192,86862,1,0,0:0:0:0:
448,192,86962,1,0,0:0:0:0:
64,192,87062,1,0,0:0:0:0:
192,192,87062,1,0,0:0:0:0:
320,192,87062,1,0,0:0:0:0:
448,192,87128,1,0,0:0:0:0:
192,192,87195,1,0,0:0:0:0:
64,192,87262,1,0,0:0:0:0:
448,192,87262,1,0,0:0:0:0:
320,192,87262,1,0,0:0:0:0:
192,192,87328,1,0,0:0:0:0:
320,192,87395,1,0,0:0:0:0:
448,192,87462,1,0,0:0:0:0:
64,192,87462,1,0,0:0:0:0:
64,192,87562,1,0,0:0:0:0:
320,192,87662,1,0,0:0:0:0:
320,192,87762,1,0,0:0:0:0:
448,192,87862,1,0,0:0:0:0:
192,192,87862,1,0,0:0:0:0:
64,192,87862,1,0,0:0:0:0:
448,192,87962,1,0,0:0:0:0:
192,192,88062,1,0,0:0:0:0:
192,192,88162,1,0,0:0:0:0:
64,192,88262,1,0,0:0:0:0:
448,192,88262,1,0,0:0:0:0:
320,192,88395,1,0,0:0:0:0:
448,192,88395,1,0,0:0:0:0:
192,192,88528,1,0,0:0:0:0:
320,192,88528,1,0,0:0:0:0:
192,192,88662,1,0,0:0:0:0:
448,192,88662,1,0,0:0:0:0:
448,192,88795,1,0,0:0:0:0:
64,192,88795,1,0,0:0:0:0:
64,192,88928,1,0,0:0:0:0:
320,192,88928,1,0,0:0:0:0:
192,192,89062,1,0,0:0:0:0:
320,192,89062,1,0,0:0:0:0:
192,192,89195,1,0,0:0:0:0:
448,192,89195,1,0,0:0:0:0:
448,192,89328,1,0,0:0:0:0:
64,192,89328,1,0,0:0:0:0:
64,192,89462,1,0,0:0:0:0:
192,192,89462,1,0,0:0:0:0:
320,192,89495,1,0,0:0:0:0:
448,192,89528,1,0,0:0:0:0:
64,192,89562,1,0,0:0:0:0:
192,192,89595,1,0,0:0:0:0:
320,192,89628,1,0,0:0:0:0:
448,192,89662,1,0,0:0:0:0:
64,192,89695,1,0,0:0:0:0:
192,192,89728,1,0,0:0:0:0:
320,192,89762,1,0,0:0:0:0:
448,192,89795,1,0,0:0:0:0:
64,192,89828,1,0,0:0:0:0:
192,192,89862,1,0,0:0:0:0:
320,192,89862,1,0,0:0:0:0:
