osu file format v14

[General]
AudioFilename: audio.mp3
AudioLeadIn: 0
PreviewTime: 157812
Countdown: 0
SampleSet: Soft
StackLeniency: 0.4
Mode: 0
LetterboxInBreaks: 0
EpilepsyWarning: 1
WidescreenStoryboard: 1

[Editor]
Bookmarks: 1408,22981,33767,44554,49947,58037,79610,101183,111969,122756,128149,136239,157812,179385,184778,192868,203654,214441,233317
DistanceSpacing: 1.3
BeatDivisor: 4
GridSize: 4
TimelineZoom: 2.3

[Metadata]
Title:Colorful Days
TitleUnicode:Colorful Days
Artist:Todoroki Yachiyo (CV: Kitamura Eri)
ArtistUnicode:轟八千代(CV: 喜多村英梨)
Creator:bossandy
Version:Happiness
Source:WORKING!!
Tags:ワーキング!! Wagnaria!! Japanese Anime J-pop Jpop pop Colourful Character song きゃらそん☆MENU④ 轟八千代 starring 喜多村英梨 Ky's Kyle_Y climbx3145 -_AzRaeL_-
BeatmapID:2762120
BeatmapSetID:1333160

[Difficulty]
HPDrainRate:6
CircleSize:4
OverallDifficulty:8.2
ApproachRate:8.9
SliderMultiplier:1.8
SliderTickRate:1

[Events]
//Background and Video events
0,0,"BG.jpg",0,0
//Break Periods
2,193068,202306
//Storyboard Layer 0 (Background)
//Storyboard Layer 1 (Fail)
//Storyboard Layer 2 (Pass)
//Storyboard Layer 3 (Foreground)
Sprite,Foreground,Centre,"SB\Particle.png",0,0 C,0,7101,,231,245,39 F,0,7101,7201,0,0.2243738 S,0,7101,7201,0,0.5495548 M,0,7101,12194,391,273.1308,389.0697,280.9308 F,0,12094,12194,0.2243738,0
Sprite,Foreground,Centre,"SB\Particle.png",0,0 C,0,7116,,95,42,166 F,0,7116,7216,0,0.2909015 S,0,7116,7216,0,0.2373321 M,0,7116,12194,407,272.218,409.6446,277.8983 F,0,12094,12194,0.2909015,0
Sprite,Foreground,Centre,"SB\Particle.png",0,0 C,0,7131,,176,144,108 F,0,7131,7231,0,0.2095306 S,0,7131,7231,0,0.3933743 M,0,7131,12194,420,254.8196,410.1616,247.6894 F,0,12094,12194,0.2095306,0
Sprite,Foreground,Centre,"SB\Particle.png",0,0 C,0,7146,,232,222,163 F,0,7146,7246,0,0.2493621 S,0,7146,7246,0,0.4863923 M,0,7146,12194,433,250.5085,441.9417,242.6169 F,0,12094,12194,0.2493621,0
Sprite,Foreground,Centre,"SB\Particle.png",0,0 C,0,7161,,35,134,119 F,0,7161,7261,0,0.282241 S,0,7161,7261,0,0.3361175 M,0,7161,12194,452,246.5606,452.3212,249.1599 F,0,12094,12194,0.282241,0
Sprite,Foreground,Centre,"SB\Particle.png",0,0 C,0,7176,,18,98,135 F,0,7176,7276,0,0.231468 S,0,7176,7276,0,0.2947726 M,0,7176,12194,465,254.2905,457.5171,247.312 F,0,12094,12194,0.231468,0
Sprite,Foreground,Centre,"SB\Particle.png",0,0 C,0,7191,,208,107,243 F,0,7191,7291,0,0.2401496 S,0,7191,7291,0,0.2046937 M,0,7191,12194,484,253.435,484.7953,248.2844 F,0,12094,12194,0.2401496,0
Sprite,Foreground,Centre,"SB\Particle.png",0,0 C,0,7206,,68,168,56 F,0,7206,7306,0,0.2063501 S,0,7206,7306,0,0.4184937 M,0,7206,12194,497,265.3332,490.3685,267.5774 F,0,12094,12194,0.2063501,0
Sprite,Foreground,Centre,"SB\Particle.png",0,0 C,0,7221,,160,90,13 F,0,7221,7321,0,0.2787126 S,0,7221,7321,0,0.5184491 M,0,7221,12194,516,251.1743,509.4537,255.4141 F,0,12094,12194,0.2787126,0
Sprite,Foreground,Centre,"SB\Particle.png",0,0 C,0,7236,,245,171,190 F,0,7236,7336,0,0.2773503 S,0,7236,7336,0,0.3963439 M,0,7236,12194,534,253.3012,538.726,256.9322 F,0,12094,12194,0.2773503,0
Sprite,Foreground,Centre,"SB\Credit\0062.png",0,260 S,0,7101,,0.4 C,0,7101,,0,0,0 F,0,7101,7201,0,1 MX,0,7101,12194,405.893,395.707 F,0,12094,12194,1,0
Sprite,Foreground,Centre,"SB\Credit\006f.png",0,260 S,0,7101,,0.4 C,0,7101,,0,0,0 MX,0,7101,12194,424.093,413.907 F,0,7131,7231,0,1 F,0,12094,12194,1,0
Sprite,Foreground,Centre,"SB\Credit\0073.png",0,260 S,0,7101,,0.4 C,0,7101,,0,0,0 MX,0,7101,12194,441.093,430.907 F,0,7161,7261,0,1 F,0,12094,12194,1,0
Sprite,Foreground,Centre,"SB\Credit\0073.png",0,260 S,0,7101,,0.4 C,0,7101,,0,0,0 MX,0,7101,12194,456.293,446.107 F,0,7191,7291,0,1 F,0,12094,12194,1,0
Sprite,Foreground,Centre,"SB\Credit\0061.png",0,260 S,0,7101,,0.4 C,0,7101,,0,0,0 MX,0,7101,12194,472.893,462.707 F,0,7221,7321,0,1 F,0,12094,12194,1,0
Sprite,Foreground,Centre,"SB\Credit\006e.png",0,260 S,0,7101,,0.4 C,0,7101,,0,0,0 MX,0,7101,12194,490.893,480.707 F,0,7251,7351,0,1 F,0,12094,12194,1,0
Sprite,Foreground,Centre,"SB\Credit\0064.png",0,260 S,0,7101,,0.4 C,0,7101,,0,0,0 MX,0,7101,12194,508.293,498.107 F,0,7281,7381,0,1 F,0,12094,12194,1,0
Sprite,Foreground,Centre,"SB\Credit\0079.png",0,260 S,0,7101,,0.4 C,0,7101,,0,0,0 MX,0,7101,12194,524.893,514.707 F,0,7311,7411,0,1 F,0,12094,12194,1,0
//Storyboard Layer 4 (Overlay)
//Storyboard Sound Samples

[TimingPoints]
60,337.078651685393,4,2,1,70,1,0
1408,337.078651685393,4,2,1,70,1,0
22896,-100,4,2,1,5,0,0
22981,-125,4,2,1,40,0,0
33767,-111.111111111111,4,2,1,60,0,0
44554,-142.857142857143,4,2,1,60,0,0
49947,-111.111111111111,4,2,1,70,0,0
56688,-200,4,2,1,70,0,0
56941,-200,4,2,1,5,0,0
57025,-125,4,2,1,70,0,0
57615,-125,4,2,1,5,0,0
57700,-200,4,2,1,70,0,0
57952,-200,4,2,1,5,0,0
58037,337.078651685393,4,2,1,80,1,1
58037,-95.2380952380952,4,2,1,80,0,1
68739,-95.2380952380952,4,2,1,5,0,1
68823,-95.2380952380952,4,2,1,80,0,1
79441,-200,4,2,1,80,0,0
79947,-76.9230769230769,4,2,1,80,0,1
80284,-95.2380952380952,4,2,1,80,0,1
98317,-200,4,2,1,70,0,1
98823,-100,4,2,1,70,0,1
101098,-100,4,2,1,5,0,1
101183,-142.857142857143,4,2,1,40,0,0
102573,-142.857142857143,4,2,1,5,0,0
102868,-142.857142857143,4,2,1,40,0,0
103542,-142.857142857143,4,2,1,60,0,0
103795,-142.857142857143,4,2,1,5,0,0
103879,-111.111111111111,4,2,1,60,0,0
111632,-111.111111111111,4,2,1,60,0,0
111885,-111.111111111111,4,2,1,5,0,0
111969,-111.111111111111,4,2,1,60,0,0
114581,-111.111111111111,4,2,1,5,0,0
114666,-111.111111111111,4,2,1,60,0,0
122756,-142.857142857143,4,2,1,60,0,0
128149,-111.111111111111,4,2,1,70,0,0
134890,-200,4,2,1,70,0,0
135143,-200,4,2,1,5,0,0
135227,-125,4,2,1,70,0,0
135817,-125,4,2,1,5,0,0
135902,-200,4,2,1,70,0,0
136154,-200,4,2,1,5,0,0
136239,337.078651685393,4,2,1,80,1,1
136239,-95.2380952380952,4,2,1,80,0,1
146941,-95.2380952380952,4,2,1,5,0,1
147025,-95.2380952380952,4,2,1,80,0,1
157643,-200,4,2,1,80,0,0
158149,-76.9230769230769,4,2,1,80,0,1
158486,-95.2380952380952,4,2,1,80,0,1
176519,-200,4,2,1,70,0,1
177025,-100,4,2,1,70,0,1
179300,-100,4,2,1,5,0,1
179385,-142.857142857143,4,2,1,60,0,0
181997,-142.857142857143,4,2,1,5,0,0
182081,-142.857142857143,4,2,1,60,0,0
184694,-142.857142857143,4,2,1,5,0,0
184778,-100,4,2,1,60,0,0
188823,-66.6666666666667,4,2,1,60,0,0
189076,-66.6666666666667,4,2,1,5,0,0
189160,-100,4,2,1,60,0,0
191519,-200,4,2,1,70,0,0
191772,-200,4,2,1,5,0,0
191856,-125,4,2,1,70,0,0
192446,-125,4,2,1,5,0,0
192531,-200,4,2,1,70,0,0
192868,337.078651685393,4,2,1,40,1,0
192868,-166.666666666667,4,2,1,40,0,0
203654,-142.857142857143,4,2,1,60,0,0
213092,-95.2380952380952,4,2,1,60,0,0
214272,-200,4,2,1,80,0,0
214778,-76.9230769230769,4,2,1,80,0,1
215115,-95.2380952380952,4,2,1,80,0,1
233148,-200,4,2,1,70,0,1
233317,337.078651685393,4,2,1,80,1,1
233654,-100,4,2,1,80,0,0
253036,-100,4,2,1,40,0,0
253204,-100,4,2,1,80,0,0

[Colours]
Combo1 : 248,148,150
Combo2 : 226,196,137
Combo3 : 167,88,109
Combo4 : 223,163,96

[HitObjects]
190,269,60,1,8,0:0:0:0:
63,124,228,1,0,3:0:0:0:
95,285,397,1,8,0:0:0:0:
157,106,565,1,0,3:0:0:0:
33,214,734,1,6,3:0:0:0:
220,178,902,1,8,0:0:0:0:
220,178,986,1,8,0:0:0:0:
220,178,1071,1,8,0:0:0:0:
63,124,1239,1,4,3:0:0:0:
95,285,1408,6,0,P|133:341|259:330,1,180,6|8,3:2|0:0,0:0:0:0:
257,192,1913,1,2,0:0:0:0:
400,276,2082,2,0,P|356:288|300:272,1,90,0|2,3:0|3:0,0:0:0:0:
257,192,2419,1,10,0:0:0:0:
237,346,2587,1,2,0:0:0:0:
356,200,2756,6,0,L|348:80,1,90,2|0,3:0|3:0,0:0:0:0:
452,36,3093,1,10,0:0:0:0:
452,36,3261,2,0,L|446:125,1,90,2|0,3:0|0:0,0:0:0:0:
356,200,3599,2,0,L|361:289,1,90,2|8,3:0|0:0,0:0:0:0:
446,125,3936,1,2,0:0:0:0:
256,96,4104,6,0,B|180:88|180:88|120:84|84:148,1,180,2|8,3:0|0:0,0:0:0:0:
176,184,4610,1,2,0:0:0:0:
12,172,4778,2,0,P|4:128|20:80,1,90,0|2,3:0|3:0,0:0:0:0:
176,184,5115,1,10,0:0:0:0:
88,32,5284,1,2,0:0:0:0:
88,232,5452,6,0,P|124:272|160:284,1,90,2|0,3:0|3:0,0:0:0:0:
328,216,5790,1,10,0:0:0:0:
328,216,5958,2,0,P|283:222|248:250,1,90,2|0,3:0|0:0,0:0:0:0:
396,352,6295,2,0,P|412:300|405:263,1,90,2|8,3:0|0:0,0:0:0:0:
248,250,6632,1,2,0:0:0:0:
396,352,6801,6,0,P|456:304|460:184,1,180,6|8,3:2|0:0,0:0:0:0:
384,124,7306,1,2,0:0:0:0:
248,250,7475,2,0,P|200:248|164:224,1,90,0|2,3:0|3:0,0:0:0:0:
232,160,7812,1,10,0:0:0:0:
264,340,7981,1,2,0:0:0:0:
93,281,8149,6,0,L|4:292,1,90,2|2,3:0|3:0,0:0:0:0:
152,208,8486,1,10,0:0:0:0:
137,363,8655,2,0,P|170:334|184:291,1,90,2|0,3:0|0:0,0:0:0:0:
52,212,8992,1,2,3:0:0:0:
184,292,9160,1,8,0:0:0:0:
52,368,9329,1,2,0:0:0:0:
152,208,9497,6,0,P|228:216|268:312,1,180,2|8,3:0|0:0,0:0:0:0:
428,220,10003,1,0,0:0:0:0:
428,220,10172,2,0,P|352:228|321:264,1,90,2|0,3:0|3:0,0:0:0:0:
185,316,10509,2,0,P|261:308|292:272,1,90,8|0,0:0|3:0,0:0:0:0:
216,232,10846,5,10,0:0:0:0:
400,304,11014,1,0,3:0:0:0:
216,232,11183,1,10,0:0:0:0:
400,304,11351,1,0,3:0:0:0:
328,368,11520,5,10,3:0:0:0:
296,168,11688,1,8,0:0:0:0:
296,168,11773,1,8,0:0:0:0:
296,168,11857,1,10,0:0:0:0:
216,232,12025,1,4,3:0:0:0:
400,304,12194,6,0,B|432:252|432:252|464:196|428:132,1,180,6|8,3:2|0:0,0:0:0:0:
348,96,12700,1,2,0:0:0:0:
312,272,12868,2,0,L|364:188,1,90,0|2,3:0|3:0,0:0:0:0:
348,96,13205,1,10,0:0:0:0:
444,224,13374,1,2,0:0:0:0:
272,152,13542,6,0,P|252:108|268:40,1,90,2|0,3:0|3:0,0:0:0:0:
437,85,13879,1,10,0:0:0:0:
437,85,14048,2,0,L|334:97,1,90,2|0,3:0|0:0,0:0:0:0:
272,152,14385,2,0,L|169:140,1,90,2|8,3:0|0:0,0:0:0:0:
347,95,14722,1,0,0:0:0:0:
252,236,14891,6,0,B|176:228|176:228|160:244|160:244|80:236,1,180,2|8,3:0|0:0,0:0:0:0:
232,324,15396,1,0,0:0:0:0:
272,152,15565,2,0,L|361:162,1,90,2|0,3:0|3:0,0:0:0:0:
252,236,15902,1,8,0:0:0:0:
288,68,16070,1,0,0:0:0:0:
448,200,16239,6,0,P|412:240|376:252,1,90,2|0,3:0|3:0,0:0:0:0:
436,104,16576,1,8,0:0:0:0:
378,251,16745,2,0,P|292:232|208:280,1,180,2|0,3:0|3:0,0:0:0:0:
308,348,17250,1,10,0:0:0:0:
378,251,17419,1,2,0:0:0:0:
204,360,17587,6,0,P|108:355|34:293,1,180,6|10,3:2|0:0,0:0:0:0:
164,204,18093,1,2,3:0:0:0:
164,204,18177,1,0,3:0:0:0:
164,204,18261,1,8,0:0:0:0:
284,308,18430,1,0,3:0:0:0:
164,204,18599,1,8,0:0:0:0:
204,360,18767,1,0,3:0:0:0:
84,256,18936,6,0,P|69:215|77:167,1,90,14|0,0:0|3:0,0:0:0:0:
234,153,19273,1,2,3:0:0:0:
234,153,19441,2,0,P|205:186|160:203,1,90,10|0,0:0|3:0,0:0:0:0:
69,74,19778,2,0,P|112:81|149:112,1,90,10|0,0:0|3:0,0:0:0:0:
236,268,20115,6,0,P|323:253|392:196,1,180,6|0,3:2|3:0,0:0:0:0:
320,40,20621,2,0,P|308:80|320:132,1,90,14|0,0:0|0:0,0:0:0:0:
400,88,20958,1,2,3:0:0:0:
400,88,21127,1,2,3:0:0:0:
240,0,21295,1,8,0:0:0:0:
160,112,21464,6,0,L|176:204,1,90,2|0,3:0|0:0,0:0:0:0:
240,0,21801,2,0,L|255:88,1,90,2|8,3:0|0:0,0:0:0:0:
80,192,22138,2,0,L|95:280,1,90,2|0,0:0|3:0,0:0:0:0:
160,112,22475,1,2,3:0:0:0:
56,59,22643,2,0,L|80:193,1,135,8|0,0:0|0:0,0:0:0:0:
95,280,22981,5,6,3:2:0:0:
216,176,23318,2,0,P|251:170|288:176,1,72,2|2,3:0|0:0,0:0:0:0:
336,236,23655,1,2,3:0:0:0:
336,236,23823,2,0,P|323:269|300:297,1,72,2|0,0:0|3:0,0:0:0:0:
344,364,24160,2,0,P|389:308|415:241,1,144,2|2,0:0|0:0,0:0:0:0:
384,168,24666,1,2,3:0:0:0:
384,168,25003,1,2,3:0:0:0:
464,172,25172,2,0,P|486:144|499:110,1,72,2|0,0:0|3:0,0:0:0:0:
384,168,25509,1,2,0:0:0:0:
492,256,25677,5,0,3:0:0:0:
360,344,26014,2,0,L|372:260,1,72,2|2,3:0|0:0,0:0:0:0:
304,228,26351,1,2,3:0:0:0:
304,228,26520,2,0,L|292:144,1,72,2|0,0:0|3:0,0:0:0:0:
216,132,26857,2,0,P|144:140|92:80,1,144,2|2,0:0|0:0,0:0:0:0:
172,64,27363,1,2,3:0:0:0:
172,64,27700,1,2,3:0:0:0:
216,132,27868,2,0,L|222:203,1,72,2|0,0:0|3:0,0:0:0:0:
172,64,28205,1,2,0:0:0:0:
292,88,28374,6,0,L|304:231,1,144,2|0,3:0|3:0,0:0:0:0:
380,248,28879,1,2,0:0:0:0:
456,264,29048,2,0,P|448:212|368:172,1,144,2|2,3:0|3:0,0:0:0:0:
387,323,29554,2,0,P|322:297|304:231,1,144,0|2,0:0|0:0,0:0:0:0:
456,264,30059,1,2,3:0:0:0:
304,230,30396,2,0,P|264:226|228:242,1,72,2|2,3:0|0:0,0:0:0:0:
168,280,30733,2,0,P|128:284|92:268,1,72,2|2,3:0|0:0,0:0:0:0:
0,176,31070,6,0,P|20:244|-12:328,1,144,2|0,3:0|3:0,0:0:0:0:
84,159,31576,1,2,0:0:0:0:
84,159,31745,2,0,P|100:90|152:41,1,144,2|2,3:0|3:0,0:0:0:0:
288,120,32419,2,0,P|271:189|219:238,1,144,2|0,3:0|3:0,0:0:0:0:
188,140,32924,1,2,0:0:0:0:
84,160,33093,5,10,3:1:0:0:
288,120,33430,1,8,3:2:0:0:
128,240,33767,6,0,P|88:252|44:248,1,80.9999975280763,4|0,3:2|0:0,0:0:0:0:
176,316,34104,2,0,P|253:292|333:297,1,161.999995056153,8|2,0:0|3:0,0:0:0:0:
412,340,34610,1,2,3:0:0:0:
476,252,34778,2,0,L|464:164,1,80.9999975280763,8|2,0:0|0:0,0:0:0:0:
412,340,35115,5,0,3:0:0:0:
412,340,35284,1,2,3:0:0:0:
312,212,35452,2,0,L|333:51,1,161.999995056153,10|2,0:0|3:0,0:0:0:0:
408,104,35958,1,2,3:0:0:0:
244,136,36127,2,0,L|156:156,1,80.9999975280763,8|2,0:0|0:0,0:0:0:0:
4,220,36464,6,0,B|20:264|52:280|52:280|92:280|124:240,2,161.999995056153,2|8|2,3:0|0:0|3:0,0:0:0:0:
76,176,37306,1,2,3:0:0:0:
200,232,37475,2,0,L|278:214,1,80.9999975280763,8|2,0:0|0:0,0:0:0:0:
76,176,37812,5,0,3:0:0:0:
76,176,37981,1,2,3:0:0:0:
184,320,38149,2,0,L|341:284,1,161.999995056153,8|2,0:0|3:0,0:0:0:0:
416,332,38655,2,0,L|494:314,1,80.9999975280763,2|8,3:0|0:0,0:0:0:0:
341,283,38992,1,2,0:0:0:0:
444,200,39160,6,0,B|464:140|464:140|488:68|440:20,1,161.999995056153,2|8,3:0|0:0,0:0:0:0:
372,96,39666,1,2,0:0:0:0:
288,44,39834,1,2,3:0:0:0:
288,44,40003,1,0,3:0:0:0:
212,156,40172,2,0,L|228:244,1,80.9999975280763,10|0,0:0|0:0,0:0:0:0:
300,172,40509,5,0,3:0:0:0:
152,292,40677,2,0,L|123:132,1,161.999995056153,2|0,3:0|0:0,0:0:0:0:
199,20,41183,1,2,3:0:0:0:
123,132,41351,1,2,3:0:0:0:
288,44,41520,1,10,0:0:0:0:
212,156,41688,1,2,0:0:0:0:
376,68,41857,6,0,B|390:65|404:52|404:52|400:104|440:144|484:144,1,161.999995056153,2|8,3:0|0:0,0:0:0:0:
488,60,42363,1,2,0:0:0:0:
344,140,42531,2,0,P|312:116|296:68,1,80.9999975280763,2|0,3:0|3:0,0:0:0:0:
311,211,42868,2,0,P|247:163|217:90,1,161.999995056153,10|2,0:0|3:0,0:0:0:0:
376,68,43374,5,0,3:0:0:0:
240,12,43542,2,0,P|196:12|156:36,1,80.9999975280763,8|2,0:0|3:0,0:0:0:0:
296,78,43879,1,2,3:0:0:0:
136,112,44048,1,10,0:0:0:0:
136,112,44132,1,8,0:0:0:0:
136,112,44216,1,10,0:0:0:0:
240,12,44385,1,10,3:0:0:0:
192,178,44554,6,0,P|184:236|216:296,1,125.999996154785,6|0,3:2|0:0,0:0:0:0:
296,304,45059,1,0,3:0:0:0:
332,216,45228,2,0,L|260:224,2,62.9999980773926,2|2|10,0:0|0:0|3:0,0:0:0:0:
214,294,45733,6,0,L|88:280,1,125.999996154785,2|6,3:0|3:0,0:0:0:0:
269,222,46239,2,0,L|332:216,1,62.9999980773926,0|0,0:0|3:0,0:0:0:0:
192,178,46576,1,2,0:0:0:0:
192,178,46745,1,2,0:0:0:0:
214,294,46913,2,0,L|228:368,1,62.9999980773926,10|2,0:0|0:0,0:0:0:0:
136,248,47250,6,0,P|104:188|116:132,1,125.999996154785,2|0,3:0|0:0,0:0:0:0:
172,72,47756,1,0,3:0:0:0:
240,184,47924,2,0,L|244:120,1,62.9999980773926,2|2,0:0|0:0,0:0:0:0:
104,24,48261,1,10,3:0:0:0:
252,44,48430,6,0,B|312:52|312:52|336:32|384:32,1,125.999996154785,2|6,3:0|3:0,0:0:0:0:
359,182,48936,2,0,L|368:120,1,62.9999980773926,2|0,0:0|3:0,0:0:0:0:
306,251,49273,2,0,P|334:266|365:269,1,62.9999980773926,0|0,0:0|3:0,0:0:0:0:
278,174,49610,1,8,0:0:0:0:
112,240,49947,6,0,P|148:260|196:260,1,80.9999975280763,6|0,3:2|0:0,0:0:0:0:
208,48,50284,2,0,P|188:84|188:132,1,80.9999975280763,10|0,0:0|0:0,0:0:0:0:
400,144,50621,2,0,P|364:124|316:124,1,80.9999975280763,2|0,3:0|3:0,0:0:0:0:
304,336,50958,2,0,P|324:300|324:252,1,80.9999975280763,10|0,0:0|0:0,0:0:0:0:
187,262,51295,6,0,P|146:259|112:240,1,80.9999975280763,2|0,3:0|3:0,0:0:0:0:
326,260,51632,2,0,P|323:301|304:336,1,80.9999975280763,10|0,0:0|0:0,0:0:0:0:
324,121,51969,2,0,P|365:124|400:144,1,80.9999975280763,2|0,3:0|3:0,0:0:0:0:
185,123,52306,2,0,P|188:82|208:48,1,80.9999975280763,10|0,0:0|0:0,0:0:0:0:
187,262,52643,6,0,P|111:286|35:254,1,161.999995056153,2|8,3:0|0:0,0:0:0:0:
252,196,53149,1,2,0:0:0:0:
252,196,53318,2,0,P|310:249|321:331,1,161.999995056153,2|10,3:0|0:0,0:0:0:0:
163,173,53823,1,2,0:0:0:0:
163,173,53992,6,0,P|188:128|232:108,1,80.9999975280763,0|2,3:0|3:0,0:0:0:0:
332,192,54329,2,0,L|232:196,1,80.9999975280763,8|2,0:0|0:0,0:0:0:0:
188,256,54666,1,2,3:0:0:0:
188,256,54834,1,2,3:0:0:0:
251,195,55003,1,10,0:0:0:0:
320,328,55172,1,2,0:0:0:0:
412,188,55340,6,0,L|400:108,1,80.9999975280763,14|0,3:2|0:0,0:0:0:0:
372,260,55677,1,8,0:0:0:0:
251,195,55846,1,0,3:0:0:0:
255,154,55930,1,0,3:0:0:0:
259,114,56014,1,8,0:0:0:0:
372,260,56183,5,0,3:0:0:0:
259,114,56351,1,8,0:0:0:0:
114,227,56520,1,0,3:0:0:0:
227,372,56688,6,0,L|304:364,1,67.5,10|0,0:0|0:0,0:0:0:0:
372,260,57025,6,0,B|339:258|310:300|335:361|405:347|445:325|459:271|435:222,1,252,14|0,0:0|0:0,0:0:0:0:
376,184,57700,6,0,P|377:150|389:118,1,67.5,8|0,3:0|0:0,0:0:0:0:
361,40,58037,6,0,B|321:8|265:12|265:12|177:24,2,188.999994232178,6|10|0,3:2|0:0|3:0,0:0:0:0:
288,104,58879,1,2,3:0:0:0:
179,23,59048,2,0,L|67:39,1,94.499997116089,10|2,0:0|0:0,0:0:0:0:
112,212,59385,5,2,3:0:0:0:
112,212,59553,2,0,L|220:193,1,94.499997116089,0|10,3:0|0:0,0:0:0:0:
48,148,59890,2,0,P|24:194|38:264,1,94.499997116089,2|0,3:0|0:0,0:0:0:0:
131,304,60228,2,0,L|108:194,1,94.499997116089,2|8,3:0|0:0,0:0:0:0:
148,128,60565,1,2,0:0:0:0:
232,264,60733,6,0,B|270:280|312:262|312:262|330:327|402:338,1,188.999994232178,2|8,3:0|0:0,0:0:0:0:
488,240,61239,2,0,B|450:224|408:242|408:242|390:177|318:166,1,188.999994232178,2|2,0:0|3:0,0:0:0:0:
452,320,61744,1,10,0:0:0:0:
456,152,61913,1,2,0:0:0:0:
311,263,62081,6,0,P|268:247|242:209,1,94.499997116089,2|0,3:0|3:0,0:0:0:0:
336,80,62419,1,10,0:0:0:0:
336,80,62587,2,0,P|351:129|327:181,1,94.499997116089,2|0,3:0|0:0,0:0:0:0:
165,152,62924,2,0,P|206:120|263:125,1,94.499997116089,2|8,3:0|0:0,0:0:0:0:
312,264,63261,1,2,0:0:0:0:
103,232,63430,6,0,P|70:159|121:60,1,188.999994232178,6|8,3:2|0:0,0:0:0:0:
352,152,63935,2,0,B|305:136|259:152|259:152|213:167|167:152,1,188.999994232178,2|2,0:0|3:0,0:0:0:0:
308,232,64441,1,10,0:0:0:0:
212,72,64610,1,2,0:0:0:0:
396,72,64778,6,0,P|436:112|444:148,1,94.499997116089,2|0,3:0|3:0,0:0:0:0:
308,232,65115,1,10,0:0:0:0:
308,232,65284,2,0,P|353:243|397:228,1,94.499997116089,2|0,3:0|0:0,0:0:0:0:
260,152,65621,1,2,3:0:0:0:
280,316,65789,1,8,0:0:0:0:
260,152,65958,1,0,0:0:0:0:
176,292,66126,6,0,P|95:307|139:231,1,188.999994232178,2|8,3:0|0:0,0:0:0:0:
196,212,66632,1,0,0:0:0:0:
17,328,66801,2,0,P|6:282|13:235,1,94.499997116089,2|0,3:0|3:0,0:0:0:0:
67,78,67138,2,0,P|77:123|70:170,1,94.499997116089,8|0,0:0|0:0,0:0:0:0:
18,7,67475,5,2,3:0:0:0:
18,7,67643,1,0,3:0:0:0:
150,66,67812,2,0,L|263:51,1,94.499997116089,8|0,0:0|3:0,0:0:0:0:
336,161,68149,2,0,L|223:146,1,94.499997116089,2|0,0:0|3:0,0:0:0:0:
411,112,68486,2,0,P|422:192|378:239,1,141.749995674133,8|0,0:0|0:0,0:0:0:0:
307,240,68823,6,0,B|232:228|232:228|171:242|171:242|119:233,1,188.999994232178,6|8,3:2|0:0,0:0:0:0:
163,147,69329,1,2,0:0:0:0:
238,315,69497,1,0,3:0:0:0:
238,315,69666,1,2,3:0:0:0:
51,291,69834,2,0,P|33:245|51:174,1,94.499997116089,10|2,0:0|0:0,0:0:0:0:
212,225,70171,6,0,P|168:243|123:233,1,94.499997116089,2|0,3:0|3:0,0:0:0:0:
163,147,70508,1,10,0:0:0:0:
238,315,70677,2,0,P|324:350|415:331,1,188.999994232178,2|2,3:0|3:0,0:0:0:0:
289,248,71183,2,0,P|332:265|377:256,1,94.499997116089,8|2,0:0|0:0,0:0:0:0:
416,104,71520,6,0,B|379:67|329:90|329:90|306:140|343:176,1,188.999994232178,2|8,3:0|0:0,0:0:0:0:
504,264,72025,2,0,B|540:227|517:177|517:177|467:154|431:191,1,188.999994232178,2|2,0:0|3:0,0:0:0:0:
415,331,72531,1,10,0:0:0:0:
430,191,72699,1,2,0:0:0:0:
289,248,72868,6,0,P|260:212|252:160,1,94.499997116089,2|0,3:0|3:0,0:0:0:0:
343,176,73205,1,10,0:0:0:0:
164,152,73374,2,0,P|180:244|239:317,1,188.999994232178,2|2,3:0|3:0,0:0:0:0:
343,176,73879,1,8,0:0:0:0:
238,316,74048,1,2,0:0:0:0:
400,256,74216,6,0,P|440:200|396:92,1,188.999994232178,6|8,3:2|0:0,0:0:0:0:
343,176,74722,1,2,0:0:0:0:
448,336,74890,1,0,3:0:0:0:
448,336,75059,1,2,3:0:0:0:
288,248,75228,2,0,P|240:240|188:248,1,94.499997116089,10|2,0:0|0:0,0:0:0:0:
344,320,75565,5,2,3:0:0:0:
344,320,75733,1,2,3:0:0:0:
240,160,75902,1,8,0:0:0:0:
148,324,76070,2,0,P|80:288|48:176,1,188.999994232178,2|2,0:0|3:0,0:0:0:0:
160,35,76576,1,10,0:0:0:0:
352,35,76744,1,2,0:0:0:0:
465,186,76913,6,0,P|442:275|364:324,1,188.999994232178,2|10,3:0|0:0,0:0:0:0:
256,192,77419,1,2,0:0:0:0:
149,324,77587,1,0,3:0:0:0:
149,324,77756,1,0,3:0:0:0:
256,192,77924,2,0,P|272:144|256:96,1,94.499997116089,10|0,0:0|3:0,0:0:0:0:
8,132,78261,6,0,B|128:176|128:176|184:148,1,188.999994232178,10|2,0:0|3:0,0:0:0:0:
32,56,78767,2,0,L|136:92,1,94.499997116089,10|0,0:0|3:0,0:0:0:0:
256,192,79104,2,0,L|360:156,1,94.499997116089,10|0,0:0|3:0,0:0:0:0:
206,58,79441,6,0,L|120:86,1,90,4|0,3:2|3:0,0:0:0:0:
256,192,79947,6,0,B|346:160|346:160|377:127|377:127|466:98,1,233.999989288331,14|0,0:0|3:0,0:0:0:0:
497,179,80452,5,2,3:0:0:0:
439,17,80621,2,0,L|349:47,1,94.499997116089,10|2,0:0|0:0,0:0:0:0:
405,211,80958,2,0,P|433:252|474:273,1,94.499997116089,2|0,3:0|3:0,0:0:0:0:
314,176,81295,1,10,0:0:0:0:
314,176,81463,2,0,P|309:225|327:267,1,94.499997116089,2|0,3:0|0:0,0:0:0:0:
273,86,81801,2,0,P|234:117|217:160,1,94.499997116089,2|8,3:0|0:0,0:0:0:0:
322,267,82138,1,2,0:0:0:0:
273,87,82306,6,0,P|182:71|111:129,1,188.999994232178,2|8,3:0|0:0,0:0:0:0:
161,311,82812,2,0,P|258:323|324:261,1,188.999994232178,2|2,0:0|3:0,0:0:0:0:
220,196,83317,1,10,0:0:0:0:
161,311,83486,1,2,0:0:0:0:
112,131,83654,6,0,L|121:24,1,94.499997116089,2|0,3:0|3:0,0:0:0:0:
19,185,83992,1,10,0:0:0:0:
19,185,84160,2,0,P|49:220|94:230,1,94.499997116089,2|0,3:0|0:0,0:0:0:0:
187,86,84497,2,0,P|141:96|111:131,1,94.499997116089,2|8,3:0|0:0,0:0:0:0:
161,311,84834,1,2,0:0:0:0:
321,266,85003,6,0,B|368:250|414:266|414:266|460:281|506:266,1,188.999994232178,6|8,3:2|0:0,0:0:0:0:
368,345,85508,2,0,P|290:351|231:251,1,188.999994232178,2|2,0:0|3:0,0:0:0:0:
368,183,86014,1,10,0:0:0:0:
368,345,86183,1,2,0:0:0:0:
230,268,86351,6,0,P|183:261|131:275,1,94.499997116089,2|0,3:0|3:0,0:0:0:0:
275,179,86688,1,10,0:0:0:0:
275,179,86857,2,0,P|321:171|367:182,1,94.499997116089,2|0,3:0|0:0,0:0:0:0:
317,259,87194,1,2,3:0:0:0:
238,102,87362,1,8,0:0:0:0:
317,259,87531,1,0,0:0:0:0:
146,96,87699,6,0,P|181:31|289:31,1,188.999994232178,2|8,3:0|0:0,0:0:0:0:
275,179,88205,1,0,0:0:0:0:
146,96,88374,2,0,L|155:2,1,94.499997116089,2|0,3:0|3:0,0:0:0:0:
31,136,88711,2,0,L|40:229,1,94.499997116089,8|0,0:0|3:2,0:0:0:0:
205,339,89048,5,10,0:0:0:0:
40,229,89216,1,0,3:0:0:0:
205,339,89385,1,10,0:0:0:0:
40,229,89553,1,0,3:0:0:0:
30,326,89722,5,6,3:0:0:0:
212,236,89890,1,8,0:0:0:0:
212,236,89975,1,8,0:0:0:0:
212,236,90059,1,10,0:0:0:0:
205,339,90228,1,4,3:0:0:0:
40,229,90396,6,0,B|15:186|30:137|30:137|69:176|132:167,1,188.999994232178,6|8,3:2|0:0,0:0:0:0:
181,20,90902,2,0,B|206:63|191:112|191:112|152:73|89:82,1,188.999994232178,2|2,0:0|3:0,0:0:0:0:
40,229,91407,2,0,P|24:181|40:112,1,94.499997116089,10|2,0:0|0:0,0:0:0:0:
192,112,91744,6,0,P|151:87|105:80,1,94.499997116089,2|0,3:0|3:0,0:0:0:0:
115,168,92081,1,10,0:0:0:0:
0,328,92250,2,0,P|82:325|148:242,1,188.999994232178,2|2,3:0|3:0,0:0:0:0:
200,323,92756,2,0,P|244:345|296:347,1,94.499997116089,8|2,0:0|0:0,0:0:0:0:
307,181,93093,6,0,P|326:229|238:209,1,188.999994232178,2|8,3:0|0:0,0:0:0:0:
366,106,93598,1,0,0:0:0:0:
426,184,93767,2,0,P|431:262|497:219,1,188.999994232178,2|8,3:0|0:0,0:0:0:0:
366,106,94272,1,0,0:0:0:0:
307,181,94441,5,2,3:0:0:0:
307,181,94610,1,0,3:0:0:0:
196,72,94778,1,8,0:0:0:0:
60,220,94947,2,0,B|33:280|60:329|60:329|90:347|140:320,1,188.999994232178,2|0,3:0|3:0,0:0:0:0:
256,235,95452,1,10,0:0:0:0:
380,323,95621,1,2,0:0:0:0:
493,234,95789,6,0,P|402:221|344:148,1,188.999994232178,6|10,3:2|0:0,0:0:0:0:
424,0,96295,1,2,3:0:0:0:
424,0,96379,1,0,3:0:0:0:
424,0,96463,1,8,0:0:0:0:
345,149,96632,1,0,3:0:0:0:
307,33,96801,1,8,0:0:0:0:
456,112,96969,1,0,3:0:0:0:
307,33,97138,6,0,L|207:37,1,94.499997116089,14|0,0:0|3:0,0:0:0:0:
104,160,97475,1,2,3:0:0:0:
104,160,97643,2,0,L|204:164,1,94.499997116089,10|0,0:0|3:0,0:0:0:0:
284,264,97980,2,0,L|378:260,1,94.499997116089,10|0,0:0|3:0,0:0:0:0:
160,332,98317,6,0,P|116:352|64:348,1,90,6|0,3:2|3:0,0:0:0:0:
40,132,98823,6,0,P|116:116|212:188,1,180,14|2,0:0|3:0,0:0:0:0:
100,240,99329,1,2,3:0:0:0:
40,132,99497,1,8,0:0:0:0:
200,166,99666,6,0,P|244:164|292:136,1,90,2|0,3:0|0:0,0:0:0:0:
412,244,100003,2,0,P|368:242|320:214,1,90,2|8,3:0|0:0,0:0:0:0:
220,80,100340,1,2,0:0:0:0:
392,152,100508,1,0,3:0:0:0:
392,152,100677,1,2,3:0:0:0:
280,296,100845,2,0,P|339:326|406:330,1,135,8|0,0:0|0:0,0:0:0:0:
478,291,101183,5,6,3:2:0:0:
412,244,101520,1,2,0:0:0:0:
484,206,101857,1,2,0:0:0:0:
484,206,102025,1,2,0:0:0:0:
418,159,102362,1,2,0:0:0:0:
490,121,102531,6,0,L|515:126,1,15.7499995193482,2|0,0:0|0:0,0:0:0:0:
424,74,102868,1,2,0:0:0:0:
424,74,103205,2,0,L|362:61,1,62.9999980773926,10|2,0:1|0:0,0:0:0:0:
272,136,103542,6,0,P|229:154|182:149,1,94.499997116089,4|0,3:0|0:0,0:0:0:0:
108,116,103879,6,0,L|113:198,1,80.9999975280763,6|0,3:2|0:0,0:0:0:0:
262,297,104216,2,0,L|272:135,1,161.999995056153,10|2,0:0|3:0,0:0:0:0:
112,196,104722,1,2,3:0:0:0:
271,135,104890,2,0,L|259:47,1,80.9999975280763,8|2,0:0|0:0,0:0:0:0:
108,116,105228,5,0,3:0:0:0:
108,116,105396,1,0,3:0:0:0:
228,220,105565,2,0,B|284:236|328:212|328:212|400:224,1,161.999995056153,10|2,0:0|3:0,0:0:0:0:
272,136,106070,1,2,3:0:0:0:
408,96,106239,2,0,L|487:110,1,80.9999975280763,8|2,0:0|0:0,0:0:0:0:
296,12,106576,6,0,P|205:26|153:83,1,161.999995056153,2|8,3:0|0:0,0:0:0:0:
272,136,107081,1,2,0:0:0:0:
296,12,107250,1,2,3:0:0:0:
296,12,107419,1,0,3:0:0:0:
408,96,107587,2,0,P|408:140|393:175,1,80.9999975280763,10|0,0:0|0:0,0:0:0:0:
296,12,107924,5,0,3:0:0:0:
196,140,108093,2,0,P|192:232|232:300,1,161.999995056153,2|0,3:0|0:0,0:0:0:0:
397,250,108598,1,2,3:0:0:0:
281,384,108767,1,2,3:0:0:0:
295,207,108935,1,10,0:0:0:0:
388,357,109104,1,2,0:0:0:0:
224,291,109272,6,0,B|184:276|145:291|145:291|105:305|66:291,1,161.999995056153,2|8,3:0|0:0,0:0:0:0:
184,372,109778,1,2,0:0:0:0:
112,208,109947,1,2,3:0:0:0:
112,208,110115,1,0,3:0:0:0:
224,291,110284,6,0,B|263:276|302:291|302:291|342:305|381:291,1,161.999995056153,10|2,0:0|3:0,0:0:0:0:
264,372,110789,1,0,3:0:0:0:
336,208,110958,2,0,L|320:120,1,80.9999975280763,8|2,0:0|0:0,0:0:0:0:
300,292,111295,1,8,3:1:0:0:
300,292,111463,1,0,3:0:0:0:
424,216,111632,6,0,P|463:261|459:329,1,121.499996292114,10|0,0:0|0:0,0:0:0:0:
382,290,111969,6,0,P|344:288|287:308,1,80.9999975280763,6|0,3:2|0:0,0:0:0:0:
235,358,112306,1,10,0:0:0:0:
88,290,112475,2,0,P|126:288|183:308,1,80.9999975280763,2|2,0:0|3:0,0:0:0:0:
235,358,112812,1,2,3:0:0:0:
279,223,112980,6,0,P|299:258|302:299,1,80.9999975280763,10|2,0:0|0:0,0:0:0:0:
235,358,113317,1,0,3:0:0:0:
191,224,113486,2,0,P|171:259|168:299,1,80.9999975280763,2|10,3:0|0:0,0:0:0:0:
235,358,113823,1,0,0:0:0:0:
88,290,113992,6,0,P|126:288|183:308,1,80.9999975280763,2|2,3:0|3:0,0:0:0:0:
382,290,114329,2,0,P|344:288|264:332,1,121.499996292114,8|0,0:0|0:0,0:0:0:0:
270,324,114666,6,0,L|280:224,1,80.9999975280763,2|0,3:0|0:0,0:0:0:0:
236,164,115003,1,10,0:0:0:0:
270,4,115171,2,0,L|280:104,1,80.9999975280763,2|2,0:0|3:0,0:0:0:0:
236,164,115508,1,2,3:0:0:0:
355,258,115677,6,0,P|317:259|266:234,1,80.9999975280763,10|2,0:0|0:0,0:0:0:0:
236,164,116014,1,0,3:0:0:0:
355,69,116183,2,0,P|317:67|266:92,1,80.9999975280763,2|10,3:0|0:0,0:0:0:0:
236,164,116520,1,0,0:0:0:0:
270,324,116688,6,0,L|280:224,1,80.9999975280763,2|2,3:0|3:0,0:0:0:0:
270,4,117025,2,0,L|280:104,1,80.9999975280763,10|2,0:0|0:0,0:0:0:0:
179,233,117362,6,0,P|138:233|101:218,1,80.9999975280763,2|0,3:0|0:0,0:0:0:0:
236,164,117699,1,8,0:0:0:0:
293,233,117868,2,0,P|333:234|370:219,1,80.9999975280763,2|2,0:0|3:0,0:0:0:0:
236,164,118205,1,0,3:0:0:0:
179,233,118374,6,0,L|193:339,1,80.9999975280763,10|0,0:0|0:0,0:0:0:0:
236,164,118711,1,0,3:0:0:0:
293,233,118879,2,0,L|279:339,1,80.9999975280763,2|8,3:0|0:0,0:0:0:0:
236,164,119216,1,0,0:0:0:0:
179,233,119385,6,0,P|139:234|102:219,1,80.9999975280763,2|2,3:0|3:0,0:0:0:0:
293,233,119722,2,0,P|333:234|370:219,1,80.9999975280763,8|2,0:0|0:0,0:0:0:0:
310,66,120059,6,0,L|317:155,1,80.9999975280763,2|0,3:0|0:0,0:0:0:0:
370,218,120396,1,8,0:0:0:0:
430,66,120565,2,0,L|423:155,1,80.9999975280763,2|2,0:0|3:0,0:0:0:0:
370,218,120902,1,0,3:0:0:0:
238,132,121070,6,0,P|278:131|315:146,1,80.9999975280763,10|0,0:0|0:0,0:0:0:0:
370,218,121407,1,0,3:0:0:0:
501,132,121576,2,0,P|461:131|424:146,1,80.9999975280763,2|8,3:0|0:0,0:0:0:0:
370,218,121913,1,0,3:0:0:0:
310,66,122081,6,0,L|317:155,1,80.9999975280763,6|10,3:0|0:0,0:0:0:0:
316,146,122334,1,8,0:0:0:0:
316,146,122419,1,10,0:0:0:0:
430,66,122587,1,14,3:0:0:0:
370,218,122756,6,0,B|308:224|308:224|296:220|296:220|232:224,1,125.999996154785,6|0,3:2|0:0,0:0:0:0:
236,308,123261,1,0,3:0:0:0:
168,260,123430,2,0,P|159:229|162:198,2,62.9999980773926,2|2|10,0:0|0:0|3:0,0:0:0:0:
80,181,123935,6,0,P|74:243|92:303,1,125.999996154785,2|6,3:0|3:0,0:0:0:0:
162,198,124441,2,0,P|159:229|168:260,1,62.9999980773926,0|0,0:0|3:0,0:0:0:0:
232,144,124778,1,2,0:0:0:0:
232,144,124947,1,2,0:0:0:0:
296,260,125115,2,0,P|304:230|302:199,1,62.9999980773926,10|2,0:0|0:0,0:0:0:0:
372,304,125452,6,0,P|389:244|384:182,1,125.999996154785,2|0,3:0|0:0,0:0:0:0:
332,120,125958,1,0,3:0:0:0:
458,71,126126,2,0,L|396:68,1,62.9999980773926,2|2,0:0|0:0,0:0:0:0:
332,120,126463,1,10,3:0:0:0:
184,28,126632,6,0,B|118:25|118:25|56:60,1,125.999996154785,2|6,3:0|3:0,0:0:0:0:
244,88,127138,2,0,P|264:56|268:24,1,62.9999980773926,2|0,0:0|3:0,0:0:0:0:
156,112,127475,2,0,P|173:145|199:164,1,62.9999980773926,0|0,0:0|3:0,0:0:0:0:
184,28,127812,1,8,0:0:0:0:
360,132,128149,6,0,L|452:124,1,80.9999975280763,6|0,3:2|0:0,0:0:0:0:
308,216,128486,2,0,L|400:224,1,80.9999975280763,10|0,0:0|0:0,0:0:0:0:
238,40,128823,2,0,L|330:32,1,80.9999975280763,2|0,3:0|3:0,0:0:0:0:
186,124,129160,2,0,L|278:132,1,80.9999975280763,10|0,0:0|0:0,0:0:0:0:
134,223,129497,6,0,L|53:215,1,80.9999975280763,2|0,3:0|3:0,0:0:0:0:
186,124,129834,2,0,L|105:131,1,80.9999975280763,10|0,0:0|0:0,0:0:0:0:
256,315,130171,2,0,L|175:307,1,80.9999975280763,2|0,3:0|3:0,0:0:0:0:
308,216,130508,2,0,L|227:223,1,80.9999975280763,10|0,0:0|0:0,0:0:0:0:
372,304,130845,6,0,P|416:240|400:152,1,161.999995056153,2|8,3:0|0:0,0:0:0:0:
372,16,131351,1,2,0:0:0:0:
372,16,131520,2,0,P|416:80|400:168,1,161.999995056153,2|10,3:0|0:0,0:0:0:0:
248,80,132025,1,2,0:0:0:0:
248,80,132194,6,0,P|298:88|332:122,1,80.9999975280763,2|0,3:0|3:0,0:0:0:0:
252,176,132531,2,0,P|201:167|167:133,1,80.9999975280763,8|2,0:0|0:0,0:0:0:0:
321,105,132868,1,2,3:0:0:0:
321,105,133036,1,2,3:0:0:0:
252,176,133205,1,10,0:0:0:0:
368,244,133374,1,2,0:0:0:0:
192,328,133542,6,0,L|84:300,1,80.9999975280763,14|0,3:2|0:0,0:0:0:0:
253,270,133879,1,8,0:0:0:0:
128,208,134048,1,0,3:0:0:0:
88,218,134132,1,0,3:0:0:0:
49,228,134216,1,8,0:0:0:0:
253,270,134385,5,0,3:0:0:0:
204,104,134553,1,8,0:0:0:0:
370,55,134722,1,0,3:0:0:0:
419,221,134890,6,0,L|444:304,1,67.5,10|0,0:0|0:0,0:0:0:0:
384,340,135228,6,0,B|366:325|360:299|360:299|326:302|326:302|324:281|302:267|302:267|277:269|264:286|264:286|237:266|237:266|222:287|196:289,1,252,14|0,0:0|0:0,0:0:0:0:
128,332,135902,6,0,P|115:294|121:261,1,67.5,8|0,3:0|0:0,0:0:0:0:
180,216,136239,6,0,B|204:176|192:120|192:120|160:32,2,188.999994232178,6|10|0,3:2|0:0|3:0,0:0:0:0:
96,156,137081,1,2,3:0:0:0:
264,64,137250,2,0,L|368:72,1,94.499997116089,10|2,0:0|0:0,0:0:0:0:
324,248,137587,5,2,3:0:0:0:
324,248,137755,2,0,P|300:204|300:160,1,94.499997116089,0|10,3:0|0:0,0:0:0:0:
483,188,138092,2,0,L|351:176,1,94.499997116089,2|0,3:0|0:0,0:0:0:0:
229,256,138430,2,0,L|323:247,1,94.499997116089,2|8,3:0|0:0,0:0:0:0:
400,312,138767,1,2,0:0:0:0:
389,180,138935,6,0,B|384:128|384:128|380:60|296:56|288:112,1,188.999994232178,2|8,3:0|0:0,0:0:0:0:
389,180,139441,2,0,B|394:232|394:232|398:300|482:304|490:248,1,188.999994232178,2|2,0:0|3:0,0:0:0:0:
300,200,139946,1,10,0:0:0:0:
476,164,140115,1,2,0:0:0:0:
314,291,140283,6,0,L|214:283,1,94.499997116089,2|0,3:0|3:0,0:0:0:0:
35,267,140621,1,10,0:0:0:0:
35,267,140789,2,0,L|135:259,1,94.499997116089,2|0,3:0|0:0,0:0:0:0:
299,200,141126,2,0,L|199:192,1,94.499997116089,2|8,3:0|0:0,0:0:0:0:
314,291,141463,1,2,0:0:0:0:
285,105,141632,6,0,B|189:96|189:96|170:106|170:106|97:98,1,188.999994232178,6|8,3:2|0:0,0:0:0:0:
232,0,142137,2,0,B|282:5|282:5|384:9|385:122,1,188.999994232178,2|2,0:0|3:0,0:0:0:0:
285,105,142643,1,10,0:0:0:0:
459,121,142812,1,2,0:0:0:0:
285,105,142980,6,0,L|301:217,1,94.499997116089,2|0,3:0|3:0,0:0:0:0:
426,347,143317,1,10,0:0:0:0:
426,347,143486,2,0,L|442:235,1,94.499997116089,2|0,3:0|0:0,0:0:0:0:
298,198,143823,1,2,3:0:0:0:
439,253,143991,1,8,0:0:0:0:
298,198,144160,1,0,0:0:0:0:
189,337,144328,6,0,B|130:312|127:239|127:239|143:155,1,188.999994232178,2|8,3:0|0:0,0:0:0:0:
220,252,144834,1,0,0:0:0:0:
37,212,145003,2,0,L|61:100,1,94.499997116089,2|0,3:0|3:0,0:0:0:0:
239,159,145340,2,0,L|219:251,1,94.499997116089,8|0,0:0|0:0,0:0:0:0:
160,85,145677,5,2,3:0:0:0:
160,85,145845,1,0,3:0:0:0:
239,159,146014,2,0,P|283:168|332:159,1,94.499997116089,8|0,0:0|3:0,0:0:0:0:
160,85,146351,2,0,P|115:82|67:98,1,94.499997116089,2|0,0:0|3:0,0:0:0:0:
218,251,146688,2,0,P|287:264|356:252,1,141.749995674133,8|0,0:0|0:0,0:0:0:0:
416,192,147025,6,0,B|435:170|432:129|432:129|405:81|405:81|371:59|342:64,1,188.999994232178,6|8,3:2|0:0,0:0:0:0:
331,159,147531,1,2,0:0:0:0:
496,68,147699,1,0,3:0:0:0:
496,68,147868,1,2,3:0:0:0:
496,248,148036,2,0,P|460:280|408:292,1,94.499997116089,10|2,0:0|0:0,0:0:0:0:
264,184,148373,6,0,P|309:196|343:227,1,94.499997116089,2|0,3:0|3:0,0:0:0:0:
264,276,148710,1,10,0:0:0:0:
260,92,148879,2,0,B|214:92|180:136|180:136|129:115|89:137,1,188.999994232178,2|2,3:0|3:0,0:0:0:0:
124,312,149385,2,0,L|136:200,1,94.499997116089,8|2,0:0|0:0,0:0:0:0:
291,242,149722,6,0,B|301:281|301:281|260:316|260:316|213:287|213:287|219:247,1,188.999994232178,2|8,3:0|0:0,0:0:0:0:
428,188,150227,2,0,B|454:219|454:219|430:268|430:268|376:261|376:261|365:222,1,188.999994232178,2|2,0:0|3:0,0:0:0:0:
324,56,150733,1,10,0:0:0:0:
365,222,150901,1,2,0:0:0:0:
204,172,151070,6,0,L|108:188,1,94.499997116089,2|0,3:0|3:0,0:0:0:0:
12,204,151407,1,10,0:0:0:0:
136,268,151576,2,0,B|236:252|236:252|296:264|320:320,1,188.999994232178,2|2,3:0|3:0,0:0:0:0:
228,352,152081,1,8,0:0:0:0:
400,320,152250,1,2,0:0:0:0:
208,356,152418,6,0,L|236:152,1,188.999994232178,6|8,3:2|0:0,0:0:0:0:
252,20,152924,1,2,0:0:0:0:
336,104,153092,1,0,3:0:0:0:
336,104,153261,1,2,3:0:0:0:
152,80,153430,2,0,L|139:173,1,94.499997116089,10|2,0:0|0:0,0:0:0:0:
252,20,153767,5,2,3:0:0:0:
252,20,153935,1,2,3:0:0:0:
152,80,154104,1,8,0:0:0:0:
336,104,154272,2,0,B|429:114|429:114|450:91|450:91|514:97,1,188.999994232178,2|2,0:0|3:0,0:0:0:0:
384,28,154778,1,10,0:0:0:0:
494,179,154946,1,2,0:0:0:0:
288,180,155115,6,0,L|95:163,1,188.999994232178,2|10,3:0|0:0,0:0:0:0:
336,104,155621,1,2,0:0:0:0:
240,256,155789,1,0,3:0:0:0:
240,256,155958,1,0,3:0:0:0:
183,86,156126,2,0,L|86:77,1,94.499997116089,10|0,0:0|3:0,0:0:0:0:
80,249,156463,6,0,B|122:291|122:291|99:162,1,188.999994232178,10|2,0:0|3:0,0:0:0:0:
205,170,156969,2,0,L|220:266,1,94.499997116089,10|0,0:0|3:0,0:0:0:0:
116,72,157306,2,0,L|100:165,1,94.499997116089,10|0,0:0|3:0,0:0:0:0:
220,263,157643,6,0,L|234:351,1,90,6|0,3:2|3:0,0:0:0:0:
100,164,158149,6,0,B|114:73|114:73|160:102|160:102|203:131|263:100,1,233.999989288331,14|0,0:0|3:0,0:0:0:0:
210,24,158654,1,2,3:0:0:0:
275,196,158823,2,0,P|318:163|335:118,1,94.499997116089,10|2,0:0|0:0,0:0:0:0:
210,24,159160,6,0,P|218:76|249:113,1,94.499997116089,2|0,3:0|3:0,0:0:0:0:
395,36,159497,1,10,0:0:0:0:
395,36,159665,2,0,L|291:39,1,94.499997116089,2|0,3:0|0:0,0:0:0:0:
148,106,160003,2,0,L|242:108,1,94.499997116089,2|8,3:0|0:0,0:0:0:0:
83,40,160340,1,2,0:0:0:0:
199,186,160508,6,0,B|293:187|293:187|308:238|363:258,1,188.999994232178,2|8,3:0|0:0,0:0:0:0:
483,160,161014,2,0,B|389:159|389:159|374:108|319:88,1,188.999994232178,2|2,0:0|3:0,0:0:0:0:
354,254,161519,1,10,0:0:0:0:
327,91,161688,1,2,0:0:0:0:
199,186,161856,6,0,L|105:184,1,94.499997116089,2|0,3:0|3:0,0:0:0:0:
192,279,162194,1,10,0:0:0:0:
192,279,162362,2,0,P|245:264|276:234,1,94.499997116089,2|0,3:0|0:0,0:0:0:0:
185,371,162699,2,0,P|139:358|106:320,1,94.499997116089,2|8,3:0|0:0,0:0:0:0:
269,343,163036,1,2,0:0:0:0:
110,227,163205,6,0,B|94:180|110:134|110:134|125:88|110:42,1,188.999994232178,6|8,3:2|0:0,0:0:0:0:
200,180,163710,2,0,B|235:197|280:175|280:175|298:184|298:184|343:162|379:180,1,188.999994232178,2|2,0:0|3:0,0:0:0:0:
504,288,164216,1,10,0:0:0:0:
348,344,164385,1,2,0:0:0:0:
380,180,164553,6,0,L|400:80,1,94.499997116089,2|0,3:0|3:0,0:0:0:0:
216,8,164890,1,10,0:0:0:0:
216,8,165059,2,0,L|236:108,1,94.499997116089,2|0,3:0|0:0,0:0:0:0:
380,180,165396,1,2,3:0:0:0:
234,100,165564,1,8,0:0:0:0:
380,180,165733,1,0,0:0:0:0:
160,256,165901,6,0,B|136:304|136:304|60:344|-8:288,1,188.999994232178,2|8,3:0|0:0,0:0:0:0:
196,180,166407,1,0,0:0:0:0:
248,276,166576,2,0,L|207:362,1,94.499997116089,2|0,3:0|3:0,0:0:0:0:
76,232,166913,2,0,L|117:146,1,94.499997116089,8|0,0:0|3:2,0:0:0:0:
314,133,167250,5,10,0:0:0:0:
116,146,167418,1,0,3:0:0:0:
314,133,167587,1,10,0:0:0:0:
116,146,167755,1,0,3:0:0:0:
156,57,167924,5,6,3:0:0:0:
268,227,168092,1,8,0:0:0:0:
268,227,168177,1,8,0:0:0:0:
268,227,168261,1,10,0:0:0:0:
314,133,168430,1,4,3:0:0:0:
116,146,168598,6,0,B|76:232|76:232|56:284|88:328,1,188.999994232178,6|8,3:2|0:0,0:0:0:0:
340,304,169104,2,0,B|254:264|254:264|202:244|158:276,1,188.999994232178,2|2,0:0|3:0,0:0:0:0:
292,184,169609,2,0,L|396:228,1,94.499997116089,10|2,0:0|0:0,0:0:0:0:
300,384,169946,6,0,L|212:347,1,94.499997116089,2|0,3:0|3:0,0:0:0:0:
340,304,170283,1,10,0:0:0:0:
464,260,170452,2,0,B|378:220|378:220|326:200|282:232,1,188.999994232178,2|2,3:0|3:0,0:0:0:0:
236,144,170958,2,0,P|275:122|330:115,1,94.499997116089,8|2,0:0|0:0,0:0:0:0:
191,66,171295,6,0,P|113:84|18:22,1,188.999994232178,2|8,3:0|0:0,0:0:0:0:
236,144,171800,1,0,0:0:0:0:
281,222,171969,2,0,P|359:204|454:266,1,188.999994232178,2|8,3:0|0:0,0:0:0:0:
236,144,172474,1,0,0:0:0:0:
165,234,172643,5,2,3:0:0:0:
165,234,172812,1,0,3:0:0:0:
321,305,172980,1,8,0:0:0:0:
163,359,173149,2,0,P|82:329|34:230,1,188.999994232178,2|0,3:0|3:0,0:0:0:0:
168,148,173654,1,10,0:0:0:0:
34,54,173823,1,2,0:0:0:0:
168,148,173991,6,0,P|217:81|330:71,1,188.999994232178,6|10,3:2|0:0,0:0:0:0:
379,219,174497,1,2,3:0:0:0:
379,219,174581,1,0,3:0:0:0:
379,219,174665,1,8,0:0:0:0:
316,66,174834,1,0,3:0:0:0:
277,183,175003,1,8,0:0:0:0:
421,102,175171,1,0,3:0:0:0:
277,183,175340,6,0,P|272:228|292:280,1,94.499997116089,14|0,0:0|3:0,0:0:0:0:
464,256,175677,1,2,3:0:0:0:
464,256,175845,2,0,P|427:229|372:220,1,94.499997116089,10|0,0:0|3:0,0:0:0:0:
307,381,176182,2,0,P|348:362|383:319,1,94.499997116089,10|0,0:0|3:0,0:0:0:0:
277,183,176519,6,0,B|236:200|236:200|208:236,1,90,6|0,3:2|3:0,0:0:0:0:
379,219,177025,6,0,P|379:152|292:76,1,180,14|2,0:0|3:0,0:0:0:0:
277,183,177531,1,2,3:0:0:0:
301,78,177699,1,8,0:0:0:0:
379,219,177868,6,0,P|356:258|317:287,1,90,2|0,3:0|0:0,0:0:0:0:
165,172,178205,2,0,P|171:216|194:255,1,90,2|8,3:0|0:0,0:0:0:0:
277,183,178542,1,2,0:0:0:0:
241,339,178710,1,0,3:0:0:0:
241,339,178879,1,2,3:0:0:0:
277,183,179047,2,0,L|306:52,1,135,8|0,0:0|0:0,0:0:0:0:
374,94,179385,6,0,P|438:103|499:54,1,125.999996154785,6|0,3:2|0:0,0:0:0:0:
306,51,179890,2,0,P|242:42|181:91,1,125.999996154785,0|0,3:0|0:0,0:0:0:0:
264,125,180396,1,8,3:0:0:0:
184,157,180564,1,2,3:0:0:0:
184,157,180733,1,4,3:0:0:0:
252,210,180901,5,6,3:0:0:0:
172,242,181238,1,2,3:0:0:0:
240,295,181576,1,2,0:0:0:0:
113,339,181744,6,0,P|66:349|22:330,1,94.499997116089,8|0,0:0|0:0,0:0:0:0:
74,270,182081,6,0,L|90:129,1,125.999996154785,2|0,3:0|0:0,0:0:0:0:
159,39,182587,2,0,L|175:180,1,125.999996154785,0|2,3:0|0:0,0:0:0:0:
250,125,183092,1,10,3:0:0:0:
244,208,183261,1,2,3:0:0:0:
244,208,183430,5,4,3:0:0:0:
321,169,183598,1,6,3:0:0:0:
315,252,183767,2,0,L|310:299,2,31.4999990386963,2|0|2,0:0|0:0|3:0,0:0:0:0:
392,213,184104,1,2,0:0:0:0:
315,252,184272,1,2,3:0:0:0:
463,257,184441,6,0,P|475:216|455:160,1,94.499997116089,8|0,3:2|0:0,0:0:0:0:
388,132,184778,6,0,B|372:100|372:100|356:76|359:39,1,90,6|2,3:2|0:0,0:0:0:0:
308,168,185115,2,0,B|292:136|292:136|282:108|251:89,1,90,10|2,0:0|0:0,0:0:0:0:
444,56,185452,1,2,3:0:0:0:
444,56,185621,1,2,3:0:0:0:
280,16,185789,2,0,P|232:16|188:48,1,90,8|2,0:0|0:0,0:0:0:0:
258,94,186126,5,0,3:0:0:0:
119,34,186295,1,2,3:0:0:0:
60,173,186463,1,10,0:0:0:0:
198,232,186632,1,2,0:0:0:0:
191,59,186800,1,0,3:0:0:0:
191,59,186969,1,0,3:0:0:0:
130,203,187137,2,0,P|126:249|155:292,1,90,8|2,0:0|0:0,0:0:0:0:
224,304,187390,1,0,0:0:0:0:
224,304,187474,6,0,P|263:283|308:284,1,90,2|2,3:0|0:0,0:0:0:0:
454,368,187812,2,0,P|409:369|367:346,1,90,10|2,0:0|0:0,0:0:0:0:
428,284,188149,1,2,3:0:0:0:
428,284,188317,1,2,3:0:0:0:
284,372,188486,1,10,0:0:0:0:
352,200,188654,2,0,L|336:120,1,45,2|2,0:0|0:0,0:0:0:0:
368,84,188823,6,0,B|338:73|309:84|309:84|280:54|280:54|251:84|251:84|222:73|193:84,1,202.500007724762,2|0,3:2|0:0,0:0:0:0:
220,156,189160,5,10,0:0:0:0:
197,268,189328,1,2,0:0:0:0:
197,268,189413,1,2,0:0:0:0:
197,268,189497,1,2,3:0:0:0:
176,380,189665,1,2,3:0:0:0:
72,292,189834,2,0,L|88:204,1,90,8|0,0:0|0:0,0:0:0:0:
112,68,190171,5,14,3:2:0:0:
112,68,190255,1,0,0:0:0:0:
112,68,190340,1,0,0:0:0:0:
220,156,190508,1,8,0:0:0:0:
243,20,190677,1,2,3:0:0:0:
351,108,190845,5,10,0:0:0:0:
351,108,190930,1,0,0:0:0:0:
351,108,191014,1,2,3:0:0:0:
459,196,191182,1,10,0:0:0:0:
351,108,191351,1,2,3:0:0:0:
220,156,191519,6,0,P|208:127|216:73,1,67.5,10|0,0:0|0:0,0:0:0:0:
248,232,191856,6,0,P|244:312|104:268,1,252,14|0,0:0|0:0,0:0:0:0:
180,268,192531,5,4,3:0:0:0:
36,324,192868,1,4,0:0:0:0:
36,324,203654,5,6,0:2:0:0:
31,242,203991,1,2,0:0:0:0:
55,164,204665,1,2,0:0:0:0:
105,100,205339,1,2,0:0:0:0:
175,58,206014,1,2,0:0:0:0:
256,40,206182,1,2,3:0:0:0:
256,40,206351,1,0,3:0:0:0:
337,58,206688,5,2,0:0:0:0:
407,100,207362,1,2,0:0:0:0:
457,164,208036,1,2,0:0:0:0:
481,242,208710,1,2,0:0:0:0:
476,324,208879,1,2,3:0:0:0:
476,324,209047,1,0,3:0:0:0:
332,252,209384,6,0,P|256:204|180:252,1,188.999994232178,2|2,0:0|0:0,0:0:0:0:
256,296,210059,1,2,0:0:0:0:
180,336,210227,1,2,0:0:0:0:
256,380,210396,5,0,3:0:0:0:
332,336,210733,1,2,0:0:0:0:
332,336,210901,1,0,0:0:0:0:
180,336,211238,1,2,0:0:0:0:
256,296,211407,1,2,0:0:0:0:
332,252,211575,1,2,3:0:0:0:
408,208,211744,1,2,3:0:0:0:
256,96,212081,5,2,0:0:0:0:
180,140,212250,1,2,0:0:0:0:
332,52,212755,1,2,0:0:0:0:
372,224,213092,5,10,0:0:0:0:
352,140,213260,1,0,3:0:0:0:
352,140,213429,1,2,3:0:0:0:
444,296,213598,2,0,P|399:323|348:324,1,94.499997116089,10|0,0:0|3:0,0:0:0:0:
277,262,213935,2,0,P|257:305|260:352,1,94.499997116089,10|0,0:0|3:0,0:0:0:0:
365,181,214272,6,0,P|366:136|345:98,1,90,6|0,3:2|3:0,0:0:0:0:
336,8,214778,6,0,B|269:20|250:78|250:78|191:65|147:116,1,233.999989288331,14|0,0:0|3:0,0:0:0:0:
345,98,215283,5,2,3:0:0:0:
224,168,215452,2,0,P|222:214|237:258,1,94.499997116089,10|2,0:0|0:0,0:0:0:0:
412,188,215789,2,0,L|315:202,1,94.499997116089,2|0,3:0|3:0,0:0:0:0:
508,220,216126,1,10,0:0:0:0:
508,220,216294,2,0,P|509:173|494:129,1,94.499997116089,2|0,3:0|0:0,0:0:0:0:
432,284,216632,2,0,P|430:330|445:374,1,94.499997116089,2|8,3:0|0:0,0:0:0:0:
508,220,216969,1,2,0:0:0:0:
344,332,217137,6,0,B|276:364|276:364|216:368|172:312,1,188.999994232178,2|8,3:0|0:0,0:0:0:0:
59,116,217643,2,0,B|105:151|105:151|89:280,1,188.999994232178,2|2,0:0|3:0,0:0:0:0:
14,192,218148,1,10,0:0:0:0:
90,281,218317,1,2,0:0:0:0:
194,108,218485,6,0,L|114:52,1,94.499997116089,2|0,3:0|3:0,0:0:0:0:
190,200,218823,1,10,0:0:0:0:
190,200,218991,2,0,L|181:297,1,94.499997116089,2|0,3:0|0:0,0:0:0:0:
276,160,219328,2,0,L|364:118,1,94.499997116089,2|8,3:0|0:0,0:0:0:0:
194,108,219665,1,2,0:0:0:0:
344,228,219834,6,0,B|448:176|448:176|416:256,1,188.999994232178,6|8,3:2|0:0,0:0:0:0:
368,320,220339,2,0,B|296:332|256:276|256:276|232:296|200:296,1,188.999994232178,2|2,0:0|3:0,0:0:0:0:
192,200,220845,1,10,0:0:0:0:
128,356,221014,1,2,0:0:0:0:
192,200,221182,6,0,L|185:101,1,94.499997116089,2|0,3:0|3:0,0:0:0:0:
350,133,221519,1,10,0:0:0:0:
350,133,221688,2,0,L|343:227,1,94.499997116089,2|0,3:0|0:0,0:0:0:0:
192,200,222025,1,2,3:0:0:0:
350,133,222193,1,8,0:0:0:0:
192,200,222362,1,0,0:0:0:0:
332,320,222530,6,0,P|416:340|488:276,1,188.999994232178,2|8,3:0|0:0,0:0:0:0:
496,148,223036,1,0,0:0:0:0:
396,248,223205,2,0,L|405:154,1,94.499997116089,2|0,3:0|3:0,0:0:0:0:
299,233,223542,2,0,P|305:280|331:319,1,94.499997116089,8|0,0:0|3:2,0:0:0:0:
311,131,223879,5,10,0:0:0:0:
128,209,224047,1,0,3:0:0:0:
311,131,224216,1,10,0:0:0:0:
128,209,224384,1,0,3:0:0:0:
136,113,224553,5,6,3:0:0:0:
299,233,224721,1,8,0:0:0:0:
299,233,224806,1,8,0:0:0:0:
299,233,224890,1,10,0:0:0:0:
311,131,225059,1,4,3:0:0:0:
128,209,225227,6,0,B|148:16,1,188.999994232178,6|8,3:2|0:0,0:0:0:0:
28,140,225733,2,0,B|47:327,1,188.999994232178,2|2,0:0|3:0,0:0:0:0:
224,184,226238,2,0,B|233:90,1,94.499997116089,10|2,0:0|0:0,0:0:0:0:
208,284,226575,6,0,P|260:276|300:248,1,94.499997116089,2|0,3:0|3:0,0:0:0:0:
224,184,226912,1,10,0:0:0:0:
372,317,227081,2,0,P|412:249|516:257,1,188.999994232178,2|2,3:0|3:0,0:0:0:0:
378,162,227587,2,0,P|395:118|432:89,1,94.499997116089,8|2,0:0|0:0,0:0:0:0:
463,329,227924,6,0,L|262:307,1,188.999994232178,2|8,3:0|0:0,0:0:0:0:
512,254,228429,1,0,0:0:0:0:
478,171,228598,2,0,L|277:149,1,188.999994232178,2|8,3:0|0:0,0:0:0:0:
512,254,229103,1,0,0:0:0:0:
463,329,229272,5,2,3:0:0:0:
463,329,229441,1,0,3:0:0:0:
478,171,229609,1,8,0:0:0:0:
318,233,229778,2,0,B|245:225|245:225|208:204|208:204|132:197,1,188.999994232178,2|0,3:0|3:0,0:0:0:0:
289,149,230283,1,10,0:0:0:0:
165,287,230452,1,2,0:0:0:0:
93,117,230620,6,0,B|199:124|199:124|215:82|261:61,1,188.999994232178,6|10,3:2|0:0,0:0:0:0:
318,233,231126,1,2,3:0:0:0:
318,233,231210,1,0,3:0:0:0:
318,233,231294,1,8,0:0:0:0:
452,148,231463,1,0,3:0:0:0:
428,260,231632,1,8,0:0:0:0:
343,126,231801,1,0,3:0:0:0:
428,260,231969,6,0,L|410:361,1,94.499997116089,14|0,0:0|3:0,0:0:0:0:
318,233,232306,1,2,3:0:0:0:
318,233,232474,2,0,L|301:139,1,94.499997116089,10|0,0:0|3:0,0:0:0:0:
197,228,232811,2,0,L|181:322,1,94.499997116089,10|0,0:0|3:0,0:0:0:0:
84,184,233148,6,0,L|67:95,1,90,6|0,3:2|3:0,0:0:0:0:
197,228,233654,6,0,P|272:221|326:120,1,180,14|0,0:0|3:0,0:0:0:0:
207,32,234159,1,2,3:0:0:0:
228,133,234328,1,10,0:0:0:0:
207,32,234496,1,2,0:0:0:0:
346,46,234665,6,0,L|456:26,1,90,2|0,3:0|3:0,0:0:0:0:
423,217,235002,1,10,0:0:0:0:
423,217,235170,2,0,L|429:128,1,90,2|0,3:0|0:0,0:0:0:0:
288,275,235508,2,0,L|293:364,1,90,2|8,3:0|0:0,0:0:0:0:
416,300,235845,1,2,0:0:0:0:
282,187,236013,6,0,P|182:205|104:127,1,180,2|8,3:0|0:0,0:0:0:0:
217,87,236519,1,2,0:0:0:0:
40,120,236687,2,0,P|29:170|40:208,1,90,0|2,3:0|3:0,0:0:0:0:
120,64,237024,1,10,0:0:0:0:
120,264,237193,1,2,0:0:0:0:
282,187,237361,6,0,P|324:184|372:208,1,90,2|0,3:0|3:0,0:0:0:0:
284,356,237699,1,10,0:0:0:0:
284,356,237867,2,0,L|310:270,1,90,2|0,3:0|0:0,0:0:0:0:
252,104,238204,2,0,L|220:4,1,90,2|8,3:0|0:0,0:0:0:0:
282,187,238541,1,2,0:0:0:0:
68,216,238710,6,0,P|120:265|224:247,1,180,6|8,3:2|0:0,0:0:0:0:
160,172,239215,1,2,0:0:0:0:
288,328,239384,2,0,P|336:326|372:302,1,90,0|2,3:0|3:0,0:0:0:0:
304,232,239721,1,10,0:0:0:0:
196,352,239890,1,2,0:0:0:0:
304,232,240058,6,0,L|289:129,1,90,2|0,3:0|3:0,0:0:0:0:
370,303,240395,1,10,0:0:0:0:
416,216,240564,2,0,L|401:113,1,90,2|0,3:0|0:0,0:0:0:0:
370,303,240901,1,2,3:0:0:0:
220,249,241069,1,8,0:0:0:0:
370,303,241238,1,2,0:0:0:0:
504,208,241406,6,0,B|488:108|488:108|480:64|436:48,1,180,2|8,3:0|0:0,0:0:0:0:
416,216,241912,1,0,0:0:0:0:
416,216,242081,2,0,L|401:113,1,90,2|0,3:0|3:0,0:0:0:0:
316,144,242418,2,0,L|328:233,1,90,8|0,0:0|3:0,0:0:0:0:
228,193,242755,5,10,0:0:0:0:
396,294,242923,1,0,3:0:0:0:
228,193,243092,1,10,0:0:0:0:
396,294,243260,1,0,3:0:0:0:
313,345,243429,5,10,3:0:0:0:
316,144,243597,1,8,0:0:0:0:
316,144,243682,1,8,0:0:0:0:
316,144,243766,1,10,0:0:0:0:
228,193,243934,1,8,0:0:0:0:
396,294,244103,6,0,B|404:108,1,180,6|8,3:2|0:0,0:0:0:0:
408,12,244609,1,2,0:0:0:0:
236,60,244777,2,0,P|280:72|329:64,1,90,0|2,3:0|3:0,0:0:0:0:
408,12,245114,1,10,0:0:0:0:
496,128,245283,1,2,0:0:0:0:
324,192,245451,6,0,L|208:180,1,90,2|0,3:0|3:0,0:0:0:0:
396,294,245788,1,10,0:0:0:0:
396,294,245957,2,0,P|440:296|496:264,1,90,2|0,3:0|0:0,0:0:0:0:
280,332,246294,2,0,P|239:313|194:315,1,90,2|8,3:0|0:0,0:0:0:0:
76,384,246631,1,0,0:0:0:0:
60,240,246800,6,0,B|52:164|52:164|48:96|112:60,1,180,2|8,3:0|0:0,0:0:0:0:
284,88,247305,1,0,0:0:0:0:
232,164,247474,2,0,P|192:172|143:154,1,90,2|0,3:0|3:0,0:0:0:0:
284,88,247811,1,8,0:0:0:0:
256,248,247979,1,0,0:0:0:0:
368,116,248148,6,0,P|372:72|348:24,1,90,2|0,3:0|3:0,0:0:0:0:
312,184,248485,1,8,0:0:0:0:
456,124,248654,2,0,P|463:212|427:294,1,180,2|0,3:0|3:0,0:0:0:0:
312,184,249159,1,10,0:0:0:0:
426,294,249328,1,2,0:0:0:0:
256,368,249496,6,0,B|216:360|192:336|192:336|76:348,1,180,6|10,3:2|0:0,0:0:0:0:
284,248,250002,1,2,3:0:0:0:
284,248,250086,1,0,3:0:0:0:
284,248,250170,1,8,0:0:0:0:
376,332,250339,1,0,3:0:0:0:
284,248,250508,1,8,0:0:0:0:
256,368,250676,1,0,3:0:0:0:
404,212,250845,6,0,L|384:104,1,90,14|0,0:0|3:0,0:0:0:0:
256,16,251182,1,2,3:0:0:0:
256,16,251350,2,0,L|256:108,1,90,10|0,0:0|3:0,0:0:0:0:
108,212,251687,2,0,L|128:104,1,90,10|0,0:0|3:0,0:0:0:0:
256,273,252024,5,6,3:2:0:0:
256,192,252109,12,0,253036,0:0:0:0:
152,152,253204,5,14,0:0:0:0:
360,232,253372,1,14,0:0:0:0:
