osu file format v14

[General]
AudioFilename: audio.mp3
AudioLeadIn: 0
PreviewTime: 56532
Countdown: 0
SampleSet: Soft
StackLeniency: 0.7
Mode: 0
LetterboxInBreaks: 0
WidescreenStoryboard: 1

[Editor]
Bookmarks: 15663,29576,43489,57402,71315,85228,99141,113054,126967,142619,156314,173923,187836,208705,222618,236966
DistanceSpacing: 0.8
BeatDivisor: 4
GridSize: 4
TimelineZoom: 1.5

[Metadata]
Title:Mela!
TitleUnicode:Mela!
Artist:Todo Kohaku
ArtistUnicode:東堂コハク
Creator:Hinsvar
Version:Insane
Source:
Tags:Toudou Virtual YouTuber VTuber cover 緑黄色社会 Ryokuoushoku Shakai リョクシャカ Ryokushaka にじさんじ Nijisanji 2434 いちから Ichikara Japanese Pop Jazz J-Pop JPop こはたん Kohatan 世怜音女学院 Sereine Jogakuin セレ女 Serejo Selene Girls School
BeatmapID:2645722
BeatmapSetID:1269084

[Difficulty]
HPDrainRate:5
CircleSize:2
OverallDifficulty:7.8
ApproachRate:8.3
SliderMultiplier:1.84
SliderTickRate:1

[Events]
//Background and Video events
0,0,"kohatan.jpg",0,0
Video,0,"mela.mp4"
//Break Periods
2,85428,91480
2,99341,108654
2,142819,154958
2,174122,180175
//Storyboard Layer 0 (Background)
//Storyboard Layer 1 (Fail)
//Storyboard Layer 2 (Pass)
//Storyboard Layer 3 (Foreground)
//Storyboard Layer 4 (Overlay)
//Storyboard Sound Samples

[TimingPoints]
1750,434.782608695652,4,2,1,60,1,0
8706,-166.666666666667,4,2,1,60,0,0
10228,-125,4,2,1,60,0,0
12184,-125,4,2,1,50,0,0
12619,-125,4,2,1,55,0,0
13054,-125,4,2,1,60,0,0
13489,-125,4,2,1,65,0,0
13706,-166.666666666667,4,2,1,50,0,0
14467,-100,4,2,1,55,0,0
14793,-100,4,2,1,60,0,0
15228,-83.3333333333333,4,2,1,70,0,0
15554,-55.5555555555556,4,2,1,5,0,0
15663,-125,4,2,1,60,0,0
16097,-71.4285714285714,4,2,1,75,0,0
16423,-71.4285714285714,4,2,1,5,0,0
16532,-100,4,2,1,75,0,0
17402,-125,4,2,1,75,0,0
18271,-100,4,2,1,75,0,0
20880,-125,4,2,1,75,0,0
21532,-100,4,2,1,75,0,0
22619,-125,4,2,1,50,0,0
23054,-71.4285714285714,4,2,1,75,0,0
23380,-71.4285714285714,4,2,1,5,0,0
23489,-100,4,2,1,75,0,0
24358,-125,4,2,1,75,0,0
25228,-100,4,2,1,75,0,0
27619,-100,4,2,1,75,0,0
29576,-125,4,2,1,50,0,0
41532,-83.3333333333333,4,2,1,60,0,0
41858,-83.3333333333333,4,2,1,5,0,0
41967,-100,4,2,1,60,0,0
42184,-100,4,2,1,60,0,0
42510,-100,4,2,1,5,0,0
42619,-125,4,2,1,60,0,0
43489,-83.3333333333333,4,2,2,65,0,0
44358,-100,4,2,2,65,0,0
46967,-83.3333333333333,4,2,2,65,0,0
47836,-100,4,2,2,65,0,0
50445,-83.3333333333333,4,2,2,65,0,0
50880,-100,4,2,2,65,0,0
53054,-100,4,2,1,65,0,0
53923,-100,4,2,1,60,0,0
54358,-100,4,2,1,65,0,0
54793,-100,4,2,1,70,0,0
55228,-100,4,2,1,75,0,0
55663,-83.3333333333333,4,2,1,80,0,0
56315,-62.5,4,2,1,80,0,0
57402,-125,4,2,1,60,0,0
57728,-125,4,2,1,5,0,0
57836,-62.5,4,2,1,80,0,1
58163,-62.5,4,2,1,5,0,1
58271,-83.3333333333333,4,2,1,80,0,1
58489,-83.3333333333333,4,2,1,5,0,1
58597,-83.3333333333333,4,2,1,80,0,1
64358,-125,4,2,1,60,0,1
64684,-125,4,2,1,5,0,1
64793,-71.4285714285714,4,2,1,80,0,1
65119,-71.4285714285714,4,2,1,5,0,1
65228,-83.3333333333333,4,2,1,80,0,1
65445,-83.3333333333333,4,2,1,5,0,1
65554,-83.3333333333333,4,2,1,80,0,1
70228,-83.3333333333333,4,2,1,70,0,1
71315,-125,4,2,1,60,0,0
71641,-125,4,2,1,5,0,0
71749,-71.4285714285714,4,2,1,80,0,1
72076,-71.4285714285714,4,2,1,5,0,1
72184,-83.3333333333333,4,2,1,80,0,1
72402,-83.3333333333333,4,2,1,5,0,1
72510,-83.3333333333333,4,2,1,80,0,1
78271,-125,4,2,1,60,0,1
78706,-71.4285714285714,4,2,1,80,0,1
79141,-83.3333333333333,4,2,1,80,0,1
80880,-166.666666666667,4,2,1,80,0,1
81749,-125,4,2,1,60,0,1
81967,-125,4,2,1,80,0,1
82619,-83.3333333333333,4,2,1,80,0,1
85228,-100,4,2,1,70,0,0
94576,-125,4,2,1,70,0,0
95445,-83.3333333333333,4,2,1,70,0,0
95663,-100,4,2,1,70,0,0
96315,-83.3333333333333,4,2,1,70,0,0
97184,-71.4285714285714,4,2,1,75,0,0
99141,-71.4285714285714,4,2,1,60,0,0
111097,-83.3333333333333,4,2,1,60,0,0
112619,-125,4,2,1,60,0,0
113054,-83.3333333333333,4,2,2,65,0,0
113489,-100,4,2,2,65,0,0
116532,-83.3333333333333,4,2,2,65,0,0
116967,-100,4,2,2,65,0,0
120010,-83.3333333333333,4,2,2,65,0,0
120445,-100,4,2,2,65,0,0
123489,-100,4,2,1,60,0,0
124358,-100,4,2,1,65,0,0
125010,-125,4,2,1,65,0,0
125336,-125,4,2,1,5,0,0
125445,-125,4,2,1,65,0,0
126097,-100,4,2,1,65,0,0
126967,-71.4285714285714,4,2,1,70,0,0
127836,-83.3333333333333,4,2,1,70,0,0
128054,-83.3333333333333,4,2,1,5,0,0
128163,-100,4,2,1,70,0,0
128380,-100,4,2,1,5,0,0
128489,-125,4,2,1,70,0,0
128815,-125,4,2,1,5,0,0
128923,-125,4,2,1,70,0,0
129576,-100,4,2,1,70,0,0
130445,-71.4285714285714,4,2,1,70,0,0
131315,-125,4,2,1,70,0,0
131532,-125,4,2,1,5,0,0
131641,-125,4,2,1,70,0,0
133271,-83.3333333333333,4,2,1,70,0,0
133489,-71.4285714285714,4,2,1,70,0,0
134793,-83.3333333333333,4,2,1,70,0,0
136532,-166.666666666667,4,2,1,70,0,0
136967,-83.3333333333333,4,2,1,70,0,0
137402,-62.5,4,2,1,70,0,0
137836,-62.5,4,2,1,5,0,0
138054,-83.3333333333333,4,2,1,70,0,0
138489,-83.3333333333333,4,2,1,5,0,0
138706,-100,4,2,1,70,0,0
139141,-125,4,2,1,70,0,0
139576,-166.666666666667,4,2,1,70,0,0
140880,-125,4,2,1,65,0,0
141967,-125,4,2,1,60,0,0
142619,434.782608695652,4,2,1,65,1,0
156314,-125,4,2,1,65,0,0
157401,-100,4,2,1,65,0,0
160010,-125,4,2,1,65,0,0
160879,-100,4,2,1,65,0,0
163488,-125,4,2,1,65,0,0
165227,-100,4,2,1,65,0,0
166966,-83.3333333333333,4,2,1,65,0,0
170445,-83.3333333333333,4,2,1,70,0,0
172184,-166.666666666667,4,2,1,60,0,0
172619,-166.666666666667,4,2,1,5,0,0
172836,-166.666666666667,4,2,1,60,0,0
173488,-250.000000000001,4,2,1,50,0,0
173923,434.782608695652,4,2,1,40,1,0
180879,-250.000000000001,4,2,1,50,0,0
181749,-200.000000000001,4,2,1,50,0,0
182618,-166.666666666667,4,2,1,55,0,0
183488,-142.857142857143,4,2,1,55,0,0
184357,-125,4,2,1,60,0,0
185227,-111.111111111111,4,2,1,60,0,0
185879,-100,4,2,1,70,0,0
186423,-100,4,2,1,5,0,0
186531,-100,4,2,1,70,0,0
186640,-100,4,2,1,5,0,0
186749,-100,4,2,1,70,0,0
187183,-100,4,2,1,80,0,0
187292,-100,4,2,1,5,0,0
187401,-100,4,2,1,80,0,0
187836,-166.666666666667,4,2,1,60,0,0
188270,-62.5,4,2,1,80,0,1
188596,-62.5,4,2,1,5,0,1
188705,-83.3333333333333,4,2,1,80,0,1
194792,-125,4,2,1,60,0,1
195227,-71.4285714285714,4,2,1,80,0,1
195662,-83.3333333333333,4,2,1,80,0,1
197292,-83.3333333333333,4,2,1,5,0,1
197401,-83.3333333333333,4,2,1,80,0,1
198270,-83.3333333333333,4,2,1,60,0,1
198705,-83.3333333333333,4,2,1,65,0,1
199140,-83.3333333333333,4,2,1,70,0,1
199575,-83.3333333333333,4,2,1,75,0,1
199792,-71.4285714285714,4,2,1,80,0,1
200662,-125,4,2,1,80,0,1
201749,-50,4,2,1,60,0,0
203270,-166.666666666667,4,2,1,60,0,0
205227,-100,4,2,1,70,0,0
206749,-71.4285714285714,4,2,1,80,0,1
207075,-71.4285714285714,4,2,1,5,0,1
207183,-125,4,2,1,60,0,1
207836,-90.9090909090909,4,2,1,70,0,1
208270,-71.4285714285714,4,2,1,80,0,1
208596,-71.4285714285714,4,2,1,5,0,1
208705,-125,4,2,1,60,0,0
209140,-71.4285714285714,4,2,1,75,0,1
209249,-71.4285714285714,4,2,1,75,0,0
209466,-71.4285714285714,4,2,1,5,0,0
209575,-100,4,2,1,75,0,0
210444,-125,4,2,1,75,0,0
211314,-100,4,2,1,75,0,0
213923,-166.666666666667,4,2,1,75,0,0
214575,-100,4,2,1,75,0,0
215662,-125,4,2,1,50,0,0
216096,-71.4285714285714,4,2,1,75,0,0
216423,-71.4285714285714,4,2,1,5,0,0
216531,-100,4,2,1,75,0,0
217401,-125,4,2,1,75,0,0
218270,-100,4,2,1,75,0,0
219140,-83.3333333333333,4,2,1,75,0,0
220009,-100,4,2,1,75,0,0
222618,-125,4,2,1,50,0,0
223053,-71.4285714285714,4,2,1,75,0,0
223379,-71.4285714285714,4,2,1,5,0,0
223488,-100,4,2,1,75,0,0
224357,-125,4,2,1,75,0,0
225227,-100,4,2,1,75,0,0
226531,-83.3333333333333,4,2,1,75,0,0
227618,-83.3333333333333,4,2,1,75,0,0
228270,-100,4,2,1,75,0,0
229575,-100,4,2,1,60,0,0
230009,-71.4285714285714,4,2,1,75,0,0
230336,-71.4285714285714,4,2,1,5,0,0
230444,-100,4,2,1,65,0,0
230553,-100,4,2,1,5,0,0
230662,-100,4,2,1,75,0,0
230770,-100,4,2,1,5,0,0
230879,-100,4,2,1,75,0,0
233053,-83.3333333333333,4,2,1,75,0,0
233488,-100,4,2,1,75,0,0
234575,-100,4,2,1,60,0,0
234792,-71.4285714285714,4,2,1,80,0,0
235444,-125,4,2,1,80,0,0
235662,-71.4285714285714,4,2,1,80,0,0
236096,-71.4285714285714,4,2,1,85,0,0
236531,-71.4285714285714,4,2,1,5,0,0
236966,-83.3333333333333,4,2,1,75,0,0
237401,-83.3333333333333,4,2,1,5,0,0

[Colours]
Combo1 : 223,223,223
Combo2 : 209,225,68
Combo3 : 154,237,31
Combo4 : 208,163,113
Combo5 : 196,174,162
Combo6 : 127,127,127

[HitObjects]
10,196,8706,6,0,P|26:214|43:251,1,55.1999983154297,4|0,3:2|0:0,0:0:0:0:
110,337,9141,2,0,P|121:307|145:268,1,55.1999983154297,0|2,3:0|0:0,0:0:0:0:
219,182,9576,2,0,P|249:194|296:199,1,55.1999983154297,0|0,3:0|0:0,0:0:0:0:
368,44,10010,1,8,0:0:0:0:
483,232,10228,6,0,P|426:265|326:277,1,147.2,6|0,3:2|3:0,0:0:0:0:
189,122,10880,1,8,0:0:0:0:
100,193,11097,2,0,L|51:177,2,36.8,0|0|0,3:0|3:0|3:0,0:0:0:0:
139,237,11423,5,8,0:0:0:0:
142,258,11532,1,8,0:0:0:0:
145,279,11641,1,8,0:0:0:0:
148,300,11749,1,8,0:0:0:0:
151,321,11858,2,0,P|165:300|192:280,1,36.8,0|0,3:0|3:0,0:0:0:0:
422,113,12184,5,6,3:2:0:0:
449,140,12402,1,2,3:2:0:0:
476,230,12619,1,2,3:2:0:0:
391,330,12836,1,2,3:2:0:0:
252,235,13054,1,10,0:0:0:0:
72,334,13271,1,10,0:0:0:0:
0,113,13489,1,10,0:0:0:0:
143,255,13706,38,0,P|148:215|180:153,1,110.399996630859,4|8,0:0|0:0,0:0:0:0:
342,332,14358,1,0,3:0:0:0:
327,349,14467,2,0,P|323:303|301:253,1,92,2|0,3:2|0:0,0:0:0:0:
370,174,14793,6,0,P|339:166|318:146,1,46,2|0,0:0|0:0,0:0:0:0:
259,85,15010,1,0,3:0:0:0:
259,85,15119,1,0,3:0:0:0:
259,85,15228,2,0,B|132:101|132:101|163:143,1,165.599994946289,10|0,0:0|0:0,0:0:0:0:
90,222,15663,6,0,P|76:187|42:196,1,73.6,2|0,3:2|0:0,0:0:0:0:
186,342,16097,6,2,B|256:329|256:329|297:301|297:301|376:290,1,193.199994104004,14|0,0:0|0:0,0:1:0:0:
458,349,16532,37,0,3:0:0:0:
475,331,16641,2,0,B|467:304|467:304|472:276,1,46,8|10,0:0|0:0,0:0:0:0:
288,197,16967,2,0,B|315:157|315:157|315:106,1,92,10|0,0:0|0:0,0:0:0:0:
143,27,17402,1,0,3:0:0:0:
74,110,17619,2,0,P|44:121|-4:122,2,73.6,2|8|0,0:0|0:0|0:0,0:0:0:0:
162,261,18271,5,2,3:2:0:0:
196,247,18380,1,8,0:0:0:0:
178,214,18489,1,8,0:0:0:0:
316,323,18706,2,0,B|306:277|306:277|331:219,1,92,10|0,0:0|0:0,0:0:0:0:
496,89,19141,6,0,P|456:110|399:112,1,92,0|0,3:0|0:0,0:0:0:0:
212,26,19576,1,10,0:0:0:0:
212,26,20010,1,0,3:0:0:0:
246,38,20119,1,8,0:0:0:0:
234,73,20228,1,10,0:0:0:0:
128,200,20445,2,0,B|96:166|96:166|83:101,1,92,10|0,0:0|0:0,0:0:0:0:
106,348,20880,6,0,P|152:299|255:302,1,147.2,2|8,3:2|0:0,0:0:0:0:
389,133,21532,1,0,0:0:0:0:
478,265,21749,1,2,3:2:0:0:
485,300,21858,1,8,0:0:0:0:
461,328,21967,1,8,0:0:0:0:
303,228,22184,2,0,B|259:218|259:218|206:249,1,92,10|0,0:0|0:0,0:0:0:0:
95,338,22619,38,0,P|91:291|71:255,1,73.6,4|0,3:2|0:0,0:0:0:0:
226,94,23054,6,2,P|235:184|186:286,1,193.199994104004,10|0,3:2|0:0,0:1:0:0:
258,359,23489,5,0,3:0:0:0:
272,340,23597,2,0,B|297:330|297:330|333:334,1,46,8|10,0:0|0:0,0:0:0:0:
483,185,23923,2,0,B|447:214|447:214|393:198,1,92,10|0,0:0|0:0,0:0:0:0:
287,64,24358,5,0,3:0:0:0:
181,122,24576,2,0,P|167:91|167:48,2,73.6,2|8|0,0:0|0:0|0:0,0:0:0:0:
49,321,25228,1,2,3:2:0:0:
30,290,25336,1,8,0:0:0:0:
37,255,25445,2,0,P|71:223|132:198,1,92,8|10,0:0|0:0,0:0:0:0:
212,310,25880,1,0,0:0:0:0:
372,183,26097,38,0,P|388:139|390:80,1,92,0|0,3:0|0:0,0:0:0:0:
500,260,26532,1,10,0:0:0:0:
500,260,26967,1,0,3:0:0:0:
472,235,27076,1,8,0:0:0:0:
461,277,27184,2,0,P|424:300|359:306,1,92,10|8,0:0|0:0,0:0:0:0:
188,131,27619,5,6,3:2:0:0:
33,220,27836,2,0,P|40:242|53:262,3,46,2|2|0|0,0:0|0:0|3:0|0:0,0:0:0:0:
150,245,28271,5,10,0:0:0:0:
159,281,28380,2,0,P|146:302|121:326,2,46,8|0|0,0:0|3:0|3:0,0:0:0:0:
252,237,28706,5,10,0:0:0:0:
274,237,28815,1,8,0:0:0:0:
295,245,28923,2,0,P|322:263|338:283,1,46,0|0,3:0|0:0,0:0:0:0:
434,359,29141,37,10,0:0:0:0:
485,321,29249,1,10,0:0:0:0:
508,260,29358,1,10,0:0:0:0:
488,202,29467,1,10,0:0:0:0:
437,164,29576,6,0,P|415:103|421:15,1,147.2,4|0,0:0|3:0,0:0:0:0:
296,130,30228,1,0,0:0:0:0:
150,35,30445,2,0,P|114:26|62:26,1,73.6,2|0,3:2|0:0,0:0:0:0:
13,48,30771,2,0,P|40:51|63:39,1,36.8,2|0,0:0|3:0,0:0:0:0:
192,139,31097,6,0,P|129:152|27:197,1,147.2,2|0,0:0|0:0,0:0:0:0:
111,323,31749,2,0,P|117:308|121:279,2,36.8,0|2|0,3:0|0:0|0:0,0:0:0:0:
274,205,32184,2,0,P|299:248|318:323,1,110.4,2|2,3:2|0:0,0:0:0:0:
360,341,32619,2,0,B|405:314|405:314|415:271,1,73.6,8|2,0:0|0:0,0:0:0:0:
339,115,33054,5,0,3:0:0:0:
479,30,33271,2,0,P|463:58|454:121,1,73.6,2|0,0:0|3:0,0:0:0:0:
476,148,33597,2,0,P|482:168|485:191,1,36.8,0|2,0:0|0:0,0:0:0:0:
397,331,33923,2,0,P|342:288|292:270,1,110.4,2|0,3:2|0:0,0:0:0:0:
260,309,34358,1,0,3:0:0:0:
211,137,34576,38,0,P|265:169|350:160,1,147.2,2|0,0:0|0:0,0:0:0:0:
261,46,35228,2,0,P|256:25|256:1,2,36.8,0|2|0,3:0|0:0|0:0,0:0:0:0:
80,149,35663,2,0,P|109:91|124:24,1,110.4,2|0,3:2|0:0,0:0:0:0:
76,17,36097,1,8,0:0:0:0:
199,132,36315,1,2,0:0:0:0:
366,50,36532,6,0,P|403:38|442:43,1,73.6,0|2,3:0|0:0,0:0:0:0:
327,184,36967,2,0,P|320:156|309:141,2,36.8,0|2|0,3:0|0:0|0:0,0:0:0:0:
405,319,37402,2,0,P|421:268|460:202,1,110.4,2|0,3:2|0:0,0:0:0:0:
486,259,37836,1,0,3:0:0:0:
286,355,38054,6,0,B|237:354|220:326|225:325|205:293|152:301,1,147.2,2|2,0:0|0:0,0:0:0:0:
66,157,38706,2,0,P|68:133|77:116,2,36.8,0|2|0,3:0|0:0|0:0,0:0:0:0:
238,208,39141,2,0,P|241:162|223:91,1,110.4,2|0,3:2|0:0,0:0:0:0:
245,49,39576,2,0,B|212:42|212:42|172:15,1,73.6,8|0,0:0|0:0,0:0:0:0:
351,163,40010,6,0,P|408:117|497:117,1,147.2,2|0,3:2|3:0,0:0:0:0:
418,263,40663,1,0,0:0:0:0:
284,319,40880,2,0,P|318:333|350:360,1,73.6,0|2,3:0|0:0,0:0:0:0:
219,211,41315,1,0,3:0:0:0:
337,117,41532,38,0,B|332:70|314:41|314:41|283:33|228:79,1,165.599994946289,14|0,0:0|0:0,0:0:0:0:
157,188,41967,6,0,B|171:171|171:171|206:161,2,46,2|0|8,0:0|0:0|0:0,0:0:0:0:
60,161,42293,2,0,B|73:111|73:111|52:57,1,92,2|0,0:0|0:0,0:0:0:0:
191,27,42619,6,0,B|263:54|263:54|304:28,1,110.4,0|10,3:0|0:0,0:0:0:0:
342,62,43054,2,0,P|352:93|358:137,1,73.6,0|2,3:0|3:2,0:0:0:0:
476,300,43489,6,0,B|436:262|436:262|369:286,1,110.399996630859,12|0,3:2|0:0,0:0:0:0:
222,354,43923,1,10,3:2:0:0:
222,354,44358,1,2,3:2:0:0:
68,253,44576,1,2,0:0:0:0:
52,270,44684,2,0,P|71:276|101:286,1,46,2|0,1:2|3:0,0:0:0:0:
187,218,45010,1,8,0:0:0:0:
20,147,45228,38,0,P|47:111|49:65,1,92,2|0,3:2|1:0,0:0:0:0:
167,16,45663,1,2,3:2:0:0:
277,156,45880,1,0,0:0:0:0:
277,156,45989,1,0,0:0:0:0:
277,156,46097,2,0,B|233:107|233:107|281:52,1,138,8|8,0:0|0:0,0:0:0:0:
357,109,46532,1,0,3:0:0:0:
209,232,46749,1,8,0:0:0:0:
411,346,46967,6,0,P|435:289|436:221,1,110.399996630859,2|0,3:2|0:0,0:0:0:0:
229,333,47402,1,10,3:2:0:0:
229,333,47836,1,8,3:2:0:0:
325,183,48054,1,2,0:0:0:0:
333,205,48163,2,0,P|306:194|270:186,1,46,2|2,1:2|3:2,0:0:0:0:
121,68,48489,1,8,0:0:0:0:
342,17,48706,6,0,P|321:58|291:92,1,92,2|0,3:2|1:0,0:0:0:0:
451,236,49141,1,10,0:0:0:0:
451,236,49576,2,0,B|392:195|392:195|318:220,1,138,10|0,3:2|1:0,0:0:0:0:
235,258,50010,2,0,B|281:280|281:280|317:247,1,92,0|8,3:0|0:0,0:0:0:0:
91,80,50445,6,0,P|71:127|73:192,1,110.399996630859,4|0,3:2|0:0,0:0:0:0:
6,21,50880,1,10,0:0:0:0:
6,21,51315,1,10,3:2:0:0:
178,136,51532,1,0,3:0:0:0:
169,157,51641,2,0,B|198:145|198:145|231:140,1,46,2|0,1:2|3:0,0:0:0:0:
106,334,51967,1,8,0:0:0:0:
3,182,52184,38,0,P|39:153|74:91,1,92,2|0,3:2|3:0,0:0:0:0:
190,26,52619,2,0,B|182:71|182:71|204:125,1,92,10|0,0:0|0:0,0:0:0:0:
269,253,53054,2,0,B|209:216|209:216|131:243,1,138,10|8,0:0|0:0,0:0:0:0:
175,326,53489,1,0,3:0:0:0:
383,254,53706,1,8,0:0:0:0:
290,94,53923,5,6,3:2:0:0:
279,76,54141,1,8,0:0:0:0:
304,31,54358,1,8,0:0:0:0:
400,17,54576,1,8,0:0:0:0:
475,95,54793,1,10,0:0:0:0:
411,214,55010,1,10,0:0:0:0:
263,142,55228,1,10,0:0:0:0:
67,217,55445,1,10,0:0:0:0:
304,344,55663,5,10,0:0:0:0:
326,327,55771,2,0,B|323:293|323:293|313:261,1,55.1999983154297,10|0,0:0|3:0,0:0:0:0:
54,130,56315,5,10,0:0:0:0:
61,93,56423,2,0,B|89:63|89:63|137:58,1,73.6,10|0,0:0|3:0,0:0:0:0:
132,49,56967,37,10,0:0:0:0:
172,92,57076,1,10,0:0:0:0:
227,109,57184,1,10,0:0:0:0:
276,76,57293,1,10,0:0:0:0:
304,24,57402,6,0,B|361:14|361:14|423:49,1,110.4,4|0,3:2|0:0,0:0:0:0:
502,23,57836,6,2,B|458:66|425:50|425:50|407:126|465:181,1,220.8,10|0,0:0|0:0,0:1:0:0:
418,264,58271,5,0,3:0:0:0:
393,250,58380,1,8,0:0:0:0:
274,336,58597,1,2,0:0:0:0:
248,347,58706,2,0,B|195:334|195:334|129:358,1,110.399996630859,8|0,0:0|0:0,0:0:0:0:
101,135,59141,38,0,P|128:182|194:213,1,110.399996630859,0|0,3:0|0:0,0:0:0:0:
316,27,59576,1,10,0:0:0:0:
463,95,59793,2,0,B|420:132|420:132|367:116,1,110.399996630859,2|0,0:0|3:0,0:0:0:0:
284,172,60119,1,8,0:0:0:0:
299,196,60228,2,0,P|294:242|276:308,1,110.399996630859,0|8,0:0|0:0,0:0:0:0:
87,193,60663,6,0,P|191:130|231:28,1,220.799993261719,2|0,0:0|0:0,0:0:0:0:
439,26,61315,2,0,B|423:75|423:75|445:129,1,110.399996630859,8|0,0:0|0:0,0:0:0:0:
285,243,61749,6,0,P|318:229|356:229,1,55.1999983154297,2|0,3:2|3:0,0:0:0:0:
337,325,61967,1,0,3:0:0:0:
327,351,62076,2,0,P|420:312|418:223,1,165.599994946289,2|0,0:0|0:0,0:0:0:0:
321,125,62619,6,0,P|303:77|309:18,1,110.399996630859,0|0,3:0|0:0,0:0:0:0:
103,184,63054,1,10,0:0:0:0:
9,48,63271,2,0,B|82:29|82:29|135:62,1,110.399996630859,2|0,0:0|3:0,0:0:0:0:
199,90,63597,1,8,0:0:0:0:
207,63,63706,1,10,0:0:0:0:
64,176,63923,2,0,B|49:229|49:229|75:289,1,110.399996630859,8|0,0:0|0:0,0:0:0:0:
293,185,64358,38,0,P|243:192|172:231,1,110.4,4|0,3:2|0:0,0:0:0:0:
249,302,64793,6,2,B|335:308|335:308|349:320|349:320|443:332,1,193.199994104004,10|0,0:0|0:0,0:1:0:0:
390,228,65228,5,0,3:0:0:0:
374,205,65336,2,0,P|367:173|365:140,1,55.1999983154297,8|0,0:0|0:0,0:0:0:0:
459,116,65554,2,0,P|381:95|303:39,1,165.599994946289,2|0,0:0|0:0,0:0:0:0:
160,179,66097,2,0,P|165:134|178:70,2,110.399996630859,0|0|10,3:0|0:0|0:0,0:0:0:0:
229,353,66749,1,2,0:0:0:0:
33,307,66967,1,0,3:0:0:0:
21,281,67076,1,8,0:0:0:0:
40,261,67184,2,0,P|100:265|161:291,1,110.399996630859,8|8,0:0|0:0,0:0:0:0:
0,146,67619,6,0,P|99:129|104:25,1,220.799993261719,2|0,0:0|0:0,0:0:0:0:
234,217,68271,2,0,B|224:163|224:163|260:99,1,110.399996630859,8|0,0:0|0:0,0:0:0:0:
415,31,68706,1,2,3:2:0:0:
436,48,68815,1,8,0:0:0:0:
450,71,68923,2,0,P|421:116|357:137,1,110.399996630859,0|8,3:0|0:0,0:0:0:0:
388,312,69358,38,0,B|332:275|313:228|313:228|255:216|207:256,1,220.799993261719,2|0,0:0|0:0,0:0:0:0:
94,89,70010,1,14,0:0:0:0:
17,222,70228,1,0,3:0:0:0:
31,244,70336,1,0,3:0:0:0:
52,253,70445,2,0,P|62:236|66:196,2,55.1999983154297,0|0|0,3:0|3:0|3:0,0:0:0:0:
199,360,70880,2,0,B|181:326|181:326|201:251,1,110.399996630859,2|8,3:2|0:0,0:0:0:0:
274,193,71206,1,8,0:0:0:0:
284,213,71315,6,0,P|343:230|395:208,1,110.4,4|0,3:2|0:0,0:0:0:0:
423,331,71749,6,2,P|434:221|463:133,1,193.199994104004,10|4,0:0|0:0,0:1:0:0:
398,26,72184,5,0,3:0:0:0:
417,46,72293,2,0,P|396:60|373:85,1,55.1999983154297,8|0,0:0|0:0,0:0:0:0:
347,182,72510,2,0,P|265:124|196:94,1,165.599994946289,2|0,0:0|0:0,0:0:0:0:
33,263,73054,38,0,P|61:312|72:372,1,110.399996630859,0|0,3:0|0:0,0:0:0:0:
144,173,73489,1,10,0:0:0:0:
329,320,73706,2,0,B|365:274|365:274|332:223,1,110.399996630859,2|0,0:0|3:0,0:0:0:0:
230,305,74032,1,0,3:0:0:0:
222,331,74141,2,0,P|170:344|107:342,1,110.399996630859,0|8,3:0|0:0,0:0:0:0:
40,125,74576,6,0,P|152:151|139:245,1,220.799993261719,2|0,0:0|0:0,0:0:0:0:
263,29,75228,2,0,B|243:77|243:77|285:138,1,110.399996630859,8|0,0:0|0:0,0:0:0:0:
459,271,75663,1,2,3:2:0:0:
471,247,75771,1,8,0:0:0:0:
469,219,75880,2,0,P|417:216|359:245,1,110.399996630859,0|8,3:0|0:0,0:0:0:0:
191,358,76315,6,0,P|203:253|243:141,1,220.799993261719,2|0,0:0|0:0,0:0:0:0:
56,269,76967,2,0,B|83:216|83:216|41:157,1,110.399996630859,8|0,0:0|0:0,0:0:0:0:
155,25,77402,1,2,3:2:0:0:
161,51,77510,1,8,0:0:0:0:
140,69,77619,2,0,P|97:46|27:17,2,110.399996630859,0|8|0,3:0|0:0|0:0,0:0:0:0:
276,181,78271,6,0,P|305:175|342:150,1,73.6,4|0,3:2|0:0,0:0:0:0:
290,346,78706,38,2,P|363:274|480:282,1,193.199994104004,10|0,0:0|0:0,0:1:0:0:
497,162,79141,6,0,P|493:133|483:106,1,55.1999983154297,2|0,3:2|3:0,0:0:0:0:
392,44,79358,1,2,3:2:0:0:
371,63,79467,1,0,3:0:0:0:
343,58,79576,1,8,0:0:0:0:
179,184,79793,6,0,B|234:194|287:172|287:172|280:123|208:98,1,220.799993261719,6|0,3:2|3:0,0:0:0:0:
26,275,80445,1,10,0:0:0:0:
102,339,80663,5,0,3:0:0:0:
211,247,80880,2,0,P|212:231|207:215,3,27.5999991577149,2|0|2|0,3:2|0:0|3:2|0:0,0:0:0:0:
131,140,81315,1,10,0:0:0:0:
131,140,81749,38,0,P|169:123|212:89,1,73.6,6|0,3:2|0:0,0:0:0:0:
340,30,82184,2,0,B|377:31|377:31|423:53,1,73.6,8|0,0:0|3:0,0:0:0:0:
465,129,82510,1,0,3:0:0:0:
466,156,82619,2,0,B|429:211|429:211|458:317,1,165.599994946289,2|8,3:2|0:0,0:0:0:0:
383,366,83054,1,8,0:0:0:0:
260,183,83271,6,0,B|197:155|154:208|166:216|125:275|59:258,1,220.799993261719,6|0,3:2|3:0,0:0:0:0:
44,72,83923,2,0,B|62:20|62:20|110:32|110:32|93:90,1,165.599994946289,8|8,0:0|0:0,0:0:0:0:
32,167,84358,1,2,3:2:0:0:
206,323,84576,1,8,0:0:0:0:
222,302,84684,1,0,3:0:0:0:
216,276,84793,2,0,P|190:258|158:257,1,55.1999983154297,10|8,0:0|0:0,0:0:0:0:
108,340,85010,1,8,0:0:0:0:
220,130,85228,5,6,3:2:0:0:
132,375,92184,6,0,P|147:340|156:278,1,92,4|0,3:2|0:0,0:0:0:0:
32,122,92619,2,0,P|27:172|59:204,1,92,10|0,0:0|0:0,0:0:0:0:
152,76,93054,1,0,3:0:0:0:
169,61,93163,1,8,0:0:0:0:
191,58,93271,2,0,P|233:71|287:96,1,92,2|8,3:2|0:0,0:0:0:0:
477,13,93706,38,0,P|451:96|463:214,1,184,2|0,0:0|0:0,0:0:0:0:
385,344,94358,2,0,P|374:322|356:304,2,46,10|10|2,0:0|0:0|0:0,0:0:0:0:
253,216,94793,1,0,0:0:0:0:
243,235,94902,1,8,0:0:0:0:
233,254,95010,2,0,P|200:273|145:286,1,73.6,0|8,3:0|0:0,0:0:0:0:
11,124,95445,6,2,B|70:83|124:102|124:102|104:142|98:207,1,220.799993261719,2|2,0:0|0:0,0:1:0:0:
271,352,96097,1,8,0:0:0:0:
385,267,96315,2,2,B|325:264|261:237|261:237|285:186|330:174,1,220.799993261719,2|2,0:0|0:0,0:1:0:0:
339,151,96858,1,2,0:0:0:0:
328,125,96967,1,10,0:0:0:0:
149,23,97184,6,2,P|99:126|145:271,1,257.599992138672,4|0,3:2|3:0,0:1:0:0:
343,231,97836,1,10,0:0:0:0:
206,351,98054,1,10,0:0:0:0:
168,360,98163,1,10,0:0:0:0:
130,369,98271,1,0,3:0:0:0:
207,165,98489,5,0,3:0:0:0:
66,271,98706,1,0,3:0:0:0:
49,261,98815,1,10,0:0:0:0:
31,250,98923,1,10,0:0:0:0:
134,89,99141,37,4,3:2:0:0:
207,98,109358,6,0,L|160:110,3,42.933332023112,0|0|0|10,3:0|3:0|3:0|0:0,0:0:0:0:
137,92,110663,1,0,3:0:0:0:
198,180,110880,1,8,0:0:0:0:
64,336,111097,6,0,P|163:290|291:281,1,220.799993261719,4|8,3:2|0:0,0:0:0:0:
374,368,111749,1,0,3:0:0:0:
491,338,111967,1,0,3:0:0:0:
323,185,112184,1,8,0:0:0:0:
421,266,112510,5,8,0:0:0:0:
410,243,112619,2,0,B|446:228|446:228|467:179,1,73.6,10|0,0:0|3:2,0:0:0:0:
268,112,113054,38,0,P|226:82|191:19,1,110.399996630859,12|0,3:2|0:0,0:0:0:0:
125,219,113489,1,8,0:0:0:0:
125,219,113923,1,8,0:0:0:0:
239,335,114141,1,0,3:0:0:0:
256,320,114249,1,2,1:2:0:0:
248,298,114358,2,0,B|236:255|236:255|257:197,1,92,0|2,3:0|0:0,0:0:0:0:
350,100,114793,5,10,0:0:0:0:
150,180,115010,1,0,1:0:0:0:
122,53,115228,2,0,P|160:72|217:77,1,92,10|0,0:0|0:0,0:0:0:0:
353,190,115663,2,0,B|335:111|335:111|357:58,1,138,8|0,0:0|1:0,0:0:0:0:
464,101,116097,2,0,B|478:148|478:148|437:191,1,92,2|8,3:2|0:0,0:0:0:0:
235,314,116532,6,0,B|285:299|285:299|351:337,1,110.399996630859,2|0,3:2|0:0,0:0:0:0:
172,160,116967,1,2,3:2:0:0:
172,160,117402,1,8,0:0:0:0:
329,223,117619,1,0,3:0:0:0:
348,210,117728,1,2,1:2:0:0:
358,185,117836,2,0,P|362:133|348:81,1,92,0|8,3:0|0:0,0:0:0:0:
151,29,118271,6,0,B|126:65|126:65|64:43,1,92,2|0,3:2|1:0,0:0:0:0:
172,218,118706,1,8,0:0:0:0:
172,218,119141,2,0,B|208:114|208:114|235:145,1,138,2|8,3:2|0:0,0:0:0:0:
274,217,119576,1,0,3:0:0:0:
170,357,119793,1,8,0:0:0:0:
433,281,120010,38,0,P|385:269|383:321,1,110.399996630859,6|0,3:2|0:0,0:0:0:0:
320,124,120445,1,2,3:2:0:0:
320,124,120880,1,8,0:0:0:0:
172,255,121097,1,0,3:0:0:0:
150,265,121206,1,2,1:2:0:0:
142,243,121315,1,0,3:0:0:0:
191,367,121532,1,8,0:0:0:0:
62,142,121749,5,10,3:2:0:0:
300,226,121967,1,0,1:0:0:0:
201,269,122184,2,0,P|176:222|180:169,1,92,8|0,0:0|0:0,0:0:0:0:
65,41,122619,2,0,B|103:98|103:98|169:79,1,138,10|8,0:0|0:0,0:0:0:0:
262,34,123054,2,0,B|232:68|232:68|188:53,1,92,0|8,3:0|0:0,0:0:0:0:
448,18,123489,6,0,P|445:62|470:125,1,92,4|10,3:2|0:0,0:0:0:0:
410,188,123815,1,8,0:0:0:0:
416,211,123923,2,0,P|392:205|355:191,3,46,8|8|8|0,0:0|0:0|0:0|0:0,0:0:0:0:
323,103,124358,2,0,P|262:152|198:166,1,138,2|0,3:2|3:0,0:0:0:0:
134,100,124793,1,10,0:0:0:0:
140,78,124902,1,10,0:0:0:0:
145,56,125010,6,0,P|98:24|40:42,1,110.4,4|0,3:2|0:0,0:0:0:0:
5,118,125445,1,8,0:0:0:0:
113,204,125663,2,0,B|119:234|119:234|96:270,1,73.6,2|0,0:0|3:0,0:0:0:0:
276,167,126097,38,0,P|248:104|256:29,1,138,6|0,3:2|0:0,0:0:0:0:
354,67,126532,1,0,3:0:0:0:
354,67,126749,1,0,3:0:0:0:
417,273,126967,6,0,P|380:210|259:195,2,193.199994104004,6|2|0,3:2|3:2|3:0,0:0:0:0:
233,362,127836,6,0,B|197:325|197:325|224:262,1,110.399996630859,10|0,0:0|0:0,0:0:0:0:
97,218,128163,2,0,P|133:191|189:186,1,92,2|0,3:2|0:0,0:0:0:0:
150,94,128489,6,0,P|208:120|283:132,1,110.4,0|0,3:0|0:0,0:0:0:0:
341,86,128923,1,0,3:0:0:0:
341,86,129032,1,0,3:0:0:0:
341,86,129141,2,0,P|348:50|364:8,1,73.6,2|0,3:2|0:2,0:0:0:0:
269,207,129576,38,0,P|239:216|202:214,1,46,10|10,0:0|0:0,0:0:0:0:
192,91,129793,2,0,P|157:129|128:183,1,92,10|8,0:0|0:0,0:0:0:0:
70,325,130228,1,8,0:0:0:0:
61,346,130336,1,8,0:0:0:0:
80,352,130445,6,0,P|96:263|8:249,2,193.199994104004,2|2|0,3:2|3:2|3:0,0:0:0:0:
230,288,131315,2,0,B|260:263|260:263|311:278,1,73.6,10|0,0:0|0:0,0:0:0:0:
371,333,131641,1,8,0:0:0:0:
407,337,131749,1,8,0:0:0:0:
441,322,131858,1,8,0:0:0:0:
454,287,131967,6,0,L|445:235,3,36.8,14|8|8|8,0:0|0:0|0:0|0:0,0:0:0:0:
470,156,132402,2,0,L|435:115,1,36.8,10|8,0:0|0:0,0:0:0:0:
427,33,132619,2,0,L|378:10,1,36.8,10|8,0:0|0:0,0:0:0:0:
320,118,132836,5,0,3:0:0:0:
315,132,132945,1,0,3:0:0:0:
308,145,133054,2,0,P|275:158|258:158,1,36.8,0|0,3:0|0:0,0:0:0:0:
185,33,133271,38,0,P|154:23|117:27,1,55.1999983154297,10|0,0:0|0:0,0:0:0:0:
20,124,133489,2,0,B|45:147|45:147|83:131,1,64.399998034668,8|0,0:0|0:0,0:0:0:0:
208,251,133706,1,10,0:0:0:0:
219,283,133815,1,10,0:0:0:0:
208,313,133923,6,0,P|160:214|194:146,2,193.199994104004,6|2|0,3:2|3:2|3:0,0:0:0:0:
322,163,134793,2,0,B|357:213|383:218|383:218|357:228|334:283,1,165.599994946289,10|0,0:0|0:0,0:0:0:0:
404,352,135228,2,0,P|438:346|460:332,1,55.1999983154297,8|8,0:0|0:0,0:0:0:0:
491,190,135445,1,4,0:0:0:0:
309,34,135663,5,10,0:0:0:0:
280,49,135771,1,8,0:0:0:0:
264,78,135880,1,8,0:0:0:0:
270,110,135989,1,8,0:0:0:0:
309,148,136097,5,0,3:0:0:0:
315,163,136206,1,0,3:0:0:0:
317,179,136315,1,0,3:0:0:0:
315,195,136423,1,0,3:0:0:0:
304,208,136532,2,0,L|278:216,3,27.5999991577149,2|0|0|0,3:2|3:0|3:0|3:0,0:0:0:0:
246,262,136967,37,10,0:0:0:0:
221,212,137076,1,10,0:0:0:0:
176,180,137184,1,10,0:0:0:0:
121,186,137293,1,10,0:0:0:0:
77,220,137402,6,0,B|34:157|34:157|59:79,1,147.2,2|8,3:2|0:0,0:0:0:0:
139,47,137728,1,2,3:2:0:0:
298,203,138054,6,0,B|350:182|350:182|315:138,1,110.399996630859,2|8,3:2|0:0,0:0:0:0:
223,150,138380,1,2,3:2:0:0:
58,314,138706,6,0,B|117:275|117:275|201:299,1,138,14|2,0:0|3:2,0:0:0:0:
305,350,139141,1,0,3:0:0:0:
323,338,139249,1,0,3:0:0:0:
332,318,139358,2,0,P|327:287|322:264,1,36.8,0|0,3:0|3:0,0:0:0:0:
394,212,139576,38,0,P|380:157|400:107,2,110.399996630859,6|0|0,3:2|3:0|3:0,0:0:0:0:
195,359,140880,6,0,P|98:332|94:209,1,220.8,6|2,3:2|3:2,0:0:0:0:
107,211,141967,1,0,3:0:0:0:
20,152,142184,1,0,3:0:0:0:
221,45,142619,5,4,3:2:0:0:
248,68,155662,37,4,0:0:0:0:
348,120,155879,1,0,3:0:0:0:
196,182,156097,1,0,3:0:0:0:
286,342,156314,70,0,P|321:279|294:211,1,147.2,4|8,3:2|0:0,0:0:0:0:
163,119,156966,1,2,0:0:0:0:
153,139,157075,2,0,P|115:155|56:159,1,73.6,0|0,3:0|0:0,0:0:0:0:
4,205,157401,2,0,P|72:227|121:287,1,138,2|0,3:2|3:0,0:0:0:0:
97,320,157836,1,0,3:0:0:0:
97,320,158053,1,0,3:0:0:0:
213,228,158271,6,0,P|219:296|249:358,1,138,2|0,3:2|3:0,0:0:0:0:
339,324,158705,2,0,B|387:318|387:318|435:343,1,92,0|0,3:0|3:0,0:0:0:0:
482,181,159140,1,2,3:2:0:0:
470,160,159249,1,8,0:0:0:0:
311,230,159466,1,0,3:0:0:0:
323,210,159575,2,0,P|328:163|327:114,1,92,0|0,3:0|3:0,0:0:0:0:
126,35,160010,70,0,B|99:71|99:71|169:89,1,110.4,2|0,3:2|3:0,0:0:0:0:
225,157,160445,2,0,P|187:160|153:183,1,73.6,0|0,3:0|3:0,0:0:0:0:
89,347,160879,1,2,3:2:0:0:
78,338,160988,1,0,3:0:0:0:
74,324,161097,1,0,3:0:0:0:
77,310,161205,1,0,3:0:0:0:
81,296,161314,2,0,B|127:282|127:282|143:325,1,92,0|0,3:0|3:0,0:0:0:0:
314,159,161749,6,0,P|281:217|289:308,1,138,2|0,3:2|3:0,0:0:0:0:
311,324,162184,1,0,3:0:0:0:
467,255,162401,1,0,3:0:0:0:
316,109,162619,1,2,3:2:0:0:
325,129,162727,1,8,0:0:0:0:
214,237,162945,1,0,3:0:0:0:
230,253,163053,2,0,P|277:240|336:235,1,92,2|0,3:2|0:0,0:0:0:0:
176,139,163488,70,0,P|205:97|178:32,1,110.4,6|0,3:2|3:0,0:0:0:0:
157,27,163923,1,0,3:0:0:0:
37,165,164140,1,0,3:0:0:0:
142,316,164358,1,2,3:2:0:0:
123,326,164466,1,0,3:0:0:0:
254,224,164684,1,0,3:0:0:0:
237,208,164792,2,0,P|202:200|154:178,1,73.6,0|0,3:0|3:0,0:0:0:0:
241,23,165227,6,0,P|245:81|309:126,1,138,2|0,3:2|3:0,0:0:0:0:
341,97,165662,1,0,3:0:0:0:
483,171,165879,1,0,3:0:0:0:
347,325,166097,1,2,3:2:0:0:
358,317,166205,1,8,0:0:0:0:
368,306,166314,1,0,3:0:0:0:
375,294,166423,1,0,3:0:0:0:
374,279,166532,2,0,B|354:235|354:235|380:170,1,92,0|0,3:0|3:0,0:0:0:0:
108,244,166966,70,0,P|222:230|244:193,1,165.599994946289,6|0,3:2|3:0,0:0:0:0:
209,158,167401,1,0,3:0:0:0:
271,339,167619,1,0,3:0:0:0:
409,204,167836,1,2,3:2:0:0:
429,222,167945,1,0,3:0:0:0:
300,87,168162,1,0,3:0:0:0:
284,110,168271,2,0,P|240:132|180:145,1,110.399996630859,0|0,3:0|3:0,0:0:0:0:
253,322,168705,6,0,P|183:276|94:241,1,165.599994946289,2|0,3:2|3:0,0:0:0:0:
92,291,169140,1,0,3:0:0:0:
17,149,169358,1,0,3:0:0:0:
203,240,169575,1,0,3:0:0:0:
216,216,169684,1,8,0:0:0:0:
129,46,169901,1,0,3:0:0:0:
142,70,170010,2,0,P|201:76|259:105,1,110.399996630859,0|0,3:0|3:0,0:0:0:0:
469,218,170445,70,0,B|395:195|395:195|314:260,1,165.599994946289,6|0,3:2|3:0,0:0:0:0:
341,307,170879,1,0,3:0:0:0:
199,222,171097,1,2,3:2:0:0:
58,339,171314,5,0,3:0:0:0:
37,322,171423,2,0,B|48:290|48:290|53:259,1,55.1999983154297,8|2,0:0|3:2,0:0:0:0:
28,156,171640,1,0,3:0:0:0:
67,176,171749,1,2,3:2:0:0:
75,161,171858,1,0,3:0:0:0:
83,146,171966,2,0,P|109:136|142:140,1,55.1999983154297,2|2,3:2|3:2,0:0:0:0:
134,16,172184,70,0,P|177:50|278:71,1,137.999995788574,6|0,3:2|0:0,0:0:0:0:
295,47,172836,2,0,P|320:39|359:40,1,55.1999983154297,2|0,3:2|3:0,0:0:0:0:
462,146,173271,21,0,3:0:0:0:
468,157,173379,1,0,3:0:0:0:
464,165,173488,6,0,P|442:177|389:180,1,73.6,2|2,0:0|0:0,0:0:0:0:
360,126,180879,6,0,P|364:107|367:77,2,36.8,2|2|0,3:2|0:0|3:0,0:0:0:0:
247,225,181640,1,8,0:0:0:0:
233,229,181749,6,0,P|204:207|178:192,2,46,0|0|2,3:0|0:0|3:2,0:0:0:0:
329,301,182401,2,0,P|336:289|343:266,1,23,0|8,3:0|0:0,0:0:0:0:
344,311,182618,38,0,P|363:303|401:292,2,55.1999983154297,2|0|0,3:2|0:0|3:0,0:0:0:0:
190,361,183270,5,0,0:0:0:0:
173,346,183379,1,8,0:0:0:0:
164,325,183488,2,0,P|163:281|173:248,1,64.399998034668,2|8,3:2|0:0,0:0:0:0:
253,162,183923,1,2,3:2:0:0:
103,99,184140,1,0,0:0:0:0:
103,99,184249,1,8,0:0:0:0:
103,99,184357,6,0,L|50:114,2,36.8,2|8|8,3:2|0:0|0:0,0:0:0:0:
218,12,184792,2,0,P|250:29|311:40,1,73.6,10|0,0:0|0:0,0:0:0:0:
369,93,185118,1,8,0:0:0:0:
385,106,185227,6,0,P|390:82|394:48,2,41.3999987365723,2|0|0,3:2|3:0|3:0,0:0:0:0:
221,196,185662,1,8,0:0:0:0:
355,326,185879,37,2,0:0:0:0:
341,302,185988,1,2,0:0:0:0:
337,274,186096,1,0,3:0:0:0:
354,252,186205,1,0,3:0:0:0:
380,245,186314,2,0,P|400:251|422:269,1,46,2|0,3:2|0:0,0:0:0:0:
335,150,186531,2,0,P|358:142|382:141,1,46,2|0,3:2|0:0,0:0:0:0:
473,67,186749,5,8,0:0:0:0:
440,35,186857,1,8,0:0:0:0:
394,40,186966,1,0,3:0:0:0:
227,162,187183,5,2,3:2:0:0:
57,50,187401,1,10,0:0:0:0:
88,83,187509,1,10,0:0:0:0:
96,128,187618,1,10,0:0:0:0:
68,165,187727,1,2,0:0:0:0:
34,197,187836,6,0,L|71:206,3,27.5999991577149,0|0|0|0,3:0|3:0|3:0|3:0,0:0:0:0:
13,293,188270,38,2,P|125:253|237:258,1,220.8,6|0,3:2|0:0,0:1:0:0:
309,324,188705,5,0,3:0:0:0:
330,341,188814,1,2,0:0:0:0:
467,212,189031,1,2,0:0:0:0:
452,235,189140,2,0,P|398:233|345:180,1,110.399996630859,8|0,0:0|0:0,0:0:0:0:
270,16,189575,6,0,B|251:58|251:58|272:127,2,110.399996630859,0|0|10,3:0|0:0|0:0,0:0:0:0:
156,160,190227,1,2,0:0:0:0:
26,16,190444,1,0,3:0:0:0:
16,42,190553,1,8,0:0:0:0:
27,67,190662,2,0,P|79:47|154:43,1,110.399996630859,8|0,0:0|3:0,0:0:0:0:
267,197,191096,6,0,B|264:277|195:285|192:274|137:284|128:368,1,220.799993261719,2|0,0:0|0:0,0:0:0:0:
0,268,191749,2,0,P|31:230|48:163,1,110.399996630859,0|0,3:0|0:0,0:0:0:0:
172,28,192183,1,2,3:2:0:0:
161,53,192292,1,8,0:0:0:0:
177,74,192401,2,0,B|235:51|235:51|285:94,1,110.399996630859,0|8,3:0|0:0,0:0:0:0:
472,6,192836,38,0,P|438:84|414:227,1,220.799993261719,2|0,0:0|0:0,0:0:0:0:
275,356,193488,2,0,P|245:316|224:237,1,110.399996630859,8|0,0:0|0:0,0:0:0:0:
306,37,193923,1,2,3:2:0:0:
321,59,194031,1,8,0:0:0:0:
317,86,194140,2,0,B|261:73|261:73|217:117,2,110.399996630859,0|8|0,3:0|0:0|0:0,0:0:0:0:
207,213,194792,6,0,P|175:204|135:166,1,73.6,4|0,3:2|0:0,0:0:0:0:
18,337,195227,6,2,B|47:201|47:201|19:139,1,193.199994104004,10|0,0:0|0:0,0:1:0:0:
92,30,195662,6,0,P|123:32|159:51,1,55.1999983154297,2|0,3:2|3:0,0:0:0:0:
222,133,195879,1,2,3:2:0:0:
232,156,195988,1,0,3:0:0:0:
218,179,196096,1,8,0:0:0:0:
130,320,196314,38,0,B|200:343|232:296|224:289|266:243|345:264,1,220.799993261719,2|0,0:0|0:0,0:0:0:0:
452,128,196966,2,2,B|414:130|384:154|384:154|339:146|310:98,1,165.599994946289,2|0,3:2|0:0,0:1:0:0:
215,31,197401,1,2,3:2:0:0:
227,54,197509,1,10,0:0:0:0:
212,76,197618,2,0,B|190:112|190:112|211:187,2,110.399996630859,10|0|0,0:0|3:0|0:0,0:0:0:0:
37,152,198270,5,4,3:2:0:0:
58,164,198488,1,8,0:0:0:0:
42,221,198705,1,8,0:0:0:0:
156,180,198923,1,10,0:0:0:0:
17,321,199140,1,10,0:0:0:0:
217,360,199357,1,10,0:0:0:0:
17,321,199575,1,10,0:0:0:0:
231,247,199792,6,0,B|296:216|366:260|352:273|416:327|476:295,1,257.599992138672,6|4,3:2|3:2,0:0:0:0:
357,156,200444,1,10,0:0:0:0:
285,337,200662,5,0,3:0:0:0:
269,348,200770,1,0,3:0:0:0:
252,357,200879,2,0,L|202:350,2,36.8,2|2|2,3:2|3:2|3:2,0:0:0:0:
95,243,201314,1,2,3:2:0:0:
112,252,201423,1,0,3:0:0:0:
130,261,201531,1,0,3:0:0:0:
62,146,201749,37,4,3:2:0:0:
255,74,203270,2,0,L|296:69,2,27.5999991577149,0|0|2,0:0|0:0|0:0,0:0:0:0:
103,23,204792,1,8,3:2:0:0:
197,341,205227,6,0,P|220:295|224:244,1,92,0|10,3:0|0:0,0:0:0:0:
337,72,205662,2,0,P|341:95|358:130,3,46,0|0|0|0,3:0|3:0|3:0|3:0,0:0:0:0:
388,139,206096,5,10,0:0:0:0:
401,157,206205,1,8,0:0:0:0:
408,178,206314,1,8,0:0:0:0:
401,200,206423,1,8,0:0:0:0:
387,218,206531,2,0,P|363:233|329:242,1,46,10|0,0:0|0:0,0:0:0:0:
396,354,206749,6,2,P|332:286|198:292,1,193.199994104004,6|0,3:2|0:0,0:1:0:0:
154,328,207183,1,4,3:2:0:0:
23,209,207401,38,0,P|41:214|79:216,3,36.8,2|0|0|0,3:2|3:0|3:0|3:0,0:0:0:0:
139,119,207836,6,0,P|159:107|197:102,3,50.6000015441895,2|0|0|0,3:2|3:0|3:0|3:0,0:0:0:0:
274,18,208270,2,0,P|250:89|226:214,1,193.199994104004,10|0,0:0|0:0,0:0:0:0:
250,308,208705,6,0,P|277:287|336:259,1,73.6,2|0,3:2|0:0,0:0:0:0:
470,152,209140,6,2,P|364:150|271:110,1,193.199994104004,14|0,0:0|0:0,0:1:0:0:
203,59,209575,37,0,3:0:0:0:
174,82,209683,1,8,0:0:0:0:
191,114,209792,1,10,0:0:0:0:
13,7,210009,2,0,B|37:39|37:39|15:107,1,92,10|0,0:0|0:0,0:0:0:0:
115,282,210444,5,0,3:0:0:0:
185,183,210662,2,0,P|220:171|263:169,2,73.6,2|8|0,0:0|0:0|0:0,0:0:0:0:
319,351,211314,1,2,3:2:0:0:
338,338,211423,2,0,B|341:307|341:307|329:284,1,46,0|0,3:0|3:0,0:0:0:0:
468,167,211749,2,0,P|423:156|378:122,1,92,10|0,0:0|0:0,0:0:0:0:
201,25,212183,6,0,P|228:57|237:122,1,92,0|0,3:0|0:0,0:0:0:0:
153,306,212618,1,10,0:0:0:0:
153,306,213053,1,0,3:0:0:0:
126,279,213162,1,8,0:0:0:0:
161,272,213270,1,10,0:0:0:0:
38,143,213488,2,0,B|74:174|74:174|122:156,1,92,10|0,0:0|0:0,0:0:0:0:
258,24,213923,6,0,P|288:73|293:140,1,110.399996630859,2|8,3:2|0:0,0:0:0:0:
179,245,214575,1,0,0:0:0:0:
334,354,214792,1,0,3:0:0:0:
355,344,214901,2,0,B|362:311|362:311|382:287,1,46,8|10,0:0|0:0,0:0:0:0:
465,97,215227,2,0,B|419:79|419:79|408:126,1,92,10|0,0:0|0:0,0:0:0:0:
303,233,215662,38,0,P|269:228|223:209,1,73.6,4|0,3:2|0:0,0:0:0:0:
48,120,216096,6,2,B|97:72|135:93|136:103|189:131|230:89,1,193.199994104004,10|0,0:0|0:0,0:1:0:0:
347,30,216531,5,0,3:0:0:0:
332,48,216640,2,0,B|323:72|323:72|341:99,1,46,8|10,0:0|0:0,0:0:0:0:
168,242,216966,2,0,P|209:219|264:207,1,92,10|0,0:0|0:0,0:0:0:0:
423,324,217401,5,0,3:0:0:0:
472,205,217618,2,0,P|472:171|458:124,2,73.6,2|8|0,0:0|0:0|0:0,0:0:0:0:
291,116,218270,1,2,3:2:0:0:
268,86,218379,1,8,0:0:0:0:
297,63,218488,1,8,0:0:0:0:
127,191,218705,2,0,P|135:146|115:98,1,92,10|0,0:0|0:0,0:0:0:0:
236,288,219140,38,0,B|294:276|294:276|325:229,1,110.399996630859,0|0,3:0|0:0,0:0:0:0:
473,357,219575,1,10,0:0:0:0:
473,357,220009,1,0,3:0:0:0:
428,262,220227,1,2,3:2:0:0:
512,146,220444,1,8,0:0:0:0:
347,30,220662,5,4,3:2:0:0:
252,169,220879,2,0,P|232:150|216:124,3,46,2|0|2|0,0:0|0:0|3:2|0:0,0:0:0:0:
135,189,221314,5,2,0:0:0:0:
112,165,221423,2,0,P|112:128|124:99,2,46,8|10|8,0:0|0:0|0:0,0:0:0:0:
116,18,221749,6,0,P|149:36|210:40,1,92,2|2,3:2|3:2,0:0:0:0:
336,13,222075,1,0,3:0:0:0:
323,31,222183,37,0,3:0:0:0:
353,87,222292,1,0,3:0:0:0:
340,150,222401,1,2,3:2:0:0:
294,194,222509,1,2,3:2:0:0:
229,187,222618,6,0,P|200:163|179:120,1,73.6,4|0,3:2|0:0,0:0:0:0:
5,128,223053,6,2,P|74:92|172:0,1,193.199994104004,10|0,0:0|0:0,0:1:0:0:
277,13,223488,5,0,3:0:0:0:
266,33,223596,2,0,B|263:60|263:60|273:99,1,46,8|10,0:0|0:0,0:0:0:0:
141,229,223923,2,0,P|185:251|221:288,1,92,10|0,0:0|0:0,0:0:0:0:
33,357,224357,37,0,3:0:0:0:
5,223,224575,2,0,P|14:193|39:148,2,73.6,2|8|0,0:0|0:0|0:0,0:0:0:0:
171,131,225227,1,2,3:2:0:0:
179,95,225336,1,8,0:0:0:0:
154,67,225444,1,8,0:0:0:0:
300,29,225662,2,0,P|303:78|329:126,1,92,10|0,0:0|0:0,0:0:0:0:
179,229,226096,2,0,P|225:215|288:211,1,92,0|0,3:0|0:0,0:0:0:0:
372,354,226531,6,0,P|457:287|439:233,1,165.599994946289,10|10,0:0|0:0,0:0:0:0:
362,195,226966,1,0,3:0:0:0:
227,317,227183,2,0,P|175:299|126:255,1,110.399996630859,0|10,3:0|0:0,0:0:0:0:
246,32,227618,6,0,P|158:59|20:127,1,220.799993261719,4|0,3:2|3:0,0:0:0:0:
218,213,228270,1,8,0:0:0:0:
77,356,228488,2,0,P|71:329|72:306,1,46,2|2,0:0|0:0,0:0:0:0:
11,199,228705,1,0,3:0:0:0:
43,216,228814,1,0,3:0:0:0:
76,202,228922,1,0,3:0:0:0:
184,36,229140,2,0,P|214:68|243:107,1,92,10|0,0:0|0:0,0:0:0:0:
364,313,229575,5,0,3:0:0:0:
358,297,229683,1,0,3:0:0:0:
358,283,229792,1,0,3:0:0:0:
363,270,229901,1,0,3:0:0:0:
371,260,230009,38,2,B|314:267|273:232|284:222|239:185|189:208,1,193.199994104004,14|0,0:0|0:0,0:1:0:0:
97,301,230444,6,0,P|114:303|144:285,1,46,6|0,3:2|0:0,0:0:0:0:
105,151,230662,2,0,P|88:149|58:167,1,46,0|0,3:0|0:0,0:0:0:0:
76,326,230879,2,0,B|127:328|127:328|177:296,1,92,10|0,0:0|0:0,0:0:0:0:
319,369,231314,1,0,3:0:0:0:
437,172,231531,6,0,P|430:213|450:270,1,92,2|8,0:0|0:0,0:0:0:0:
439,271,231821,6,0,B|416:254|416:254|386:217,1,61.3333333333333,2|2,0:0|0:0,0:0:0:0:
264,52,232183,37,0,3:0:0:0:
239,79,232292,1,8,0:0:0:0:
254,112,232401,1,8,0:0:0:0:
142,254,232618,2,0,P|192:231|244:223,1,92,10|0,0:0|0:0,0:0:0:0:
52,47,233053,6,0,B|65:104|65:104|20:164,1,110.399996630859,2|0,3:2|0:0,0:0:0:0:
117,348,233488,1,8,0:0:0:0:
213,267,233705,2,0,P|194:254|163:246,1,46,2|0,0:0|0:0,0:0:0:0:
8,302,233922,1,0,3:0:0:0:
8,302,234140,2,0,B|47:271|47:271|13:231,1,92,2|8,3:2|0:0,0:0:0:0:
133,102,234575,5,6,3:2:0:0:
280,272,234792,5,2,0:0:0:0:
255,251,234901,1,2,0:0:0:0:
248,219,235009,1,2,3:2:0:0:
259,188,235118,1,0,0:0:0:0:
231,136,235227,37,10,0:0:0:0:
247,108,235336,1,10,0:0:0:0:
278,89,235444,2,0,P|313:91|328:95,1,36.8,0|0,3:0|3:0,0:0:0:0:
428,11,235662,5,10,0:0:0:0:
407,57,235770,1,10,0:0:0:0:
414,108,235879,2,0,P|436:144|459:158,1,64.399998034668,2|0,3:2|0:0,0:0:0:0:
495,284,236096,5,10,0:0:0:0:
467,349,236205,1,10,0:0:0:0:
400,372,236314,1,10,0:0:0:0:
331,354,236422,2,0,P|303:320|298:293,1,64.399998034668,10|0,0:0|0:0,0:0:0:0:
267,42,236966,6,0,P|203:33|84:127,1,220.799993261719,2|0,0:0|0:0,0:0:0:0:
