osu file format v14

[General]
AudioFilename: audio.mp3
AudioLeadIn: 0
PreviewTime: 56532
Countdown: 0
SampleSet: Soft
StackLeniency: 0.5
Mode: 0
LetterboxInBreaks: 0
WidescreenStoryboard: 1

[Editor]
Bookmarks: 15663,29576,43489,57402,71315,85228,99141,113054,126967,142619,156314,173923,187836,208705,222618,236966
DistanceSpacing: 1.4
BeatDivisor: 4
GridSize: 4
TimelineZoom: 1.8

[Metadata]
Title:Mela!
TitleUnicode:Mela!
Artist:Todo Kohaku
ArtistUnicode:東堂コハク
Creator:Hinsvar
Version:Hard
Source:
Tags:Toudou Virtual YouTuber VTuber cover 緑黄色社会 Ryokuoushoku Shakai リョクシャカ Ryokushaka にじさんじ Nijisanji 2434 いちから Ichikara Japanese Pop Jazz J-Pop JPop こはたん Kohatan 世怜音女学院 Sereine Jogakuin セレ女 Serejo Selene Girls School
BeatmapID:2651061
BeatmapSetID:1269084

[Difficulty]
HPDrainRate:4
CircleSize:3
OverallDifficulty:6
ApproachRate:7.5
SliderMultiplier:1.6
SliderTickRate:1

[Events]
//Background and Video events
0,0,"kohatan.jpg",0,0
Video,0,"mela.mp4"
//Break Periods
2,85428,91359
2,99341,108533
2,142819,154837
2,174123,180054
//Storyboard Layer 0 (Background)
//Storyboard Layer 1 (Fail)
//Storyboard Layer 2 (Pass)
//Storyboard Layer 3 (Foreground)
//Storyboard Layer 4 (Overlay)
//Storyboard Sound Samples

[TimingPoints]
1750,434.782608695652,4,2,1,60,1,0
8706,-125,4,2,1,60,0,0
12184,-111.111111111111,4,2,1,50,0,0
12619,-111.111111111111,4,2,1,55,0,0
13054,-111.111111111111,4,2,1,60,0,0
13489,-111.111111111111,4,2,1,65,0,0
13706,-111.111111111111,4,2,1,50,0,0
14467,-111.111111111111,4,2,1,55,0,0
14793,-111.111111111111,4,2,1,60,0,0
15228,-111.111111111111,4,2,1,70,0,0
15663,-111.111111111111,4,2,1,60,0,0
16097,-100,4,2,1,75,0,0
22619,-111.111111111111,4,2,1,50,0,0
23054,-100,4,2,1,75,0,0
29576,-111.111111111111,4,2,1,50,0,0
41532,-111.111111111111,4,2,1,60,0,0
43489,-100,4,2,2,65,0,0
53054,-100,4,2,1,65,0,0
53923,-111.111111111111,4,2,1,60,0,0
54358,-111.111111111111,4,2,1,65,0,0
54793,-111.111111111111,4,2,1,70,0,0
55228,-111.111111111111,4,2,1,75,0,0
55663,-100,4,2,1,80,0,0
57402,-100,4,2,1,60,0,0
57836,-90.9090909090909,4,2,1,80,0,1
64358,-90.9090909090909,4,2,1,60,0,1
64793,-90.9090909090909,4,2,1,80,0,1
70228,-90.9090909090909,4,2,1,70,0,1
71315,-100,4,2,1,60,0,0
71749,-90.9090909090909,4,2,1,80,0,1
78271,-90.9090909090909,4,2,1,60,0,1
78706,-90.9090909090909,4,2,1,80,0,1
81749,-90.9090909090909,4,2,1,60,0,1
81967,-90.9090909090909,4,2,1,80,0,1
85228,-100,4,2,1,70,0,0
97184,-100,4,2,1,75,0,0
99141,-100,4,2,1,60,0,0
113054,-100,4,2,2,65,0,0
123489,-100,4,2,1,60,0,0
124358,-100,4,2,1,65,0,0
126967,-100,4,2,1,70,0,0
140880,-125,4,2,1,65,0,0
141967,-125,4,2,1,60,0,0
142619,434.782608695652,4,2,1,65,1,0
156314,-111.111111111111,4,2,1,65,0,0
170445,-100,4,2,1,70,0,0
172184,-125,4,2,1,60,0,0
172619,-125,4,2,1,5,0,0
172836,-125,4,2,1,60,0,0
173488,-125,4,2,1,50,0,0
173923,434.782608695652,4,2,1,40,1,0
180879,-125,4,2,1,50,0,0
182618,-125,4,2,1,55,0,0
184140,-111.111111111111,4,2,1,55,0,0
184357,-111.111111111111,4,2,1,60,0,0
185879,-100,4,2,1,70,0,0
187183,-100,4,2,1,80,0,0
187836,-111.111111111111,4,2,1,60,0,0
188270,-90.9090909090909,4,2,1,80,0,1
194792,-90.9090909090909,4,2,1,60,0,1
195227,-90.9090909090909,4,2,1,80,0,1
198270,-90.9090909090909,4,2,1,60,0,1
198705,-90.9090909090909,4,2,1,65,0,1
199140,-90.9090909090909,4,2,1,70,0,1
199575,-90.9090909090909,4,2,1,75,0,1
199792,-90.9090909090909,4,2,1,80,0,1
201749,-100,4,2,1,60,0,0
205227,-100,4,2,1,70,0,0
206749,-90.9090909090909,4,2,1,80,0,1
207183,-90.9090909090909,4,2,1,60,0,1
207836,-90.9090909090909,4,2,1,70,0,1
208270,-90.9090909090909,4,2,1,80,0,1
208705,-111.111111111111,4,2,1,60,0,0
209140,-100,4,2,1,75,0,1
209249,-100,4,2,1,75,0,0
215662,-111.111111111111,4,2,1,50,0,0
216096,-100,4,2,1,75,0,0
222618,-111.111111111111,4,2,1,50,0,0
223053,-100,4,2,1,75,0,0
229575,-111.111111111111,4,2,1,60,0,0
230009,-100,4,2,1,75,0,0
230444,-100,4,2,1,65,0,0
230662,-100,4,2,1,75,0,0
234575,-100,4,2,1,60,0,0
234792,-100,4,2,1,80,0,0
236096,-100,4,2,1,85,0,0
236966,-100,4,2,1,75,0,0

[Colours]
Combo1 : 223,223,223
Combo2 : 209,225,68
Combo3 : 154,237,31
Combo4 : 208,163,113
Combo5 : 196,174,162
Combo6 : 127,127,127

[HitObjects]
94,156,8706,6,0,P|86:120|71:81,2,64,4|0|0,3:2|0:0|3:0,0:0:0:0:
30,228,9358,1,2,0:0:0:0:
98,296,9576,2,0,P|126:305|173:311,1,64,0|0,3:0|0:0,0:0:0:0:
223,238,10010,1,8,0:0:0:0:
293,334,10228,5,6,3:2:0:0:
293,334,10663,2,0,P|308:307|332:284,1,64,0|8,3:0|0:0,0:0:0:0:
414,231,11097,1,0,3:0:0:0:
414,231,11206,1,0,3:0:0:0:
414,231,11315,2,0,L|442:189,3,32,2|8|8|8,3:2|0:0|0:0|0:0,0:0:0:0:
406,185,11749,2,0,L|400:146,2,32,8|0|0,0:0|3:0|3:0,0:0:0:0:
285,224,12184,6,0,P|255:219|208:192,1,71.9999978027344,6|2,3:2|3:2,0:0:0:0:
166,122,12619,1,2,3:2:0:0:
111,198,12836,1,2,3:2:0:0:
17,159,13054,1,10,0:0:0:0:
9,51,13271,1,10,0:0:0:0:
115,7,13489,1,10,0:0:0:0:
236,51,13706,6,0,P|307:51|380:31,1,143.999995605469,4|8,0:0|0:0,0:0:0:0:
494,14,14358,1,0,3:0:0:0:
494,14,14467,2,0,P|476:52|492:93,1,71.9999978027344,2|0,3:2|0:0,0:0:0:0:
495,113,14793,1,2,0:0:0:0:
436,196,15010,1,0,3:0:0:0:
436,196,15119,1,0,3:0:0:0:
436,196,15228,1,10,0:0:0:0:
235,116,15663,38,0,P|267:136|294:173,1,71.9999978027344,2|0,3:2|0:0,0:0:0:0:
354,262,16097,6,2,B|282:253|282:253|205:315,1,160,14|0,0:0|3:0,0:1:0:0:
202,348,16641,1,8,0:0:0:0:
202,348,16749,1,10,0:0:0:0:
119,298,16967,2,0,P|109:257|113:213,1,80,10|0,0:0|0:0,0:0:0:0:
195,173,17402,5,0,3:0:0:0:
167,81,17619,2,0,P|201:52|247:30,2,80,2|8|0,0:0|0:0|0:0,0:0:0:0:
73,60,18271,2,0,P|67:36|67:17,2,40,2|8|8,3:2|0:0|0:0,0:0:0:0:
26,144,18706,2,0,B|2:180|2:180|17:217,1,80,10|0,0:0|0:0,0:0:0:0:
37,326,19141,6,0,P|63:300|104:272,1,80,0|0,3:0|0:0,0:0:0:0:
200,338,19576,1,10,0:0:0:0:
200,338,20010,2,0,L|186:286,2,40,0|8|10,3:0|0:0|0:0,0:0:0:0:
295,349,20445,2,0,B|320:316|320:316|326:259,1,80,10|0,0:0|0:0,0:0:0:0:
431,223,20880,38,0,P|353:186|300:118,1,160,2|8,3:2|0:0,0:0:0:0:
274,39,21532,1,0,0:0:0:0:
392,3,21749,1,2,3:2:0:0:
392,3,21858,1,8,0:0:0:0:
392,3,21967,2,0,B|431:-1|431:-1|474:20,2,80,8|10|0,0:0|0:0|0:0,0:0:0:0:
274,39,22619,6,0,P|239:53|186:58,1,71.9999978027344,4|0,3:2|0:0,0:0:0:0:
98,142,23054,6,2,P|182:155|227:230,1,160,10|0,3:2|3:0,0:1:0:0:
208,248,23597,1,8,0:0:0:0:
208,248,23706,1,10,0:0:0:0:
126,312,23923,2,0,P|120:272|103:222,1,80,10|0,0:0|0:0,0:0:0:0:
32,175,24358,5,0,3:0:0:0:
86,95,24576,2,0,P|124:74|166:69,2,80,2|8|0,0:0|0:0|0:0,0:0:0:0:
154,178,25228,1,2,3:2:0:0:
154,178,25336,1,8,0:0:0:0:
154,178,25445,1,8,0:0:0:0:
118,267,25663,2,0,B|157:275|157:275|210:247,1,80,10|0,0:0|0:0,0:0:0:0:
246,335,26097,38,0,P|286:335|322:372,1,80,0|0,3:0|0:0,0:0:0:0:
304,242,26532,1,10,0:0:0:0:
304,242,26967,2,0,P|307:223|314:198,2,40,0|8|10,3:0|0:0|0:0,0:0:0:0:
212,271,27402,1,8,0:0:0:0:
126,187,27619,5,6,3:2:0:0:
174,106,27836,2,0,P|173:90|164:61,3,40,2|2|0|0,0:0|0:0|3:0|0:0,0:0:0:0:
137,39,28271,1,10,0:0:0:0:
55,82,28489,1,0,3:0:0:0:
55,82,28597,1,0,3:0:0:0:
55,82,28706,2,0,L|16:72,2,40,10|8|0,0:0|0:0|3:0,0:0:0:0:
16,170,29141,1,10,0:0:0:0:
24,196,29249,1,10,0:0:0:0:
46,212,29358,1,10,0:0:0:0:
74,210,29467,1,10,0:0:0:0:
96,198,29576,6,0,P|168:184|246:180,1,143.999995605469,4|0,0:0|3:0,0:0:0:0:
316,231,30228,1,0,0:0:0:0:
419,165,30445,2,0,P|432:134|431:81,2,71.9999978027344,2|0|0,3:2|0:0|3:0,0:0:0:0:
347,74,31097,6,0,P|304:26|208:25,1,143.999995605469,2|0,0:0|0:0,0:0:0:0:
151,70,31749,2,0,P|135:76|104:78,2,35.9999989013672,0|2|0,3:0|0:0|0:0,0:0:0:0:
225,156,32184,2,0,P|200:213|197:267,2,107.999996704102,2|2|2,3:2|0:0|0:0,0:0:0:0:
305,107,33054,38,0,P|343:97|375:82,2,71.9999978027344,0|2|0,3:0|0:0|3:0,0:0:0:0:
241,47,33706,1,2,0:0:0:0:
241,47,34141,2,0,P|208:34|152:27,1,71.9999978027344,0|0,0:0|3:0,0:0:0:0:
113,100,34576,6,0,P|130:161|145:253,1,143.999995605469,2|0,0:0|0:0,0:0:0:0:
83,312,35228,2,0,P|66:304|30:299,2,35.9999989013672,0|2|0,3:0|0:0|0:0,0:0:0:0:
197,359,35663,2,0,B|235:349|247:336|246:330|257:320|302:315,2,107.999996704102,2|2|2,3:2|0:0|0:0,0:0:0:0:
83,312,36532,6,0,P|72:285|66:224,1,71.9999978027344,0|2,3:0|0:0,0:0:0:0:
10,165,36967,2,0,P|33:130|66:105,1,71.9999978027344,0|0,3:0|0:0,0:0:0:0:
169,53,37402,2,0,P|146:29|106:12,2,71.9999978027344,2|0|0,3:2|0:0|3:0,0:0:0:0:
204,147,38054,1,2,0:0:0:0:
204,147,38489,5,2,0:0:0:0:
284,95,38706,2,0,P|304:85|334:81,2,35.9999989013672,0|2|0,3:0|0:0|0:0,0:0:0:0:
375,165,39141,2,0,P|427:178|484:203,2,107.999996704102,2|2|0,3:2|0:0|0:0,0:0:0:0:
319,272,40010,38,0,B|270:300|244:273|252:267|219:241|180:262,1,143.999995605469,2|0,3:2|3:0,0:0:0:0:
126,335,40663,1,0,0:0:0:0:
55,274,40880,2,0,P|64:242|72:193,1,71.9999978027344,0|2,3:0|0:0,0:0:0:0:
17,126,41315,1,0,3:0:0:0:
60,12,41532,6,0,P|96:75|175:96,1,143.999995605469,14|2,0:0|0:0,0:0:0:0:
239,22,42184,1,8,0:0:0:0:
239,22,42619,2,0,B|266:70|266:70|259:132,1,107.999996704102,0|10,3:0|0:0,0:0:0:0:
270,157,43054,2,0,B|237:174|237:174|214:210,1,71.9999978027344,0|2,3:0|3:2,0:0:0:0:
154,285,43489,6,0,P|193:290|246:315,1,80,12|0,3:2|0:0,0:0:0:0:
314,365,43923,1,10,3:2:0:0:
314,365,44358,1,2,3:2:0:0:
409,295,44576,2,0,L|448:290,2,40,2|2|0,0:0|1:2|3:0,0:0:0:0:
345,221,45010,1,8,0:0:0:0:
256,259,45228,6,0,B|226:232|226:232|215:187,2,80,2|0|2,3:2|1:0|3:2,0:0:0:0:
188,338,45880,1,0,0:0:0:0:
188,338,45989,1,0,0:0:0:0:
188,338,46097,2,0,B|133:312|133:312|65:317,1,120,8|8,0:0|0:0,0:0:0:0:
50,283,46532,2,0,B|69:248|69:248|73:207,1,80,0|8,3:0|0:0,0:0:0:0:
18,100,46967,38,0,P|58:89|104:95,1,80,2|0,3:2|0:0,0:0:0:0:
166,26,47402,1,10,3:2:0:0:
166,26,47836,1,8,3:2:0:0:
255,71,48054,2,0,P|282:65|305:55,2,40,2|2|2,0:0|1:2|3:2,0:0:0:0:
221,160,48489,1,8,0:0:0:0:
128,231,48706,6,0,P|111:274|114:320,2,80,2|0|10,3:2|1:0|0:0,0:0:0:0:
315,322,49576,2,0,B|334:258|334:258|296:199,1,120,10|0,3:2|1:0,0:0:0:0:
265,208,50010,1,0,3:0:0:0:
330,127,50228,1,8,0:0:0:0:
419,206,50445,6,0,P|422:166|445:123,1,80,4|0,3:2|0:0,0:0:0:0:
495,52,50880,1,10,0:0:0:0:
495,52,51315,1,10,3:2:0:0:
407,12,51532,1,0,3:0:0:0:
407,12,51641,1,2,1:2:0:0:
407,12,51749,2,0,B|369:41|369:41|332:26,1,80,0|8,3:0|0:0,0:0:0:0:
272,109,52184,6,0,P|257:79|217:54,2,80,2|0|10,3:2|3:0|0:0,0:0:0:0:
246,199,52836,1,0,0:0:0:0:
143,149,53054,2,0,B|118:198|118:198|139:278,1,120,10|8,0:0|0:0,0:0:0:0:
152,296,53489,2,0,B|188:280|188:280|235:298,1,80,0|8,3:0|0:0,0:0:0:0:
342,356,53923,38,0,P|373:366|417:366,2,71.9999978027344,6|8|8,3:2|0:0|0:0,0:0:0:0:
316,265,54576,1,8,0:0:0:0:
447,278,54793,2,0,P|420:257|396:219,1,71.9999978027344,10|10,0:0|0:0,0:0:0:0:
411,118,55228,1,10,0:0:0:0:
342,34,55445,1,10,0:0:0:0:
253,104,55663,5,10,0:0:0:0:
253,104,55771,1,10,0:0:0:0:
48,263,56315,1,10,0:0:0:0:
48,263,56423,1,10,0:0:0:0:
299,361,56967,2,0,L|288:322,3,40,10|10|10|10,0:0|0:0|0:0|0:0,0:0:0:0:
305,286,57402,1,4,3:2:0:0:
456,62,57836,6,2,B|373:89|373:89|278:49,1,176.000005371094,10|0,0:0|3:0,0:1:0:0:
269,15,58380,1,8,0:0:0:0:
173,59,58597,2,0,B|149:104|149:104|184:196,1,132.00000402832,2|0,0:0|0:0,0:0:0:0:
108,259,59141,2,0,P|73:235|23:233,2,88.000002685547,0|0|10,3:0|0:0|0:0,0:0:0:0:
79,363,59793,2,0,B|129:383|167:344|155:332|193:308|258:343,1,176.000005371094,2|0,0:0|0:0,0:0:0:0:
311,255,60445,1,8,0:0:0:0:
433,340,60663,6,0,P|410:248|407:165,1,176.000005371094,2|0,0:0|0:0,0:0:0:0:
352,76,61315,2,0,P|315:84|267:124,1,88.000002685547,8|0,0:0|0:0,0:0:0:0:
220,226,61749,1,2,3:2:0:0:
123,182,61967,1,0,3:0:0:0:
123,182,62076,2,0,B|87:140|87:140|125:72,1,132.00000402832,2|0,0:0|0:0,0:0:0:0:
209,10,62619,38,0,P|248:26|304:25,1,88.000002685547,0|0,3:0|0:0,0:0:0:0:
415,89,63054,1,10,0:0:0:0:
317,127,63271,2,0,P|299:181|304:310,1,176.000005371094,2|10,0:0|0:0,0:0:0:0:
418,358,63923,2,0,B|467:350|467:350|489:308,1,88.000002685547,8|0,0:0|0:0,0:0:0:0:
457,216,64358,1,4,3:2:0:0:
292,57,64793,6,2,B|236:62|236:62|182:90|182:90|116:101,1,176.000005371094,10|0,0:0|3:0,0:1:0:0:
99,136,65336,1,8,0:0:0:0:
0,213,65554,2,0,P|67:227|110:288,1,132.00000402832,2|0,0:0|0:0,0:0:0:0:
227,341,66097,2,0,P|210:303|215:240,2,88.000002685547,0|0|10,3:0|0:0|0:0,0:0:0:0:
312,279,66749,1,2,0:0:0:0:
421,255,66967,1,0,3:0:0:0:
421,255,67076,1,8,0:0:0:0:
421,255,67184,2,0,B|429:301|429:301|393:342,1,88.000002685547,8|8,0:0|0:0,0:0:0:0:
282,368,67619,6,0,B|234:375|201:331|206:321|174:287|120:302,1,176.000005371094,2|0,0:0|0:0,0:0:0:0:
41,201,68271,2,0,P|83:200|131:170,1,88.000002685547,8|0,0:0|0:0,0:0:0:0:
190,75,68706,1,2,3:2:0:0:
190,75,68815,1,8,0:0:0:0:
190,75,68923,2,0,B|217:99|217:99|228:170,1,88.000002685547,0|8,3:0|0:0,0:0:0:0:
321,270,69358,6,0,P|331:160|387:93,1,176.000005371094,2|0,0:0|0:0,0:0:0:0:
486,206,70010,1,14,0:0:0:0:
432,325,70228,1,0,3:0:0:0:
432,325,70336,1,0,3:0:0:0:
432,325,70445,2,0,P|449:314|482:299,2,44.0000013427735,0|0|0,3:0|3:0|3:0,0:0:0:0:
307,258,70880,1,2,3:2:0:0:
209,292,71097,2,0,P|183:285|162:270,2,44.0000013427735,8|8|4,0:0|0:0|3:2,0:0:0:0:
20,117,71749,38,2,B|0:200|0:200|44:283,1,176.000005371094,10|0,0:0|0:0,0:1:0:0:
66,317,72293,1,8,0:0:0:0:
143,241,72510,2,0,P|214:232|261:268,1,132.00000402832,2|0,0:0|0:0,0:0:0:0:
293,369,73054,2,0,P|327:338|371:318,2,88.000002685547,0|0|10,3:0|0:0|0:0,0:0:0:0:
192,334,73706,1,2,0:0:0:0:
274,268,73923,1,0,3:0:0:0:
274,268,74032,1,0,3:0:0:0:
274,268,74141,2,0,P|283:228|284:173,1,88.000002685547,0|8,3:0|0:0,0:0:0:0:
390,104,74576,6,0,P|315:84|232:24,1,176.000005371094,2|0,0:0|0:0,0:0:0:0:
161,115,75228,2,0,P|146:68|117:29,1,88.000002685547,8|0,0:0|0:0,0:0:0:0:
29,121,75663,1,2,3:2:0:0:
29,121,75771,1,8,0:0:0:0:
29,121,75880,2,0,P|50:158|93:192,1,88.000002685547,0|8,3:0|0:0,0:0:0:0:
8,314,76315,6,0,B|55:269|95:283|90:295|132:314|176:275,1,176.000005371094,2|0,0:0|0:0,0:0:0:0:
271,332,76967,1,8,0:0:0:0:
271,332,77402,2,0,P|277:302|288:279,2,44.0000013427735,2|8|0,3:2|0:0|3:0,0:0:0:0:
391,286,77836,2,0,P|370:240|365:191,1,88.000002685547,8|0,0:0|0:0,0:0:0:0:
448,108,78271,6,0,P|455:68|402:41,1,88.000002685547,4|0,3:2|0:0,0:0:0:0:
312,12,78706,2,2,B|328:70|328:70|268:116,1,132.00000402832,10|0,0:0|0:0,0:1:0:0:
236,86,79141,2,0,P|211:80|184:75,3,44.0000013427735,2|0|2|0,3:2|3:0|3:2|3:0,0:0:0:0:
172,33,79576,1,8,0:0:0:0:
171,166,79793,38,0,P|122:205|9:198,1,176.000005371094,6|0,3:2|3:0,0:0:0:0:
20,86,80445,2,0,B|49:52|49:52|98:39,1,88.000002685547,10|0,0:0|3:0,0:0:0:0:
218,74,80880,2,0,P|227:53|234:25,2,44.0000013427735,2|0|2,3:2|3:0|3:2,0:0:0:0:
359,66,81315,1,10,0:0:0:0:
359,66,81749,6,0,P|339:104|330:159,1,88.000002685547,6|0,3:2|0:0,0:0:0:0:
374,243,82184,1,8,0:0:0:0:
285,300,82402,1,0,3:0:0:0:
285,300,82510,1,0,3:0:0:0:
285,300,82619,2,0,B|209:250|209:250|228:205,1,132.00000402832,2|8,3:2|0:0,0:0:0:0:
216,168,83054,1,8,0:0:0:0:
127,67,83271,6,0,P|92:149|110:241,1,176.000005371094,6|0,3:2|3:0,0:0:0:0:
59,347,83923,2,0,B|150:315|150:315|194:358,1,132.00000402832,8|8,0:0|0:0,0:0:0:0:
213,362,84358,1,2,3:2:0:0:
300,300,84576,1,8,0:0:0:0:
300,300,84684,1,0,3:0:0:0:
300,300,84793,2,0,P|300:275|282:247,2,44.0000013427735,10|8|8,0:0|0:0|0:0,0:0:0:0:
412,342,85228,5,6,3:2:0:0:
456,80,92184,38,0,P|439:115|434:178,1,80,4|0,3:2|0:0,0:0:0:0:
351,233,92619,2,0,P|343:191|314:152,1,80,10|0,0:0|0:0,0:0:0:0:
308,58,93054,1,0,3:0:0:0:
308,58,93163,1,8,0:0:0:0:
308,58,93271,2,0,B|274:80|274:80|219:90,1,80,2|8,3:2|0:0,0:0:0:0:
218,206,93706,6,0,P|153:139|80:98,1,160,2|0,0:0|0:0,0:0:0:0:
21,165,94358,2,0,P|12:181|6:216,2,40,10|10|2,0:0|0:0|0:0,0:0:0:0:
98,261,94793,1,0,0:0:0:0:
98,261,94902,1,8,0:0:0:0:
98,261,95010,2,0,P|109:298|117:354,1,80,0|8,3:0|0:0,0:0:0:0:
231,371,95445,6,2,P|275:310|268:219,1,160,2|2,0:0|0:0,0:1:0:0:
219,147,96097,1,8,0:0:0:0:
275,69,96315,2,2,P|309:57|362:60,1,80,2|0,0:0|0:0,0:1:0:0:
411,158,96749,2,0,P|417:140|439:111,2,40,2|2|10,0:0|0:0|0:0,0:0:0:0:
466,273,97184,6,2,P|390:260|312:200,1,160,4|0,3:2|3:0,0:1:0:0:
258,102,97836,1,10,0:0:0:0:
153,152,98054,1,10,0:0:0:0:
153,152,98163,1,10,0:0:0:0:
153,152,98271,1,0,3:0:0:0:
182,260,98489,1,0,3:0:0:0:
103,328,98706,2,0,P|97:349|94:375,2,40,0|10|10,3:0|0:0|0:0,0:0:0:0:
17,283,99141,37,4,3:2:0:0:
387,159,109358,6,0,L|380:116,3,26.6666666666667,0|0|0|10,3:0|3:0|3:0|0:0,0:0:0:0:
382,132,110663,1,0,3:0:0:0:
350,239,110880,1,8,0:0:0:0:
253,182,111097,6,0,P|173:185|83:218,1,160,4|8,3:2|0:0,0:0:0:0:
42,288,111749,1,0,3:0:0:0:
105,360,111967,1,0,3:0:0:0:
177,297,112184,2,0,B|235:276|235:276|257:333,1,120,8|8,0:0|0:0,0:0:0:0:
282,348,112619,1,10,0:0:0:0:
349,280,112836,1,0,3:2:0:0:
423,374,113054,6,0,P|432:335|456:300,1,80,12|0,3:2|0:0,0:0:0:0:
393,198,113489,1,8,0:0:0:0:
393,198,113923,1,8,0:0:0:0:
443,116,114141,2,0,P|473:105|496:102,2,40,0|2|0,3:0|1:2|3:0,0:0:0:0:
378,44,114576,1,2,0:0:0:0:
306,137,114793,37,10,0:0:0:0:
222,89,115010,2,0,B|198:102|198:102|188:163,2,80,0|10|0,1:0|0:0|0:0,0:0:0:0:
132,12,115663,2,0,P|109:69|52:65,1,120,8|0,0:0|1:0,0:0:0:0:
22,49,116097,1,2,3:2:0:0:
53,159,116315,1,8,0:0:0:0:
8,268,116532,6,0,B|49:257|49:257|104:276,1,80,2|0,3:2|0:0,0:0:0:0:
185,344,116967,1,2,3:2:0:0:
185,344,117402,1,8,0:0:0:0:
285,327,117619,1,0,3:0:0:0:
285,327,117728,1,2,1:2:0:0:
285,327,117836,2,0,P|304:288|307:249,1,80,0|8,3:0|0:0,0:0:0:0:
223,178,118271,5,2,3:2:0:0:
254,70,118489,1,0,1:0:0:0:
357,126,118706,1,8,0:0:0:0:
357,126,119141,2,0,B|414:108|414:108|456:164,1,120,2|8,3:2|0:0,0:0:0:0:
434,193,119576,2,0,P|424:224|418:277,1,80,0|8,3:0|0:0,0:0:0:0:
326,359,120010,6,0,P|297:335|293:266,1,80,6|0,3:2|0:0,0:0:0:0:
338,214,120445,1,2,3:2:0:0:
338,214,120880,1,8,0:0:0:0:
254,128,121097,2,0,P|253:104|257:83,2,40,0|2|0,3:0|1:2|3:0,0:0:0:0:
182,189,121532,1,8,0:0:0:0:
91,158,121749,38,0,P|48:164|5:190,1,80,10|0,3:2|1:0,0:0:0:0:
86,278,122184,1,8,0:0:0:0:
86,278,122619,2,0,B|144:267|144:267|212:310,1,120,10|8,0:0|0:0,0:0:0:0:
234,310,123054,2,0,P|235:273|257:225,1,80,0|8,3:0|0:0,0:0:0:0:
337,148,123489,5,4,3:2:0:0:
423,211,123706,1,10,0:0:0:0:
423,211,123815,1,8,0:0:0:0:
423,211,123923,2,0,B|428:233|428:233|417:262,3,40,8|8|8|8,0:0|0:0|0:0|0:0,0:0:0:0:
428,288,124358,2,0,B|369:277|369:277|312:300,1,120,2|0,3:2|3:0,0:0:0:0:
302,339,124793,1,10,0:0:0:0:
214,233,125010,6,0,P|214:293|137:369,1,160,4|8,3:2|0:0,0:0:0:0:
64,306,125663,1,2,0:0:0:0:
113,209,125880,1,0,3:0:0:0:
21,115,126097,6,0,B|80:129|80:129|127:75,1,120,6|0,3:2|0:0,0:0:0:0:
106,46,126532,1,0,3:0:0:0:
193,4,126749,1,0,3:0:0:0:
293,84,126967,38,0,B|346:93|346:93|363:90|363:90|418:97,2,120,6|2|0,3:2|3:2|3:0,0:0:0:0:
357,184,127836,2,0,B|316:222|316:222|253:205,1,120,10|2,0:0|3:2,0:0:0:0:
243,243,128271,1,0,0:0:0:0:
162,332,128489,6,0,P|151:256|121:179,1,160,0|0,3:0|3:0,0:0:0:0:
92,205,129032,1,0,3:0:0:0:
92,205,129141,1,2,3:2:0:0:
18,143,129358,1,0,0:2:0:0:
88,47,129576,2,0,P|86:18|81:0,2,40,10|10|10,0:0|0:0|0:0,0:0:0:0:
177,80,130010,1,8,0:0:0:0:
298,74,130228,1,8,0:0:0:0:
298,74,130336,1,8,0:0:0:0:
298,74,130445,6,0,P|262:120|250:201,2,120,2|2|0,3:2|3:2|3:0,0:0:0:0:
411,30,131315,2,0,B|465:68|465:68|432:121,1,120,10|8,0:0|0:0,0:0:0:0:
445,152,131749,1,8,0:0:0:0:
463,269,131967,6,0,P|393:231|301:242,1,160,14|10,0:0|0:0,0:0:0:0:
285,327,132619,1,10,0:0:0:0:
198,275,132836,1,0,3:0:0:0:
198,275,132945,1,0,3:0:0:0:
198,275,133054,1,0,3:0:0:0:
93,314,133271,1,10,0:0:0:0:
29,221,133489,1,8,0:0:0:0:
96,131,133706,1,10,0:0:0:0:
200,169,133923,38,0,P|232:117|253:57,2,120,6|2|0,3:2|3:2|3:0,0:0:0:0:
147,69,134793,2,0,B|101:87|101:87|42:139,1,120,10|0,0:0|0:0,0:0:0:0:
47,174,135228,1,8,0:0:0:0:
137,264,135445,1,4,0:0:0:0:
217,211,135663,6,0,P|236:217|263:233,3,40,10|8|8|8,0:0|0:0|0:0|0:0,0:0:0:0:
279,256,136097,2,0,P|296:245|314:240,3,40,0|0|0|0,3:0|3:0|3:0|3:0,0:0:0:0:
343,212,136532,1,2,3:2:0:0:
420,268,136749,2,0,P|428:291|434:319,2,40,0|0|10,3:0|3:0|0:0,0:0:0:0:
469,169,137184,1,10,0:0:0:0:
342,118,137402,6,0,B|329:74|329:74|343:23,1,80,2|8,3:2|0:0,0:0:0:0:
373,21,137728,1,2,3:2:0:0:
207,22,138054,6,0,B|208:67|208:67|181:113,1,80,2|8,3:2|0:0,0:0:0:0:
151,107,138380,1,2,3:2:0:0:
52,259,138706,38,0,B|105:227|105:227|176:238,1,120,14|2,0:0|3:2,0:0:0:0:
182,270,139141,2,0,P|183:293|188:320,2,40,0|0|0,3:0|3:0|3:0,0:0:0:0:
280,197,139576,6,0,P|303:111|311:32,2,160,6|0|0,3:2|3:0|3:0,0:0:0:0:
392,344,140880,6,0,P|381:269|457:184,1,192,6|2,3:2|3:2,0:0:0:0:
303,74,141967,1,0,3:0:0:0:
303,74,142184,1,0,3:0:0:0:
210,242,142619,5,4,3:2:0:0:
264,33,155662,21,4,0:0:0:0:
200,104,155879,1,0,3:0:0:0:
237,192,156097,1,0,3:0:0:0:
347,259,156314,70,0,P|273:276|185:324,1,143.999995605469,4|8,3:2|0:0,0:0:0:0:
112,342,156966,1,2,0:0:0:0:
112,342,157075,2,0,P|124:304|129:264,1,71.9999978027344,0|0,3:0|0:0,0:0:0:0:
92,267,157401,2,0,P|65:225|55:164,1,107.999996704102,2|0,3:2|3:0,0:0:0:0:
79,141,157836,1,0,3:0:0:0:
155,194,158053,1,0,3:0:0:0:
256,156,158271,6,0,P|247:209|243:263,2,107.999996704102,2|0|0,3:2|3:0|3:0,0:0:0:0:
301,74,159140,2,0,P|296:53|289:39,2,35.9999989013672,2|8|0,3:2|0:0|0:0,0:0:0:0:
388,107,159575,1,0,3:0:0:0:
487,50,159792,70,0,P|476:114|496:209,1,143.999995605469,0|0,3:0|0:0,0:0:0:0:
466,224,160336,1,0,3:0:0:0:
466,224,160445,2,0,P|437:240|392:244,1,71.9999978027344,0|0,3:0|3:0,0:0:0:0:
349,140,160879,2,0,P|339:153|328:190,3,35.9999989013672,2|0|0|0,3:2|3:0|3:0|3:0,0:0:0:0:
302,192,161314,2,0,P|278:168|242:139,1,71.9999978027344,0|0,3:0|3:0,0:0:0:0:
273,31,161749,6,0,P|198:66|122:74,1,143.999995605469,2|0,3:2|3:0,0:0:0:0:
95,157,162401,1,0,3:0:0:0:
28,99,162619,1,2,3:2:0:0:
28,99,162727,2,0,B|4:130|4:130|6:182,1,71.9999978027344,8|0,0:0|3:0,0:0:0:0:
16,197,163053,1,2,3:2:0:0:
90,254,163271,1,0,0:0:0:0:
34,362,163488,70,0,P|109:357|170:325,1,143.999995605469,6|0,3:2|3:0,0:0:0:0:
215,242,164140,1,0,3:0:0:0:
312,310,164358,1,2,3:2:0:0:
312,310,164466,2,0,B|349:300|349:300|387:323,1,71.9999978027344,0|0,3:0|3:0,0:0:0:0:
397,347,164792,1,0,3:0:0:0:
442,240,165010,1,0,3:0:0:0:
332,206,165227,6,0,P|311:159|309:82,2,107.999996704102,2|0|0,3:2|3:0|3:0,0:0:0:0:
261,267,166097,2,0,P|241:257|221:248,3,35.9999989013672,2|8|0|0,3:2|0:0|3:0|3:0,0:0:0:0:
203,225,166532,2,0,P|174:241|121:250,1,71.9999978027344,0|0,3:0|3:0,0:0:0:0:
10,280,166966,70,0,P|46:223|56:136,1,143.999995605469,6|0,3:2|3:0,0:0:0:0:
102,66,167619,1,0,3:0:0:0:
197,134,167836,1,2,3:2:0:0:
197,134,167945,2,0,B|233:128|233:128|278:140,1,71.9999978027344,0|0,3:0|3:0,0:0:0:0:
291,163,168271,1,0,3:0:0:0:
237,239,168488,1,0,3:0:0:0:
261,351,168705,6,0,P|186:319|116:327,1,143.999995605469,2|0,3:2|3:0,0:0:0:0:
60,255,169358,1,0,3:0:0:0:
15,170,169575,1,0,3:0:0:0:
15,170,169684,2,0,B|50:154|50:154|91:165,1,71.9999978027344,8|0,0:0|3:0,0:0:0:0:
115,179,170010,1,0,3:0:0:0:
184,86,170227,1,0,3:0:0:0:
281,152,170445,70,0,P|353:141|374:102,2,120,6|0|2,3:2|3:0|3:2,0:0:0:0:
213,226,171314,1,0,3:0:0:0:
213,226,171423,1,8,0:0:0:0:
213,226,171532,2,0,P|207:245|200:277,2,40,2|0|2,3:2|3:0|3:2,0:0:0:0:
142,123,171966,1,2,3:2:0:0:
142,123,172075,1,2,3:2:0:0:
142,123,172184,6,0,P|230:78|303:9,1,192,6|2,3:2|3:2,0:0:0:0:
383,58,173053,1,0,3:0:0:0:
323,133,173271,6,0,P|317:151|317:179,2,32,0|0|2,3:0|3:0|0:0,0:0:0:0:
445,301,173923,5,2,0:0:0:0:
366,103,180879,6,0,P|395:90|425:65,2,64,2|2|0,3:2|0:0|3:0,0:0:0:0:
296,282,181749,2,0,P|329:295|350:317,2,64,0|0|2,3:0|0:0|3:2,0:0:0:0:
230,352,182401,1,0,3:0:0:0:
145,307,182618,6,0,P|134:274|137:229,2,64,2|0|0,3:2|0:0|3:0,0:0:0:0:
10,258,183270,2,0,P|52:205|65:123,1,128,2|8,0:0|0:0,0:0:0:0:
8,69,183923,1,0,3:0:0:0:
96,21,184140,38,0,B|146:14|164:34|161:42|177:67|235:59,1,143.999995605469,2|8,0:0|0:0,0:0:0:0:
321,19,184792,1,10,0:0:0:0:
402,96,185009,1,0,0:0:0:0:
402,96,185118,1,8,0:0:0:0:
402,96,185227,2,0,B|451:78|451:78|489:103,2,71.9999978027344,2|0|8,3:2|3:0|0:0,0:0:0:0:
324,177,185879,6,0,P|308:154|293:140,2,40,2|2|0,0:0|0:0|3:0,0:0:0:0:
251,262,186314,1,2,3:2:0:0:
320,349,186531,1,2,3:2:0:0:
443,315,186749,2,0,B|477:232|477:232|434:174,1,160,8|2,0:0|3:2,0:0:0:0:
451,56,187401,2,0,B|426:83|426:83|379:68,1,80,10|10,0:0|0:0,0:0:0:0:
300,22,187836,6,0,P|277:22|258:28,3,35.9999989013672,0|0|0|0,3:0|3:0|3:0|3:0,0:0:0:0:
237,60,188270,6,2,P|174:115|77:106,1,176.000005371094,4|0,3:2|3:0,0:1:0:0:
30,213,188923,1,2,0:0:0:0:
30,213,189031,2,0,P|41:285|80:343,1,132.00000402832,2|0,0:0|0:0,0:0:0:0:
172,367,189575,38,0,P|196:330|215:273,1,88.000002685547,0|0,3:0|0:0,0:0:0:0:
174,155,190009,1,10,0:0:0:0:
250,82,190227,2,0,P|330:107|407:175,1,176.000005371094,2|8,0:0|0:0,0:0:0:0:
303,209,190879,1,0,3:0:0:0:
390,310,191096,6,0,B|302:302|302:302|218:356,1,176.000005371094,2|0,0:0|0:0,0:0:0:0:
140,289,191749,2,0,P|139:247|117:200,1,88.000002685547,0|0,3:0|0:0,0:0:0:0:
255,138,192183,1,2,3:2:0:0:
255,138,192292,1,8,0:0:0:0:
255,138,192401,2,0,B|234:175|234:175|229:237,1,88.000002685547,0|8,3:0|0:0,0:0:0:0:
150,108,192836,6,0,P|47:79|-7:-5,1,176.000005371094,2|0,0:0|0:0,0:0:0:0:
15,168,193488,1,10,0:0:0:0:
221,31,193923,1,2,3:2:0:0:
221,31,194031,1,8,0:0:0:0:
221,31,194140,2,0,B|264:18|264:18|314:42,2,88.000002685547,0|8|0,3:0|0:0|0:0,0:0:0:0:
192,183,194792,6,0,P|227:160|255:104,1,88.000002685547,4|0,3:2|0:0,0:0:0:0:
353,149,195227,2,2,B|367:190|370:238|370:238|409:213,1,132.00000402832,10|0,0:0|0:0,0:1:0:0:
445,235,195662,2,0,P|448:207|457:184,2,44.0000013427735,2|0|2,3:2|3:0|3:2,0:0:0:0:
481,333,196096,1,8,0:0:0:0:
384,376,196314,38,0,P|304:341|219:312,1,176.000005371094,2|0,0:0|0:0,0:0:0:0:
115,227,196966,2,2,B|163:228|163:228|210:195,1,88.000002685547,2|0,3:2|0:0,0:1:0:0:
170,82,197401,2,0,B|140:76|140:76|120:54,2,44.0000013427735,2|10|10,3:2|0:0|0:0,0:0:0:0:
263,33,197836,2,0,P|299:41|330:93,1,88.000002685547,0|0,3:0|0:0,0:0:0:0:
295,208,198270,5,4,3:2:0:0:
211,272,198488,2,0,B|175:249|175:249|125:267,2,88.000002685547,8|8|10,0:0|0:0|0:0,0:0:0:0:
294,350,199140,1,10,0:0:0:0:
411,312,199357,1,10,0:0:0:0:
456,187,199575,1,10,0:0:0:0:
313,233,199792,6,0,P|278:151|289:52,1,176.000005371094,6|4,3:2|3:2,0:0:0:0:
381,23,200444,1,10,0:0:0:0:
478,87,200662,1,0,3:0:0:0:
478,87,200770,1,0,3:0:0:0:
478,87,200879,2,0,P|475:103|461:140,2,44.0000013427735,2|2|2,3:2|3:2|3:2,0:0:0:0:
442,232,201314,2,0,P|428:241|392:257,2,44.0000013427735,2|0|0,3:2|3:0|3:0,0:0:0:0:
365,350,201749,5,4,3:2:0:0:
365,350,203270,2,0,P|346:340|319:329,2,40,0|0|2,0:0|0:0|0:0,0:0:0:0:
168,99,204792,1,8,3:2:0:0:
48,307,205227,38,0,P|91:301|136:261,1,80,0|10,3:0|0:0,0:0:0:0:
211,314,205662,2,0,P|221:332|226:357,2,40,0|0|0,3:0|3:0|3:0,0:0:0:0:
240,220,206096,2,0,B|250:202|250:202|275:182,3,40,10|8|8|8,0:0|0:0|0:0|0:0,0:0:0:0:
303,178,206531,1,10,0:0:0:0:
400,101,206749,6,2,P|323:84|232:43,1,176.000005371094,6|4,3:2|0:0,0:1:0:0:
132,51,207401,1,2,0:2:0:0:
132,51,207509,2,0,B|101:113|101:113|113:189,1,132.00000402832,0|2,3:0|3:2,0:0:0:0:
191,267,208053,1,0,3:0:0:0:
191,267,208162,1,0,3:0:0:0:
191,267,208270,1,10,0:0:0:0:
360,346,208705,6,0,P|377:311|379:273,1,71.9999978027344,2|0,3:2|0:0,0:0:0:0:
492,237,209140,6,0,P|417:187|364:113,1,160,14|0,0:0|3:0,0:0:0:0:
395,98,209683,1,8,0:0:0:0:
395,98,209792,2,0,P|394:51|384:15,2,80,10|10|0,0:0|0:0|0:0,0:0:0:0:
285,164,210444,37,0,3:0:0:0:
242,68,210662,2,0,B|210:40|210:40|163:24,2,80,2|8|0,0:0|0:0|0:0,0:0:0:0:
165,137,211314,1,2,3:2:0:0:
165,137,211423,1,0,3:0:0:0:
165,137,211531,1,0,3:0:0:0:
117,229,211749,2,0,P|82:197|58:157,1,80,10|0,0:0|0:0,0:0:0:0:
10,62,212183,6,0,B|50:67|50:67|85:27,1,80,0|0,3:0|0:0,0:0:0:0:
186,102,212618,1,10,0:0:0:0:
186,102,213053,2,0,B|189:78|189:78|200:54,2,40,0|8|10,3:0|0:0|0:0,0:0:0:0:
291,141,213488,2,0,P|296:96|276:39,1,80,10|0,0:0|0:0,0:0:0:0:
424,53,213923,6,0,P|398:117|396:228,1,160,2|8,3:2|0:0,0:0:0:0:
438,291,214575,1,0,0:0:0:0:
337,349,214792,1,0,3:0:0:0:
337,349,214901,1,8,0:0:0:0:
337,349,215009,2,0,P|300:328|259:314,2,80,10|10|0,0:0|0:0|0:0,0:0:0:0:
369,228,215662,6,0,P|333:218|290:247,1,71.9999978027344,4|0,3:2|0:0,0:0:0:0:
267,117,216096,38,0,B|218:187|218:187|137:236,1,160,10|0,0:0|3:0,0:0:0:0:
121,201,216640,1,8,0:0:0:0:
121,201,216749,2,0,B|118:157|118:157|93:122,2,80,10|10|0,0:0|0:0|0:0,0:0:0:0:
60,275,217401,5,0,3:0:0:0:
117,351,217618,2,0,P|152:342|207:319,1,80,2|8,0:0|0:0,0:0:0:0:
224,235,218053,1,0,0:0:0:0:
319,307,218270,2,0,B|338:314|338:314|367:314,2,40,2|8|8,3:2|0:0|0:0,0:0:0:0:
354,217,218705,2,0,P|380:189|407:152,1,80,10|0,0:0|0:0,0:0:0:0:
276,156,219140,6,0,B|253:122|253:122|265:68,1,80,0|0,3:0|0:0,0:0:0:0:
367,24,219575,1,10,0:0:0:0:
367,24,220009,1,0,3:0:0:0:
449,74,220227,2,0,B|446:113|446:113|416:140,1,80,2|8,3:2|0:0,0:0:0:0:
296,95,220662,5,4,3:2:0:0:
232,169,220879,2,0,P|225:189|222:216,2,40,2|0|2,0:0|0:0|3:2,0:0:0:0:
154,113,221314,2,0,B|143:91|143:91|141:62,3,40,2|8|10|8,0:0|0:0|0:0|0:0,0:0:0:0:
161,40,221749,1,2,3:2:0:0:
71,6,221966,1,2,3:2:0:0:
10,80,222183,1,0,3:0:0:0:
29,99,222292,1,0,3:0:0:0:
41,124,222401,1,2,3:2:0:0:
40,151,222509,1,2,3:2:0:0:
33,175,222618,38,0,P|22:209|21:249,1,71.9999978027344,4|0,3:2|0:0,0:0:0:0:
112,357,223053,6,0,B|160:372|189:325|183:319|211:284|269:302,1,160,10|0,0:0|3:0,0:0:0:0:
281,335,223596,1,8,0:0:0:0:
281,335,223705,2,0,P|323:349|368:350,2,80,10|10|0,0:0|0:0|0:0,0:0:0:0:
370,254,224357,5,0,3:0:0:0:
300,186,224575,2,0,B|290:143|290:143|304:110,2,80,2|8|0,0:0|0:0|0:0,0:0:0:0:
215,272,225227,1,2,3:2:0:0:
215,272,225336,1,8,0:0:0:0:
215,272,225444,2,0,B|182:249|182:249|138:247,2,80,8|10|0,0:0|0:0|0:0,0:0:0:0:
271,359,226096,6,0,P|297:325|347:312,1,80,0|0,3:0|0:0,0:0:0:0:
310,185,226531,2,0,B|391:238|391:238|452:211,1,160,10|0,0:0|3:0,0:0:0:0:
487,124,227183,1,0,3:0:0:0:
436,41,227401,1,10,0:0:0:0:
317,88,227618,38,0,B|275:70|263:33|263:33|235:54|178:53,1,160,4|0,3:2|3:0,0:0:0:0:
96,18,228270,1,8,0:0:0:0:
32,90,228488,1,2,0:0:0:0:
32,90,228596,1,2,0:0:0:0:
32,90,228705,2,0,P|24:109|18:137,2,40,0|0|0,3:0|3:0|3:0,0:0:0:0:
124,178,229140,2,0,P|92:205|44:223,1,80,10|0,0:0|0:0,0:0:0:0:
81,310,229575,6,0,B|100:325|100:325|130:325,3,35.9999989013672,0|0|0|0,3:0|3:0|3:0|3:0,0:0:0:0:
144,302,230009,6,0,P|211:262|310:280,1,160,14|6,0:0|3:2,0:0:0:0:
314,159,230662,2,0,B|341:190|341:190|398:197,1,80,0|10,3:0|0:0,0:0:0:0:
438,119,231096,1,0,0:0:0:0:
438,119,231531,6,0,P|410:78|382:58,2,80,2|8|2,0:0|0:0|0:0,0:0:0:0:
326,137,232183,2,0,P|305:149|283:169,2,40,0|8|8,3:0|0:0|0:0,0:0:0:0:
282,17,232618,2,0,B|246:36|246:36|230:95,1,80,10|0,0:0|0:0,0:0:0:0:
169,198,233053,38,0,P|158:159|136:114,1,80,2|0,3:2|0:0,0:0:0:0:
32,55,233488,1,8,0:0:0:0:
119,15,233705,2,0,P|137:22|163:33,2,40,2|0|0,0:0|0:0|3:0,0:0:0:0:
238,92,234140,2,0,P|285:77|311:48,1,80,2|8,3:2|0:0,0:0:0:0:
424,129,234575,5,6,3:2:0:0:
349,188,234792,2,0,P|340:204|332:232,2,40,2|2|2,0:0|0:0|3:2,0:0:0:0:
463,224,235227,2,0,B|481:257|481:257|484:305,1,80,10|0,0:0|3:0,0:0:0:0:
460,332,235553,1,0,3:0:0:0:
460,332,235662,2,0,P|475:351|488:376,2,40,10|10|2,0:0|0:0|3:2,0:0:0:0:
346,257,236096,5,10,0:0:0:0:
301,254,236205,1,10,0:0:0:0:
283,294,236314,1,10,0:0:0:0:
312,330,236422,1,10,0:0:0:0:
140,107,236966,5,2,0:0:0:0:
