osu file format v14

[General]
AudioFilename: audio.mp3
AudioLeadIn: 0
PreviewTime: 56532
Countdown: 0
SampleSet: Soft
StackLeniency: 0.7
Mode: 0
LetterboxInBreaks: 0
WidescreenStoryboard: 0

[Editor]
Bookmarks: 15663,29576,43489,57402,71315,85228,99141,113054,126967,142619,156314,173923,187836,208705,222618,236966
DistanceSpacing: 1
BeatDivisor: 2
GridSize: 4
TimelineZoom: 2.599999

[Metadata]
Title:Mela!
TitleUnicode:Mela!
Artist:Todo Kohaku
ArtistUnicode:東堂コハク
Creator:Hinsvar
Version:Darling
Source:
Tags:Toudou Virtual YouTuber VTuber cover 緑黄色社会 Ryokuoushoku Shakai リョクシャカ Ryokushaka にじさんじ Nijisanji 2434 いちから Ichikara Japanese Pop Jazz J-Pop JPop こはたん Kohatan 世怜音女学院 Sereine Jogakuin セレ女 Serejo Selene Girls School
BeatmapID:2637342
BeatmapSetID:1269084

[Difficulty]
HPDrainRate:6
CircleSize:1
OverallDifficulty:8.5
ApproachRate:8.8
SliderMultiplier:2
SliderTickRate:1

[Events]
//Background and Video events
0,0,"kohatan.jpg",0,0
Video,0,"mela.mp4"
//Break Periods
2,85428,91555
2,99341,108729
2,142819,155033
2,174122,180250
//Storyboard Layer 0 (Background)
//Storyboard Layer 1 (Fail)
//Storyboard Layer 2 (Pass)
//Storyboard Layer 3 (Foreground)
//Storyboard Layer 4 (Overlay)
//Storyboard Sound Samples

[TimingPoints]
1750,434.782608695652,4,2,1,60,1,0
8706,-166.666666666667,4,2,1,60,0,0
10228,-125,4,2,1,60,0,0
12184,-125,4,2,1,50,0,0
12619,-125,4,2,1,55,0,0
13054,-125,4,2,1,60,0,0
13489,-125,4,2,1,65,0,0
13706,-250,4,2,1,50,0,0
14467,-100,4,2,1,55,0,0
14793,-83.3333333333333,4,2,1,60,0,0
15228,-62.5,4,2,1,70,0,0
15554,-55.5555555555556,4,2,1,5,0,0
15663,-166.666666666667,4,2,1,60,0,0
16097,-55.5555555555556,4,2,1,75,0,0
16423,-55.5555555555556,4,2,1,5,0,0
16532,-100,4,2,1,75,0,0
17402,-166.666666666667,4,2,1,75,0,0
17836,-100,4,2,1,75,0,0
19141,-83.3333333333333,4,2,1,75,0,0
20010,-100,4,2,1,75,0,0
20880,-166.666666666667,4,2,1,75,0,0
21532,-100,4,2,1,75,0,0
22619,-166.666666666667,4,2,1,50,0,0
23054,-55.5555555555556,4,2,1,75,0,0
23380,-55.5555555555556,4,2,1,5,0,0
23489,-100,4,2,1,75,0,0
24358,-166.666666666667,4,2,1,75,0,0
25228,-100,4,2,1,75,0,0
26097,-83.3333333333333,4,2,1,75,0,0
26967,-100,4,2,1,75,0,0
27619,-100,4,2,1,75,0,0
29576,-166.666666666667,4,2,1,50,0,0
41532,-71.4285714285714,4,2,1,60,0,0
41858,-71.4285714285714,4,2,1,5,0,0
41967,-100,4,2,1,60,0,0
42184,-100,4,2,1,60,0,0
42510,-100,4,2,1,5,0,0
42619,-166.666666666667,4,2,1,60,0,0
43489,-71.4285714285714,4,2,2,65,0,0
44358,-125,4,2,2,65,0,0
46097,-100,4,2,2,65,0,0
46967,-83.3333333333333,4,2,2,65,0,0
47836,-125,4,2,2,65,0,0
48706,-100,4,2,2,65,0,0
50445,-71.4285714285715,4,2,2,65,0,0
51315,-125,4,2,2,65,0,0
53054,-100,4,2,1,65,0,0
53923,-100,4,2,1,60,0,0
54358,-100,4,2,1,65,0,0
54793,-100,4,2,1,70,0,0
55228,-100,4,2,1,75,0,0
55663,-71.4285714285714,4,2,1,80,0,0
56315,-50,4,2,1,80,0,0
57402,-125,4,2,1,60,0,0
57728,-125,4,2,1,5,0,0
57836,-50,4,2,1,80,0,1
58163,-50,4,2,1,5,0,1
58271,-83.3333333333333,4,2,1,80,0,1
58489,-83.3333333333333,4,2,1,5,0,1
58597,-83.3333333333333,4,2,1,80,0,1
59141,-125,4,2,1,80,0,1
59576,-83.3333333333333,4,2,1,80,0,1
60228,-125,4,2,1,80,0,1
60663,-83.3333333333333,4,2,1,80,0,1
62619,-125,4,2,1,80,0,1
63054,-83.3333333333333,4,2,1,80,0,1
64358,-125,4,2,1,60,0,1
64684,-125,4,2,1,5,0,1
64793,-50,4,2,1,80,0,1
65119,-50,4,2,1,5,0,1
65228,-83.3333333333333,4,2,1,80,0,1
65445,-83.3333333333333,4,2,1,5,0,1
65554,-83.3333333333333,4,2,1,80,0,1
69358,-125,4,2,1,80,0,1
70228,-111.111111111111,4,2,1,70,0,1
71315,-125,4,2,1,60,0,0
71641,-125,4,2,1,5,0,0
71749,-50,4,2,1,80,0,1
72076,-50,4,2,1,5,0,1
72184,-83.3333333333333,4,2,1,80,0,1
72402,-83.3333333333333,4,2,1,5,0,1
72510,-83.3333333333333,4,2,1,80,0,1
74141,-125,4,2,1,80,0,1
74576,-83.3333333333333,4,2,1,80,0,1
75880,-125,4,2,1,80,0,1
76315,-83.3333333333333,4,2,1,80,0,1
78271,-125,4,2,1,60,0,1
78706,-50,4,2,1,80,0,1
79141,-83.3333333333333,4,2,1,80,0,1
80880,-166.666666666667,4,2,1,80,0,1
81749,-125,4,2,1,60,0,1
81967,-125,4,2,1,80,0,1
82619,-83.3333333333333,4,2,1,80,0,1
83271,-62.5,4,2,1,80,0,1
84358,-83.3333333333333,4,2,1,80,0,1
85228,-100,4,2,1,70,0,0
94576,-125,4,2,1,70,0,0
96315,-83.3333333333333,4,2,1,70,0,0
97184,-62.5,4,2,1,75,0,0
99141,-62.5,4,2,1,60,0,0
111097,-83.3333333333333,4,2,1,60,0,0
112619,-166.666666666667,4,2,1,60,0,0
113054,-71.4285714285715,4,2,2,65,0,0
113489,-125,4,2,2,65,0,0
115663,-100,4,2,2,65,0,0
116532,-83.3333333333333,4,2,2,65,0,0
116967,-125,4,2,2,65,0,0
118271,-100,4,2,2,65,0,0
120010,-71.4285714285714,4,2,2,65,0,0
120445,-125,4,2,2,65,0,0
122619,-100,4,2,2,65,0,0
123489,-100,4,2,1,60,0,0
124358,-100,4,2,1,65,0,0
125010,-166.666666666667,4,2,1,65,0,0
125336,-166.666666666667,4,2,1,5,0,0
125445,-166.666666666667,4,2,1,65,0,0
126097,-100,4,2,1,65,0,0
126967,-62.5,4,2,1,70,0,0
127836,-71.4285714285714,4,2,1,70,0,0
128054,-71.4285714285714,4,2,1,5,0,0
128163,-83.3333333333333,4,2,1,70,0,0
128380,-83.3333333333333,4,2,1,5,0,0
128489,-125,4,2,1,70,0,0
128815,-125,4,2,1,5,0,0
128923,-166.666666666667,4,2,1,70,0,0
129576,-100,4,2,1,70,0,0
130445,-62.5,4,2,1,70,0,0
131315,-125,4,2,1,70,0,0
131532,-125,4,2,1,5,0,0
131641,-125,4,2,1,70,0,0
132402,-83.3333333333333,4,2,1,70,0,0
132836,-125,4,2,1,70,0,0
133271,-83.3333333333333,4,2,1,70,0,0
133489,-62.5,4,2,1,70,0,0
134793,-71.4285714285714,4,2,1,70,0,0
137402,-50,4,2,1,70,0,0
137728,-100,4,2,1,70,0,0
137836,-100,4,2,1,5,0,0
138054,-62.5,4,2,1,70,0,0
138380,-125,4,2,1,70,0,0
138489,-125,4,2,1,5,0,0
138706,-125,4,2,1,70,0,0
139358,-166.666666666667,4,2,1,70,0,0
139576,-250.000000000001,4,2,1,70,0,0
140880,-125,4,2,1,65,0,0
141967,-125,4,2,1,60,0,0
142619,434.782608695652,4,2,1,65,1,0
156314,-125,4,2,1,65,0,0
157401,-100,4,2,1,65,0,0
160010,-125,4,2,1,65,0,0
160879,-100,4,2,1,65,0,0
163488,-125,4,2,1,65,0,0
165227,-100,4,2,1,65,0,0
166966,-83.3333333333333,4,2,1,65,0,0
170445,-83.3333333333333,4,2,1,70,0,0
172184,-166.666666666667,4,2,1,60,0,0
172619,-166.666666666667,4,2,1,5,0,0
172836,-166.666666666667,4,2,1,60,0,0
173488,-250.000000000001,4,2,1,50,0,0
173923,434.782608695652,4,2,1,40,1,0
180879,-250.000000000001,4,2,1,50,0,0
181749,-200.000000000001,4,2,1,50,0,0
182618,-166.666666666667,4,2,1,55,0,0
183488,-142.857142857143,4,2,1,55,0,0
184357,-125,4,2,1,60,0,0
185227,-111.111111111111,4,2,1,60,0,0
185879,-71.4285714285714,4,2,1,70,0,0
186096,-100,4,2,1,70,0,0
186423,-100,4,2,1,5,0,0
186531,-100,4,2,1,70,0,0
186640,-100,4,2,1,5,0,0
186749,-100,4,2,1,70,0,0
187183,-50,4,2,1,80,0,0
187292,-50,4,2,1,5,0,0
187401,-50,4,2,1,80,0,0
187836,-166.666666666667,4,2,1,60,0,0
188270,-50,4,2,1,80,0,1
188596,-50,4,2,1,5,0,1
188705,-83.3333333333333,4,2,1,80,0,1
189031,-83.3333333333333,4,2,1,80,0,1
189575,-125,4,2,1,80,0,1
190009,-83.3333333333333,4,2,1,80,0,1
192401,-125,4,2,1,80,0,1
192836,-83.3333333333333,4,2,1,80,0,1
194792,-125,4,2,1,60,0,1
195227,-50,4,2,1,80,0,1
195662,-83.3333333333333,4,2,1,80,0,1
196314,-125,4,2,1,80,0,1
196966,-71.4285714285714,4,2,1,80,0,1
197292,-71.4285714285714,4,2,1,5,0,1
197401,-83.3333333333333,4,2,1,80,0,1
197836,-125,4,2,1,80,0,1
198270,-83.3333333333333,4,2,1,60,0,1
198705,-83.3333333333333,4,2,1,65,0,1
199140,-83.3333333333333,4,2,1,70,0,1
199575,-83.3333333333333,4,2,1,75,0,1
199792,-62.5,4,2,1,80,0,1
201749,-250,4,2,1,60,0,0
205227,-83.3333333333333,4,2,1,70,0,0
206749,-62.5,4,2,1,80,0,1
207075,-62.5,4,2,1,5,0,1
207183,-83.3333333333333,4,2,1,60,0,1
207401,-125,4,2,1,60,0,1
207836,-125,4,2,1,70,0,1
208270,-62.5,4,2,1,80,0,1
208596,-62.5,4,2,1,5,0,1
208705,-166.666666666667,4,2,1,60,0,0
209140,-55.5555555555556,4,2,1,75,0,1
209249,-55.5555555555556,4,2,1,75,0,0
209466,-55.5555555555556,4,2,1,5,0,0
209575,-100,4,2,1,75,0,0
210444,-166.666666666667,4,2,1,75,0,0
210879,-100,4,2,1,75,0,0
212183,-83.3333333333333,4,2,1,75,0,0
213053,-100,4,2,1,75,0,0
213923,-166.666666666667,4,2,1,75,0,0
214575,-100,4,2,1,75,0,0
215662,-166.666666666667,4,2,1,50,0,0
216096,-55.5555555555556,4,2,1,75,0,0
216423,-55.5555555555556,4,2,1,5,0,0
216531,-100,4,2,1,75,0,0
217618,-166.666666666667,4,2,1,75,0,0
218270,-100,4,2,1,75,0,0
219140,-83.3333333333333,4,2,1,75,0,0
220009,-100,4,2,1,75,0,0
222618,-166.666666666667,4,2,1,50,0,0
223053,-55.5555555555556,4,2,1,75,0,0
223379,-55.5555555555556,4,2,1,5,0,0
223488,-100,4,2,1,75,0,0
224357,-166.666666666667,4,2,1,75,0,0
224792,-100,4,2,1,75,0,0
226531,-83.3333333333333,4,2,1,75,0,0
227618,-83.3333333333333,4,2,1,75,0,0
228270,-100,4,2,1,75,0,0
229575,-100,4,2,1,60,0,0
230009,-55.5555555555556,4,2,1,75,0,0
230336,-55.5555555555556,4,2,1,5,0,0
230444,-100,4,2,1,65,0,0
230553,-100,4,2,1,5,0,0
230662,-100,4,2,1,75,0,0
230770,-100,4,2,1,5,0,0
230879,-100,4,2,1,75,0,0
233053,-83.3333333333333,4,2,1,75,0,0
233488,-100,4,2,1,75,0,0
234575,-100,4,2,1,60,0,0
234792,-71.4285714285714,4,2,1,80,0,0
236096,-71.4285714285714,4,2,1,85,0,0
236422,-58.8235294117647,4,2,1,85,0,0
236531,-58.8235294117647,4,2,1,5,0,0
236966,-76.9230769230769,4,2,1,75,0,0
237401,-76.9230769230769,4,2,1,5,0,0

[Colours]
Combo1 : 223,223,223
Combo2 : 209,225,68
Combo3 : 154,237,31
Combo4 : 208,163,113
Combo5 : 196,174,162
Combo6 : 127,127,127

[HitObjects]
15,333,8706,6,0,P|51:330|50:307,2,59.9999981689454,4|0|0,3:2|0:0|3:0,0:0:0:0:
108,199,9358,1,2,0:0:0:0:
199,319,9576,2,0,P|201:287|187:259,1,59.9999981689454,0|0,3:0|0:0,0:0:0:0:
235,130,10010,1,8,0:0:0:0:
420,347,10228,6,0,B|377:300|377:300|397:193,1,160,6|0,3:2|3:0,0:0:0:0:
499,258,10880,1,8,0:0:0:0:
261,346,11097,5,0,3:0:0:0:
245,333,11206,1,0,3:0:0:0:
224,331,11315,1,0,3:0:0:0:
163,279,11423,5,8,0:0:0:0:
242,286,11532,1,8,0:0:0:0:
301,232,11641,1,8,0:0:0:0:
287,153,11749,1,8,0:0:0:0:
269,162,11858,37,0,3:0:0:0:
279,177,11967,1,0,3:0:0:0:
33,335,12184,5,6,3:2:0:0:
27,319,12402,1,2,3:2:0:0:
49,276,12619,1,2,3:2:0:0:
148,326,12836,1,2,3:2:0:0:
393,168,13054,5,10,0:0:0:0:
247,254,13271,1,10,0:0:0:0:
12,120,13489,1,10,0:0:0:0:
194,17,13706,6,0,P|189:56|179:95,1,80,4|8,0:0|0:0,0:0:0:0:
371,212,14358,37,0,3:0:0:0:
378,198,14467,2,0,B|331:215|331:215|267:221,1,100,2|0,3:2|0:0,0:0:0:0:
217,341,14793,6,0,P|210:309|188:279,1,59.9999981689454,2|0,0:0|0:0,0:0:0:0:
66,166,15010,1,0,3:0:0:0:
55,180,15119,1,0,3:0:0:0:
29,122,15228,6,0,B|120:116|120:116|177:162|177:162|257:173,1,240,10|0,0:0|0:0,0:0:0:0:
286,80,15663,6,0,P|285:111|299:148,1,59.9999981689454,2|0,3:2|0:0,0:0:0:0:
435,284,16097,38,2,P|361:266|178:332,1,269.999991760254,14|0,0:0|0:0,0:1:0:0:
77,363,16532,5,0,3:0:0:0:
45,289,16641,1,8,0:0:0:0:
66,300,16749,1,10,0:0:0:0:
196,186,16967,2,0,B|206:152|206:152|188:88,1,100,10|0,0:0|0:0,0:0:0:0:
396,11,17402,6,0,P|371:27|337:32,1,59.9999981689454,0|2,3:0|0:0,0:0:0:0:
473,239,17836,2,0,B|440:204|440:204|389:190,1,100,8|0,0:0|0:0,0:0:0:0:
170,121,18271,1,2,3:2:0:0:
212,189,18380,1,8,0:0:0:0:
222,166,18489,1,8,0:0:0:0:
95,318,18706,2,0,B|45:326|45:326|38:263,1,100,10|0,0:0|0:0,0:0:0:0:
113,36,19141,6,0,P|134:83|160:155,1,119.999996337891,0|0,3:0|0:0,0:0:0:0:
282,344,19576,1,10,0:0:0:0:
271,321,20010,1,0,3:0:0:0:
299,246,20119,1,8,0:0:0:0:
279,259,20228,1,10,0:0:0:0:
454,360,20445,2,0,B|422:291|422:291|438:236,1,100,10|0,0:0|0:0,0:0:0:0:
489,98,20880,38,0,P|446:52|376:60,1,119.999996337891,2|8,3:2|0:0,0:0:0:0:
158,176,21532,2,0,P|175:191|214:201,1,50
342,171,21749,1,2,3:2:0:0:
303,241,21858,1,8,0:0:0:0:
315,262,21967,1,8,0:0:0:0:
62,349,22184,2,0,B|35:306|35:306|52:250,1,100,10|0,0:0|0:0,0:0:0:0:
197,175,22619,6,0,P|206:140|210:102,1,59.9999981689454,4|0,3:2|0:0,0:0:0:0:
385,271,23054,6,2,P|388:167|283:28,1,269.999991760254,10|0,3:2|0:0,0:1:0:0:
182,99,23489,5,0,3:0:0:0:
160,175,23597,1,8,0:0:0:0:
183,167,23706,1,10,0:0:0:0:
440,89,23923,2,0,B|390:86|390:86|349:140,1,100,10|0,0:0|0:0,0:0:0:0:
202,350,24358,37,0,3:0:0:0:
233,245,24576,2,0,P|226:205|218:178,2,59.9999981689454,2|8|0,0:0|0:0|0:0,0:0:0:0:
482,292,25228,1,2,3:2:0:0:
417,337,25336,1,8,0:0:0:0:
425,313,25445,1,8,0:0:0:0:
335,156,25663,2,0,B|313:109|313:109|334:51,1,100,10|0,0:0|0:0,0:0:0:0:
219,277,26097,6,0,P|167:237|94:218,1,119.999996337891,0|0,3:0|0:0,0:0:0:0:
18,20,26532,1,10,0:0:0:0:
26,46,26967,1,0,3:0:0:0:
103,23,27076,1,8,0:0:0:0:
90,44,27184,2,0,P|87:84|111:152,1,100,10|8,0:0|0:0,0:0:0:0:
281,348,27619,5,6,3:2:0:0:
382,223,27836,1,2,0:0:0:0:
373,217,27945,1,2,0:0:0:0:
364,211,28054,2,0,P|341:221|304:226,1,50,0|0,3:0|0:0,0:0:0:0:
184,123,28271,5,10,0:0:0:0:
188,142,28380,1,8,0:0:0:0:
241,82,28489,37,0,3:0:0:0:
164,60,28597,1,0,3:0:0:0:
109,118,28706,5,10,0:0:0:0:
71,104,28815,2,0,B|57:74|57:74|67:50,2,50,8|0|0,0:0|3:0|0:0,0:0:0:0:
37,230,29141,5,10,0:0:0:0:
74,217,29249,1,10,0:0:0:0:
174,224,29358,1,10,0:0:0:0:
247,292,29467,1,10,0:0:0:0:
352,301,29576,6,0,P|379:261|377:178,1,119.999996337891,4|0,0:0|3:0,0:0:0:0:
501,227,30228,1,0,0:0:0:0:
372,48,30445,2,0,P|339:34|295:32,1,59.9999981689454,2|0,3:2|0:0,0:0:0:0:
267,69,30771,1,2,0:0:0:0:
273,83,30880,1,0,3:0:0:0:
94,223,31097,38,0,P|152:237|202:194,1,119.999996337891,2|0,0:0|0:0,0:0:0:0:
384,334,31749,1,0,3:0:0:0:
363,295,31858,2,0,P|390:295|410:301,1,29.9999990844727,2|0,0:0|0:0,0:0:0:0:
407,317,32184,6,0,P|376:317|331:329,1,59.9999981689454,2|0,3:2|0:0,0:0:0:0:
297,352,32510,1,2,0:0:0:0:
285,343,32619,1,8,0:0:0:0:
388,163,32836,1,2,0:0:0:0:
268,244,33054,5,0,3:0:0:0:
193,162,33271,2,0,P|208:191|224:230,2,59.9999981689454,2|0|2,0:0|3:0|0:0,0:0:0:0:
59,23,33923,2,0,P|40:58|24:124,1,89.9999972534181,2|0,3:2|0:0,0:0:0:0:
49,159,34358,1,0,3:0:0:0:
131,284,34576,6,0,P|153:238|167:153,1,119.999996337891,2|0,0:0|0:0,0:0:0:0:
268,36,35228,1,0,3:0:0:0:
255,63,35336,2,0,P|270:66|288:72,2,29.9999990844727,2|0|0,0:0|0:0|0:0,0:0:0:0:
202,34,35663,2,0,P|194:76|189:142,1,89.9999972534181,2|2,3:2|0:0,0:0:0:0:
146,165,36097,2,0,B|123:148|123:148|103:123,1,59.9999981689454,8|2,0:0|0:0,0:0:0:0:
43,299,36532,38,0,P|68:285|107:278,1,59.9999981689454,0|2,3:0|0:0,0:0:0:0:
263,345,36967,2,0,P|278:311|287:268,1,59.9999981689454,0|0,3:0|0:0,0:0:0:0:
332,256,37293,1,0,0:0:0:0:
346,253,37402,2,0,P|327:225|316:189,2,59.9999981689454,2|0|0,3:2|0:0|3:0,0:0:0:0:
430,43,38054,6,0,P|375:74|312:83,1,119.999996337891,2|2,0:0|0:0,0:0:0:0:
104,34,38706,1,0,3:0:0:0:
88,60,38815,2,0,P|74:52|61:45,1,29.9999990844727,2|0,0:0|0:0,0:0:0:0:
39,68,39141,6,0,P|80:57|144:25,1,89.9999972534181,2|2,3:2|0:0,0:0:0:0:
12,108,39576,2,0,B|45:110|45:110|76:138,1,59.9999981689454,8|0,0:0|0:0,0:0:0:0:
269,231,40010,6,0,P|232:236|208:253,1,59.9999981689454,2|2,3:2|0:0,0:0:0:0:
185,301,40336,1,2,0:0:0:0:
193,314,40445,2,0,L|241:329,2,29.9999990844727,0|0|2,3:0|0:0|0:0,0:0:0:0:
410,231,40880,1,0,3:0:0:0:
292,33,41097,2,0,P|295:71|305:102,1,59.9999981689454,2|0,0:0|3:0,0:0:0:0:
182,205,41532,38,0,B|123:175|105:137|105:137|75:173|12:191,1,209.999993591309,14|0,0:0|0:0,0:0:0:0:
24,209,41967,6,0,P|59:194|84:177,1,50,2|0,0:0|0:0,0:0:0:0:
215,80,42184,1,8,0:0:0:0:
215,80,42293,2,0,B|265:77|265:77|303:129,1,100,2|0,0:0|0:0,0:0:0:0:
323,269,42619,5,0,3:0:0:0:
345,299,42945,1,10,0:0:0:0:
356,289,43054,2,0,P|356:250|361:221,1,59.9999981689454,0|2,3:0|3:2,0:0:0:0:
110,351,43489,6,0,P|68:282|6:232,1,139.999995727539,12|0,3:2|0:0,0:0:0:0:
160,48,43923,1,10,3:2:0:0:
184,32,44358,1,2,3:2:0:0:
347,157,44576,1,2,0:0:0:0:
398,127,44684,1,2,1:2:0:0:
389,109,44793,2,0,B|385:66|385:66|413:23,1,80,0|8,3:0|0:0,0:0:0:0:
282,359,45228,37,2,3:2:0:0:
469,317,45445,2,0,P|430:316|386:301,1,80,0|2,1:0|3:2,0:0:0:0:
176,198,45880,2,0,P|195:191|229:185,1,40
293,254,46097,2,0,B|328:211|361:152|361:152|321:163,1,150,8|8,0:0|0:0,0:0:0:0:
369,33,46532,2,0,B|306:63|306:63|278:45,1,100,0|8,3:0|0:0,0:0:0:0:
136,249,46967,6,0,P|137:306|171:355,1,119.999996337891,2|0,3:2|0:0,0:0:0:0:
372,203,47402,1,10,3:2:0:0:
385,230,47836,1,8,3:2:0:0:
160,162,48054,1,2,0:0:0:0:
140,105,48163,1,2,1:2:0:0:
156,120,48271,1,2,3:2:0:0:
305,21,48489,1,8,0:0:0:0:
71,266,48706,6,0,P|125:267|181:284,1,100,2|0,3:2|1:0,0:0:0:0:
351,353,49141,1,10,0:0:0:0:
351,353,49576,2,0,B|308:289|308:289|337:189,1,150,10|0,3:2|1:0,0:0:0:0:
387,332,50010,2,0,B|442:334|442:334|430:283,1,100,0|8,3:0|0:0,0:0:0:0:
459,53,50445,6,0,P|397:93|329:106,1,139.999995727539,4|0,3:2|0:0,0:0:0:0:
132,15,50880,1,10,0:0:0:0:
145,25,51315,1,10,3:2:0:0:
89,214,51532,1,0,3:0:0:0:
43,253,51641,1,2,1:2:0:0:
46,233,51749,2,0,P|26:182|0:151,1,80,0|8,3:0|0:0,0:0:0:0:
266,65,52184,37,2,3:2:0:0:
154,126,52402,1,0,3:0:0:0:
321,246,52619,2,0,B|281:250|281:250|243:227,1,80,10|0,0:0|0:0,0:0:0:0:
41,350,53054,2,0,B|90:339|114:324|114:324|136:338|190:341,1,150,10|8,0:0|0:0,0:0:0:0:
237,252,53489,1,0,3:0:0:0:
130,94,53706,1,8,0:0:0:0:
13,206,53923,5,6,3:2:0:0:
20,213,54141,1,8,0:0:0:0:
48,222,54358,1,8,0:0:0:0:
101,197,54576,1,8,0:0:0:0:
191,107,54793,5,10,0:0:0:0:
348,48,55010,1,10,0:0:0:0:
501,197,55228,1,10,0:0:0:0:
256,353,55445,1,10,0:0:0:0:
50,155,55663,5,10,0:0:0:0:
25,230,55771,2,0,P|66:221|95:217,1,69.9999978637696,10|0,0:0|3:0,0:0:0:0:
394,138,56315,37,10,0:0:0:0:
348,48,56423,2,0,B|397:67|397:67|454:45,1,100,10|0,0:0|3:0,0:0:0:0:
458,74,56967,5,10,0:0:0:0:
393,121,57076,1,10,0:0:0:0:
313,123,57184,1,10,0:0:0:0:
240,89,57293,1,10,0:0:0:0:
176,39,57402,6,0,P|129:80|119:150,1,120,4|0,3:2|0:0,0:0:0:0:
137,327,57836,6,2,B|172:262|166:189|166:189|96:160|3:202,1,300,10|0,0:0|0:0,0:1:0:0:
10,332,58271,37,0,3:0:0:0:
23,359,58380,2,0,P|30:314|43:267,1,59.9999981689454,8|0,0:0|0:0,0:0:0:0:
168,372,58597,2,0,P|139:273|130:186,1,179.999994506836,2|0,0:0|0:0,0:0:0:0:
119,27,59141,6,0,P|169:59|216:61,1,80,0|0,3:0|0:0,0:0:0:0:
293,271,59576,1,10,0:0:0:0:
415,55,59793,2,0,P|476:59|451:111,1,119.999996337891,2|0,0:0|3:0,0:0:0:0:
368,175,60119,1,8,0:0:0:0:
344,154,60228,2,0,B|305:136|305:136|255:172,1,80,0|8,0:0|0:0,0:0:0:0:
9,281,60663,6,0,B|72:249|131:294|111:304|168:358|234:328,1,239.999992675781,2|0,0:0|0:0,0:0:0:0:
105,130,61315,2,0,B|142:176|142:176|207:155,1,119.999996337891,8|0,0:0|0:0,0:0:0:0:
342,41,61749,1,2,3:2:0:0:
334,70,61858,1,0,3:0:0:0:
305,78,61967,1,0,3:0:0:0:
285,55,62076,2,0,P|368:7|447:27,1,179.999994506836,2|0,0:0|0:0,0:0:0:0:
415,285,62619,6,0,P|431:260|438:192,1,80,0|0,3:0|0:0,0:0:0:0:
275,26,63054,1,10,0:0:0:0:
106,89,63271,2,0,P|167:98|185:160,1,119.999996337891,2|0,0:0|3:0,0:0:0:0:
111,221,63597,1,8,0:0:0:0:
81,228,63706,1,10,0:0:0:0:
189,348,63923,2,0,B|216:340|237:314|237:314|266:338|290:338,1,119.999996337891,8|0,0:0|0:0,0:0:0:0:
443,179,64358,38,0,P|438:130|422:174,1,120,4|0,3:2|0:0,0:0:0:0:
420,291,64793,6,2,P|434:172|298:59,1,300,10|0,0:0|0:0,0:1:0:0:
267,174,65228,5,0,3:0:0:0:
245,194,65336,2,0,P|238:157|226:119,1,59.9999981689454,8|0,0:0|0:0,0:0:0:0:
247,300,65554,2,0,P|289:213|374:147,1,179.999994506836,2|0,0:0|0:0,0:0:0:0:
38,129,66097,6,0,P|82:176|145:157,1,119.999996337891,0|0,3:0|0:0,0:0:0:0:
285,57,66532,1,10,0:0:0:0:
368,276,66749,2,0,P|377:222|423:159,1,119.999996337891,2|0,0:0|3:0,0:0:0:0:
494,248,67076,1,8,0:0:0:0:
480,281,67184,1,8,0:0:0:0:
277,364,67402,1,8,0:0:0:0:
302,105,67619,38,0,P|210:185|81:198,1,239.999992675781,2|0,0:0|0:0,0:0:0:0:
6,35,68271,2,0,B|68:22|68:22|125:75,1,119.999996337891,8|0,0:0|0:0,0:0:0:0:
304,250,68706,1,2,3:2:0:0:
236,211,68815,1,8,0:0:0:0:
232,186,68923,2,0,P|272:120|325:137,1,119.999996337891,0|8,3:0|0:0,0:0:0:0:
403,332,69358,6,0,P|442:278|442:153,1,160,2|0,0:0|0:0,0:0:0:0:
199,19,70010,1,14,0:0:0:0:
352,183,70228,5,0,3:0:0:0:
340,169,70336,1,0,3:0:0:0:
323,177,70445,2,0,L|259:187,2,44.999998626709,0|0|0,3:0|3:0|3:0,0:0:0:0:
210,315,70880,2,0,P|183:291|125:282,1,89.9999972534181,2|8,3:2|0:0,0:0:0:0:
11,322,71206,1,8,0:0:0:0:
42,339,71315,6,0,P|79:266|55:221,1,120,4|0,3:2|0:0,0:0:0:0:
264,58,71749,38,2,P|111:161|-20:134,1,300,10|4,0:0|0:0,0:1:0:0:
59,26,72184,5,0,3:0:0:0:
83,42,72293,2,0,P|105:29|159:11,1,59.9999981689454,8|0,0:0|0:0,0:0:0:0:
222,185,72510,2,0,P|219:84|290:30,1,179.999994506836,2|0,0:0|0:0,0:0:0:0:
481,197,73054,6,0,P|429:223|368:223,1,119.999996337891,0|0,3:0|0:0,0:0:0:0:
259,32,73489,1,10,0:0:0:0:
151,161,73706,2,0,P|202:163|209:231,1,119.999996337891,2|0,0:0|3:0,0:0:0:0:
96,321,74032,1,0,3:0:0:0:
82,293,74141,2,0,B|48:269|48:269|8:282,1,80,0|8,3:0|0:0,0:0:0:0:
330,371,74576,6,0,B|405:351|397:280|389:285|384:212|471:195,1,239.999992675781,2|0,0:0|0:0,0:0:0:0:
248,266,75228,2,0,P|240:198|203:143,1,119.999996337891,8|0,0:0|0:0,0:0:0:0:
6,20,75663,1,2,3:2:0:0:
79,45,75771,1,8,0:0:0:0:
65,69,75880,2,0,B|72:108|72:108|115:70,1,80,0|8,3:0|0:0,0:0:0:0:
69,281,76315,38,0,P|152:211|303:203,1,239.999992675781,2|0,0:0|0:0,0:0:0:0:
453,29,76967,2,0,B|433:76|433:76|461:148,1,119.999996337891,8|0,0:0|0:0,0:0:0:0:
403,347,77402,1,2,3:2:0:0:
364,280,77510,1,8,0:0:0:0:
372,257,77619,2,0,P|324:274|239:281,2,119.999996337891,0|8|0,3:0|0:0|0:0,0:0:0:0:
293,80,78271,6,0,P|318:113|367:136,1,80,4|0,3:2|0:0,0:0:0:0:
125,140,78706,6,2,P|228:73|435:39,1,300,10|0,0:0|0:0,0:1:0:0:
476,120,79141,5,2,3:2:0:0:
486,134,79249,1,0,3:0:0:0:
477,149,79358,1,2,3:2:0:0:
483,165,79467,1,0,3:0:0:0:
482,183,79576,1,8,0:0:0:0:
351,350,79793,38,0,P|363:226|274:227,1,239.999992675781,6|0,3:2|3:0,0:0:0:0:
80,354,80445,1,10,0:0:0:0:
5,268,80663,5,0,3:0:0:0:
59,123,80880,2,0,P|84:128|104:137,1,29.9999990844727,2|0,3:2|0:0,0:0:0:0:
98,109,81097,2,0,P|115:127|126:146,1,29.9999990844727,2|0,3:2|0:0,0:0:0:0:
257,55,81315,1,10,0:0:0:0:
257,55,81749,6,0,P|259:97|277:147,1,80,6|0,3:2|0:0,0:0:0:0:
405,11,82184,1,8,0:0:0:0:
492,169,82402,1,0,3:0:0:0:
500,215,82510,1,0,3:0:0:0:
469,256,82619,6,0,B|424:234|395:207|395:207|348:215|309:251,1,179.999994506836,2|8,3:2|0:0,0:0:0:0:
241,327,83054,1,8,0:0:0:0:
156,28,83271,38,0,P|66:177|114:307,1,320,6|0,3:2|3:0,0:0:0:0:
229,169,83923,1,8,0:0:0:0:
222,154,84249,5,8,0:0:0:0:
243,142,84358,2,0,P|305:149|366:176,1,119.999996337891,2|8,3:2|0:0,0:0:0:0:
431,288,84684,1,0,3:0:0:0:
436,309,84793,5,10,0:0:0:0:
495,259,84902,1,8,0:0:0:0:
467,186,85010,1,8,0:0:0:0:
268,342,85228,5,6,3:2:0:0:
42,38,92184,38,0,P|73:77|97:127,1,100,4|0,3:2|0:0,0:0:0:0:
246,234,92619,2,0,P|228:289|188:292,1,100,10|0,0:0|0:0,0:0:0:0:
391,356,93054,1,0,3:0:0:0:
373,337,93163,1,8,0:0:0:0:
413,286,93271,2,0,P|423:241|424:180,1,100,2|8,3:2|0:0,0:0:0:0:
169,154,93706,6,0,P|259:118|297:1,1,200,2|0,0:0|0:0,0:0:0:0:
84,66,94358,1,10,0:0:0:0:
62,77,94467,1,10,0:0:0:0:
39,71,94576,2,0,P|106:48|167:51,1,120,2|8,0:0|0:0,0:0:0:0:
196,147,95010,1,0,3:0:0:0:
82,247,95228,1,8,0:0:0:0:
349,355,95445,6,2,P|343:276|314:202,1,160,2|0,0:0|0:0,0:1:0:0:
228,306,96097,1,8,0:0:0:0:
160,56,96315,6,2,P|246:126|384:112,1,239.999992675781,2|2,0:0|0:0,0:1:0:0:
362,15,96858,1,2,0:0:0:0:
333,22,96967,1,10,0:0:0:0:
52,48,97184,38,2,P|145:124|114:308,1,320,4|0,3:2|3:0,0:1:0:0:
266,80,97836,1,10,0:0:0:0:
416,225,98054,1,10,0:0:0:0:
444,150,98163,1,10,0:0:0:0:
453,172,98271,5,0,3:0:0:0:
301,299,98489,1,0,3:0:0:0:
167,212,98706,5,0,3:0:0:0:
133,180,98815,1,10,0:0:0:0:
179,168,98923,1,10,0:0:0:0:
75,353,99141,5,4,3:2:0:0:
207,148,109358,37,0,3:0:0:0:
215,154,109431,5,0,3:0:0:0:
223,159,109503,5,0,3:0:0:0:
231,165,109576,5,10,0:0:0:0:
256,196,110663,1,0,3:0:0:0:
309,86,110880,1,8,0:0:0:0:
75,252,111097,38,0,P|60:156|4:14,1,239.999992675781,4|8,3:2|0:0,0:0:0:0:
0,40,111749,1,0,3:0:0:0:
36,45,111967,1,0,3:0:0:0:
170,161,112184,1,8,0:0:0:0:
198,189,112510,1,8,0:0:0:0:
214,177,112619,2,0,P|221:137|230:110,1,59.9999981689454,10|0,0:0|3:2,0:0:0:0:
32,348,113054,6,0,P|104:340|177:298,1,139.999995727539,12|0,3:2|0:0,0:0:0:0:
325,66,113489,1,8,0:0:0:0:
334,78,113923,1,8,0:0:0:0:
442,233,114141,1,0,3:0:0:0:
393,267,114249,1,2,1:2:0:0:
381,250,114358,2,0,B|346:226|346:226|300:237,1,80,0|2,3:0|0:0,0:0:0:0:
135,353,114793,5,10,0:0:0:0:
82,260,115010,1,0,1:0:0:0:
272,331,115228,2,0,P|286:281|287:237,1,80,10|0,0:0|0:0,0:0:0:0:
218,56,115663,2,0,B|146:76|146:76|69:127,1,150,8|0,0:0|1:0,0:0:0:0:
13,45,116097,1,2,3:2:0:0:
76,229,116315,1,8,0:0:0:0:
310,333,116532,6,0,B|301:299|301:299|328:206,1,119.999996337891,2|0,3:2|0:0,0:0:0:0:
471,80,116967,1,2,3:2:0:0:
462,66,117402,1,8,0:0:0:0:
295,258,117619,1,0,3:0:0:0:
272,202,117728,1,2,1:2:0:0:
289,211,117836,2,0,P|321:185|354:148,1,80,0|8,3:0|0:0,0:0:0:0:
115,25,118271,38,0,B|145:95|145:95|135:149,1,100,2|0,3:2|1:0,0:0:0:0:
74,344,118706,1,8,0:0:0:0:
74,344,119141,2,0,B|58:271|58:271|121:216,1,150,2|8,3:2|0:0,0:0:0:0:
118,357,119576,2,0,B|164:330|164:330|218:337,1,100,0|8,3:0|0:0,0:0:0:0:
422,201,120010,6,0,P|363:163|327:87,1,139.999995727539,6|0,3:2|0:0,0:0:0:0:
468,20,120445,1,2,3:2:0:0:
462,45,120880,1,8,0:0:0:0:
169,120,121097,1,0,3:0:0:0:
218,85,121206,1,2,1:2:0:0:
229,101,121315,2,0,B|272:123|272:123|297:96,1,80,0|8,3:0|0:0,0:0:0:0:
147,303,121749,5,10,3:2:0:0:
373,200,121967,1,0,1:0:0:0:
286,354,122184,2,0,P|296:317|293:272,1,80,8|0,0:0|0:0,0:0:0:0:
43,159,122619,2,0,B|110:138|110:138|172:188,1,150,10|8,0:0|0:0,0:0:0:0:
86,257,123054,2,0,B|131:264|131:264|182:233,1,100,0|8,3:0|0:0,0:0:0:0:
349,84,123489,5,4,3:2:0:0:
156,25,123706,1,10,0:0:0:0:
88,45,123815,1,8,0:0:0:0:
45,99,123923,1,8,0:0:0:0:
24,166,124032,1,8,0:0:0:0:
46,233,124141,1,8,0:0:0:0:
92,284,124249,1,0,0:0:0:0:
71,356,124358,37,2,3:2:0:0:
96,351,124467,1,0,3:0:0:0:
120,345,124576,1,0,3:0:0:0:
144,339,124684,1,0,3:0:0:0:
194,252,124793,5,10,0:0:0:0:
290,282,124902,1,10,0:0:0:0:
378,226,125010,6,0,P|417:250|434:301,1,89.9999972534181,4|0,3:2|0:0,0:0:0:0:
346,372,125445,5,8,0:0:0:0:
248,289,125663,2,0,B|257:312|257:312|290:324,1,59.9999981689454,2|0,0:0|3:0,0:0:0:0:
392,51,126097,38,0,B|424:86|424:86|392:193,1,150,6|0,3:2|0:0,0:0:0:0:
279,110,126532,1,0,3:0:0:0:
297,104,126749,1,0,3:0:0:0:
19,43,126967,6,0,P|65:117|101:282,2,240,6|2|0,3:2|3:2|3:0,0:0:0:0:
272,106,127836,6,0,B|300:41|300:41|381:-9,1,139.999995727539,10|0,0:0|0:0,0:0:0:0:
379,223,128163,2,0,P|441:200|485:236,1,119.999996337891,2|0,3:2|0:0,0:0:0:0:
261,330,128489,6,0,P|313:321|296:375,1,120,0|0,3:0|0:0,0:0:0:0:
154,348,128923,1,0,3:0:0:0:
142,331,129032,1,0,3:0:0:0:
140,313,129141,2,8,P|148:276|159:238,1,59.9999981689454,2|0,3:2|0:2,0:0:0:0:
298,34,129576,37,10,0:0:0:0:
331,88,129684,1,10,0:0:0:0:
347,77,129793,2,0,P|402:75|456:84,1,100,10|8,0:0|0:0,0:0:0:0:
346,309,130228,1,8,0:0:0:0:
333,292,130336,1,8,0:0:0:0:
358,231,130445,6,0,P|265:292|105:309,2,240,2|2|0,3:2|3:2|3:0,0:0:0:0:
414,171,131206,1,0,0:0:0:0:
414,171,131315,2,0,B|392:126|392:126|411:83,1,80,10|0,0:0|0:0,0:0:0:0:
267,13,131641,1,8,0:0:0:0:
254,28,131749,1,8,0:0:0:0:
238,40,131858,1,8,0:0:0:0:
161,35,131967,5,14,0:0:0:0:
180,69,132076,1,8,0:0:0:0:
195,106,132184,1,8,0:0:0:0:
204,145,132293,1,8,0:0:0:0:
201,185,132402,6,0,P|173:204|134:210,1,59.9999981689454,10|8,0:0|0:0,0:0:0:0:
25,345,132619,2,0,P|53:326|92:320,1,59.9999981689454,10|8,0:0|0:0,0:0:0:0:
234,355,132836,37,0,3:0:0:0:
247,364,132945,1,0,3:0:0:0:
263,364,133054,2,0,P|270:342|272:310,1,40,0|0,3:0|0:0,0:0:0:0:
347,116,133271,6,0,B|373:137|373:137|387:159,1,59.9999981689454,10|0,0:0|0:0,0:0:0:0:
158,243,133489,2,0,B|179:207|179:207|187:156,1,80,8|0,0:0|0:0,0:0:0:0:
46,20,133706,1,10,0:0:0:0:
3,115,133815,1,10,0:0:0:0:
63,199,133923,6,0,B|110:243|189:220|173:201|250:177|299:227,2,240,6|2|0,3:2|3:2|3:0,0:0:0:0:
230,5,134793,6,0,B|278:99|278:99|371:34,1,209.999993591309,10|0,0:0|0:0,0:0:0:0:
330,146,135228,2,0,P|373:137|405:140,1,69.9999978637696,8|8,0:0|0:0,0:0:0:0:
470,276,135445,1,4,0:0:0:0:
237,200,135663,37,10,0:0:0:0:
173,242,135771,1,8,0:0:0:0:
182,318,135880,1,8,0:0:0:0:
248,356,135989,1,8,0:0:0:0:
321,333,136097,5,0,3:0:0:0:
325,327,136206,1,0,3:0:0:0:
328,320,136315,1,0,3:0:0:0:
328,313,136423,1,0,3:0:0:0:
319,264,136532,5,2,3:2:0:0:
352,273,136641,1,0,3:0:0:0:
386,273,136749,1,0,3:0:0:0:
418,260,136858,1,0,3:0:0:0:
470,203,136967,5,10,0:0:0:0:
432,135,137076,1,10,0:0:0:0:
357,117,137184,1,10,0:0:0:0:
284,143,137293,1,10,0:0:0:0:
241,208,137402,38,0,P|142:144|58:128,1,200,2|8,3:2|0:0,0:0:0:0:
179,37,137728,2,0,P|203:30|224:18,1,50,2|0,3:2|0:0,0:0:0:0:
387,288,138054,6,0,P|406:222|451:129,1,160,2|8,3:2|0:0,0:0:0:0:
321,75,138380,2,0,P|331:96|339:131,1,40,2|0,3:2|0:0,0:0:0:0:
103,332,138706,6,0,B|85:276|85:276|121:209,1,120,14|2,0:0|3:2,0:0:0:0:
213,274,139141,1,0,3:0:0:0:
220,292,139249,1,0,3:0:0:0:
226,311,139358,2,0,L|276:320,1,29.9999990844727,0|0,3:0|3:0,0:0:0:0:
400,250,139576,6,0,P|413:290|416:343,2,80,6|0|0,3:2|3:0|3:0,0:0:0:0:
126,74,140880,38,0,P|216:130|366:128,1,240,6|2,3:2|3:2,0:0:0:0:
372,115,141967,1,0,3:0:0:0:
293,37,142184,1,0,3:0:0:0:
118,306,142619,5,4,3:2:0:0:
4,245,155662,53,4,0:0:0:0:
85,312,155879,1,0,3:0:0:0:
159,201,156097,1,0,3:0:0:0:
339,321,156314,70,0,P|416:328|449:257,1,160,4|8,3:2|0:0,0:0:0:0:
274,106,156966,1,2,0:0:0:0:
265,123,157075,2,0,P|230:120|184:149,1,80,0|0,3:0|0:0,0:0:0:0:
229,10,157401,6,0,P|291:47|394:66,1,150,2|0,3:2|3:0,0:0:0:0:
402,105,157836,1,0,3:0:0:0:
499,11,158053,1,0,3:0:0:0:
383,223,158271,70,0,B|473:247|473:247|457:313,1,150,2|0,3:2|3:0,0:0:0:0:
428,346,158705,1,0,3:0:0:0:
283,279,158923,1,0,3:0:0:0:
39,352,159140,5,2,3:2:0:0:
89,334,159249,2,0,B|105:253|105:253|72:233,1,100,8|0,0:0|3:0,0:0:0:0:
82,222,159575,1,0,3:0:0:0:
198,350,159792,1,0,3:0:0:0:
342,202,160010,70,0,B|401:187|401:187|447:240,1,120,2|0,3:2|3:0,0:0:0:0:
478,209,160445,1,0,3:0:0:0:
412,341,160662,1,0,3:0:0:0:
257,126,160879,5,2,3:2:0:0:
240,113,160988,1,0,3:0:0:0:
221,119,161097,1,0,3:0:0:0:
202,111,161205,1,0,3:0:0:0:
182,113,161314,2,0,P|145:92|109:33,1,100,0|0,3:0|3:0,0:0:0:0:
38,309,161749,70,0,P|80:242|168:240,1,150,2|0,3:2|3:0,0:0:0:0:
180,276,162184,1,0,3:0:0:0:
122,105,162401,1,0,3:0:0:0:
323,175,162619,1,2,3:2:0:0:
263,195,162727,1,8,0:0:0:0:
382,332,162945,1,0,3:0:0:0:
360,321,163053,1,2,3:2:0:0:
460,219,163271,1,0,0:0:0:0:
239,351,163488,6,0,B|255:274|255:274|212:223,1,120,6|0,3:2|3:0,0:0:0:0:
189,261,163923,1,0,3:0:0:0:
359,332,164140,1,0,3:0:0:0:
280,124,164358,1,2,3:2:0:0:
294,84,164466,1,0,3:0:0:0:
109,189,164684,1,0,3:0:0:0:
93,179,164792,1,0,3:0:0:0:
153,25,165010,1,0,3:0:0:0:
376,133,165227,70,0,B|287:173|287:173|232:155,1,150,2|0,3:2|3:0,0:0:0:0:
248,94,165662,1,0,3:0:0:0:
448,214,165879,1,0,3:0:0:0:
289,354,166097,1,2,3:2:0:0:
241,332,166205,1,8,0:0:0:0:
227,317,166314,1,0,3:0:0:0:
223,297,166423,1,0,3:0:0:0:
236,282,166532,2,0,P|281:278|314:233,1,100,0|0,3:0|3:0,0:0:0:0:
62,136,166966,6,0,B|85:242|85:242|21:278,1,179.999994506836,6|0,3:2|3:0,0:0:0:0:
64,371,167401,1,0,3:0:0:0:
256,257,167619,1,0,3:0:0:0:
216,97,167836,1,2,3:2:0:0:
190,146,167945,1,0,3:0:0:0:
369,264,168162,1,0,3:0:0:0:
362,239,168271,1,0,3:0:0:0:
212,359,168488,1,0,3:0:0:0:
31,222,168705,70,0,P|84:184|191:214,1,179.999994506836,2|0,3:2|3:0,0:0:0:0:
135,300,169140,1,0,3:0:0:0:
317,200,169358,1,0,3:0:0:0:
119,22,169575,1,0,3:0:0:0:
149,70,169684,2,0,B|188:38|188:38|254:15,1,119.999996337891,8|0,0:0|3:0,0:0:0:0:
330,88,170010,1,0,3:0:0:0:
166,194,170227,1,0,3:0:0:0:
446,345,170445,6,0,P|403:291|431:171,1,179.999994506836,6|0,3:2|3:0,0:0:0:0:
432,211,170879,1,0,3:0:0:0:
256,340,171097,1,2,3:2:0:0:
112,130,171314,69,0,3:0:0:0:
171,167,171423,1,8,0:0:0:0:
181,188,171532,1,2,3:2:0:0:
168,208,171640,1,0,3:0:0:0:
132,249,171749,1,2,3:2:0:0:
116,300,171858,1,0,3:0:0:0:
172,360,171966,1,2,3:2:0:0:
247,323,172075,1,2,3:2:0:0:
243,302,172184,6,0,B|277:275|314:288|309:291|354:312|390:285,1,149.999995422363,6|0,3:2|0:0,0:0:0:0:
423,260,172836,1,2,3:2:0:0:
231,185,173053,1,0,3:0:0:0:
394,24,173271,5,0,3:0:0:0:
400,33,173379,1,0,3:0:0:0:
402,43,173488,6,0,P|376:56|325:61,1,80,2|2,0:0|0:0,0:0:0:0:
73,108,180879,6,0,P|53:100|30:92,2,40,2|2|0,3:2|0:0|3:0,0:0:0:0:
238,210,181640,1,8,0:0:0:0:
246,219,181749,6,0,P|256:192|259:160,2,50,0|0|2,3:0|0:0|3:2,0:0:0:0:
138,363,182401,1,0,3:0:0:0:
129,350,182509,1,8,0:0:0:0:
132,332,182618,38,0,P|165:329|195:312,1,59.9999981689454,2|0,3:2|0:0,0:0:0:0:
356,233,183053,2,0,P|385:269|405:318,1,89.9999972534181,0|8,3:0|0:0,0:0:0:0:
440,349,183488,6,0,P|445:328|463:306,2,34.9999989318848,2|8|8,3:2|0:0|0:0,0:0:0:0:
412,148,183923,2,0,P|380:163|322:109,1,104.999996795654,2|8,3:2|0:0,0:0:0:0:
304,79,184357,5,2,3:2:0:0:
319,65,184466,2,0,B|296:59|296:59|264:65,1,40,8|8,0:0|0:0,0:0:0:0:
39,155,184792,2,0,B|99:145|99:145|147:211,1,120,10|8,0:0|0:0,0:0:0:0:
125,250,185227,5,2,3:2:0:0:
153,272,185336,1,0,3:0:0:0:
165,238,185444,1,0,3:0:0:0:
47,351,185662,1,8,0:0:0:0:
275,238,185879,38,0,P|288:195|285:162,1,69.9999978637696,2|0,0:0|0:0,0:0:0:0:
335,350,186096,1,0,3:0:0:0:
368,312,186205,1,0,3:0:0:0:
411,287,186314,2,0,P|441:288|481:305,1,50,2|0,3:2|0:0,0:0:0:0:
385,89,186531,2,0,P|413:100|444:130,1,50,2|0,3:2|0:0,0:0:0:0:
250,252,186749,5,8,0:0:0:0:
210,206,186857,1,8,0:0:0:0:
242,155,186966,1,0,3:0:0:0:
258,146,187183,2,0,B|264:75|264:75|209:45,1,100,2|0,3:2|0:1,0:0:0:0:
38,120,187401,5,10,0:0:0:0:
8,199,187509,1,10,0:0:0:0:
37,278,187618,1,10,0:0:0:0:
113,315,187727,1,2,0:0:0:0:
191,290,187836,5,0,3:0:0:0:
203,302,187944,2,0,L|237:306,2,29.9999990844727,0|0|0,3:0|3:0|3:0,0:0:0:0:
293,59,188270,38,2,P|181:158|37:129,1,300,6|0,3:2|0:0,0:1:0:0:
26,278,188705,6,0,P|55:281|82:268,1,59.9999981689454,0|0,3:0|0:0,0:0:0:0:
213,203,188923,1,2,0:0:0:0:
189,186,189031,2,0,P|139:267|171:361,1,179.999994506836
399,222,189575,6,0,P|410:182|382:121,1,80,0|0,3:0|0:0,0:0:0:0:
167,30,190009,1,10,0:0:0:0:
49,183,190227,2,0,P|109:162|175:153,1,119.999996337891,2|0,0:0|3:0,0:0:0:0:
269,251,190553,1,8,0:0:0:0:
245,231,190662,2,0,B|226:174|226:174|272:123,1,119.999996337891,8|0,0:0|3:0,0:0:0:0:
1,338,191096,6,0,P|60:256|83:101,1,239.999992675781,2|0,0:0|0:0,0:0:0:0:
277,17,191749,2,0,P|321:64|336:136,1,119.999996337891,0|0,3:0|0:0,0:0:0:0:
186,251,192183,1,2,3:2:0:0:
164,322,192292,1,8,0:0:0:0:
184,335,192401,2,0,B|225:343|225:343|261:316,1,80,0|8,3:2|0:0,0:0:0:0:
346,87,192836,38,0,P|285:118|143:38,1,239.999992675781,2|0,0:0|0:0,0:0:0:0:
453,199,193488,2,0,B|403:230|403:230|373:299,1,119.999996337891,8|0,0:0|0:0,0:0:0:0:
181,355,193923,1,2,3:2:0:0:
152,287,194031,1,8,0:0:0:0:
164,265,194140,2,0,B|115:229|115:229|48:252,2,119.999996337891,0|8|0,3:0|0:0|0:0,0:0:0:0:
60,82,194792,6,0,P|89:90|108:51,1,80,4|0,3:2|0:0,0:0:0:0:
200,286,195227,6,2,P|141:200|230:34,1,300,10|0,0:0|0:0,0:1:0:0:
334,98,195662,5,2,3:2:0:0:
350,101,195770,1,0,3:0:0:0:
366,93,195879,1,2,3:2:0:0:
382,100,195988,1,0,3:0:0:0:
399,96,196096,1,8,0:0:0:0:
344,264,196314,2,0,P|270:241|243:164,1,160,2|0,0:0|0:0,0:0:0:0:
18,36,196966,38,2,P|81:125|48:237,1,209.999993591309,2|0,3:2|0:0,0:1:0:0:
122,358,197401,1,2,3:2:0:0:
177,303,197509,1,10,0:0:0:0:
163,283,197618,1,10,0:0:0:0:
338,150,197836,2,0,P|290:186|253:188,1,80,0|0,3:0|0:0,0:0:0:0:
119,52,198270,5,4,3:2:0:0:
126,61,198488,1,8,0:0:0:0:
166,86,198705,1,8,0:0:0:0:
130,188,198923,1,10,0:0:0:0:
16,68,199140,5,10,0:0:0:0:
233,7,199357,1,10,0:0:0:0:
486,153,199575,1,10,0:0:0:0:
213,338,199792,6,0,B|311:288|280:171|280:171|211:163|189:234,1,320,6|4,3:2|3:2,0:0:0:0:
425,302,200444,1,10,0:0:0:0:
324,79,200662,1,0,3:0:0:0:
332,56,200770,1,0,3:0:0:0:
404,21,200879,37,2,3:2:0:0:
467,70,200988,1,2,3:2:0:0:
425,137,201096,1,2,3:2:0:0:
241,272,201314,1,2,3:2:0:0:
248,311,201423,1,0,3:0:0:0:
278,286,201531,1,0,3:0:0:0:
116,111,201749,5,4,3:2:0:0:
13,195,203270,2,0,L|19:159,2,20,0|0|2,0:0|0:0|0:0,0:0:0:0:
118,352,204792,1,8,3:2:0:0:
239,305,205227,5,0,3:0:0:0:
153,85,205444,1,10,0:0:0:0:
345,254,205662,5,0,3:0:0:0:
335,240,205770,1,0,3:0:0:0:
329,225,205879,1,0,3:0:0:0:
332,209,205988,1,0,3:0:0:0:
286,167,206096,37,10,0:0:0:0:
356,152,206205,1,8,0:0:0:0:
389,88,206314,1,8,0:0:0:0:
344,31,206423,1,8,0:0:0:0:
274,13,206531,2,0,P|249:19|209:38,1,59.9999981689454,10|0,0:0|0:0,0:0:0:0:
0,58,206749,6,2,B|79:83|73:157|64:144|56:220|143:246,1,240,6|0,3:2|0:0,0:1:0:0:
142,363,207183,2,0,P|171:346|205:341,1,59.9999981689454,4|0,0:0|0:0,0:0:0:0:
280,222,207401,5,2,3:2:0:0:
271,244,207509,1,0,3:0:0:0:
283,264,207618,2,0,P|305:269|326:269,1,40,0|0,3:0|0:0,0:0:0:0:
454,154,207836,5,2,3:2:0:0:
485,215,207944,1,0,3:0:0:0:
478,229,208053,1,0,3:0:0:0:
470,242,208162,1,0,3:0:0:0:
499,310,208270,2,0,B|417:322|417:322|357:279|357:279|259:288,1,240,10|0,0:0|0:0,0:0:0:0:
116,313,208705,38,0,P|146:332|188:330,1,59.9999981689454,2|0,3:2|0:0,0:0:0:0:
300,97,209140,6,2,P|185:128|45:191,1,269.999991760254,14|0,0:0|0:0,0:1:0:0:
189,345,209575,5,0,3:0:0:0:
171,268,209683,1,8,0:0:0:0:
160,293,209792,1,10,0:0:0:0:
336,363,210009,2,0,B|346:309|346:309|391:264,1,100,10|0,0:0|0:0,0:0:0:0:
463,129,210444,6,0,P|437:156|412:141,1,59.9999981689454,0|2,3:0|0:0,0:0:0:0:
209,295,210879,2,0,B|232:255|232:255|224:201,1,100,8|0,0:0|0:0,0:0:0:0:
15,84,211314,1,2,3:2:0:0:
47,154,211423,1,0,3:0:0:0:
68,142,211531,1,0,3:0:0:0:
226,29,211749,2,0,P|273:31|304:72,1,100,10|0,0:0|0:0,0:0:0:0:
419,315,212183,38,0,B|386:232|386:232|396:192,1,119.999996337891,0|0,3:0|0:0,0:0:0:0:
487,36,212618,1,10,0:0:0:0:
490,39,213053,1,0,3:0:0:0:
439,95,213162,1,8,0:0:0:0:
416,83,213270,1,10,0:0:0:0:
215,16,213488,2,0,B|185:48|185:48|199:114,1,100,10|0,0:0|0:0,0:0:0:0:
9,174,213923,6,0,P|58:184|143:223,1,119.999996337891,2|8,3:2|0:0,0:0:0:0:
202,356,214575,1,0,0:0:0:0:
393,208,214792,1,0,3:0:0:0:
322,247,214901,1,8,0:0:0:0:
328,222,215009,1,10,0:0:0:0:
467,349,215227,2,0,P|489:313|503:246,1,100,10|0,0:0|0:0,0:0:0:0:
377,47,215662,6,0,P|369:85|385:128,1,59.9999981689454,4|0,3:2|0:0,0:0:0:0:
154,224,216096,6,2,P|256:145|202:28,1,269.999991760254,10|0,0:0|0:0,0:1:0:0:
106,118,216531,37,0,3:0:0:0:
37,75,216640,1,8,0:0:0:0:
61,67,216749,1,10,0:0:0:0:
270,230,216966,2,0,B|281:279|281:279|251:340,1,100,10|0,0:0|0:0,0:0:0:0:
430,194,217401,5,0,3:0:0:0:
486,82,217618,2,0,P|477:46|465:18,2,59.9999981689454,2|8|0,0:0|0:0|0:0,0:0:0:0:
243,128,218270,1,2,3:2:0:0:
265,49,218379,1,8,0:0:0:0:
278,74,218488,1,8,0:0:0:0:
126,224,218705,2,0,P|89:227|36:184,1,100,10|0,0:0|0:0,0:0:0:0:
282,367,219140,6,0,B|258:310|258:310|309:236,1,119.999996337891,0|0,3:0|0:0,0:0:0:0:
104,344,219575,1,10,0:0:0:0:
104,344,220009,1,0,3:0:0:0:
126,210,220227,2,0,P|83:233|31:238,1,100,2|8,0:0|0:0,0:0:0:0:
57,18,220662,5,4,3:2:0:0:
216,145,220879,1,2,0:0:0:0:
222,136,220988,1,0,0:0:0:0:
228,127,221096,2,0,P|237:95|239:63,1,50,2|0,3:2|0:0,0:0:0:0:
391,23,221314,37,2,0:0:0:0:
409,19,221423,1,8,0:0:0:0:
476,61,221531,5,10,0:0:0:0:
487,140,221640,1,8,0:0:0:0:
445,210,221749,6,0,P|398:223|344:198,1,100,2|2,3:2|3:2,0:0:0:0:
270,65,222075,1,0,3:0:0:0:
287,56,222183,5,0,3:0:0:0:
253,35,222292,1,0,3:0:0:0:
153,21,222401,1,2,3:2:0:0:
70,78,222509,1,2,3:2:0:0:
78,178,222618,38,0,P|70:209|52:246,1,59.9999981689454,4|0,3:2|0:0,0:0:0:0:
418,123,223053,6,2,P|306:155|168:266,1,269.999991760254,10|0,0:0|0:0,0:1:0:0:
363,348,223488,5,0,3:0:0:0:
338,273,223596,1,8,0:0:0:0:
323,293,223705,1,10,0:0:0:0:
159,102,223923,2,0,B|202:142|202:142|262:117,1,100,10|0,0:0|0:0,0:0:0:0:
380,33,224357,6,0,P|396:62|399:104,1,59.9999981689454,0|2,3:0|0:0,0:0:0:0:
491,300,224792,2,0,B|466:257|466:257|491:203,1,100,8|0,0:0|0:0,0:0:0:0:
262,282,225227,1,2,3:2:0:0:
302,352,225336,1,8,0:0:0:0:
315,331,225444,1,8,0:0:0:0:
429,105,225662,2,0,B|388:69|388:69|338:78,1,100,10|0,0:0|0:0,0:0:0:0:
188,213,226096,2,0,P|132:198|147:146,1,100,0|0,3:0|0:0,0:0:0:0:
13,334,226531,38,0,B|73:301|73:301|188:345,1,179.999994506836,10|10,0:0|0:0,0:0:0:0:
267,291,226966,1,0,3:0:0:0:
172,192,227183,1,0,3:0:0:0:
336,41,227401,1,10,0:0:0:0:
41,258,227618,6,0,P|55:148|0:25,1,239.999992675781,4|0,3:2|3:0,0:0:0:0:
264,124,228270,1,8,0:0:0:0:
169,272,228488,2,0,P|159:296|154:328,1,50,2|2,0:0|0:0,0:0:0:0:
321,360,228705,1,0,3:0:0:0:
354,338,228814,1,0,3:0:0:0:
331,305,228922,1,0,3:0:0:0:
470,116,229140,2,0,B|424:144|424:144|373:121,1,100,10|0,0:0|0:0,0:0:0:0:
245,34,229575,5,0,3:0:0:0:
230,30,229683,1,0,3:0:0:0:
215,31,229792,1,0,3:0:0:0:
201,37,229901,1,0,3:0:0:0:
128,109,230009,6,2,B|95:193|161:220|156:232|221:258|187:355,1,269.999991760254,14|0,0:0|0:0,0:1:0:0:
90,311,230444,38,0,P|64:300|33:295,1,50,6|0,3:2|0:0,0:0:0:0:
229,143,230662,2,0,P|253:137|276:127,1,50,0|0,3:0|0:0,0:0:0:0:
392,265,230879,2,0,B|373:314|373:314|422:373,1,100,10|0,0:0|0:0,0:0:0:0:
473,149,231314,1,0,3:0:0:0:
270,295,231531,6,0,P|227:281|179:253,1,100,2|8,0:0|0:0,0:0:0:0:
168,259,231821,6,0,B|180:222|180:222|181:185,1,66.6666666666667,2|2,0:0|0:0,0:0:0:0:
359,68,232183,5,0,3:2:0:0:
381,143,232292,1,8,0:0:0:0:
358,131,232401,1,8,0:0:0:0:
124,61,232618,2,0,B|132:32|132:32|209:73,1,100,10|0,0:0|0:0,0:0:0:0:
355,322,233053,38,0,P|309:283|295:226,1,119.999996337891,2|0,3:2|0:0,0:0:0:0:
64,304,233488,1,8,0:0:0:0:
179,182,233705,2,0,P|191:153|201:113,1,50,2|0,0:0|0:0,0:0:0:0:
145,10,233922,1,0,3:0:0:0:
385,88,234140,2,0,B|407:127|407:127|390:197,1,100,2|8,3:2|0:0,0:0:0:0:
235,357,234575,6,0,P|228:327|203:284,1,50,6|0,3:2|0:0,0:0:0:0:
49,208,234792,5,2,0:0:0:0:
21,143,234901,1,2,0:0:0:0:
39,75,235009,2,0,P|68:51|108:32,1,69.9999978637696,2|0,3:2|0:0,0:0:0:0:
224,150,235227,1,10,0:0:0:0:
288,176,235336,1,10,0:0:0:0:
350,145,235444,5,0,3:0:0:0:
346,131,235553,1,0,3:0:0:0:
383,71,235662,37,10,0:0:0:0:
452,75,235770,1,10,0:0:0:0:
511,114,235879,2,0,P|517:137|507:188,1,69.9999978637696,2|0,3:2|0:0,0:0:0:0:
391,306,236096,5,10,0:0:0:0:
297,274,236205,1,10,0:0:0:0:
240,193,236314,1,10,0:0:0:0:
183,111,236422,2,0,P|142:90|99:83,1,85.0000016212464,10|0,0:0|0:0,0:0:0:0:
15,316,236966,6,0,B|70:352|133:291|127:283|196:226|256:261,1,259.999988098145,2|0,0:0|0:0,0:0:0:0:
