osu file format v14

[General]
AudioFilename: Toby Fox- Bergentruckung and ASGORE.mp3
AudioLeadIn: 0
PreviewTime: 17850
Countdown: 0
SampleSet: Soft
StackLeniency: 0.7
Mode: 3
LetterboxInBreaks: 0
SpecialStyle: 0
WidescreenStoryboard: 1

[Editor]
DistanceSpacing: 1.8
BeatDivisor: 8
GridSize: 16
TimelineZoom: 1.8

[Metadata]
Title:Bergentruckung/ASGORE
TitleUnicode:Bergentruckung/ASGORE
Artist:Toby "Radiation" Fox
ArtistUnicode:Toby "Radiation" Fox
Creator:Modren
Version:Are You Determined Enough?
Source:Undertale
Tags:
BeatmapID:1119872
BeatmapSetID:483194

[Difficulty]
HPDrainRate:8.5
CircleSize:9
OverallDifficulty:8.5
ApproachRate:5
SliderMultiplier:1.4
SliderTickRate:1

[Events]
//Background and Video events
0,0,"tumblr_o51eh44IGF1qe2uqto1_1280.jpg",0,0
//Break Periods
//Storyboard Layer 0 (Background)
//Storyboard Layer 1 (Fail)
//Storyboard Layer 2 (Pass)
//Storyboard Layer 3 (Foreground)
//Storyboard Sound Samples

[TimingPoints]
5,524.113451327432,4,2,0,5,1,0
17850,520.517046933287,4,2,0,5,1,0
18891,520.517046933287,4,2,0,5,1,0
27219,-100,4,2,0,5,0,1
34506,-100,4,2,0,5,0,0
43875,-100,4,2,0,5,0,1
51163,-100,4,2,0,5,0,0
68860,-100,4,2,0,5,0,1
102173,-100,4,2,0,5,0,0
110502,-100,4,2,0,5,0,1
127158,-100,4,2,0,5,0,0
166717,-100,4,2,0,5,0,1
170881,-100,4,2,0,5,0,0

[HitObjects]
85,192,5,5,0,0:0:0:0:
369,192,5,128,0,136:0:0:0:0:
85,192,267,1,0,0:0:0:0:
199,192,529,1,0,0:0:0:0:
483,192,529,128,0,660:0:0:0:0:
199,192,791,1,0,0:0:0:0:
426,192,1053,128,0,1970:0:0:0:0:
312,192,1053,128,0,1970:0:0:0:0:
85,192,2101,1,0,0:0:0:0:
199,192,2101,128,0,2232:0:0:0:0:
85,192,2363,1,0,0:0:0:0:
256,192,2625,1,0,0:0:0:0:
369,192,2625,128,0,2756:0:0:0:0:
256,192,2887,1,0,0:0:0:0:
312,192,3149,128,0,4001:0:0:0:0:
199,192,3149,128,0,4001:0:0:0:0:
85,192,4197,1,0,0:0:0:0:
142,192,4197,128,0,4328:0:0:0:0:
85,192,4459,1,0,0:0:0:0:
312,192,4722,1,0,0:0:0:0:
256,192,4722,128,0,4853:0:0:0:0:
312,192,4984,1,0,0:0:0:0:
199,192,5246,128,0,6097:0:0:0:0:
483,192,5246,1,0,0:0:0:0:
369,192,5508,1,0,0:0:0:0:
256,192,5770,1,0,0:0:0:0:
369,192,6032,1,0,0:0:0:0:
312,192,6294,1,0,0:0:0:0:
28,192,6294,128,0,6425:0:0:0:0:
256,192,6556,1,0,0:0:0:0:
369,192,6818,1,0,0:0:0:0:
142,192,6818,128,0,6949:0:0:0:0:
426,192,7080,1,0,0:0:0:0:
85,192,7342,128,0,8194:0:0:0:0:
28,192,7342,128,0,8194:0:0:0:0:
142,192,8390,1,0,0:0:0:0:
256,192,8390,128,0,8521:0:0:0:0:
142,192,8652,1,0,0:0:0:0:
256,192,8914,1,0,0:0:0:0:
369,192,8914,128,0,9045:0:0:0:0:
256,192,9176,1,0,0:0:0:0:
312,192,9439,128,0,10356:0:0:0:0:
199,192,9439,128,0,10356:0:0:0:0:
483,192,10487,128,0,10618:0:0:0:0:
142,192,10487,1,0,0:0:0:0:
142,192,10749,1,0,0:0:0:0:
256,192,11011,128,0,11142:0:0:0:0:
85,192,11011,1,0,0:0:0:0:
85,192,11273,1,0,0:0:0:0:
369,192,11535,128,0,12387:0:0:0:0:
199,192,11535,128,0,12059:0:0:0:0:
256,192,12059,128,0,12583:0:0:0:0:
369,192,12583,128,0,12714:0:0:0:0:
312,192,12583,1,0,0:0:0:0:
142,192,12845,128,0,12976:0:0:0:0:
199,192,12845,1,0,0:0:0:0:
199,192,13107,128,0,13238:0:0:0:0:
28,192,13107,1,0,0:0:0:0:
256,192,13369,128,0,13500:0:0:0:0:
85,192,13369,1,0,0:0:0:0:
312,192,13631,128,0,14156:0:0:0:0:
142,192,13631,128,0,14156:0:0:0:0:
426,192,14156,128,0,14287:0:0:0:0:
85,192,14156,128,0,14680:0:0:0:0:
426,192,14418,1,0,0:0:0:0:
312,192,14680,1,0,0:0:0:0:
142,192,14680,1,0,0:0:0:0:
483,192,14854,1,0,0:0:0:0:
369,192,14898,1,0,0:0:0:0:
256,192,14942,1,0,0:0:0:0:
28,192,14942,1,0,0:0:0:0:
312,192,15204,128,0,15335:0:0:0:0:
85,192,15204,1,0,0:0:0:0:
426,192,15466,128,0,15597:0:0:0:0:
199,192,15466,1,0,0:0:0:0:
369,192,15728,128,0,16776:0:0:0:0:
142,192,15728,128,0,16776:0:0:0:0:
142,192,17850,1,0,0:0:0:0:
256,192,17850,128,0,17980:0:0:0:0:
28,192,17850,1,0,0:0:0:0:
142,192,18110,1,0,0:0:0:0:
312,192,18370,1,0,0:0:0:0:
426,192,18370,128,0,18500:0:0:0:0:
199,192,18370,1,0,0:0:0:0:
312,192,18630,1,0,0:0:0:0:
369,192,18891,128,0,19411:0:0:0:0:
85,192,18891,1,0,0:0:0:0:
142,192,19021,1,0,0:0:0:0:
199,192,19151,1,0,0:0:0:0:
256,192,19151,1,0,0:0:0:0:
142,192,19281,1,0,0:0:0:0:
85,192,19411,1,0,0:0:0:0:
199,192,19541,1,0,0:0:0:0:
483,192,19671,128,0,19801:0:0:0:0:
312,192,19671,1,0,0:0:0:0:
426,192,19671,1,0,0:0:0:0:
85,192,19801,1,0,0:0:0:0:
28,192,19932,128,0,20257:0:0:0:0:
199,192,19932,1,0,0:0:0:0:
312,192,20062,1,0,0:0:0:0:
426,192,20192,1,0,0:0:0:0:
483,192,20192,1,0,0:0:0:0:
142,192,20322,128,0,20582:0:0:0:0:
199,192,20322,1,0,0:0:0:0:
256,192,20452,1,0,0:0:0:0:
312,192,20582,1,0,0:0:0:0:
256,192,20712,128,0,20842:0:0:0:0:
369,192,20712,1,0,0:0:0:0:
483,192,20712,1,0,0:0:0:0:
199,192,20842,1,0,0:0:0:0:
369,192,20973,128,0,21623:0:0:0:0:
85,192,20973,1,0,0:0:0:0:
28,192,21103,1,0,0:0:0:0:
142,192,21233,1,0,0:0:0:0:
199,192,21233,1,0,0:0:0:0:
85,192,21363,1,0,0:0:0:0:
28,192,21493,1,0,0:0:0:0:
85,192,21623,1,0,0:0:0:0:
142,192,21753,1,0,0:0:0:0:
256,192,21753,1,0,0:0:0:0:
426,192,21883,1,0,0:0:0:0:
199,192,22014,128,0,22144:0:0:0:0:
483,192,22014,1,0,0:0:0:0:
426,192,22144,1,0,0:0:0:0:
199,192,22274,1,0,0:0:0:0:
256,192,22274,1,0,0:0:0:0:
369,192,22274,1,0,0:0:0:0:
142,192,22404,1,0,0:0:0:0:
312,192,22534,128,0,22664:0:0:0:0:
85,192,22534,1,0,0:0:0:0:
142,192,22664,1,0,0:0:0:0:
312,192,22794,1,0,0:0:0:0:
28,192,22794,1,0,0:0:0:0:
483,192,22794,1,0,0:0:0:0:
85,192,22925,1,0,0:0:0:0:
256,192,23055,128,0,23575:0:0:0:0:
142,192,23055,1,0,0:0:0:0:
199,192,23185,1,0,0:0:0:0:
369,192,23315,1,0,0:0:0:0:
426,192,23315,1,0,0:0:0:0:
483,192,23445,1,0,0:0:0:0:
28,192,23575,1,0,0:0:0:0:
85,192,23705,1,0,0:0:0:0:
312,192,23835,128,0,23966:0:0:0:0:
142,192,23835,1,0,0:0:0:0:
199,192,23835,1,0,0:0:0:0:
256,192,23966,1,0,0:0:0:0:
85,192,24096,128,0,24356:0:0:0:0:
426,192,24096,1,0,0:0:0:0:
483,192,24226,1,0,0:0:0:0:
369,192,24356,1,0,0:0:0:0:
312,192,24356,1,0,0:0:0:0:
199,192,24486,128,0,24746:0:0:0:0:
256,192,24486,1,0,0:0:0:0:
312,192,24616,1,0,0:0:0:0:
369,192,24746,1,0,0:0:0:0:
426,192,24876,128,0,25007:0:0:0:0:
28,192,24876,1,0,0:0:0:0:
142,192,24876,1,0,0:0:0:0:
85,192,25007,1,0,0:0:0:0:
312,192,25137,128,0,26048:0:0:0:0:
142,192,25137,1,0,0:0:0:0:
85,192,25267,1,0,0:0:0:0:
28,192,25397,1,0,0:0:0:0:
142,192,25397,1,0,0:0:0:0:
85,192,25527,1,0,0:0:0:0:
369,192,25657,1,0,0:0:0:0:
426,192,25787,1,0,0:0:0:0:
369,192,25917,1,0,0:0:0:0:
483,192,25917,1,0,0:0:0:0:
426,192,26048,1,0,0:0:0:0:
85,192,26178,128,0,26308:0:0:0:0:
312,192,26178,128,0,26308:0:0:0:0:
199,192,26178,1,0,0:0:0:0:
85,192,26438,1,0,0:0:0:0:
312,192,26438,1,0,0:0:0:0:
142,192,26698,128,0,26828:0:0:0:0:
369,192,26698,128,0,26828:0:0:0:0:
256,192,26698,1,0,0:0:0:0:
142,192,26959,1,0,0:0:0:0:
369,192,26959,1,0,0:0:0:0:
199,192,27219,128,0,28000:0:0:0:0:
426,192,27219,128,0,28000:0:0:0:0:
28,192,27219,1,0,0:0:0:0:
85,192,27349,1,0,0:0:0:0:
312,192,27479,1,0,0:0:0:0:
369,192,27479,1,0,0:0:0:0:
142,192,27609,1,0,0:0:0:0:
85,192,27739,1,0,0:0:0:0:
142,192,27869,1,0,0:0:0:0:
256,192,28000,128,0,28130:0:0:0:0:
483,192,28000,128,0,28130:0:0:0:0:
312,192,28000,1,0,0:0:0:0:
369,192,28000,1,0,0:0:0:0:
142,192,28130,1,0,0:0:0:0:
28,192,28260,128,0,28520:0:0:0:0:
256,192,28260,128,0,28520:0:0:0:0:
85,192,28260,1,0,0:0:0:0:
142,192,28390,1,0,0:0:0:0:
426,192,28520,1,0,0:0:0:0:
483,192,28520,1,0,0:0:0:0:
85,192,28650,128,0,28910:0:0:0:0:
312,192,28650,128,0,28910:0:0:0:0:
369,192,28650,1,0,0:0:0:0:
199,192,28780,1,0,0:0:0:0:
256,192,28910,1,0,0:0:0:0:
142,192,29041,128,0,29171:0:0:0:0:
369,192,29041,128,0,29171:0:0:0:0:
28,192,29041,1,0,0:0:0:0:
483,192,29041,1,0,0:0:0:0:
256,192,29171,1,0,0:0:0:0:
199,192,29301,128,0,30082:0:0:0:0:
426,192,29301,128,0,30082:0:0:0:0:
85,192,29301,1,0,0:0:0:0:
28,192,29431,1,0,0:0:0:0:
256,192,29561,1,0,0:0:0:0:
369,192,29561,1,0,0:0:0:0:
85,192,29691,1,0,0:0:0:0:
312,192,29821,1,0,0:0:0:0:
142,192,29951,1,0,0:0:0:0:
256,192,30082,128,0,30212:0:0:0:0:
483,192,30082,128,0,30212:0:0:0:0:
28,192,30082,1,0,0:0:0:0:
369,192,30082,1,0,0:0:0:0:
142,192,30212,1,0,0:0:0:0:
28,192,30342,128,0,30602:0:0:0:0:
256,192,30342,128,0,30602:0:0:0:0:
312,192,30342,1,0,0:0:0:0:
369,192,30472,1,0,0:0:0:0:
312,192,30602,1,0,0:0:0:0:
85,192,30602,1,0,0:0:0:0:
142,192,30602,1,0,0:0:0:0:
199,192,30732,128,0,30993:0:0:0:0:
426,192,30732,128,0,30993:0:0:0:0:
369,192,30732,1,0,0:0:0:0:
312,192,30862,1,0,0:0:0:0:
256,192,30993,1,0,0:0:0:0:
142,192,31123,128,0,31383:0:0:0:0:
369,192,31123,128,0,31383:0:0:0:0:
28,192,31123,1,0,0:0:0:0:
483,192,31123,1,0,0:0:0:0:
426,192,31253,1,0,0:0:0:0:
85,192,31383,128,0,33205:0:0:0:0:
312,192,31383,128,0,33205:0:0:0:0:
199,192,31383,1,0,0:0:0:0:
256,192,31513,1,0,0:0:0:0:
426,192,31643,1,0,0:0:0:0:
483,192,31643,1,0,0:0:0:0:
369,192,31773,1,0,0:0:0:0:
142,192,31903,1,0,0:0:0:0:
256,192,32034,1,0,0:0:0:0:
28,192,32164,1,0,0:0:0:0:
199,192,32164,1,0,0:0:0:0:
142,192,32294,1,0,0:0:0:0:
369,192,32424,1,0,0:0:0:0:
426,192,32554,1,0,0:0:0:0:
369,192,32684,1,0,0:0:0:0:
483,192,32684,1,0,0:0:0:0:
256,192,32814,1,0,0:0:0:0:
199,192,32944,1,0,0:0:0:0:
369,192,33075,1,0,0:0:0:0:
256,192,33205,128,0,33335:0:0:0:0:
426,192,33205,1,0,0:0:0:0:
483,192,33205,1,0,0:0:0:0:
142,192,33335,128,0,33465:0:0:0:0:
369,192,33335,1,0,0:0:0:0:
28,192,33465,128,0,33985:0:0:0:0:
312,192,33465,1,0,0:0:0:0:
256,192,33595,1,0,0:0:0:0:
369,192,33725,1,0,0:0:0:0:
426,192,33725,1,0,0:0:0:0:
312,192,33855,1,0,0:0:0:0:
256,192,33985,1,0,0:0:0:0:
312,192,34116,1,0,0:0:0:0:
369,192,34246,1,0,0:0:0:0:
426,192,34246,1,0,0:0:0:0:
142,192,34506,1,0,0:0:0:0:
256,192,34506,128,0,34636:0:0:0:0:
142,192,34766,1,0,0:0:0:0:
312,192,35027,1,0,0:0:0:0:
426,192,35027,128,0,35157:0:0:0:0:
312,192,35287,1,0,0:0:0:0:
199,192,35547,128,0,36068:0:0:0:0:
483,192,35547,1,0,0:0:0:0:
426,192,35677,1,0,0:0:0:0:
256,192,35807,1,0,0:0:0:0:
312,192,35807,1,0,0:0:0:0:
369,192,35937,1,0,0:0:0:0:
28,192,36068,1,0,0:0:0:0:
85,192,36198,1,0,0:0:0:0:
312,192,36328,128,0,36458:0:0:0:0:
142,192,36328,1,0,0:0:0:0:
199,192,36328,1,0,0:0:0:0:
256,192,36458,1,0,0:0:0:0:
85,192,36588,128,0,36848:0:0:0:0:
426,192,36588,1,0,0:0:0:0:
142,192,36718,1,0,0:0:0:0:
28,192,36848,1,0,0:0:0:0:
483,192,36848,1,0,0:0:0:0:
199,192,36978,128,0,37239:0:0:0:0:
369,192,36978,1,0,0:0:0:0:
142,192,37109,1,0,0:0:0:0:
28,192,37239,1,0,0:0:0:0:
312,192,37369,128,0,37499:0:0:0:0:
85,192,37369,1,0,0:0:0:0:
256,192,37369,1,0,0:0:0:0:
426,192,37629,128,0,38280:0:0:0:0:
142,192,37629,1,0,0:0:0:0:
199,192,37759,1,0,0:0:0:0:
85,192,37889,1,0,0:0:0:0:
256,192,37889,1,0,0:0:0:0:
142,192,38020,1,0,0:0:0:0:
199,192,38150,1,0,0:0:0:0:
256,192,38280,1,0,0:0:0:0:
312,192,38410,1,0,0:0:0:0:
28,192,38410,1,0,0:0:0:0:
483,192,38540,1,0,0:0:0:0:
142,192,38670,128,0,38800:0:0:0:0:
426,192,38670,1,0,0:0:0:0:
369,192,38800,1,0,0:0:0:0:
142,192,38930,1,0,0:0:0:0:
199,192,38930,1,0,0:0:0:0:
312,192,38930,1,0,0:0:0:0:
28,192,39061,1,0,0:0:0:0:
369,192,39191,128,0,39321:0:0:0:0:
142,192,39191,1,0,0:0:0:0:
256,192,39321,1,0,0:0:0:0:
369,192,39451,1,0,0:0:0:0:
199,192,39451,1,0,0:0:0:0:
312,192,39451,1,0,0:0:0:0:
483,192,39581,1,0,0:0:0:0:
256,192,39711,128,0,40232:0:0:0:0:
28,192,39711,1,0,0:0:0:0:
85,192,39841,1,0,0:0:0:0:
483,192,39971,1,0,0:0:0:0:
142,192,39971,1,0,0:0:0:0:
426,192,40102,1,0,0:0:0:0:
369,192,40232,1,0,0:0:0:0:
312,192,40362,1,0,0:0:0:0:
369,192,40492,128,0,40622:0:0:0:0:
85,192,40492,1,0,0:0:0:0:
199,192,40492,1,0,0:0:0:0:
142,192,40622,1,0,0:0:0:0:
28,192,40752,128,0,41012:0:0:0:0:
256,192,40752,1,0,0:0:0:0:
369,192,40882,1,0,0:0:0:0:
312,192,41012,1,0,0:0:0:0:
426,192,41012,1,0,0:0:0:0:
142,192,41143,128,0,41403:0:0:0:0:
369,192,41143,1,0,0:0:0:0:
312,192,41273,1,0,0:0:0:0:
256,192,41403,1,0,0:0:0:0:
483,192,41533,128,0,41663:0:0:0:0:
199,192,41533,1,0,0:0:0:0:
312,192,41533,1,0,0:0:0:0:
256,192,41663,1,0,0:0:0:0:
369,192,41793,128,0,42704:0:0:0:0:
85,192,41793,1,0,0:0:0:0:
256,192,41923,1,0,0:0:0:0:
28,192,42054,1,0,0:0:0:0:
483,192,42054,1,0,0:0:0:0:
426,192,42184,1,0,0:0:0:0:
256,192,42314,1,0,0:0:0:0:
85,192,42444,1,0,0:0:0:0:
28,192,42574,1,0,0:0:0:0:
483,192,42574,1,0,0:0:0:0:
256,192,42704,1,0,0:0:0:0:
85,192,42834,128,0,42964:0:0:0:0:
369,192,42834,128,0,42964:0:0:0:0:
312,192,42834,1,0,0:0:0:0:
85,192,43095,1,0,0:0:0:0:
369,192,43095,1,0,0:0:0:0:
142,192,43355,128,0,43485:0:0:0:0:
426,192,43355,128,0,43485:0:0:0:0:
199,192,43355,1,0,0:0:0:0:
142,192,43615,1,0,0:0:0:0:
426,192,43615,1,0,0:0:0:0:
85,192,43875,128,0,44656:0:0:0:0:
369,192,43875,128,0,44656:0:0:0:0:
199,192,43875,1,0,0:0:0:0:
256,192,44005,1,0,0:0:0:0:
142,192,44136,1,0,0:0:0:0:
312,192,44136,1,0,0:0:0:0:
256,192,44266,1,0,0:0:0:0:
199,192,44396,1,0,0:0:0:0:
256,192,44526,1,0,0:0:0:0:
142,192,44656,128,0,44786:0:0:0:0:
426,192,44656,128,0,44786:0:0:0:0:
28,192,44656,1,0,0:0:0:0:
483,192,44656,1,0,0:0:0:0:
199,192,44786,1,0,0:0:0:0:
28,192,44916,128,0,45177:0:0:0:0:
312,192,44916,128,0,45177:0:0:0:0:
85,192,44916,1,0,0:0:0:0:
256,192,45046,1,0,0:0:0:0:
142,192,45177,1,0,0:0:0:0:
483,192,45177,1,0,0:0:0:0:
85,192,45307,128,0,45567:0:0:0:0:
369,192,45307,128,0,45567:0:0:0:0:
199,192,45307,1,0,0:0:0:0:
426,192,45437,1,0,0:0:0:0:
312,192,45567,1,0,0:0:0:0:
142,192,45697,128,0,45827:0:0:0:0:
426,192,45697,128,0,45827:0:0:0:0:
199,192,45697,1,0,0:0:0:0:
256,192,45697,1,0,0:0:0:0:
85,192,45957,128,0,46738:0:0:0:0:
369,192,45957,128,0,46738:0:0:0:0:
28,192,45957,1,0,0:0:0:0:
199,192,46088,1,0,0:0:0:0:
312,192,46218,1,0,0:0:0:0:
483,192,46218,1,0,0:0:0:0:
426,192,46348,1,0,0:0:0:0:
142,192,46478,1,0,0:0:0:0:
256,192,46608,1,0,0:0:0:0:
142,192,46738,128,0,46868:0:0:0:0:
426,192,46738,128,0,46868:0:0:0:0:
312,192,46738,1,0,0:0:0:0:
28,192,46738,1,0,0:0:0:0:
199,192,46868,1,0,0:0:0:0:
28,192,46998,128,0,47259:0:0:0:0:
312,192,46998,128,0,47259:0:0:0:0:
369,192,46998,1,0,0:0:0:0:
256,192,47129,1,0,0:0:0:0:
142,192,47259,1,0,0:0:0:0:
85,192,47259,1,0,0:0:0:0:
483,192,47389,128,0,47649:0:0:0:0:
199,192,47389,128,0,47649:0:0:0:0:
426,192,47389,1,0,0:0:0:0:
369,192,47519,1,0,0:0:0:0:
312,192,47649,1,0,0:0:0:0:
426,192,47779,128,0,48039:0:0:0:0:
142,192,47779,128,0,48039:0:0:0:0:
256,192,47779,1,0,0:0:0:0:
85,192,47779,1,0,0:0:0:0:
28,192,47909,1,0,0:0:0:0:
85,192,48039,128,0,49861:0:0:0:0:
369,192,48039,128,0,49861:0:0:0:0:
199,192,48039,1,0,0:0:0:0:
256,192,48170,1,0,0:0:0:0:
28,192,48300,1,0,0:0:0:0:
483,192,48300,1,0,0:0:0:0:
256,192,48430,1,0,0:0:0:0:
199,192,48560,1,0,0:0:0:0:
426,192,48690,1,0,0:0:0:0:
312,192,48820,1,0,0:0:0:0:
142,192,48820,1,0,0:0:0:0:
199,192,48950,1,0,0:0:0:0:
256,192,49080,1,0,0:0:0:0:
312,192,49211,1,0,0:0:0:0:
28,192,49341,1,0,0:0:0:0:
483,192,49341,1,0,0:0:0:0:
426,192,49471,1,0,0:0:0:0:
256,192,49601,1,0,0:0:0:0:
199,192,49731,1,0,0:0:0:0:
483,192,49861,128,0,49991:0:0:0:0:
142,192,49861,1,0,0:0:0:0:
312,192,49861,1,0,0:0:0:0:
256,192,49991,128,0,50122:0:0:0:0:
199,192,49991,1,0,0:0:0:0:
28,192,50122,128,0,50642:0:0:0:0:
369,192,51163,128,0,51293:0:0:0:0:
142,192,51163,1,0,0:0:0:0:
369,192,51423,1,0,0:0:0:0:
312,192,51683,128,0,51813:0:0:0:0:
85,192,51683,1,0,0:0:0:0:
312,192,51943,1,0,0:0:0:0:
85,192,52204,1,0,0:0:0:0:
426,192,52204,1,0,0:0:0:0:
199,192,52204,1,0,0:0:0:0:
312,192,52334,1,0,0:0:0:0:
256,192,52464,1,0,0:0:0:0:
85,192,52594,1,0,0:0:0:0:
426,192,52594,1,0,0:0:0:0:
312,192,52594,1,0,0:0:0:0:
199,192,52724,1,0,0:0:0:0:
142,192,52854,1,0,0:0:0:0:
369,192,52919,1,0,0:0:0:0:
142,192,52984,1,0,0:0:0:0:
369,192,53049,1,0,0:0:0:0:
85,192,53114,1,0,0:0:0:0:
426,192,53114,1,0,0:0:0:0:
199,192,53114,1,0,0:0:0:0:
256,192,53375,1,0,0:0:0:0:
85,192,53505,1,0,0:0:0:0:
426,192,53505,1,0,0:0:0:0:
369,192,53505,1,0,0:0:0:0:
483,192,53635,1,0,0:0:0:0:
85,192,53765,1,0,0:0:0:0:
426,192,53765,1,0,0:0:0:0:
312,192,53765,1,0,0:0:0:0:
28,192,54025,1,0,0:0:0:0:
483,192,54025,1,0,0:0:0:0:
85,192,54286,1,0,0:0:0:0:
426,192,54286,1,0,0:0:0:0:
142,192,54286,1,0,0:0:0:0:
369,192,54416,1,0,0:0:0:0:
312,192,54546,1,0,0:0:0:0:
85,192,54676,1,0,0:0:0:0:
426,192,54676,1,0,0:0:0:0:
369,192,54676,1,0,0:0:0:0:
142,192,54806,1,0,0:0:0:0:
256,192,54936,1,0,0:0:0:0:
256,192,55066,1,0,0:0:0:0:
426,192,55197,1,0,0:0:0:0:
85,192,55197,1,0,0:0:0:0:
142,192,55197,1,0,0:0:0:0:
199,192,55457,1,0,0:0:0:0:
85,192,55587,1,0,0:0:0:0:
426,192,55587,1,0,0:0:0:0:
312,192,55587,1,0,0:0:0:0:
369,192,55717,1,0,0:0:0:0:
85,192,55847,1,0,0:0:0:0:
426,192,55847,1,0,0:0:0:0:
256,192,55847,1,0,0:0:0:0:
85,192,56107,1,0,0:0:0:0:
426,192,56107,1,0,0:0:0:0:
369,192,56173,1,0,0:0:0:0:
142,192,56238,1,0,0:0:0:0:
369,192,56303,1,0,0:0:0:0:
28,192,56368,1,0,0:0:0:0:
483,192,56368,1,0,0:0:0:0:
85,192,56368,1,0,0:0:0:0:
426,192,56498,1,0,0:0:0:0:
312,192,56628,1,0,0:0:0:0:
28,192,56758,1,0,0:0:0:0:
483,192,56758,1,0,0:0:0:0:
426,192,56758,1,0,0:0:0:0:
85,192,56888,1,0,0:0:0:0:
28,192,57279,1,0,0:0:0:0:
483,192,57279,1,0,0:0:0:0:
85,192,57279,1,0,0:0:0:0:
199,192,57539,1,0,0:0:0:0:
28,192,57669,1,0,0:0:0:0:
483,192,57669,1,0,0:0:0:0:
312,192,57669,1,0,0:0:0:0:
426,192,57799,1,0,0:0:0:0:
28,192,57929,1,0,0:0:0:0:
483,192,57929,1,0,0:0:0:0:
256,192,57929,1,0,0:0:0:0:
85,192,58190,1,0,0:0:0:0:
426,192,58255,1,0,0:0:0:0:
85,192,58320,1,0,0:0:0:0:
426,192,58385,1,0,0:0:0:0:
142,192,58450,1,0,0:0:0:0:
369,192,58450,1,0,0:0:0:0:
199,192,58450,1,0,0:0:0:0:
142,192,58840,1,0,0:0:0:0:
369,192,58840,1,0,0:0:0:0:
312,192,58840,1,0,0:0:0:0:
142,192,59231,1,0,0:0:0:0:
369,192,59231,1,0,0:0:0:0:
256,192,59231,1,0,0:0:0:0:
199,192,59426,1,0,0:0:0:0:
28,192,59491,1,0,0:0:0:0:
483,192,59491,1,0,0:0:0:0:
312,192,59491,1,0,0:0:0:0:
142,192,59621,1,0,0:0:0:0:
199,192,59881,1,0,0:0:0:0:
312,192,59881,1,0,0:0:0:0:
85,192,59881,1,0,0:0:0:0:
142,192,60185,1,0,0:0:0:0:
256,192,60228,1,0,0:0:0:0:
85,192,60272,1,0,0:0:0:0:
426,192,60272,1,0,0:0:0:0:
369,192,60272,1,0,0:0:0:0:
199,192,60532,1,0,0:0:0:0:
85,192,60532,128,0,60597:0:0:0:0:
426,192,60532,128,0,60597:0:0:0:0:
312,192,60662,1,0,0:0:0:0:
256,192,60792,1,0,0:0:0:0:
312,192,60922,1,0,0:0:0:0:
85,192,60922,128,0,60987:0:0:0:0:
426,192,60922,128,0,60987:0:0:0:0:
199,192,61052,1,0,0:0:0:0:
142,192,61183,1,0,0:0:0:0:
369,192,61248,1,0,0:0:0:0:
142,192,61313,1,0,0:0:0:0:
369,192,61378,1,0,0:0:0:0:
199,192,61443,1,0,0:0:0:0:
85,192,61443,128,0,61508:0:0:0:0:
426,192,61443,128,0,61508:0:0:0:0:
256,192,61703,1,0,0:0:0:0:
369,192,61833,1,0,0:0:0:0:
85,192,61833,128,0,61898:0:0:0:0:
426,192,61833,128,0,61898:0:0:0:0:
483,192,61963,1,0,0:0:0:0:
312,192,62093,1,0,0:0:0:0:
85,192,62093,128,0,62158:0:0:0:0:
426,192,62093,128,0,62158:0:0:0:0:
483,192,62354,128,0,62614:0:0:0:0:
28,192,62354,128,0,62614:0:0:0:0:
142,192,62614,1,0,0:0:0:0:
85,192,62614,128,0,62679:0:0:0:0:
426,192,62614,128,0,62679:0:0:0:0:
369,192,62744,1,0,0:0:0:0:
312,192,62874,1,0,0:0:0:0:
369,192,63004,1,0,0:0:0:0:
85,192,63004,128,0,63069:0:0:0:0:
426,192,63004,128,0,63069:0:0:0:0:
142,192,63134,1,0,0:0:0:0:
256,192,63265,1,0,0:0:0:0:
256,192,63395,1,0,0:0:0:0:
142,192,63525,1,0,0:0:0:0:
85,192,63525,128,0,63590:0:0:0:0:
426,192,63525,128,0,63590:0:0:0:0:
199,192,63785,1,0,0:0:0:0:
312,192,63915,1,0,0:0:0:0:
85,192,63915,128,0,63980:0:0:0:0:
426,192,63915,128,0,63980:0:0:0:0:
369,192,64045,1,0,0:0:0:0:
256,192,64175,1,0,0:0:0:0:
85,192,64175,128,0,64241:0:0:0:0:
426,192,64175,128,0,64241:0:0:0:0:
85,192,64436,128,0,64696:0:0:0:0:
426,192,64436,128,0,64696:0:0:0:0:
369,192,64501,1,0,0:0:0:0:
142,192,64566,1,0,0:0:0:0:
369,192,64631,1,0,0:0:0:0:
199,192,64696,1,0,0:0:0:0:
28,192,64696,128,0,64761:0:0:0:0:
483,192,64696,128,0,64761:0:0:0:0:
426,192,64826,1,0,0:0:0:0:
312,192,64956,1,0,0:0:0:0:
426,192,65086,1,0,0:0:0:0:
28,192,65086,128,0,65151:0:0:0:0:
483,192,65086,128,0,65151:0:0:0:0:
85,192,65217,1,0,0:0:0:0:
85,192,65607,1,0,0:0:0:0:
28,192,65607,128,0,65672:0:0:0:0:
483,192,65607,128,0,65672:0:0:0:0:
199,192,65867,1,0,0:0:0:0:
312,192,65997,1,0,0:0:0:0:
28,192,65997,128,0,66062:0:0:0:0:
483,192,65997,128,0,66062:0:0:0:0:
426,192,66127,1,0,0:0:0:0:
256,192,66258,1,0,0:0:0:0:
28,192,66258,128,0,66323:0:0:0:0:
483,192,66258,128,0,66323:0:0:0:0:
85,192,66518,1,0,0:0:0:0:
426,192,66583,1,0,0:0:0:0:
85,192,66648,1,0,0:0:0:0:
426,192,66713,1,0,0:0:0:0:
199,192,66778,128,0,67168:0:0:0:0:
312,192,67168,128,0,67559:0:0:0:0:
256,192,67559,128,0,67689:0:0:0:0:
199,192,67787,1,0,0:0:0:0:
312,192,67819,1,0,0:0:0:0:
142,192,67949,128,0,68079:0:0:0:0:
85,192,68209,128,0,68470:0:0:0:0:
142,192,68535,1,0,0:0:0:0:
256,192,68567,1,0,0:0:0:0:
369,192,68600,128,0,68860:0:0:0:0:
85,192,68860,1,0,0:0:0:0:
312,192,68860,1,0,0:0:0:0:
426,192,68990,1,0,0:0:0:0:
199,192,68990,1,0,0:0:0:0:
369,192,69120,1,0,0:0:0:0:
142,192,69120,1,0,0:0:0:0:
85,192,69120,1,0,0:0:0:0:
312,192,69120,1,0,0:0:0:0:
426,192,69251,1,0,0:0:0:0:
199,192,69251,1,0,0:0:0:0:
85,192,69381,1,0,0:0:0:0:
312,192,69381,1,0,0:0:0:0:
256,192,69511,1,0,0:0:0:0:
369,192,69641,1,0,0:0:0:0:
142,192,69641,1,0,0:0:0:0:
28,192,69771,128,0,70031:0:0:0:0:
256,192,69771,128,0,70031:0:0:0:0:
483,192,69901,1,0,0:0:0:0:
85,192,70031,1,0,0:0:0:0:
312,192,70031,1,0,0:0:0:0:
199,192,70161,1,0,0:0:0:0:
426,192,70161,1,0,0:0:0:0:
142,192,70161,1,0,0:0:0:0:
369,192,70161,1,0,0:0:0:0:
256,192,70292,1,0,0:0:0:0:
483,192,70292,1,0,0:0:0:0:
142,192,70422,1,0,0:0:0:0:
369,192,70422,1,0,0:0:0:0:
312,192,70552,1,0,0:0:0:0:
28,192,70682,1,0,0:0:0:0:
483,192,70682,1,0,0:0:0:0:
199,192,70812,1,0,0:0:0:0:
85,192,70942,1,0,0:0:0:0:
312,192,70942,1,0,0:0:0:0:
256,192,71072,1,0,0:0:0:0:
483,192,71072,1,0,0:0:0:0:
142,192,71202,1,0,0:0:0:0:
369,192,71202,1,0,0:0:0:0:
199,192,71202,1,0,0:0:0:0:
426,192,71202,1,0,0:0:0:0:
256,192,71333,1,0,0:0:0:0:
483,192,71333,1,0,0:0:0:0:
85,192,71463,1,0,0:0:0:0:
312,192,71463,1,0,0:0:0:0:
256,192,71593,1,0,0:0:0:0:
369,192,71723,1,0,0:0:0:0:
142,192,71723,1,0,0:0:0:0:
28,192,71853,128,0,72113:0:0:0:0:
256,192,71853,128,0,72113:0:0:0:0:
483,192,71983,1,0,0:0:0:0:
85,192,72113,1,0,0:0:0:0:
312,192,72113,1,0,0:0:0:0:
142,192,72243,1,0,0:0:0:0:
369,192,72243,1,0,0:0:0:0:
199,192,72243,1,0,0:0:0:0:
426,192,72243,1,0,0:0:0:0:
256,192,72374,1,0,0:0:0:0:
483,192,72374,1,0,0:0:0:0:
199,192,72504,1,0,0:0:0:0:
426,192,72504,1,0,0:0:0:0:
369,192,72634,1,0,0:0:0:0:
312,192,72764,1,0,0:0:0:0:
142,192,72764,1,0,0:0:0:0:
85,192,72894,1,0,0:0:0:0:
28,192,73024,1,0,0:0:0:0:
256,192,73024,1,0,0:0:0:0:
199,192,73154,1,0,0:0:0:0:
426,192,73154,1,0,0:0:0:0:
142,192,73285,1,0,0:0:0:0:
369,192,73285,1,0,0:0:0:0:
256,192,73285,1,0,0:0:0:0:
483,192,73285,1,0,0:0:0:0:
199,192,73415,1,0,0:0:0:0:
426,192,73415,1,0,0:0:0:0:
28,192,73545,1,0,0:0:0:0:
256,192,73545,1,0,0:0:0:0:
312,192,73675,1,0,0:0:0:0:
142,192,73805,1,0,0:0:0:0:
369,192,73805,1,0,0:0:0:0:
28,192,73935,128,0,74195:0:0:0:0:
256,192,73935,128,0,74195:0:0:0:0:
483,192,74065,1,0,0:0:0:0:
85,192,74195,1,0,0:0:0:0:
312,192,74195,1,0,0:0:0:0:
142,192,74326,1,0,0:0:0:0:
369,192,74326,1,0,0:0:0:0:
256,192,74326,1,0,0:0:0:0:
483,192,74326,1,0,0:0:0:0:
199,192,74456,1,0,0:0:0:0:
426,192,74456,1,0,0:0:0:0:
142,192,74586,1,0,0:0:0:0:
369,192,74586,1,0,0:0:0:0:
256,192,74716,1,0,0:0:0:0:
28,192,74846,1,0,0:0:0:0:
483,192,74846,1,0,0:0:0:0:
256,192,74976,1,0,0:0:0:0:
142,192,75106,128,0,75497:0:0:0:0:
312,192,75106,128,0,75497:0:0:0:0:
28,192,75367,1,0,0:0:0:0:
85,192,75367,1,0,0:0:0:0:
256,192,75497,128,0,75887:0:0:0:0:
426,192,75497,128,0,75887:0:0:0:0:
199,192,75887,128,0,76017:0:0:0:0:
369,192,75887,128,0,76017:0:0:0:0:
85,192,75887,1,0,0:0:0:0:
142,192,75887,1,0,0:0:0:0:
256,192,76115,1,0,0:0:0:0:
312,192,76147,128,0,76278:0:0:0:0:
483,192,76147,128,0,76278:0:0:0:0:
256,192,76278,128,0,76408:0:0:0:0:
426,192,76278,128,0,76408:0:0:0:0:
312,192,76408,1,0,0:0:0:0:
369,192,76408,1,0,0:0:0:0:
28,192,76538,128,0,76798:0:0:0:0:
199,192,76538,128,0,76798:0:0:0:0:
85,192,76863,1,0,0:0:0:0:
142,192,76896,1,0,0:0:0:0:
199,192,76928,128,0,77188:0:0:0:0:
369,192,76928,128,0,77188:0:0:0:0:
426,192,76928,1,0,0:0:0:0:
483,192,76928,1,0,0:0:0:0:
28,192,77188,1,0,0:0:0:0:
256,192,77188,1,0,0:0:0:0:
199,192,77319,1,0,0:0:0:0:
426,192,77319,1,0,0:0:0:0:
85,192,77449,1,0,0:0:0:0:
312,192,77449,1,0,0:0:0:0:
142,192,77449,1,0,0:0:0:0:
369,192,77449,1,0,0:0:0:0:
199,192,77579,1,0,0:0:0:0:
426,192,77579,1,0,0:0:0:0:
28,192,77709,1,0,0:0:0:0:
256,192,77709,1,0,0:0:0:0:
312,192,77839,1,0,0:0:0:0:
85,192,77969,1,0,0:0:0:0:
426,192,77969,1,0,0:0:0:0:
142,192,78099,128,0,78360:0:0:0:0:
369,192,78099,128,0,78360:0:0:0:0:
312,192,78229,1,0,0:0:0:0:
28,192,78360,1,0,0:0:0:0:
256,192,78360,1,0,0:0:0:0:
85,192,78490,1,0,0:0:0:0:
312,192,78490,1,0,0:0:0:0:
199,192,78490,1,0,0:0:0:0:
426,192,78490,1,0,0:0:0:0:
256,192,78620,1,0,0:0:0:0:
483,192,78620,1,0,0:0:0:0:
426,192,78750,1,0,0:0:0:0:
199,192,78750,1,0,0:0:0:0:
312,192,78880,1,0,0:0:0:0:
142,192,79010,1,0,0:0:0:0:
256,192,79010,1,0,0:0:0:0:
199,192,79140,1,0,0:0:0:0:
85,192,79270,1,0,0:0:0:0:
312,192,79270,1,0,0:0:0:0:
256,192,79401,1,0,0:0:0:0:
483,192,79401,1,0,0:0:0:0:
142,192,79531,1,0,0:0:0:0:
369,192,79531,1,0,0:0:0:0:
85,192,79531,1,0,0:0:0:0:
312,192,79531,1,0,0:0:0:0:
256,192,79661,1,0,0:0:0:0:
483,192,79661,1,0,0:0:0:0:
85,192,79791,1,0,0:0:0:0:
312,192,79791,1,0,0:0:0:0:
256,192,79921,1,0,0:0:0:0:
28,192,80051,1,0,0:0:0:0:
483,192,80051,1,0,0:0:0:0:
142,192,80181,128,0,80442:0:0:0:0:
369,192,80181,128,0,80442:0:0:0:0:
199,192,80312,1,0,0:0:0:0:
28,192,80442,1,0,0:0:0:0:
256,192,80442,1,0,0:0:0:0:
85,192,80572,1,0,0:0:0:0:
312,192,80572,1,0,0:0:0:0:
142,192,80572,1,0,0:0:0:0:
369,192,80572,1,0,0:0:0:0:
199,192,80702,1,0,0:0:0:0:
426,192,80702,1,0,0:0:0:0:
142,192,80832,1,0,0:0:0:0:
369,192,80832,1,0,0:0:0:0:
199,192,80962,1,0,0:0:0:0:
85,192,81092,1,0,0:0:0:0:
426,192,81092,1,0,0:0:0:0:
312,192,81222,1,0,0:0:0:0:
28,192,81353,1,0,0:0:0:0:
369,192,81353,1,0,0:0:0:0:
142,192,81483,1,0,0:0:0:0:
483,192,81483,1,0,0:0:0:0:
85,192,81613,1,0,0:0:0:0:
426,192,81613,1,0,0:0:0:0:
312,192,81613,1,0,0:0:0:0:
199,192,81613,1,0,0:0:0:0:
142,192,81743,1,0,0:0:0:0:
483,192,81743,1,0,0:0:0:0:
28,192,81873,1,0,0:0:0:0:
369,192,81873,1,0,0:0:0:0:
256,192,82003,1,0,0:0:0:0:
199,192,82133,1,0,0:0:0:0:
312,192,82133,1,0,0:0:0:0:
142,192,82263,128,0,82524:0:0:0:0:
369,192,82263,128,0,82524:0:0:0:0:
256,192,82394,1,0,0:0:0:0:
85,192,82524,1,0,0:0:0:0:
312,192,82524,1,0,0:0:0:0:
199,192,82654,1,0,0:0:0:0:
426,192,82654,1,0,0:0:0:0:
142,192,82654,1,0,0:0:0:0:
369,192,82654,1,0,0:0:0:0:
256,192,82784,1,0,0:0:0:0:
483,192,82784,1,0,0:0:0:0:
142,192,82914,1,0,0:0:0:0:
369,192,82914,1,0,0:0:0:0:
85,192,83044,1,0,0:0:0:0:
199,192,83174,1,0,0:0:0:0:
312,192,83174,1,0,0:0:0:0:
426,192,83304,1,0,0:0:0:0:
28,192,83435,128,0,83825:0:0:0:0:
142,192,83435,128,0,83825:0:0:0:0:
199,192,83695,1,0,0:0:0:0:
312,192,83695,1,0,0:0:0:0:
369,192,83825,128,0,84215:0:0:0:0:
483,192,83825,128,0,84215:0:0:0:0:
199,192,84215,128,0,84346:0:0:0:0:
312,192,84215,128,0,84346:0:0:0:0:
28,192,84215,1,0,0:0:0:0:
142,192,84215,1,0,0:0:0:0:
256,192,84443,1,0,0:0:0:0:
312,192,84476,128,0,84606:0:0:0:0:
426,192,84476,128,0,84606:0:0:0:0:
85,192,84606,128,0,84736:0:0:0:0:
199,192,84606,128,0,84736:0:0:0:0:
256,192,84736,1,0,0:0:0:0:
369,192,84736,1,0,0:0:0:0:
28,192,84866,128,0,85126:0:0:0:0:
142,192,84866,128,0,85126:0:0:0:0:
85,192,85191,1,0,0:0:0:0:
142,192,85224,1,0,0:0:0:0:
199,192,85256,128,0,85517:0:0:0:0:
312,192,85256,128,0,85517:0:0:0:0:
369,192,85256,1,0,0:0:0:0:
483,192,85256,1,0,0:0:0:0:
483,192,85517,1,0,0:0:0:0:
256,192,85517,1,0,0:0:0:0:
312,192,85647,1,0,0:0:0:0:
85,192,85647,1,0,0:0:0:0:
142,192,85777,1,0,0:0:0:0:
369,192,85777,1,0,0:0:0:0:
426,192,85777,1,0,0:0:0:0:
199,192,85777,1,0,0:0:0:0:
312,192,85907,1,0,0:0:0:0:
85,192,85907,1,0,0:0:0:0:
199,192,86037,1,0,0:0:0:0:
426,192,86037,1,0,0:0:0:0:
256,192,86167,1,0,0:0:0:0:
142,192,86297,1,0,0:0:0:0:
369,192,86297,1,0,0:0:0:0:
256,192,86428,128,0,86688:0:0:0:0:
483,192,86428,128,0,86688:0:0:0:0:
28,192,86558,1,0,0:0:0:0:
426,192,86688,1,0,0:0:0:0:
199,192,86688,1,0,0:0:0:0:
85,192,86818,1,0,0:0:0:0:
312,192,86818,1,0,0:0:0:0:
369,192,86818,1,0,0:0:0:0:
142,192,86818,1,0,0:0:0:0:
28,192,86948,1,0,0:0:0:0:
256,192,86948,1,0,0:0:0:0:
142,192,87078,1,0,0:0:0:0:
369,192,87078,1,0,0:0:0:0:
199,192,87208,1,0,0:0:0:0:
483,192,87338,1,0,0:0:0:0:
28,192,87338,1,0,0:0:0:0:
312,192,87469,1,0,0:0:0:0:
199,192,87599,1,0,0:0:0:0:
426,192,87599,1,0,0:0:0:0:
28,192,87729,1,0,0:0:0:0:
256,192,87729,1,0,0:0:0:0:
369,192,87859,1,0,0:0:0:0:
142,192,87859,1,0,0:0:0:0:
312,192,87859,1,0,0:0:0:0:
85,192,87859,1,0,0:0:0:0:
256,192,87989,1,0,0:0:0:0:
28,192,87989,1,0,0:0:0:0:
199,192,88119,1,0,0:0:0:0:
426,192,88119,1,0,0:0:0:0:
256,192,88249,1,0,0:0:0:0:
369,192,88380,1,0,0:0:0:0:
142,192,88380,1,0,0:0:0:0:
483,192,88510,128,0,88770:0:0:0:0:
256,192,88510,128,0,88770:0:0:0:0:
28,192,88640,1,0,0:0:0:0:
426,192,88770,1,0,0:0:0:0:
199,192,88770,1,0,0:0:0:0:
369,192,88900,1,0,0:0:0:0:
142,192,88900,1,0,0:0:0:0:
312,192,88900,1,0,0:0:0:0:
85,192,88900,1,0,0:0:0:0:
256,192,89030,1,0,0:0:0:0:
28,192,89030,1,0,0:0:0:0:
85,192,89160,1,0,0:0:0:0:
312,192,89160,1,0,0:0:0:0:
142,192,89290,1,0,0:0:0:0:
369,192,89421,1,0,0:0:0:0:
199,192,89421,1,0,0:0:0:0:
426,192,89551,1,0,0:0:0:0:
256,192,89681,1,0,0:0:0:0:
483,192,89681,1,0,0:0:0:0:
85,192,89811,1,0,0:0:0:0:
312,192,89811,1,0,0:0:0:0:
369,192,89941,1,0,0:0:0:0:
142,192,89941,1,0,0:0:0:0:
256,192,89941,1,0,0:0:0:0:
28,192,89941,1,0,0:0:0:0:
85,192,90071,1,0,0:0:0:0:
312,192,90071,1,0,0:0:0:0:
256,192,90201,1,0,0:0:0:0:
483,192,90201,1,0,0:0:0:0:
199,192,90331,1,0,0:0:0:0:
142,192,90462,1,0,0:0:0:0:
369,192,90462,1,0,0:0:0:0:
483,192,90592,128,0,90852:0:0:0:0:
256,192,90592,128,0,90852:0:0:0:0:
28,192,90722,1,0,0:0:0:0:
426,192,90852,1,0,0:0:0:0:
199,192,90852,1,0,0:0:0:0:
369,192,90982,1,0,0:0:0:0:
142,192,90982,1,0,0:0:0:0:
256,192,90982,1,0,0:0:0:0:
28,192,90982,1,0,0:0:0:0:
312,192,91112,1,0,0:0:0:0:
85,192,91112,1,0,0:0:0:0:
369,192,91242,1,0,0:0:0:0:
142,192,91242,1,0,0:0:0:0:
256,192,91372,1,0,0:0:0:0:
483,192,91503,1,0,0:0:0:0:
28,192,91503,1,0,0:0:0:0:
256,192,91633,1,0,0:0:0:0:
369,192,91763,128,0,92153:0:0:0:0:
199,192,91763,128,0,92153:0:0:0:0:
426,192,92023,1,0,0:0:0:0:
483,192,92023,1,0,0:0:0:0:
85,192,92153,128,0,92544:0:0:0:0:
256,192,92153,128,0,92544:0:0:0:0:
369,192,92544,1,0,0:0:0:0:
426,192,92544,1,0,0:0:0:0:
312,192,92544,128,0,92674:0:0:0:0:
142,192,92544,128,0,92674:0:0:0:0:
256,192,92771,1,0,0:0:0:0:
28,192,92804,128,0,92934:0:0:0:0:
199,192,92804,128,0,92934:0:0:0:0:
85,192,92934,128,0,93064:0:0:0:0:
256,192,92934,128,0,93064:0:0:0:0:
142,192,93064,1,0,0:0:0:0:
199,192,93064,1,0,0:0:0:0:
483,192,93194,128,0,93455:0:0:0:0:
312,192,93194,128,0,93455:0:0:0:0:
426,192,93520,1,0,0:0:0:0:
369,192,93552,1,0,0:0:0:0:
28,192,93585,1,0,0:0:0:0:
312,192,93585,128,0,93845:0:0:0:0:
85,192,93585,1,0,0:0:0:0:
142,192,93585,128,0,93845:0:0:0:0:
483,192,93845,1,0,0:0:0:0:
256,192,93845,1,0,0:0:0:0:
85,192,93975,1,0,0:0:0:0:
312,192,93975,1,0,0:0:0:0:
426,192,94105,1,0,0:0:0:0:
199,192,94105,1,0,0:0:0:0:
369,192,94105,1,0,0:0:0:0:
142,192,94105,1,0,0:0:0:0:
85,192,94235,1,0,0:0:0:0:
312,192,94235,1,0,0:0:0:0:
256,192,94365,1,0,0:0:0:0:
483,192,94365,1,0,0:0:0:0:
199,192,94496,1,0,0:0:0:0:
85,192,94626,1,0,0:0:0:0:
426,192,94626,1,0,0:0:0:0:
142,192,94756,128,0,95016:0:0:0:0:
369,192,94756,128,0,95016:0:0:0:0:
199,192,94886,1,0,0:0:0:0:
256,192,95016,1,0,0:0:0:0:
483,192,95016,1,0,0:0:0:0:
426,192,95146,1,0,0:0:0:0:
199,192,95146,1,0,0:0:0:0:
312,192,95146,1,0,0:0:0:0:
85,192,95146,1,0,0:0:0:0:
28,192,95276,1,0,0:0:0:0:
256,192,95276,1,0,0:0:0:0:
312,192,95407,1,0,0:0:0:0:
85,192,95407,1,0,0:0:0:0:
199,192,95537,1,0,0:0:0:0:
256,192,95667,1,0,0:0:0:0:
369,192,95667,1,0,0:0:0:0:
312,192,95797,1,0,0:0:0:0:
199,192,95927,1,0,0:0:0:0:
426,192,95927,1,0,0:0:0:0:
28,192,96057,1,0,0:0:0:0:
256,192,96057,1,0,0:0:0:0:
369,192,96187,1,0,0:0:0:0:
142,192,96187,1,0,0:0:0:0:
426,192,96187,1,0,0:0:0:0:
199,192,96187,1,0,0:0:0:0:
28,192,96317,1,0,0:0:0:0:
256,192,96317,1,0,0:0:0:0:
199,192,96448,1,0,0:0:0:0:
426,192,96448,1,0,0:0:0:0:
256,192,96578,1,0,0:0:0:0:
28,192,96708,1,0,0:0:0:0:
483,192,96708,1,0,0:0:0:0:
142,192,96838,128,0,97098:0:0:0:0:
369,192,96838,128,0,97098:0:0:0:0:
312,192,96968,1,0,0:0:0:0:
256,192,97098,1,0,0:0:0:0:
483,192,97098,1,0,0:0:0:0:
142,192,97228,1,0,0:0:0:0:
369,192,97228,1,0,0:0:0:0:
199,192,97228,1,0,0:0:0:0:
426,192,97228,1,0,0:0:0:0:
85,192,97358,1,0,0:0:0:0:
312,192,97358,1,0,0:0:0:0:
142,192,97489,1,0,0:0:0:0:
369,192,97489,1,0,0:0:0:0:
312,192,97619,1,0,0:0:0:0:
85,192,97749,1,0,0:0:0:0:
426,192,97749,1,0,0:0:0:0:
199,192,97879,1,0,0:0:0:0:
142,192,98009,1,0,0:0:0:0:
483,192,98009,1,0,0:0:0:0:
28,192,98139,1,0,0:0:0:0:
369,192,98139,1,0,0:0:0:0:
426,192,98269,1,0,0:0:0:0:
85,192,98269,1,0,0:0:0:0:
199,192,98269,1,0,0:0:0:0:
312,192,98269,1,0,0:0:0:0:
28,192,98399,1,0,0:0:0:0:
369,192,98399,1,0,0:0:0:0:
142,192,98530,1,0,0:0:0:0:
483,192,98530,1,0,0:0:0:0:
256,192,98660,1,0,0:0:0:0:
199,192,98790,1,0,0:0:0:0:
312,192,98790,1,0,0:0:0:0:
142,192,98920,128,0,99180:0:0:0:0:
369,192,98920,128,0,99180:0:0:0:0:
256,192,99050,1,0,0:0:0:0:
199,192,99180,1,0,0:0:0:0:
426,192,99180,1,0,0:0:0:0:
312,192,99310,1,0,0:0:0:0:
85,192,99310,1,0,0:0:0:0:
369,192,99310,1,0,0:0:0:0:
142,192,99310,1,0,0:0:0:0:
28,192,99441,1,0,0:0:0:0:
256,192,99441,1,0,0:0:0:0:
142,192,99571,1,0,0:0:0:0:
369,192,99571,1,0,0:0:0:0:
426,192,99701,1,0,0:0:0:0:
199,192,99831,1,0,0:0:0:0:
312,192,99831,1,0,0:0:0:0:
85,192,99961,1,0,0:0:0:0:
369,192,100091,128,0,100482:0:0:0:0:
483,192,100091,128,0,100482:0:0:0:0:
199,192,100351,1,0,0:0:0:0:
312,192,100351,1,0,0:0:0:0:
28,192,100482,128,0,100872:0:0:0:0:
142,192,100482,128,0,100872:0:0:0:0:
369,192,100872,1,0,0:0:0:0:
483,192,100872,1,0,0:0:0:0:
199,192,100872,128,0,101002:0:0:0:0:
312,192,100872,128,0,101002:0:0:0:0:
256,192,101100,1,0,0:0:0:0:
85,192,101132,128,0,101262:0:0:0:0:
199,192,101132,128,0,101262:0:0:0:0:
312,192,101262,128,0,101392:0:0:0:0:
426,192,101262,128,0,101392:0:0:0:0:
142,192,101392,1,0,0:0:0:0:
256,192,101392,1,0,0:0:0:0:
369,192,101523,128,0,101783:0:0:0:0:
483,192,101523,128,0,101783:0:0:0:0:
426,192,101848,1,0,0:0:0:0:
369,192,101880,1,0,0:0:0:0:
312,192,101913,128,0,102173:0:0:0:0:
199,192,101913,128,0,102173:0:0:0:0:
142,192,101913,1,0,0:0:0:0:
28,192,101913,1,0,0:0:0:0:
85,192,102173,1,0,0:0:0:0:
256,192,102173,128,0,103735:0:0:0:0:
142,192,102303,1,0,0:0:0:0:
85,192,102433,1,0,0:0:0:0:
426,192,102433,1,0,0:0:0:0:
369,192,102564,1,0,0:0:0:0:
426,192,102694,1,0,0:0:0:0:
312,192,102824,1,0,0:0:0:0:
28,192,102954,1,0,0:0:0:0:
199,192,102954,1,0,0:0:0:0:
483,192,103084,1,0,0:0:0:0:
369,192,103214,1,0,0:0:0:0:
142,192,103344,1,0,0:0:0:0:
85,192,103475,1,0,0:0:0:0:
426,192,103475,1,0,0:0:0:0:
312,192,103605,1,0,0:0:0:0:
28,192,103735,128,0,103865:0:0:0:0:
199,192,103735,1,0,0:0:0:0:
369,192,103865,1,0,0:0:0:0:
142,192,103995,128,0,104125:0:0:0:0:
483,192,103995,1,0,0:0:0:0:
426,192,103995,1,0,0:0:0:0:
85,192,104125,1,0,0:0:0:0:
256,192,104255,128,0,105036:0:0:0:0:
312,192,104255,1,0,0:0:0:0:
199,192,104385,1,0,0:0:0:0:
142,192,104516,1,0,0:0:0:0:
369,192,104516,1,0,0:0:0:0:
312,192,104646,1,0,0:0:0:0:
199,192,104776,1,0,0:0:0:0:
142,192,104906,1,0,0:0:0:0:
312,192,105036,128,0,105296:0:0:0:0:
85,192,105036,1,0,0:0:0:0:
426,192,105036,1,0,0:0:0:0:
199,192,105166,1,0,0:0:0:0:
483,192,105296,128,0,105426:0:0:0:0:
142,192,105296,1,0,0:0:0:0:
369,192,105426,128,0,105492:0:0:0:0:
28,192,105426,1,0,0:0:0:0:
312,192,105557,1,0,0:0:0:0:
199,192,105557,1,0,0:0:0:0:
85,192,105654,1,0,0:0:0:0:
142,192,105687,128,0,106077:0:0:0:0:
256,192,105687,1,0,0:0:0:0:
369,192,105817,1,0,0:0:0:0:
312,192,105947,1,0,0:0:0:0:
426,192,106077,128,0,106337:0:0:0:0:
256,192,106077,1,0,0:0:0:0:
199,192,106207,1,0,0:0:0:0:
256,192,106337,128,0,107118:0:0:0:0:
28,192,106337,1,0,0:0:0:0:
199,192,106467,1,0,0:0:0:0:
369,192,106598,1,0,0:0:0:0:
483,192,106598,1,0,0:0:0:0:
199,192,106728,1,0,0:0:0:0:
28,192,106858,1,0,0:0:0:0:
199,192,106988,1,0,0:0:0:0:
369,192,107118,1,0,0:0:0:0:
483,192,107118,1,0,0:0:0:0:
426,192,107248,1,0,0:0:0:0:
199,192,107378,1,0,0:0:0:0:
28,192,107378,128,0,107443:0:0:0:0:
312,192,107509,1,0,0:0:0:0:
28,192,107639,128,0,107704:0:0:0:0:
426,192,107639,1,0,0:0:0:0:
256,192,107639,1,0,0:0:0:0:
142,192,107769,128,0,107834:0:0:0:0:
483,192,107769,1,0,0:0:0:0:
369,192,107899,1,0,0:0:0:0:
142,192,108029,128,0,108094:0:0:0:0:
256,192,108029,1,0,0:0:0:0:
312,192,108127,1,0,0:0:0:0:
369,192,108159,128,0,108289:0:0:0:0:
85,192,108159,1,0,0:0:0:0:
199,192,108159,1,0,0:0:0:0:
28,192,108289,1,0,0:0:0:0:
312,192,108419,128,0,109200:0:0:0:0:
142,192,108419,1,0,0:0:0:0:
199,192,108550,1,0,0:0:0:0:
85,192,108680,1,0,0:0:0:0:
142,192,108680,1,0,0:0:0:0:
199,192,108810,1,0,0:0:0:0:
426,192,108940,1,0,0:0:0:0:
369,192,109070,1,0,0:0:0:0:
483,192,109200,1,0,0:0:0:0:
426,192,109200,1,0,0:0:0:0:
369,192,109330,1,0,0:0:0:0:
28,192,109460,128,0,109851:0:0:0:0:
312,192,109460,128,0,109851:0:0:0:0:
85,192,109851,128,0,110241:0:0:0:0:
369,192,109851,128,0,110241:0:0:0:0:
142,192,110241,128,0,110502:0:0:0:0:
426,192,110241,128,0,110502:0:0:0:0:
199,192,110502,128,0,111543:0:0:0:0:
483,192,110502,128,0,111543:0:0:0:0:
312,192,110502,1,0,0:0:0:0:
85,192,110632,1,0,0:0:0:0:
142,192,110762,1,0,0:0:0:0:
256,192,110762,1,0,0:0:0:0:
312,192,110892,1,0,0:0:0:0:
256,192,111022,1,0,0:0:0:0:
142,192,111152,1,0,0:0:0:0:
28,192,111282,1,0,0:0:0:0:
85,192,111282,1,0,0:0:0:0:
426,192,111412,1,0,0:0:0:0:
369,192,111543,1,0,0:0:0:0:
312,192,111673,1,0,0:0:0:0:
28,192,111803,1,0,0:0:0:0:
256,192,111803,1,0,0:0:0:0:
142,192,111933,1,0,0:0:0:0:
85,192,112063,128,0,112193:0:0:0:0:
369,192,112063,128,0,112193:0:0:0:0:
256,192,112063,1,0,0:0:0:0:
199,192,112193,1,0,0:0:0:0:
142,192,112323,128,0,112453:0:0:0:0:
426,192,112323,128,0,112453:0:0:0:0:
312,192,112323,1,0,0:0:0:0:
28,192,112323,1,0,0:0:0:0:
256,192,112453,1,0,0:0:0:0:
199,192,112584,128,0,113104:0:0:0:0:
483,192,112584,128,0,113104:0:0:0:0:
369,192,112584,1,0,0:0:0:0:
312,192,112714,1,0,0:0:0:0:
142,192,112844,1,0,0:0:0:0:
256,192,112844,1,0,0:0:0:0:
85,192,112974,1,0,0:0:0:0:
312,192,113104,1,0,0:0:0:0:
142,192,113234,1,0,0:0:0:0:
256,192,113364,128,0,113494:0:0:0:0:
28,192,113364,1,0,0:0:0:0:
426,192,113364,128,0,113494:0:0:0:0:
369,192,113364,1,0,0:0:0:0:
85,192,113494,1,0,0:0:0:0:
199,192,113625,128,0,113755:0:0:0:0:
312,192,113625,128,0,113755:0:0:0:0:
483,192,113625,1,0,0:0:0:0:
426,192,113755,1,0,0:0:0:0:
369,192,113885,128,0,114015:0:0:0:0:
256,192,113885,128,0,114015:0:0:0:0:
28,192,113885,1,0,0:0:0:0:
142,192,113885,1,0,0:0:0:0:
85,192,114015,128,0,114145:0:0:0:0:
199,192,114015,128,0,114145:0:0:0:0:
312,192,114015,1,0,0:0:0:0:
426,192,114145,1,0,0:0:0:0:
483,192,114275,1,0,0:0:0:0:
85,192,114405,128,0,114666:0:0:0:0:
28,192,114405,128,0,114666:0:0:0:0:
369,192,114405,1,0,0:0:0:0:
426,192,114405,1,0,0:0:0:0:
256,192,114536,1,0,0:0:0:0:
142,192,114666,128,0,115707:0:0:0:0:
369,192,114666,128,0,115707:0:0:0:0:
199,192,114666,1,0,0:0:0:0:
256,192,114796,1,0,0:0:0:0:
199,192,114926,1,0,0:0:0:0:
312,192,114926,1,0,0:0:0:0:
256,192,115056,1,0,0:0:0:0:
312,192,115186,1,0,0:0:0:0:
256,192,115316,1,0,0:0:0:0:
85,192,115446,1,0,0:0:0:0:
426,192,115446,1,0,0:0:0:0:
256,192,115577,1,0,0:0:0:0:
199,192,115707,1,0,0:0:0:0:
256,192,115837,1,0,0:0:0:0:
28,192,115967,1,0,0:0:0:0:
483,192,115967,1,0,0:0:0:0:
312,192,116097,1,0,0:0:0:0:
85,192,116227,128,0,116357:0:0:0:0:
369,192,116227,128,0,116357:0:0:0:0:
256,192,116227,1,0,0:0:0:0:
199,192,116357,1,0,0:0:0:0:
142,192,116487,128,0,116618:0:0:0:0:
426,192,116487,128,0,116618:0:0:0:0:
312,192,116487,1,0,0:0:0:0:
28,192,116487,1,0,0:0:0:0:
256,192,116618,1,0,0:0:0:0:
199,192,116748,128,0,117268:0:0:0:0:
483,192,116748,128,0,117268:0:0:0:0:
369,192,116748,1,0,0:0:0:0:
426,192,116878,1,0,0:0:0:0:
312,192,117008,1,0,0:0:0:0:
85,192,117008,1,0,0:0:0:0:
369,192,117138,1,0,0:0:0:0:
256,192,117268,1,0,0:0:0:0:
312,192,117398,1,0,0:0:0:0:
256,192,117528,128,0,117659:0:0:0:0:
426,192,117528,128,0,117659:0:0:0:0:
142,192,117528,1,0,0:0:0:0:
369,192,117528,1,0,0:0:0:0:
85,192,117659,1,0,0:0:0:0:
199,192,117789,128,0,117919:0:0:0:0:
312,192,117789,128,0,117919:0:0:0:0:
28,192,117789,1,0,0:0:0:0:
426,192,117919,1,0,0:0:0:0:
256,192,118049,128,0,118179:0:0:0:0:
369,192,118049,128,0,118179:0:0:0:0:
483,192,118049,1,0,0:0:0:0:
28,192,118049,1,0,0:0:0:0:
142,192,118179,128,0,118309:0:0:0:0:
312,192,118179,128,0,118309:0:0:0:0:
85,192,118179,1,0,0:0:0:0:
199,192,118309,1,0,0:0:0:0:
256,192,118439,1,0,0:0:0:0:
426,192,118570,128,0,118830:0:0:0:0:
312,192,118570,128,0,118830:0:0:0:0:
85,192,118570,1,0,0:0:0:0:
199,192,118570,1,0,0:0:0:0:
28,192,118700,1,0,0:0:0:0:
199,192,118830,128,0,119871:0:0:0:0:
483,192,118830,128,0,119871:0:0:0:0:
85,192,118830,1,0,0:0:0:0:
256,192,118960,1,0,0:0:0:0:
28,192,119090,1,0,0:0:0:0:
369,192,119090,1,0,0:0:0:0:
256,192,119220,1,0,0:0:0:0:
142,192,119350,1,0,0:0:0:0:
256,192,119480,1,0,0:0:0:0:
85,192,119611,1,0,0:0:0:0:
426,192,119611,1,0,0:0:0:0:
256,192,119741,1,0,0:0:0:0:
426,192,119871,1,0,0:0:0:0:
256,192,120001,1,0,0:0:0:0:
312,192,120131,1,0,0:0:0:0:
142,192,120131,1,0,0:0:0:0:
256,192,120261,1,0,0:0:0:0:
85,192,120391,128,0,120521:0:0:0:0:
369,192,120391,128,0,120521:0:0:0:0:
199,192,120391,1,0,0:0:0:0:
256,192,120521,1,0,0:0:0:0:
142,192,120652,128,0,120782:0:0:0:0:
426,192,120652,128,0,120782:0:0:0:0:
312,192,120652,1,0,0:0:0:0:
28,192,120652,1,0,0:0:0:0:
256,192,120782,1,0,0:0:0:0:
199,192,120912,128,0,121432:0:0:0:0:
483,192,120912,128,0,121432:0:0:0:0:
28,192,120912,1,0,0:0:0:0:
85,192,121042,1,0,0:0:0:0:
312,192,121172,1,0,0:0:0:0:
369,192,121172,1,0,0:0:0:0:
256,192,121302,1,0,0:0:0:0:
142,192,121432,1,0,0:0:0:0:
85,192,121562,1,0,0:0:0:0:
312,192,121693,128,0,121823:0:0:0:0:
426,192,121693,128,0,121823:0:0:0:0:
28,192,121693,1,0,0:0:0:0:
199,192,121693,1,0,0:0:0:0:
256,192,121823,1,0,0:0:0:0:
199,192,121953,128,0,122083:0:0:0:0:
369,192,121953,128,0,122083:0:0:0:0:
85,192,121953,1,0,0:0:0:0:
28,192,122083,1,0,0:0:0:0:
256,192,122213,128,0,122343:0:0:0:0:
312,192,122213,128,0,122343:0:0:0:0:
85,192,122213,1,0,0:0:0:0:
426,192,122213,1,0,0:0:0:0:
142,192,122343,128,0,122473:0:0:0:0:
199,192,122343,128,0,122473:0:0:0:0:
483,192,122343,1,0,0:0:0:0:
426,192,122473,1,0,0:0:0:0:
312,192,122604,1,0,0:0:0:0:
28,192,122734,128,0,122994:0:0:0:0:
85,192,122734,128,0,122994:0:0:0:0:
199,192,122734,1,0,0:0:0:0:
426,192,122734,1,0,0:0:0:0:
312,192,122864,1,0,0:0:0:0:
142,192,122994,128,0,124946:0:0:0:0:
369,192,122994,128,0,124946:0:0:0:0:
483,192,122994,1,0,0:0:0:0:
312,192,123124,1,0,0:0:0:0:
199,192,123254,1,0,0:0:0:0:
28,192,123254,1,0,0:0:0:0:
312,192,123384,1,0,0:0:0:0:
28,192,123514,1,0,0:0:0:0:
199,192,123645,1,0,0:0:0:0:
312,192,123775,1,0,0:0:0:0:
483,192,123775,1,0,0:0:0:0:
199,192,123905,1,0,0:0:0:0:
85,192,124035,1,0,0:0:0:0:
199,192,124165,1,0,0:0:0:0:
426,192,124295,1,0,0:0:0:0:
483,192,124295,1,0,0:0:0:0:
85,192,124425,1,0,0:0:0:0:
426,192,124555,1,0,0:0:0:0:
256,192,124686,1,0,0:0:0:0:
28,192,124816,1,0,0:0:0:0:
85,192,124816,1,0,0:0:0:0:
256,192,124946,1,0,0:0:0:0:
199,192,125076,128,0,126638:0:0:0:0:
312,192,125076,128,0,126638:0:0:0:0:
483,192,127158,1,0,0:0:0:0:
312,192,127158,1,0,0:0:0:0:
369,192,127288,1,0,0:0:0:0:
256,192,127418,1,0,0:0:0:0:
142,192,127548,1,0,0:0:0:0:
426,192,127679,1,0,0:0:0:0:
85,192,127939,1,0,0:0:0:0:
312,192,128199,1,0,0:0:0:0:
142,192,128199,1,0,0:0:0:0:
199,192,128589,1,0,0:0:0:0:
28,192,128980,1,0,0:0:0:0:
142,192,129110,1,0,0:0:0:0:
256,192,129240,1,0,0:0:0:0:
85,192,129240,1,0,0:0:0:0:
369,192,129631,1,0,0:0:0:0:
142,192,129761,1,0,0:0:0:0:
199,192,129891,1,0,0:0:0:0:
483,192,130021,1,0,0:0:0:0:
426,192,130281,1,0,0:0:0:0:
312,192,130281,1,0,0:0:0:0:
483,192,131322,1,0,0:0:0:0:
312,192,131322,1,0,0:0:0:0:
369,192,131452,1,0,0:0:0:0:
256,192,131582,1,0,0:0:0:0:
142,192,131713,1,0,0:0:0:0:
426,192,131843,1,0,0:0:0:0:
85,192,132103,1,0,0:0:0:0:
312,192,132363,1,0,0:0:0:0:
142,192,132363,1,0,0:0:0:0:
199,192,132754,1,0,0:0:0:0:
28,192,133144,1,0,0:0:0:0:
142,192,133274,1,0,0:0:0:0:
256,192,133404,1,0,0:0:0:0:
85,192,133404,1,0,0:0:0:0:
142,192,133795,1,0,0:0:0:0:
199,192,133925,1,0,0:0:0:0:
28,192,134055,1,0,0:0:0:0:
142,192,134185,1,0,0:0:0:0:
85,192,134445,1,0,0:0:0:0:
312,192,134445,1,0,0:0:0:0:
312,192,135486,1,0,0:0:0:0:
483,192,135486,128,0,135616:0:0:0:0:
369,192,135616,128,0,135747:0:0:0:0:
256,192,135747,128,0,135877:0:0:0:0:
142,192,135877,128,0,136007:0:0:0:0:
426,192,136007,128,0,136267:0:0:0:0:
85,192,136267,128,0,136527:0:0:0:0:
142,192,136527,1,0,0:0:0:0:
312,192,136527,128,0,136918:0:0:0:0:
199,192,136918,128,0,137048:0:0:0:0:
28,192,137308,128,0,137438:0:0:0:0:
142,192,137438,128,0,137568:0:0:0:0:
85,192,137568,1,0,0:0:0:0:
256,192,137568,128,0,137959:0:0:0:0:
369,192,137959,128,0,138219:0:0:0:0:
142,192,138089,1,0,0:0:0:0:
199,192,138219,128,0,138349:0:0:0:0:
483,192,138349,128,0,138609:0:0:0:0:
312,192,138609,1,0,0:0:0:0:
426,192,138609,128,0,139650:0:0:0:0:
312,192,139650,1,0,0:0:0:0:
483,192,139650,128,0,139781:0:0:0:0:
369,192,139781,128,0,139911:0:0:0:0:
256,192,139911,128,0,140041:0:0:0:0:
142,192,140041,128,0,140171:0:0:0:0:
426,192,140171,128,0,140431:0:0:0:0:
85,192,140431,128,0,140691:0:0:0:0:
142,192,140691,1,0,0:0:0:0:
312,192,140691,128,0,141082:0:0:0:0:
199,192,141082,128,0,141212:0:0:0:0:
28,192,141472,128,0,141602:0:0:0:0:
142,192,141602,128,0,141733:0:0:0:0:
85,192,141733,1,0,0:0:0:0:
256,192,141733,128,0,141863:0:0:0:0:
142,192,142123,128,0,142383:0:0:0:0:
199,192,142253,1,0,0:0:0:0:
28,192,142383,128,0,142513:0:0:0:0:
142,192,142513,128,0,142774:0:0:0:0:
312,192,142774,1,0,0:0:0:0:
85,192,142774,128,0,143815:0:0:0:0:
426,192,143815,128,0,143945:0:0:0:0:
256,192,143815,1,0,0:0:0:0:
312,192,143945,128,0,144075:0:0:0:0:
142,192,143945,1,0,0:0:0:0:
199,192,144075,128,0,144205:0:0:0:0:
28,192,144075,1,0,0:0:0:0:
369,192,144075,1,0,0:0:0:0:
85,192,144205,128,0,144335:0:0:0:0:
256,192,144205,1,0,0:0:0:0:
369,192,144335,128,0,144465:0:0:0:0:
142,192,144335,1,0,0:0:0:0:
256,192,144465,128,0,144595:0:0:0:0:
28,192,144465,1,0,0:0:0:0:
142,192,144595,128,0,144725:0:0:0:0:
483,192,144595,1,0,0:0:0:0:
426,192,144595,1,0,0:0:0:0:
312,192,144725,128,0,144856:0:0:0:0:
369,192,144725,1,0,0:0:0:0:
199,192,144856,128,0,144986:0:0:0:0:
85,192,144856,1,0,0:0:0:0:
426,192,144986,1,0,0:0:0:0:
142,192,145116,1,0,0:0:0:0:
369,192,145116,1,0,0:0:0:0:
28,192,145246,128,0,145376:0:0:0:0:
256,192,145246,1,0,0:0:0:0:
199,192,145376,1,0,0:0:0:0:
312,192,145506,1,0,0:0:0:0:
28,192,145636,128,0,145767:0:0:0:0:
426,192,145636,1,0,0:0:0:0:
142,192,145767,128,0,145897:0:0:0:0:
312,192,145767,1,0,0:0:0:0:
426,192,145897,128,0,146027:0:0:0:0:
369,192,145897,1,0,0:0:0:0:
312,192,146027,128,0,146157:0:0:0:0:
256,192,146027,1,0,0:0:0:0:
199,192,146157,128,0,146287:0:0:0:0:
142,192,146157,1,0,0:0:0:0:
483,192,146157,1,0,0:0:0:0:
85,192,146287,128,0,146417:0:0:0:0:
28,192,146287,1,0,0:0:0:0:
426,192,146287,1,0,0:0:0:0:
256,192,146417,128,0,146547:0:0:0:0:
369,192,146417,1,0,0:0:0:0:
142,192,146547,128,0,146677:0:0:0:0:
312,192,146547,1,0,0:0:0:0:
369,192,146677,128,0,146808:0:0:0:0:
85,192,146677,1,0,0:0:0:0:
426,192,146677,1,0,0:0:0:0:
256,192,146808,128,0,146938:0:0:0:0:
312,192,146808,1,0,0:0:0:0:
199,192,146938,128,0,147198:0:0:0:0:
28,192,146938,1,0,0:0:0:0:
369,192,147068,1,0,0:0:0:0:
256,192,147198,128,0,147458:0:0:0:0:
85,192,147198,1,0,0:0:0:0:
312,192,147198,1,0,0:0:0:0:
426,192,147328,1,0,0:0:0:0:
312,192,147458,128,0,147849:0:0:0:0:
142,192,147458,1,0,0:0:0:0:
483,192,147588,1,0,0:0:0:0:
256,192,147718,1,0,0:0:0:0:
199,192,147718,1,0,0:0:0:0:
426,192,147849,128,0,147979:0:0:0:0:
28,192,147849,1,0,0:0:0:0:
483,192,147979,128,0,148109:0:0:0:0:
199,192,147979,1,0,0:0:0:0:
369,192,148109,128,0,148239:0:0:0:0:
85,192,148109,1,0,0:0:0:0:
256,192,148239,128,0,148369:0:0:0:0:
199,192,148239,1,0,0:0:0:0:
312,192,148239,1,0,0:0:0:0:
142,192,148369,128,0,148499:0:0:0:0:
426,192,148369,128,0,148629:0:0:0:0:
256,192,148499,128,0,148629:0:0:0:0:
142,192,148629,128,0,148760:0:0:0:0:
312,192,148629,1,0,0:0:0:0:
256,192,148760,128,0,148890:0:0:0:0:
199,192,148760,1,0,0:0:0:0:
483,192,148760,1,0,0:0:0:0:
369,192,148890,128,0,149020:0:0:0:0:
85,192,148890,1,0,0:0:0:0:
256,192,149020,128,0,149150:0:0:0:0:
142,192,149020,1,0,0:0:0:0:
28,192,149150,1,0,0:0:0:0:
199,192,149280,1,0,0:0:0:0:
426,192,149280,1,0,0:0:0:0:
28,192,149410,128,0,149540:0:0:0:0:
142,192,149410,1,0,0:0:0:0:
312,192,149540,1,0,0:0:0:0:
256,192,149670,1,0,0:0:0:0:
28,192,149801,128,0,149931:0:0:0:0:
426,192,149801,1,0,0:0:0:0:
483,192,149801,1,0,0:0:0:0:
85,192,149931,128,0,150061:0:0:0:0:
369,192,149931,1,0,0:0:0:0:
142,192,150061,128,0,150451:0:0:0:0:
256,192,150061,1,0,0:0:0:0:
312,192,150191,1,0,0:0:0:0:
369,192,150321,1,0,0:0:0:0:
312,192,150451,128,0,150842:0:0:0:0:
426,192,150451,128,0,150711:0:0:0:0:
369,192,150711,1,0,0:0:0:0:
483,192,150842,128,0,151102:0:0:0:0:
256,192,150842,1,0,0:0:0:0:
142,192,150972,1,0,0:0:0:0:
369,192,151102,128,0,151362:0:0:0:0:
85,192,151102,1,0,0:0:0:0:
256,192,151362,128,0,151622:0:0:0:0:
426,192,151362,1,0,0:0:0:0:
199,192,151362,1,0,0:0:0:0:
142,192,151622,128,0,151883:0:0:0:0:
85,192,151622,1,0,0:0:0:0:
28,192,151883,128,0,152143:0:0:0:0:
426,192,151883,1,0,0:0:0:0:
199,192,151883,1,0,0:0:0:0:
426,192,152143,128,0,152273:0:0:0:0:
142,192,152143,1,0,0:0:0:0:
312,192,152273,128,0,152403:0:0:0:0:
256,192,152273,1,0,0:0:0:0:
199,192,152403,128,0,152533:0:0:0:0:
369,192,152403,1,0,0:0:0:0:
28,192,152403,1,0,0:0:0:0:
85,192,152533,128,0,152663:0:0:0:0:
483,192,152533,1,0,0:0:0:0:
369,192,152663,128,0,152794:0:0:0:0:
426,192,152663,1,0,0:0:0:0:
256,192,152794,128,0,152924:0:0:0:0:
312,192,152794,1,0,0:0:0:0:
142,192,152924,128,0,153054:0:0:0:0:
199,192,152924,1,0,0:0:0:0:
483,192,152924,1,0,0:0:0:0:
312,192,153054,128,0,153184:0:0:0:0:
426,192,153054,1,0,0:0:0:0:
199,192,153184,128,0,153314:0:0:0:0:
28,192,153184,1,0,0:0:0:0:
369,192,153314,1,0,0:0:0:0:
256,192,153444,1,0,0:0:0:0:
142,192,153444,1,0,0:0:0:0:
28,192,153574,128,0,153704:0:0:0:0:
199,192,153574,1,0,0:0:0:0:
312,192,153704,1,0,0:0:0:0:
369,192,153835,1,0,0:0:0:0:
28,192,153965,128,0,154095:0:0:0:0:
256,192,153965,1,0,0:0:0:0:
483,192,153965,1,0,0:0:0:0:
142,192,154095,128,0,154225:0:0:0:0:
312,192,154095,1,0,0:0:0:0:
426,192,154225,128,0,154355:0:0:0:0:
369,192,154225,1,0,0:0:0:0:
312,192,154355,128,0,154485:0:0:0:0:
483,192,154355,1,0,0:0:0:0:
199,192,154485,128,0,154615:0:0:0:0:
369,192,154485,1,0,0:0:0:0:
256,192,154485,1,0,0:0:0:0:
85,192,154615,128,0,154745:0:0:0:0:
142,192,154615,1,0,0:0:0:0:
256,192,154745,128,0,154876:0:0:0:0:
28,192,154745,1,0,0:0:0:0:
426,192,154745,1,0,0:0:0:0:
142,192,154876,128,0,155006:0:0:0:0:
312,192,154876,1,0,0:0:0:0:
369,192,155006,128,0,155136:0:0:0:0:
199,192,155006,1,0,0:0:0:0:
483,192,155006,1,0,0:0:0:0:
256,192,155136,128,0,155266:0:0:0:0:
85,192,155136,1,0,0:0:0:0:
199,192,155266,128,0,155526:0:0:0:0:
28,192,155266,1,0,0:0:0:0:
369,192,155396,1,0,0:0:0:0:
256,192,155526,128,0,155786:0:0:0:0:
85,192,155526,1,0,0:0:0:0:
312,192,155526,1,0,0:0:0:0:
426,192,155656,1,0,0:0:0:0:
312,192,155786,128,0,156177:0:0:0:0:
142,192,155786,1,0,0:0:0:0:
483,192,155917,1,0,0:0:0:0:
256,192,156047,1,0,0:0:0:0:
199,192,156047,1,0,0:0:0:0:
426,192,156177,128,0,156307:0:0:0:0:
28,192,156177,1,0,0:0:0:0:
483,192,156307,128,0,156437:0:0:0:0:
142,192,156307,1,0,0:0:0:0:
369,192,156437,128,0,156567:0:0:0:0:
85,192,156437,1,0,0:0:0:0:
256,192,156567,128,0,156697:0:0:0:0:
199,192,156567,1,0,0:0:0:0:
28,192,156567,1,0,0:0:0:0:
142,192,156697,128,0,156828:0:0:0:0:
426,192,156697,128,0,156958:0:0:0:0:
256,192,156828,128,0,156958:0:0:0:0:
142,192,156958,128,0,157088:0:0:0:0:
369,192,156958,1,0,0:0:0:0:
256,192,157088,128,0,157218:0:0:0:0:
312,192,157088,1,0,0:0:0:0:
28,192,157088,1,0,0:0:0:0:
369,192,157218,128,0,157348:0:0:0:0:
199,192,157218,1,0,0:0:0:0:
256,192,157348,128,0,157478:0:0:0:0:
142,192,157348,1,0,0:0:0:0:
28,192,157478,1,0,0:0:0:0:
199,192,157608,1,0,0:0:0:0:
312,192,157608,1,0,0:0:0:0:
28,192,157738,128,0,157869:0:0:0:0:
85,192,157738,1,0,0:0:0:0:
426,192,157738,1,0,0:0:0:0:
312,192,157869,1,0,0:0:0:0:
483,192,157999,1,0,0:0:0:0:
28,192,158129,128,0,158259:0:0:0:0:
369,192,158129,1,0,0:0:0:0:
256,192,158129,1,0,0:0:0:0:
142,192,158259,128,0,158389:0:0:0:0:
312,192,158259,1,0,0:0:0:0:
426,192,158389,128,0,158779:0:0:0:0:
256,192,158389,1,0,0:0:0:0:
85,192,158519,1,0,0:0:0:0:
199,192,158649,1,0,0:0:0:0:
28,192,158649,1,0,0:0:0:0:
312,192,158779,128,0,159170:0:0:0:0:
369,192,158779,128,0,159040:0:0:0:0:
256,192,159040,1,0,0:0:0:0:
85,192,159170,128,0,159430:0:0:0:0:
199,192,159170,1,0,0:0:0:0:
483,192,159170,1,0,0:0:0:0:
142,192,159300,1,0,0:0:0:0:
199,192,159430,128,0,160211:0:0:0:0:
256,192,159430,1,0,0:0:0:0:
312,192,159560,1,0,0:0:0:0:
369,192,159690,1,0,0:0:0:0:
28,192,159690,1,0,0:0:0:0:
426,192,159820,128,0,160081:0:0:0:0:
369,192,160081,1,0,0:0:0:0:
142,192,160211,128,0,160341:0:0:0:0:
312,192,160211,1,0,0:0:0:0:
483,192,160211,1,0,0:0:0:0:
256,192,160341,128,0,160471:0:0:0:0:
85,192,160341,1,0,0:0:0:0:
483,192,160471,128,0,160862:0:0:0:0:
28,192,160471,1,0,0:0:0:0:
85,192,160601,1,0,0:0:0:0:
199,192,160731,1,0,0:0:0:0:
142,192,160731,1,0,0:0:0:0:
369,192,160862,128,0,161252:0:0:0:0:
312,192,160862,128,0,161122:0:0:0:0:
256,192,161122,1,0,0:0:0:0:
142,192,161252,128,0,161512:0:0:0:0:
199,192,161252,1,0,0:0:0:0:
483,192,161252,1,0,0:0:0:0:
85,192,161382,1,0,0:0:0:0:
256,192,161512,128,0,162293:0:0:0:0:
28,192,161512,1,0,0:0:0:0:
85,192,161642,1,0,0:0:0:0:
312,192,161772,1,0,0:0:0:0:
199,192,161772,1,0,0:0:0:0:
483,192,161903,128,0,162163:0:0:0:0:
426,192,162163,1,0,0:0:0:0:
85,192,162293,128,0,162423:0:0:0:0:
312,192,162293,1,0,0:0:0:0:
369,192,162293,1,0,0:0:0:0:
199,192,162423,128,0,162553:0:0:0:0:
142,192,162423,1,0,0:0:0:0:
312,192,162553,128,0,162944:0:0:0:0:
28,192,162553,1,0,0:0:0:0:
142,192,162683,1,0,0:0:0:0:
256,192,162813,1,0,0:0:0:0:
483,192,162813,1,0,0:0:0:0:
142,192,162944,128,0,163334:0:0:0:0:
369,192,162944,128,0,163204:0:0:0:0:
312,192,163204,1,0,0:0:0:0:
28,192,163334,128,0,163594:0:0:0:0:
256,192,163334,1,0,0:0:0:0:
426,192,163334,1,0,0:0:0:0:
199,192,163464,1,0,0:0:0:0:
85,192,163594,128,0,164375:0:0:0:0:
142,192,163594,1,0,0:0:0:0:
256,192,163724,1,0,0:0:0:0:
369,192,163854,1,0,0:0:0:0:
199,192,163854,1,0,0:0:0:0:
426,192,163985,128,0,164245:0:0:0:0:
369,192,164245,1,0,0:0:0:0:
199,192,164375,128,0,164505:0:0:0:0:
256,192,164375,1,0,0:0:0:0:
483,192,164375,1,0,0:0:0:0:
312,192,164505,128,0,164635:0:0:0:0:
142,192,164505,1,0,0:0:0:0:
369,192,164635,128,0,165026:0:0:0:0:
28,192,164635,1,0,0:0:0:0:
85,192,164765,1,0,0:0:0:0:
256,192,164896,1,0,0:0:0:0:
142,192,164896,1,0,0:0:0:0:
199,192,165026,128,0,165416:0:0:0:0:
426,192,165026,128,0,165286:0:0:0:0:
369,192,165286,1,0,0:0:0:0:
28,192,165416,128,0,165676:0:0:0:0:
312,192,165416,1,0,0:0:0:0:
85,192,165416,1,0,0:0:0:0:
256,192,165546,1,0,0:0:0:0:
142,192,165676,128,0,166457:0:0:0:0:
199,192,165676,1,0,0:0:0:0:
312,192,165806,1,0,0:0:0:0:
369,192,165937,1,0,0:0:0:0:
256,192,165937,1,0,0:0:0:0:
426,192,166067,128,0,166457:0:0:0:0:
312,192,166457,128,0,166717:0:0:0:0:
28,192,166457,1,0,0:0:0:0:
199,192,166717,1,0,0:0:0:0:
256,192,166717,1,0,0:0:0:0:
85,192,166717,1,0,0:0:0:0:
426,192,166717,1,0,0:0:0:0:
369,192,166717,1,0,0:0:0:0:
28,192,166847,1,0,0:0:0:0:
28,192,166978,1,0,0:0:0:0:
312,192,167108,1,0,0:0:0:0:
85,192,167108,1,0,0:0:0:0:
256,192,167108,1,0,0:0:0:0:
142,192,167108,1,0,0:0:0:0:
426,192,167108,1,0,0:0:0:0:
483,192,167238,1,0,0:0:0:0:
483,192,167368,1,0,0:0:0:0:
85,192,167498,1,0,0:0:0:0:
142,192,167498,1,0,0:0:0:0:
256,192,167498,1,0,0:0:0:0:
369,192,167498,1,0,0:0:0:0:
426,192,167498,1,0,0:0:0:0:
256,192,167628,1,0,0:0:0:0:
312,192,167758,1,0,0:0:0:0:
85,192,167758,1,0,0:0:0:0:
483,192,167758,1,0,0:0:0:0:
28,192,167758,1,0,0:0:0:0:
426,192,167758,1,0,0:0:0:0:
142,192,167889,1,0,0:0:0:0:
142,192,168019,1,0,0:0:0:0:
199,192,168149,1,0,0:0:0:0:
426,192,168149,1,0,0:0:0:0:
28,192,168149,1,0,0:0:0:0:
483,192,168149,1,0,0:0:0:0:
85,192,168149,1,0,0:0:0:0:
369,192,168279,1,0,0:0:0:0:
369,192,168409,1,0,0:0:0:0:
28,192,168539,1,0,0:0:0:0:
256,192,168539,1,0,0:0:0:0:
483,192,168539,1,0,0:0:0:0:
199,192,168539,1,0,0:0:0:0:
312,192,168539,1,0,0:0:0:0:
426,192,168669,1,0,0:0:0:0:
369,192,168799,1,0,0:0:0:0:
142,192,168799,1,0,0:0:0:0:
312,192,168799,1,0,0:0:0:0:
256,192,168799,1,0,0:0:0:0:
199,192,168799,1,0,0:0:0:0:
85,192,168930,1,0,0:0:0:0:
85,192,169060,1,0,0:0:0:0:
28,192,169190,1,0,0:0:0:0:
142,192,169190,1,0,0:0:0:0:
256,192,169190,1,0,0:0:0:0:
369,192,169190,1,0,0:0:0:0:
483,192,169190,1,0,0:0:0:0:
426,192,169320,1,0,0:0:0:0:
426,192,169450,1,0,0:0:0:0:
28,192,169580,1,0,0:0:0:0:
199,192,169580,1,0,0:0:0:0:
483,192,169580,1,0,0:0:0:0:
256,192,169580,1,0,0:0:0:0:
312,192,169580,1,0,0:0:0:0:
142,192,169710,1,0,0:0:0:0:
85,192,169840,1,0,0:0:0:0:
256,192,169840,1,0,0:0:0:0:
426,192,169840,1,0,0:0:0:0:
28,192,169840,1,0,0:0:0:0:
483,192,169840,1,0,0:0:0:0:
199,192,169971,1,0,0:0:0:0:
199,192,170101,1,0,0:0:0:0:
85,192,170231,1,0,0:0:0:0:
426,192,170231,1,0,0:0:0:0:
28,192,170231,1,0,0:0:0:0:
369,192,170231,1,0,0:0:0:0:
256,192,170231,1,0,0:0:0:0:
312,192,170361,1,0,0:0:0:0:
312,192,170491,1,0,0:0:0:0:
256,192,170621,1,0,0:0:0:0:
85,192,170621,1,0,0:0:0:0:
483,192,170621,1,0,0:0:0:0:
142,192,170621,1,0,0:0:0:0:
426,192,170621,1,0,0:0:0:0:
199,192,170751,1,0,0:0:0:0:
28,192,170881,1,0,0:0:0:0:
256,192,170881,1,0,0:0:0:0:
483,192,170881,1,0,0:0:0:0:
369,192,170881,1,0,0:0:0:0:
142,192,170881,1,0,0:0:0:0:
