osu file format v14

[General]
AudioFilename: audio.mp3
AudioLeadIn: 0
PreviewTime: -1
Countdown: 0
SampleSet: Normal
StackLeniency: 0.7
Mode: 3
LetterboxInBreaks: 0
SpecialStyle: 0
WidescreenStoryboard: 1

[Editor]
DistanceSpacing: 0.8
BeatDivisor: 8
GridSize: 4
TimelineZoom: 4

[Metadata]
Title:MEGALOVANIA (Camellia Remix)
TitleUnicode:MEGALOVANIA (Camellia Remix)
Artist:Toby Fox/Toby Fox (remixed by Camellia)
ArtistUnicode:Toby Fox/Toby Fox (remixed by Camellia)
Creator:LostCool
Version:UnderXrontruXion
Source:
Tags:
BeatmapID:2197400
BeatmapSetID:1051460

[Difficulty]
HPDrainRate:6.6
CircleSize:7
OverallDifficulty:2
ApproachRate:5
SliderMultiplier:1.4
SliderTickRate:1

[Events]
//Background and Video events
0,0,"60358233_p0.jpg",0,0
//Break Periods
//Storyboard Layer 0 (Background)
//Storyboard Layer 1 (Fail)
//Storyboard Layer 2 (Pass)
//Storyboard Layer 3 (Foreground)
//Storyboard Layer 4 (Overlay)
//Storyboard Sound Samples

[TimingPoints]
976,354.191263282172,4,1,0,0,1,0
2960,247.933884297521,4,1,0,0,1,0
2960,-142.857142857143,4,1,0,0,0,0
3275,-140.845070422535,4,1,0,15,0,0
3591,-136.986301369863,4,1,0,15,0,0
3906,-135.135135135135,4,1,0,15,0,0
4222,-133.333333333333,4,1,0,15,0,0
4537,-129.87012987013,4,1,0,15,0,0
4853,-128.205128205128,4,1,0,15,0,0
5168,-125,4,1,0,15,0,0
5484,-123.456790123457,4,1,0,15,0,0
5799,-121.951219512195,4,1,0,15,0,0
6115,-119.047619047619,4,1,0,15,0,0
6431,-117.647058823529,4,1,0,15,0,0
6746,-116.279069767442,4,1,0,15,0,0
7062,-113.636363636364,4,1,0,15,0,0
7377,-112.359550561798,4,1,0,15,0,0
7693,-111.111111111111,4,1,0,15,0,0
8008,-108.695652173913,4,1,0,15,0,0
8324,-107.52688172043,4,1,0,15,0,0
8639,-105.263157894737,4,1,0,15,0,0
8955,-104.166666666667,4,1,0,15,0,0
9270,-103.092783505155,4,1,0,15,0,0
9586,-101.010101010101,4,1,0,15,0,0
9902,-80,4,1,0,15,0,0
9933,-133.333333333333,4,1,0,15,0,0
10026,-80,4,1,0,15,0,0
10057,-133.333333333333,4,1,0,15,0,0
10150,-80,4,1,0,15,0,0
10181,-133.333333333333,4,1,0,15,0,0
10274,-80,4,1,0,15,0,0
10305,-133.333333333333,4,1,0,15,0,0
10398,-80,4,1,0,15,0,0
10429,-133.333333333333,4,1,0,15,0,0
10522,-80,4,1,0,15,0,0
10553,-133.333333333333,4,1,0,15,0,0
10646,-80,4,1,0,15,0,0
10677,-133.333333333333,4,1,0,15,0,0
10770,-80,4,1,0,15,0,0
10801,-133.333333333333,4,1,0,15,0,0
10894,-400,4,1,0,15,0,0
10909,-40,4,1,0,15,0,0
10925,-100,4,1,0,15,0,0
10956,-200,4,1,0,15,0,0
11018,-66.6666666666667,4,1,0,15,0,0
11080,-200,4,1,0,15,0,0
11142,-400,4,1,0,15,0,0
11157,-40,4,1,0,15,0,0
11173,-100,4,1,0,15,0,0
11204,-200,4,1,0,15,0,0
11266,-66.6666666666667,4,1,0,15,0,0
11328,-200,4,1,0,15,0,0
11390,-400,4,1,0,15,0,0
11405,-40,4,1,0,15,0,0
11421,-100,4,1,0,15,0,0
11452,-200,4,1,0,15,0,0
11514,-66.6666666666667,4,1,0,15,0,0
11576,-200,4,1,0,15,0,0
11762,-400,4,1,0,15,0,0
11777,-40,4,1,0,15,0,0
11793,-100,4,1,0,15,0,0
11824,-200,4,1,0,15,0,0
11886,-66.6666666666667,4,1,0,15,0,0
11948,-200,4,1,0,15,0,0
12009,-400,4,1,0,15,0,0
12024,-40,4,1,0,15,0,0
12040,-100,4,1,0,15,0,0
12071,-200,4,1,0,15,0,0
12133,-66.6666666666667,4,1,0,15,0,0
12195,-200,4,1,0,15,0,0
12257,-400,4,1,0,15,0,0
12272,-40,4,1,0,15,0,0
12288,-100,4,1,0,15,0,0
12319,-200,4,1,0,15,0,0
12381,-66.6666666666667,4,1,0,15,0,0
12443,-200,4,1,0,15,0,0
12505,-400,4,1,0,15,0,0
12520,-40,4,1,0,15,0,0
12536,-100,4,1,0,15,0,0
12629,-400,4,1,0,15,0,0
12644,-40,4,1,0,15,0,0
12660,-100,4,1,0,15,0,0
12753,-400,4,1,0,15,0,0
12768,-40,4,1,0,15,0,0
12784,-100,4,1,0,15,0,0
12877,-400,4,1,0,15,0,0
12892,-40,4,1,0,15,0,0
12908,-100,4,1,0,15,0,0
13001,-400,4,1,0,15,0,0
13016,-40,4,1,0,15,0,0
13032,-100,4,1,0,15,0,0
13125,-400,4,1,0,15,0,0
13140,-40,4,1,0,15,0,0
13156,-100,4,1,0,15,0,0
13187,-200,4,1,0,15,0,0
13249,-66.6666666666667,4,1,0,15,0,0
13311,-200,4,1,0,15,0,0
13373,-400,4,1,0,15,0,0
13388,-40,4,1,0,15,0,0
13404,-100,4,1,0,15,0,0
13435,-200,4,1,0,15,0,0
13497,-66.6666666666667,4,1,0,15,0,0
13559,-200,4,1,0,15,0,0
13745,-400,4,1,0,15,0,0
13760,-40,4,1,0,15,0,0
13776,-100,4,1,0,15,0,0
13807,-200,4,1,0,15,0,0
13869,-66.6666666666667,4,1,0,15,0,0
13931,-200,4,1,0,15,0,0
13993,-400,4,1,0,15,0,0
14008,-40,4,1,0,15,0,0
14024,-100,4,1,0,15,0,0
14055,-200,4,1,0,15,0,0
14117,-66.6666666666667,4,1,0,15,0,0
14179,-200,4,1,0,15,0,0
14241,-400,4,1,0,15,0,0
14256,-40,4,1,0,15,0,0
14272,-100,4,1,0,15,0,0
14303,-200,4,1,0,15,0,0
14365,-66.6666666666667,4,1,0,15,0,0
14427,-200,4,1,0,15,0,0
14489,-400,4,1,0,15,0,0
14504,-40,4,1,0,15,0,0
14520,-100,4,1,0,15,0,0
14613,-400,4,1,0,15,0,0
14628,-40,4,1,0,15,0,0
14644,-100,4,1,0,15,0,0
14737,-400,4,1,0,15,0,0
14752,-40,4,1,0,15,0,0
14768,-100,4,1,0,15,0,0
14861,-400,4,1,0,15,0,0
14876,-40,4,1,0,15,0,0
14892,-100,4,1,0,15,0,0
14985,-400,4,1,0,15,0,0
15000,-40,4,1,0,15,0,0
15016,-100,4,1,0,15,0,0
15109,-400,4,1,0,15,0,0
15140,-66.6666666666667,4,1,0,15,0,0
15233,-200,4,1,0,15,0,0
15357,-400,4,1,0,15,0,0
15388,-66.6666666666667,4,1,0,15,0,0
15481,-200,4,1,0,15,0,0
15728,-400,4,1,0,15,0,0
15759,-66.6666666666667,4,1,0,15,0,0
15852,-200,4,1,0,15,0,0
15976,-400,4,1,0,15,0,0
16007,-66.6666666666667,4,1,0,15,0,0
16100,-200,4,1,0,15,0,0
16224,-400,4,1,0,15,0,0
16255,-66.6666666666667,4,1,0,15,0,0
16348,-200,4,1,0,15,0,0
16472,-400,4,1,0,15,0,0
16487,-40,4,1,0,15,0,0
16503,-100,4,1,0,15,0,0
16596,-400,4,1,0,15,0,0
16611,-40,4,1,0,15,0,0
16627,-100,4,1,0,15,0,0
16720,-400,4,1,0,15,0,0
16735,-40,4,1,0,15,0,0
16751,-100,4,1,0,15,0,0
16844,-400,4,1,0,15,0,0
16859,-40,4,1,0,15,0,0
16875,-100,4,1,0,15,0,0
17092,-400,4,1,0,15,0,0
17123,-66.6666666666667,4,1,0,15,0,0
17216,-200,4,1,0,15,0,0
17464,-400,4,1,0,15,0,0
17495,-66.6666666666667,4,1,0,15,0,0
17588,-200,4,1,0,15,0,0
17712,-400,4,1,0,15,0,0
17727,-50,4,1,0,15,0,0
17743,-100,4,1,0,15,0,0
17836,-200,4,1,0,15,0,0
17851,-50,4,1,0,15,0,0
17867,-133.333333333333,4,1,0,15,0,0
17960,-400,4,1,0,15,0,0
17975,-50,4,1,0,15,0,0
17991,-100,4,1,0,15,0,0
18084,-200,4,1,0,15,0,0
18099,-50,4,1,0,15,0,0
18115,-133.333333333333,4,1,0,15,0,0
18208,-400,4,1,0,15,0,0
18223,-50,4,1,0,15,0,0
18239,-100,4,1,0,15,0,0
18332,-200,4,1,0,15,0,0
18347,-50,4,1,0,15,0,0
18363,-133.333333333333,4,1,0,15,0,0
18456,-400,4,1,0,15,0,0
18487,-66.6666666666667,4,1,0,15,0,0
18580,-200,4,1,0,15,0,0
18580,-200,4,1,0,15,0,0
18595,-50,4,1,0,15,0,0
18611,-133.333333333333,4,1,0,15,0,0
18704,-200,4,1,0,15,0,0
18719,-50,4,1,0,15,0,0
18735,-133.333333333333,4,1,0,15,0,0
18828,-200,4,1,0,15,0,0
18859,-57.1428571428571,4,1,0,15,0,0
18952,-100,4,1,0,15,0,0
19323,-50,4,1,0,15,0,0
19339,-200,4,1,0,15,0,0
19354,-100,4,1,0,15,0,0
20315,-50,4,1,0,15,0,0
20331,-200,4,1,0,15,0,0
20346,-100,4,1,0,15,0,0
21307,-50,4,1,0,15,0,0
21323,-200,4,1,0,15,0,0
21338,-100,4,1,0,15,0,0
22299,-50,4,1,0,15,0,0
22315,-200,4,1,0,15,0,0
22330,-100,4,1,0,15,0,0
23290,-50,4,1,0,15,0,0
23306,-200,4,1,0,15,0,0
23321,-100,4,1,0,15,0,0
24282,-50,4,1,0,15,0,0
24298,-200,4,1,0,15,0,0
24313,-100,4,1,0,15,0,0
24778,-400,4,1,0,15,0,0
24793,-40,4,1,0,15,0,0
24809,-100,4,1,0,15,0,0
24902,-400,4,1,0,15,0,0
24917,-40,4,1,0,15,0,0
24933,-100,4,1,0,15,0,0
25026,-400,4,1,0,15,0,0
25057,-66.6666666666667,4,1,0,15,0,0
25150,-200,4,1,0,15,0,0
25274,-400,4,1,0,15,0,0
25305,-66.6666666666667,4,1,0,15,0,0
25398,-200,4,1,0,15,0,0
25646,-400,4,1,0,15,0,0
25677,-66.6666666666667,4,1,0,15,0,0
25770,-200,4,1,0,15,0,0
25894,-100,4,1,0,15,0,0
26390,-50,4,1,0,15,0,0
26406,-200,4,1,0,15,0,0
26421,-100,4,1,0,15,0,0
26762,-90.9090909090909,4,1,0,15,0,0
26803,-111.111111111111,4,1,0,15,0,0
26885,-90.9090909090909,4,1,0,15,0,0
26926,-111.111111111111,4,1,0,15,0,0
27009,-90.9090909090909,4,1,0,15,0,0
27050,-111.111111111111,4,1,0,15,0,0
27133,-90.9090909090909,4,1,0,15,0,0
27174,-111.111111111111,4,1,0,15,0,0
27257,-86.9565217391304,4,1,0,15,0,0
27298,-117.647058823529,4,1,0,15,0,0
27381,-86.9565217391304,4,1,0,15,0,0
27422,-117.647058823529,4,1,0,15,0,0
27505,-86.9565217391304,4,1,0,15,0,0
27546,-117.647058823529,4,1,0,15,0,0
27629,-86.9565217391304,4,1,0,15,0,0
27670,-117.647058823529,4,1,0,15,0,0
27753,-83.3333333333333,4,1,0,15,0,0
27794,-125,4,1,0,15,0,0
27877,-83.3333333333333,4,1,0,15,0,0
27918,-125,4,1,0,15,0,0
28001,-83.3333333333333,4,1,0,15,0,0
28042,-125,4,1,0,15,0,0
28125,-83.3333333333333,4,1,0,15,0,0
28166,-125,4,1,0,15,0,0
28249,-80,4,1,0,15,0,0
28290,-133.333333333333,4,1,0,15,0,0
28373,-80,4,1,0,15,0,0
28414,-133.333333333333,4,1,0,15,0,0
28497,-80,4,1,0,15,0,0
28538,-133.333333333333,4,1,0,15,0,0
28621,-80,4,1,0,15,0,0
28662,-133.333333333333,4,1,0,15,0,0
28745,-76.9230769230769,4,1,0,15,0,0
28786,-142.857142857143,4,1,0,15,0,0
28869,-76.9230769230769,4,1,0,15,0,0
28910,-142.857142857143,4,1,0,15,0,0
28993,-76.9230769230769,4,1,0,15,0,0
29034,-142.857142857143,4,1,0,15,0,0
29117,-76.9230769230769,4,1,0,15,0,0
29158,-142.857142857143,4,1,0,15,0,0
29241,-74.0740740740741,4,1,0,15,0,0
29282,-153.846153846154,4,1,0,15,0,0
29365,-74.0740740740741,4,1,0,15,0,0
29406,-153.846153846154,4,1,0,15,0,0
29489,-74.0740740740741,4,1,0,15,0,0
29530,-153.846153846154,4,1,0,15,0,0
29613,-74.0740740740741,4,1,0,15,0,0
29654,-153.846153846154,4,1,0,15,0,0
29737,-71.4285714285714,4,1,0,15,0,0
29778,-166.666666666667,4,1,0,15,0,0
29861,-71.4285714285714,4,1,0,15,0,0
29902,-166.666666666667,4,1,0,15,0,0
29985,-71.4285714285714,4,1,0,15,0,0
30026,-166.666666666667,4,1,0,15,0,0
30109,-71.4285714285714,4,1,0,15,0,0
30150,-166.666666666667,4,1,0,15,0,0
30233,-68.9655172413793,4,1,0,15,0,0
30274,-181.818181818182,4,1,0,15,0,0
30357,-68.9655172413793,4,1,0,15,0,0
30398,-181.818181818182,4,1,0,15,0,0
30481,-68.9655172413793,4,1,0,15,0,0
30522,-181.818181818182,4,1,0,15,0,0
30604,-68.9655172413793,4,1,0,15,0,0
30645,-181.818181818182,4,1,0,15,0,0
30728,-66.6666666666667,4,1,0,15,0,0
30769,-200,4,1,0,15,0,0
30852,-66.6666666666667,4,1,0,15,0,0
30893,-200,4,1,0,15,0,0
30976,-66.6666666666667,4,1,0,15,0,0
31017,-200,4,1,0,15,0,0
31100,-66.6666666666667,4,1,0,15,0,0
31141,-200,4,1,0,15,0,0
31224,-66.6666666666667,4,1,0,15,0,0
31265,-200,4,1,0,15,0,0
31348,-66.6666666666667,4,1,0,15,0,0
31389,-200,4,1,0,15,0,0
31472,-66.6666666666667,4,1,0,15,0,0
31513,-200,4,1,0,15,0,0
31596,-66.6666666666667,4,1,0,15,0,0
31637,-200,4,1,0,15,0,0
31720,-68.9655172413793,4,1,0,15,0,0
31751,-181.818181818182,4,1,0,15,0,0
31782,-71.4285714285714,4,1,0,15,0,0
31813,-166.666666666667,4,1,0,15,0,0
31844,-74.0740740740741,4,1,0,15,0,0
31875,-153.846153846154,4,1,0,15,0,0
31906,-76.9230769230769,4,1,0,15,0,0
31937,-142.857142857143,4,1,0,15,0,0
31968,-80,4,1,0,15,0,0
31999,-133.333333333333,4,1,0,15,0,0
32030,-83.3333333333333,4,1,0,15,0,0
32061,-125,4,1,0,15,0,0
32092,-86.9565217391304,4,1,0,15,0,0
32123,-117.647058823529,4,1,0,15,0,0
32154,-90.9090909090909,4,1,0,15,0,0
32185,-111.111111111111,4,1,0,15,0,0
32216,-95.2380952380952,4,1,0,15,0,0
32237,-105.263157894737,4,1,0,15,0,0
32278,-95.2380952380952,4,1,0,15,0,0
32299,-105.263157894737,4,1,0,15,0,0
32340,-95.2380952380952,4,1,0,15,0,0
32361,-105.263157894737,4,1,0,15,0,0
32402,-95.2380952380952,4,1,0,15,0,0
32423,-105.263157894737,4,1,0,15,0,0
32464,-95.2380952380952,4,1,0,15,0,0
32485,-105.263157894737,4,1,0,15,0,0
32505,-95.2380952380952,4,1,0,15,0,0
32526,-105.263157894737,4,1,0,15,0,0
32547,-95.2380952380952,4,1,0,15,0,0
32568,-105.263157894737,4,1,0,15,0,0
32588,-95.2380952380952,4,1,0,15,0,0
32609,-105.263157894737,4,1,0,15,0,0
32629,-95.2380952380952,4,1,0,15,0,0
32650,-105.263157894737,4,1,0,15,0,0
32671,-95.2380952380952,4,1,0,15,0,0
32692,-105.263157894737,4,1,0,15,0,0
32712,-400,4,1,0,15,0,0
32727,-40,4,1,0,15,0,0
32743,-100,4,1,0,15,0,0
32774,-200,4,1,0,15,0,0
32836,-66.6666666666667,4,1,0,15,0,0
32898,-200,4,1,0,15,0,0
32960,-100,4,1,0,15,0,0
41638,-80,4,1,0,15,0,0
41679,-133.333333333333,4,1,0,15,0,0
41762,-80,4,1,0,15,0,0
41803,-133.333333333333,4,1,0,15,0,0
41885,-80,4,1,0,15,0,0
41926,-133.333333333333,4,1,0,15,0,0
42009,-80,4,1,0,15,0,0
42050,-133.333333333333,4,1,0,15,0,0
42133,-80,4,1,0,15,0,0
42174,-133.333333333333,4,1,0,15,0,0
42257,-100,4,1,0,15,0,0
42629,-80,4,1,0,15,0,0
42670,-133.333333333333,4,1,0,15,0,0
42753,-80,4,1,0,15,0,0
42794,-133.333333333333,4,1,0,15,0,0
42877,-100,4,1,0,15,0,0
43373,-200,4,1,0,15,0,0
43456,-57.1428571428571,4,1,0,15,0,0
43497,-133.333333333333,4,1,0,15,0,0
43559,-80,4,1,0,15,0,0
43621,-200,4,1,0,15,0,0
43704,-57.1428571428571,4,1,0,15,0,0
43745,-133.333333333333,4,1,0,15,0,0
43807,-80,4,1,0,15,0,0
43869,-200,4,1,0,15,0,0
43952,-57.1428571428571,4,1,0,15,0,0
43993,-133.333333333333,4,1,0,15,0,0
44055,-80,4,1,0,15,0,0
44117,-80,4,1,0,15,0,0
44158,-133.333333333333,4,1,0,15,0,0
44241,-80,4,1,0,15,0,0
44282,-133.333333333333,4,1,0,15,0,0
44365,-80,4,1,0,15,0,0
44406,-133.333333333333,4,1,0,15,0,0
44489,-80,4,1,0,15,0,0
44530,-133.333333333333,4,1,0,15,0,0
44613,-74.0740740740741,4,1,0,15,0,0
44654,-153.846153846154,4,1,0,15,0,0
44737,-74.0740740740741,4,1,0,15,0,0
44778,-153.846153846154,4,1,0,15,0,0
44861,-100,4,1,0,15,0,0
45357,-80,4,1,0,15,0,0
45481,-666.666666666667,4,1,0,15,0,0
45625,-46.5116279069767,4,1,0,15,0,0
45728,-666.666666666667,4,1,0,15,0,0
45872,-46.5116279069767,4,1,0,15,0,0
45976,-400,4,1,0,15,0,0
46059,-50,4,1,0,15,0,0
46100,-100,4,1,0,15,0,0
56514,-66.6666666666667,4,1,0,15,0,0
56576,-200,4,1,0,15,0,0
56638,-66.6666666666667,4,1,0,15,0,0
56700,-200,4,1,0,15,0,0
56762,-50,4,1,0,15,0,0
56823,-200,4,1,0,15,0,0
57009,-57.1428571428571,4,1,0,15,0,0
57133,-200,4,1,0,15,0,0
57381,-66.6666666666667,4,1,0,15,0,0
57443,-200,4,1,0,15,0,0
57629,-66.6666666666667,4,1,0,15,0,0
57691,-200,4,1,0,15,0,0
57753,-66.6666666666667,4,1,0,15,0,0
57815,-200,4,1,0,15,0,0
57877,-66.6666666666667,4,1,0,15,0,0
57939,-200,4,1,0,15,0,0
58001,-100,4,1,0,15,0,0
73497,-50,4,1,0,15,0,0
73513,-133.333333333333,4,1,0,15,0,0
73538,-200,4,1,0,15,0,0
73559,-100,4,1,0,15,0,0
73621,-303.030303030303,4,1,0,15,0,0
73683,-59.1715976331361,4,1,0,15,0,0
73745,-50,4,1,0,15,0,0
73760,-133.333333333333,4,1,0,15,0,0
73786,-200,4,1,0,15,0,0
73807,-100,4,1,0,15,0,0
73869,-303.030303030303,4,1,0,15,0,0
73931,-59.1715976331361,4,1,0,15,0,0
73993,-50,4,1,0,15,0,0
74008,-133.333333333333,4,1,0,15,0,0
74034,-200,4,1,0,15,0,0
74055,-100,4,1,0,15,0,0
74117,-303.030303030303,4,1,0,15,0,0
74179,-59.1715976331361,4,1,0,15,0,0
74241,-50,4,1,0,15,0,0
74256,-133.333333333333,4,1,0,15,0,0
74282,-200,4,1,0,15,0,0
74303,-100,4,1,0,15,0,0
76348,-151.515151515152,4,1,0,15,0,0
76364,-75.187969924812,4,1,0,15,0,0
76379,-151.515151515152,4,1,0,15,0,0
76395,-75.187969924812,4,1,0,15,0,0
76410,-151.515151515152,4,1,0,15,0,0
76426,-75.187969924812,4,1,0,15,0,0
76441,-151.515151515152,4,1,0,15,0,0
76457,-75.187969924812,4,1,0,15,0,0
76472,-151.515151515152,4,1,0,15,0,0
76488,-75.187969924812,4,1,0,15,0,0
76503,-151.515151515152,4,1,0,15,0,0
76519,-75.187969924812,4,1,0,15,0,0
76534,-151.515151515152,4,1,0,15,0,0
76550,-75.187969924812,4,1,0,15,0,0
76565,-151.515151515152,4,1,0,15,0,0
76581,-75.187969924812,4,1,0,15,0,0
76596,-151.515151515152,4,1,0,15,0,0
76612,-75.187969924812,4,1,0,15,0,0
76627,-151.515151515152,4,1,0,15,0,0
76643,-75.187969924812,4,1,0,15,0,0
76658,-151.515151515152,4,1,0,15,0,0
76674,-75.187969924812,4,1,0,15,0,0
76689,-151.515151515152,4,1,0,15,0,0
76705,-75.187969924812,4,1,0,15,0,0
76720,-100,4,1,0,15,0,0
77836,-45.045045045045,4,1,0,15,0,0
77851,-769.230769230769,4,1,0,15,0,0
77851,-909.090909090909,4,1,0,15,0,0
77867,-666.666666666667,4,1,0,15,0,0
77883,-526.315789473684,4,1,0,15,0,0
77899,-434.782608695652,4,1,0,15,0,0
77915,-370.37037037037,4,1,0,15,0,0
77932,-322.58064516129,4,1,0,15,0,0
77948,-285.714285714286,4,1,0,15,0,0
77964,-256.410256410256,4,1,0,15,0,0
77980,-232.558139534884,4,1,0,15,0,0
77997,-212.765957446809,4,1,0,15,0,0
78013,-196.078431372549,4,1,0,15,0,0
78029,-178.571428571429,4,1,0,15,0,0
78045,-166.666666666667,4,1,0,15,0,0
78061,-156.25,4,1,0,15,0,0
78078,-147.058823529412,4,1,0,15,0,0
78094,-138.888888888889,4,1,0,15,0,0
78110,-131.578947368421,4,1,0,15,0,0
78126,-125,4,1,0,15,0,0
78143,-119.047619047619,4,1,0,15,0,0
78159,-113.636363636364,4,1,0,15,0,0
78175,-108.695652173913,4,1,0,15,0,0
78191,-104.166666666667,4,1,0,15,0,0
78208,-100,4,1,0,15,0,0
94200,-75.187969924812,4,1,0,15,0,0
94231,-133.333333333333,4,1,0,15,0,0
94262,-75.187969924812,4,1,0,15,0,0
94293,-133.333333333333,4,1,0,15,0,0
94323,-75.187969924812,4,1,0,15,0,0
94354,-133.333333333333,4,1,0,15,0,0
94385,-75.187969924812,4,1,0,15,0,0
94416,-133.333333333333,4,1,0,15,0,0
94447,-75.187969924812,4,1,0,15,0,0
94478,-133.333333333333,4,1,0,15,0,0
94509,-75.187969924812,4,1,0,15,0,0
94540,-133.333333333333,4,1,0,15,0,0
94571,-66.6666666666667,4,1,0,15,0,0
94633,-200,4,1,0,15,0,0
94695,-66.6666666666667,4,1,0,15,0,0
94757,-200,4,1,0,15,0,0
94819,-66.6666666666667,4,1,0,15,0,0
94881,-200,4,1,0,15,0,0
94943,-66.6666666666667,4,1,0,15,0,0
95005,-200,4,1,0,15,0,0
95067,-66.6666666666667,4,1,0,15,0,0
95129,-200,4,1,0,15,0,0
95191,-57.1428571428571,4,1,0,15,0,0
95253,-200,4,1,0,15,0,0
95315,-57.1428571428571,4,1,0,15,0,0
95377,-200,4,1,0,15,0,0
95439,-57.1428571428571,4,1,0,15,0,0
95501,-200,4,1,0,15,0,0
95563,-75.187969924812,4,1,0,15,0,0
95594,-133.333333333333,4,1,0,15,0,0
95625,-75.187969924812,4,1,0,15,0,0
95656,-133.333333333333,4,1,0,15,0,0
95687,-57.1428571428571,4,1,0,15,0,0
95749,-200,4,1,0,15,0,0
95811,-57.1428571428571,4,1,0,15,0,0
95873,-200,4,1,0,15,0,0
95935,-10.01001001001,4,1,0,15,0,0
95951,-1111.11111111111,4,1,0,15,0,0
95966,-15.015015015015,4,1,0,15,0,0
95982,-909.090909090909,4,1,0,15,0,0
95997,-30.03003003003,4,1,0,15,0,0
96013,-454.545454545455,4,1,0,15,0,0
96028,-60.2409638554217,4,1,0,15,0,0
96044,-303.030303030303,4,1,0,15,0,0
96059,-75.187969924812,4,1,0,15,0,0
96075,-227.272727272727,4,1,0,15,0,0
96090,-86.2068965517241,4,1,0,15,0,0
96106,-181.818181818182,4,1,0,15,0,0
96121,-92.5925925925926,4,1,0,15,0,0
96137,-151.515151515152,4,1,0,15,0,0
96152,-303.030303030303,4,1,0,15,0,0
96183,-200,4,1,0,15,0,0
96183,-100,4,1,0,15,0,0
96214,-60.2409638554217,4,1,0,15,0,0
96245,-200,4,1,0,15,0,0
96276,-60.2409638554217,4,1,0,15,0,0
96307,-200,4,1,0,15,0,0
96338,-60.2409638554217,4,1,0,15,0,0
96369,-200,4,1,0,15,0,0
96400,-60.2409638554217,4,1,0,15,0,0
96431,-100,4,1,0,15,0,0
110067,-151.515151515152,4,1,0,15,0,0
110112,-149.253731343284,4,1,0,15,0,0
110157,-147.058823529412,4,1,0,15,0,0
110202,-147.058823529412,4,1,0,15,0,0
110247,-144.927536231884,4,1,0,15,0,0
110292,-142.857142857143,4,1,0,15,0,0
110337,-140.845070422535,4,1,0,15,0,0
110382,-140.845070422535,4,1,0,15,0,0
110427,-138.888888888889,4,1,0,15,0,0
110472,-136.986301369863,4,1,0,15,0,0
110517,-135.135135135135,4,1,0,15,0,0
110563,-133.333333333333,4,1,0,15,0,0
110608,-133.333333333333,4,1,0,15,0,0
110653,-131.578947368421,4,1,0,15,0,0
110698,-129.87012987013,4,1,0,15,0,0
110743,-128.205128205128,4,1,0,15,0,0
110788,-128.205128205128,4,1,0,15,0,0
110833,-126.582278481013,4,1,0,15,0,0
110878,-125,4,1,0,15,0,0
110923,-123.456790123457,4,1,0,15,0,0
110968,-123.456790123457,4,1,0,15,0,0
111013,-121.951219512195,4,1,0,15,0,0
111059,-120.481927710843,4,1,0,15,0,0
111104,-119.047619047619,4,1,0,15,0,0
111149,-117.647058823529,4,1,0,15,0,0
111194,-117.647058823529,4,1,0,15,0,0
111239,-116.279069767442,4,1,0,15,0,0
111284,-114.942528735632,4,1,0,15,0,0
111329,-113.636363636364,4,1,0,15,0,0
111374,-113.636363636364,4,1,0,15,0,0
111419,-112.359550561798,4,1,0,15,0,0
111464,-111.111111111111,4,1,0,15,0,0
111509,-109.89010989011,4,1,0,15,0,0
111555,-108.695652173913,4,1,0,15,0,0
111600,-108.695652173913,4,1,0,15,0,0
111645,-107.52688172043,4,1,0,15,0,0
111690,-106.382978723404,4,1,0,15,0,0
111735,-105.263157894737,4,1,0,15,0,0
111780,-105.263157894737,4,1,0,15,0,0
111825,-104.166666666667,4,1,0,15,0,0
111870,-103.092783505155,4,1,0,15,0,0
111915,-102.040816326531,4,1,0,15,0,0
111960,-102.040816326531,4,1,0,15,0,0
112005,-101.010101010101,4,1,0,15,0,0
112051,-100,4,1,0,15,0,0
137836,-10.01001001001,4,1,0,15,0,0
137852,-1111.11111111111,4,1,0,15,0,0
137867,-15.015015015015,4,1,0,15,0,0
137883,-909.090909090909,4,1,0,15,0,0
137898,-30.03003003003,4,1,0,15,0,0
137914,-454.545454545455,4,1,0,15,0,0
137929,-60.2409638554217,4,1,0,15,0,0
137945,-303.030303030303,4,1,0,15,0,0
137960,-75.187969924812,4,1,0,15,0,0
137976,-227.272727272727,4,1,0,15,0,0
137991,-86.2068965517241,4,1,0,15,0,0
138007,-181.818181818182,4,1,0,15,0,0
138022,-92.5925925925926,4,1,0,15,0,0
138038,-151.515151515152,4,1,0,15,0,0
138053,-303.030303030303,4,1,0,15,0,0
138084,-100,4,1,0,15,0,0
139447,-10.01001001001,4,1,0,15,0,0
139463,-1111.11111111111,4,1,0,15,0,0
139478,-15.015015015015,4,1,0,15,0,0
139494,-909.090909090909,4,1,0,15,0,0
139509,-30.03003003003,4,1,0,15,0,0
139525,-454.545454545455,4,1,0,15,0,0
139540,-60.2409638554217,4,1,0,15,0,0
139556,-303.030303030303,4,1,0,15,0,0
139571,-75.187969924812,4,1,0,15,0,0
139587,-227.272727272727,4,1,0,15,0,0
139602,-86.2068965517241,4,1,0,15,0,0
139618,-181.818181818182,4,1,0,15,0,0
139633,-92.5925925925926,4,1,0,15,0,0
139649,-151.515151515152,4,1,0,15,0,0
139664,-303.030303030303,4,1,0,15,0,0
139695,-100,4,1,0,15,0,0
141431,-10.01001001001,4,1,0,15,0,0
141447,-1111.11111111111,4,1,0,15,0,0
141462,-15.015015015015,4,1,0,15,0,0
141478,-909.090909090909,4,1,0,15,0,0
141493,-30.03003003003,4,1,0,15,0,0
141509,-454.545454545455,4,1,0,15,0,0
141524,-60.2409638554217,4,1,0,15,0,0
141540,-303.030303030303,4,1,0,15,0,0
141555,-75.187969924812,4,1,0,15,0,0
141571,-227.272727272727,4,1,0,15,0,0
141586,-86.2068965517241,4,1,0,15,0,0
141602,-181.818181818182,4,1,0,15,0,0
141617,-92.5925925925926,4,1,0,15,0,0
141633,-151.515151515152,4,1,0,15,0,0
141648,-303.030303030303,4,1,0,15,0,0
141679,-100,4,1,0,15,0,0
141803,-10.01001001001,4,1,0,15,0,0
141819,-1111.11111111111,4,1,0,15,0,0
141834,-15.015015015015,4,1,0,15,0,0
141850,-909.090909090909,4,1,0,15,0,0
141865,-30.03003003003,4,1,0,15,0,0
141881,-454.545454545455,4,1,0,15,0,0
141896,-60.2409638554217,4,1,0,15,0,0
141912,-303.030303030303,4,1,0,15,0,0
141927,-75.187969924812,4,1,0,15,0,0
141943,-227.272727272727,4,1,0,15,0,0
141958,-86.2068965517241,4,1,0,15,0,0
141974,-181.818181818182,4,1,0,15,0,0
141989,-92.5925925925926,4,1,0,15,0,0
142005,-151.515151515152,4,1,0,15,0,0
142020,-303.030303030303,4,1,0,15,0,0
142051,-100,4,1,0,15,0,0
143414,-10.01001001001,4,1,0,15,0,0
143430,-1111.11111111111,4,1,0,15,0,0
143445,-15.015015015015,4,1,0,15,0,0
143461,-909.090909090909,4,1,0,15,0,0
143476,-30.03003003003,4,1,0,15,0,0
143492,-454.545454545455,4,1,0,15,0,0
143507,-60.2409638554217,4,1,0,15,0,0
143523,-303.030303030303,4,1,0,15,0,0
143538,-75.187969924812,4,1,0,15,0,0
143554,-227.272727272727,4,1,0,15,0,0
143569,-86.2068965517241,4,1,0,15,0,0
143585,-181.818181818182,4,1,0,15,0,0
143600,-92.5925925925926,4,1,0,15,0,0
143616,-151.515151515152,4,1,0,15,0,0
143631,-303.030303030303,4,1,0,15,0,0
143662,-100,4,1,0,15,0,0
144654,-10.01001001001,4,1,0,15,0,0
144670,-1111.11111111111,4,1,0,15,0,0
144685,-15.015015015015,4,1,0,15,0,0
144701,-909.090909090909,4,1,0,15,0,0
144716,-30.03003003003,4,1,0,15,0,0
144732,-454.545454545455,4,1,0,15,0,0
144747,-60.2409638554217,4,1,0,15,0,0
144763,-303.030303030303,4,1,0,15,0,0
144778,-75.187969924812,4,1,0,15,0,0
144794,-227.272727272727,4,1,0,15,0,0
144809,-86.2068965517241,4,1,0,15,0,0
144825,-181.818181818182,4,1,0,15,0,0
144840,-92.5925925925926,4,1,0,15,0,0
144856,-151.515151515152,4,1,0,15,0,0
144871,-303.030303030303,4,1,0,15,0,0
144902,-100,4,1,0,15,0,0
144902,-45.045045045045,4,1,0,15,0,0
144917,-454.545454545455,4,1,0,15,0,0
144933,-45.045045045045,4,1,0,15,0,0
144948,-454.545454545455,4,1,0,15,0,0
144964,-45.045045045045,4,1,0,15,0,0
144979,-454.545454545455,4,1,0,15,0,0
144995,-45.045045045045,4,1,0,15,0,0
145010,-454.545454545455,4,1,0,15,0,0
145026,-45.045045045045,4,1,0,15,0,0
145041,-454.545454545455,4,1,0,15,0,0
145057,-45.045045045045,4,1,0,15,0,0
145072,-454.545454545455,4,1,0,15,0,0
145088,-45.045045045045,4,1,0,15,0,0
145103,-454.545454545455,4,1,0,15,0,0
145119,-45.045045045045,4,1,0,15,0,0
145134,-454.545454545455,4,1,0,15,0,0
145150,-45.045045045045,4,1,0,15,0,0
145165,-454.545454545455,4,1,0,15,0,0
145181,-45.045045045045,4,1,0,15,0,0
145196,-454.545454545455,4,1,0,15,0,0
145212,-45.045045045045,4,1,0,15,0,0
145227,-454.545454545455,4,1,0,15,0,0
145243,-45.045045045045,4,1,0,15,0,0
145258,-454.545454545455,4,1,0,15,0,0
145274,-45.045045045045,4,1,0,15,0,0
145289,-454.545454545455,4,1,0,15,0,0
145305,-45.045045045045,4,1,0,15,0,0
145320,-454.545454545455,4,1,0,15,0,0
145336,-45.045045045045,4,1,0,15,0,0
145351,-454.545454545455,4,1,0,15,0,0
145367,-45.045045045045,4,1,0,15,0,0
145382,-454.545454545455,4,1,0,15,0,0
145398,-45.045045045045,4,1,0,15,0,0
145413,-454.545454545455,4,1,0,15,0,0
145429,-45.045045045045,4,1,0,15,0,0
145444,-454.545454545455,4,1,0,15,0,0
145460,-45.045045045045,4,1,0,15,0,0
145475,-454.545454545455,4,1,0,15,0,0
145491,-45.045045045045,4,1,0,15,0,0
145506,-454.545454545455,4,1,0,15,0,0
145522,-45.045045045045,4,1,0,15,0,0
145537,-454.545454545455,4,1,0,15,0,0
145553,-45.045045045045,4,1,0,15,0,0
145568,-454.545454545455,4,1,0,15,0,0
145584,-45.045045045045,4,1,0,15,0,0
145599,-454.545454545455,4,1,0,15,0,0
145615,-45.045045045045,4,1,0,15,0,0
145630,-454.545454545455,4,1,0,15,0,0
145646,-45.045045045045,4,1,0,15,0,0
145661,-454.545454545455,4,1,0,15,0,0
145677,-45.045045045045,4,1,0,15,0,0
145692,-454.545454545455,4,1,0,15,0,0
145708,-45.045045045045,4,1,0,15,0,0
145723,-454.545454545455,4,1,0,15,0,0
145739,-45.045045045045,4,1,0,15,0,0
145754,-454.545454545455,4,1,0,15,0,0
145770,-100,4,1,0,15,0,0
152650,-133.333333333333,4,1,0,15,0,0
152712,-66.6666666666667,4,1,0,15,0,0
152836,-133.333333333333,4,1,0,15,0,0
152898,-66.6666666666667,4,1,0,15,0,0
152960,-133.333333333333,4,1,0,15,0,0
153022,-66.6666666666667,4,1,0,15,0,0
153084,-133.333333333333,4,1,0,15,0,0
153146,-66.6666666666667,4,1,0,15,0,0
153208,-45.045045045045,4,1,0,15,0,0
153229,-454.545454545455,4,1,0,15,0,0
153250,-90.0900900900901,4,1,0,15,0,0
153270,-151.515151515152,4,1,0,15,0,0
153332,-45.045045045045,4,1,0,15,0,0
153353,-454.545454545455,4,1,0,15,0,0
153374,-90.0900900900901,4,1,0,15,0,0
153394,-151.515151515152,4,1,0,15,0,0
153456,-45.045045045045,4,1,0,15,0,0
153477,-454.545454545455,4,1,0,15,0,0
153498,-90.0900900900901,4,1,0,15,0,0
153518,-151.515151515152,4,1,0,15,0,0
153580,-45.045045045045,4,1,0,15,0,0
153601,-454.545454545455,4,1,0,15,0,0
153622,-90.0900900900901,4,1,0,15,0,0
153642,-151.515151515152,4,1,0,15,0,0
153704,-100,4,1,0,15,0,0
154695,-60.2409638554217,4,1,0,15,0,0
154711,-151.515151515152,4,1,0,15,0,0
154716,-75.187969924812,4,1,0,15,0,0
154726,-129.87012987013,4,1,0,15,0,0
154737,-81.9672131147541,4,1,0,15,0,0
154757,-113.636363636364,4,1,0,15,0,0
154773,-90.0900900900901,4,1,0,15,0,0
154819,-60.2409638554217,4,1,0,15,0,0
154835,-151.515151515152,4,1,0,15,0,0
154840,-75.187969924812,4,1,0,15,0,0
154850,-129.87012987013,4,1,0,15,0,0
154861,-81.9672131147541,4,1,0,15,0,0
154881,-113.636363636364,4,1,0,15,0,0
154897,-90.0900900900901,4,1,0,15,0,0
154943,-60.2409638554217,4,1,0,15,0,0
154959,-151.515151515152,4,1,0,15,0,0
154964,-75.187969924812,4,1,0,15,0,0
154974,-129.87012987013,4,1,0,15,0,0
154985,-81.9672131147541,4,1,0,15,0,0
155005,-113.636363636364,4,1,0,15,0,0
155021,-90.0900900900901,4,1,0,15,0,0
155067,-60.2409638554217,4,1,0,15,0,0
155083,-151.515151515152,4,1,0,15,0,0
155088,-75.187969924812,4,1,0,15,0,0
155098,-129.87012987013,4,1,0,15,0,0
155109,-81.9672131147541,4,1,0,15,0,0
155129,-113.636363636364,4,1,0,15,0,0
155145,-90.0900900900901,4,1,0,15,0,0
155191,-60.2409638554217,4,1,0,15,0,0
155207,-151.515151515152,4,1,0,15,0,0
155212,-75.187969924812,4,1,0,15,0,0
155222,-129.87012987013,4,1,0,15,0,0
155233,-81.9672131147541,4,1,0,15,0,0
155253,-113.636363636364,4,1,0,15,0,0
155269,-90.0900900900901,4,1,0,15,0,0
155315,-60.2409638554217,4,1,0,15,0,0
155331,-151.515151515152,4,1,0,15,0,0
155336,-75.187969924812,4,1,0,15,0,0
155346,-129.87012987013,4,1,0,15,0,0
155357,-81.9672131147541,4,1,0,15,0,0
155377,-113.636363636364,4,1,0,15,0,0
155393,-90.0900900900901,4,1,0,15,0,0
155439,-60.2409638554217,4,1,0,15,0,0
155455,-151.515151515152,4,1,0,15,0,0
155460,-75.187969924812,4,1,0,15,0,0
155470,-129.87012987013,4,1,0,15,0,0
155481,-81.9672131147541,4,1,0,15,0,0
155501,-113.636363636364,4,1,0,15,0,0
155517,-90.0900900900901,4,1,0,15,0,0
155563,-60.2409638554217,4,1,0,15,0,0
155579,-151.515151515152,4,1,0,15,0,0
155584,-75.187969924812,4,1,0,15,0,0
155594,-129.87012987013,4,1,0,15,0,0
155605,-81.9672131147541,4,1,0,15,0,0
155625,-113.636363636364,4,1,0,15,0,0
155641,-90.0900900900901,4,1,0,15,0,0
155687,-45.045045045045,4,1,0,15,0,0
155702,-454.545454545455,4,1,0,15,0,0
155718,-45.045045045045,4,1,0,15,0,0
155733,-454.545454545455,4,1,0,15,0,0
155749,-45.045045045045,4,1,0,15,0,0
155764,-454.545454545455,4,1,0,15,0,0
155780,-45.045045045045,4,1,0,15,0,0
155795,-454.545454545455,4,1,0,15,0,0
155811,-45.045045045045,4,1,0,15,0,0
155826,-454.545454545455,4,1,0,15,0,0
155842,-45.045045045045,4,1,0,15,0,0
155857,-454.545454545455,4,1,0,15,0,0
155873,-45.045045045045,4,1,0,15,0,0
155888,-454.545454545455,4,1,0,15,0,0
155904,-45.045045045045,4,1,0,15,0,0
155919,-454.545454545455,4,1,0,15,0,0
155935,-45.045045045045,4,1,0,15,0,0
155950,-454.545454545455,4,1,0,15,0,0
155966,-45.045045045045,4,1,0,15,0,0
155981,-454.545454545455,4,1,0,15,0,0
155997,-45.045045045045,4,1,0,15,0,0
156012,-454.545454545455,4,1,0,15,0,0
156028,-45.045045045045,4,1,0,15,0,0
156043,-454.545454545455,4,1,0,15,0,0
156059,-45.045045045045,4,1,0,15,0,0
156074,-454.545454545455,4,1,0,15,0,0
156090,-45.045045045045,4,1,0,15,0,0
156105,-454.545454545455,4,1,0,15,0,0
156121,-45.045045045045,4,1,0,15,0,0
156136,-454.545454545455,4,1,0,15,0,0
156152,-45.045045045045,4,1,0,15,0,0
156167,-454.545454545455,4,1,0,15,0,0
156183,-75.187969924812,4,1,0,15,0,0
156224,-151.515151515152,4,1,0,15,0,0
156307,-75.187969924812,4,1,0,15,0,0
156348,-151.515151515152,4,1,0,15,0,0
156431,-75.187969924812,4,1,0,15,0,0
156472,-151.515151515152,4,1,0,15,0,0
156555,-75.187969924812,4,1,0,15,0,0
156596,-151.515151515152,4,1,0,15,0,0
156679,-75.187969924812,4,1,0,15,0,0
156720,-151.515151515152,4,1,0,15,0,0
156803,-75.187969924812,4,1,0,15,0,0
156844,-151.515151515152,4,1,0,15,0,0
156927,-75.187969924812,4,1,0,15,0,0
156968,-151.515151515152,4,1,0,15,0,0
157051,-75.187969924812,4,1,0,15,0,0
157092,-151.515151515152,4,1,0,15,0,0
157175,-454.545454545455,4,1,0,15,0,0
157197,-344.827586206897,4,1,0,15,0,0
157220,-277.777777777778,4,1,0,15,0,0
157242,-232.558139534884,4,1,0,15,0,0
157265,-200,4,1,0,15,0,0
157287,-175.438596491228,4,1,0,15,0,0
157310,-156.25,4,1,0,15,0,0
157332,-140.845070422535,4,1,0,15,0,0
157355,-128.205128205128,4,1,0,15,0,0
157377,-117.647058823529,4,1,0,15,0,0
157400,-108.695652173913,4,1,0,15,0,0
157423,-101.010101010101,4,1,0,15,0,0
157434,-104.166666666667,4,1,0,15,0,0
157445,-108.695652173913,4,1,0,15,0,0
157456,-112.359550561798,4,1,0,15,0,0
157468,-117.647058823529,4,1,0,15,0,0
157479,-121.951219512195,4,1,0,15,0,0
157490,-128.205128205128,4,1,0,15,0,0
157501,-133.333333333333,4,1,0,15,0,0
157513,-140.845070422535,4,1,0,15,0,0
157524,-147.058823529412,4,1,0,15,0,0
157535,-156.25,4,1,0,15,0,0
157547,-163.934426229508,4,1,0,15,0,0
157558,-175.438596491228,4,1,0,15,0,0
157569,-188.679245283019,4,1,0,15,0,0
157580,-200,4,1,0,15,0,0
157592,-212.765957446809,4,1,0,15,0,0
157603,-232.558139534884,4,1,0,15,0,0
157614,-250,4,1,0,15,0,0
157625,-277.777777777778,4,1,0,15,0,0
157637,-312.5,4,1,0,15,0,0
157648,-344.827586206897,4,1,0,15,0,0
157659,-400,4,1,0,15,0,0
157671,-454.545454545455,4,1,0,15,0,0
157676,-400,4,1,0,15,0,0
157682,-357.142857142857,4,1,0,15,0,0
157687,-322.58064516129,4,1,0,15,0,0
157693,-294.117647058824,4,1,0,15,0,0
157699,-270.27027027027,4,1,0,15,0,0
157704,-256.410256410256,4,1,0,15,0,0
157710,-238.095238095238,4,1,0,15,0,0
157716,-222.222222222222,4,1,0,15,0,0
157721,-208.333333333333,4,1,0,15,0,0
157727,-196.078431372549,4,1,0,15,0,0
157733,-185.185185185185,4,1,0,15,0,0
157738,-175.438596491228,4,1,0,15,0,0
157744,-166.666666666667,4,1,0,15,0,0
157749,-158.730158730159,4,1,0,15,0,0
157755,-151.515151515152,4,1,0,15,0,0
157761,-144.927536231884,4,1,0,15,0,0
157766,-140.845070422535,4,1,0,15,0,0
157772,-135.135135135135,4,1,0,15,0,0
157778,-129.87012987013,4,1,0,15,0,0
157783,-125,4,1,0,15,0,0
157789,-120.481927710843,4,1,0,15,0,0
157795,-116.279069767442,4,1,0,15,0,0
157800,-112.359550561798,4,1,0,15,0,0
157806,-108.695652173913,4,1,0,15,0,0
157811,-105.263157894737,4,1,0,15,0,0
157817,-102.040816326531,4,1,0,15,0,0
157823,-99.009900990099,4,1,0,15,0,0
157828,-97.0873786407767,4,1,0,15,0,0
157834,-94.3396226415094,4,1,0,15,0,0
157840,-91.743119266055,4,1,0,15,0,0
157845,-89.2857142857143,4,1,0,15,0,0
157851,-86.9565217391304,4,1,0,15,0,0
157857,-84.7457627118644,4,1,0,15,0,0
157862,-82.6446280991736,4,1,0,15,0,0
157868,-80.6451612903226,4,1,0,15,0,0
157873,-78.740157480315,4,1,0,15,0,0
157879,-76.9230769230769,4,1,0,15,0,0
157885,-75.187969924812,4,1,0,15,0,0
157890,-74.0740740740741,4,1,0,15,0,0
157896,-72.463768115942,4,1,0,15,0,0
157902,-70.9219858156028,4,1,0,15,0,0
157907,-69.4444444444444,4,1,0,15,0,0
157913,-68.0272108843538,4,1,0,15,0,0
157919,-66.6666666666667,4,1,0,15,0,0
157981,-200,4,1,0,15,0,0
158166,-100,4,1,0,15,0,0
165604,-10.01001001001,4,1,0,15,0,0
165620,-1111.11111111111,4,1,0,15,0,0
165635,-15.015015015015,4,1,0,15,0,0
165651,-909.090909090909,4,1,0,15,0,0
165666,-30.03003003003,4,1,0,15,0,0
165682,-454.545454545455,4,1,0,15,0,0
165697,-60.2409638554217,4,1,0,15,0,0
165713,-303.030303030303,4,1,0,15,0,0
165728,-75.187969924812,4,1,0,15,0,0
165744,-227.272727272727,4,1,0,15,0,0
165759,-86.2068965517241,4,1,0,15,0,0
165775,-181.818181818182,4,1,0,15,0,0
165790,-92.5925925925926,4,1,0,15,0,0
165806,-151.515151515152,4,1,0,15,0,0
165821,-303.030303030303,4,1,0,15,0,0
165852,-100,4,1,0,15,0,0
166596,-45.045045045045,4,1,0,15,0,0
166617,-454.545454545455,4,1,0,15,0,0
166638,-90.0900900900901,4,1,0,15,0,0
166658,-151.515151515152,4,1,0,15,0,0
166720,-45.045045045045,4,1,0,15,0,0
166741,-454.545454545455,4,1,0,15,0,0
166762,-90.0900900900901,4,1,0,15,0,0
166782,-151.515151515152,4,1,0,15,0,0
166844,-45.045045045045,4,1,0,15,0,0
166865,-454.545454545455,4,1,0,15,0,0
166886,-90.0900900900901,4,1,0,15,0,0
166906,-151.515151515152,4,1,0,15,0,0
166968,-45.045045045045,4,1,0,15,0,0
166989,-454.545454545455,4,1,0,15,0,0
167010,-90.0900900900901,4,1,0,15,0,0
167030,-151.515151515152,4,1,0,15,0,0
167092,-45.045045045045,4,1,0,15,0,0
167113,-454.545454545455,4,1,0,15,0,0
167134,-90.0900900900901,4,1,0,15,0,0
167154,-151.515151515152,4,1,0,15,0,0
167216,-45.045045045045,4,1,0,15,0,0
167237,-454.545454545455,4,1,0,15,0,0
167258,-90.0900900900901,4,1,0,15,0,0
167278,-151.515151515152,4,1,0,15,0,0
167340,-45.045045045045,4,1,0,15,0,0
167361,-454.545454545455,4,1,0,15,0,0
167382,-90.0900900900901,4,1,0,15,0,0
167402,-151.515151515152,4,1,0,15,0,0
167464,-45.045045045045,4,1,0,15,0,0
167485,-454.545454545455,4,1,0,15,0,0
167506,-90.0900900900901,4,1,0,15,0,0
167526,-151.515151515152,4,1,0,15,0,0
167588,-100,4,1,0,15,0,0
171803,-10.01001001001,4,1,0,15,0,0
171819,-1111.11111111111,4,1,0,15,0,0
171834,-15.015015015015,4,1,0,15,0,0
171850,-909.090909090909,4,1,0,15,0,0
171865,-30.03003003003,4,1,0,15,0,0
171881,-454.545454545455,4,1,0,15,0,0
171896,-60.2409638554217,4,1,0,15,0,0
171912,-303.030303030303,4,1,0,15,0,0
171927,-75.187969924812,4,1,0,15,0,0
171943,-227.272727272727,4,1,0,15,0,0
171958,-86.2068965517241,4,1,0,15,0,0
171974,-181.818181818182,4,1,0,15,0,0
171989,-92.5925925925926,4,1,0,15,0,0
172005,-151.515151515152,4,1,0,15,0,0
172020,-303.030303030303,4,1,0,15,0,0
172051,-100,4,1,0,15,0,0
173042,-10.01001001001,4,1,0,15,0,0
173058,-1111.11111111111,4,1,0,15,0,0
173073,-15.015015015015,4,1,0,15,0,0
173089,-909.090909090909,4,1,0,15,0,0
173104,-30.03003003003,4,1,0,15,0,0
173120,-454.545454545455,4,1,0,15,0,0
173135,-60.2409638554217,4,1,0,15,0,0
173151,-303.030303030303,4,1,0,15,0,0
173166,-75.187969924812,4,1,0,15,0,0
173182,-227.272727272727,4,1,0,15,0,0
173197,-86.2068965517241,4,1,0,15,0,0
173213,-181.818181818182,4,1,0,15,0,0
173228,-92.5925925925926,4,1,0,15,0,0
173244,-151.515151515152,4,1,0,15,0,0
173259,-303.030303030303,4,1,0,15,0,0
173290,-100,4,1,0,15,0,0
180481,-454.545454545455,4,1,0,15,0,0
180503,-344.827586206897,4,1,0,15,0,0
180526,-277.777777777778,4,1,0,15,0,0
180548,-232.558139534884,4,1,0,15,0,0
180571,-200,4,1,0,15,0,0
180593,-175.438596491228,4,1,0,15,0,0
180616,-156.25,4,1,0,15,0,0
180638,-140.845070422535,4,1,0,15,0,0
180661,-128.205128205128,4,1,0,15,0,0
180683,-117.647058823529,4,1,0,15,0,0
180706,-108.695652173913,4,1,0,15,0,0
180729,-101.010101010101,4,1,0,15,0,0
180740,-104.166666666667,4,1,0,15,0,0
180751,-108.695652173913,4,1,0,15,0,0
180762,-112.359550561798,4,1,0,15,0,0
180774,-117.647058823529,4,1,0,15,0,0
180785,-121.951219512195,4,1,0,15,0,0
180796,-128.205128205128,4,1,0,15,0,0
180807,-133.333333333333,4,1,0,15,0,0
180819,-140.845070422535,4,1,0,15,0,0
180830,-147.058823529412,4,1,0,15,0,0
180841,-156.25,4,1,0,15,0,0
180853,-163.934426229508,4,1,0,15,0,0
180864,-175.438596491228,4,1,0,15,0,0
180875,-188.679245283019,4,1,0,15,0,0
180886,-200,4,1,0,15,0,0
180898,-212.765957446809,4,1,0,15,0,0
180909,-232.558139534884,4,1,0,15,0,0
180920,-250,4,1,0,15,0,0
180931,-277.777777777778,4,1,0,15,0,0
180943,-312.5,4,1,0,15,0,0
180954,-344.827586206897,4,1,0,15,0,0
180965,-400,4,1,0,15,0,0
180977,-454.545454545455,4,1,0,15,0,0
180982,-400,4,1,0,15,0,0
180988,-357.142857142857,4,1,0,15,0,0
180993,-322.58064516129,4,1,0,15,0,0
180999,-294.117647058824,4,1,0,15,0,0
181005,-270.27027027027,4,1,0,15,0,0
181010,-256.410256410256,4,1,0,15,0,0
181016,-238.095238095238,4,1,0,15,0,0
181022,-222.222222222222,4,1,0,15,0,0
181027,-208.333333333333,4,1,0,15,0,0
181033,-196.078431372549,4,1,0,15,0,0
181039,-185.185185185185,4,1,0,15,0,0
181044,-175.438596491228,4,1,0,15,0,0
181050,-166.666666666667,4,1,0,15,0,0
181055,-158.730158730159,4,1,0,15,0,0
181061,-151.515151515152,4,1,0,15,0,0
181067,-144.927536231884,4,1,0,15,0,0
181072,-140.845070422535,4,1,0,15,0,0
181078,-135.135135135135,4,1,0,15,0,0
181084,-129.87012987013,4,1,0,15,0,0
181089,-125,4,1,0,15,0,0
181095,-120.481927710843,4,1,0,15,0,0
181101,-116.279069767442,4,1,0,15,0,0
181106,-112.359550561798,4,1,0,15,0,0
181112,-108.695652173913,4,1,0,15,0,0
181117,-105.263157894737,4,1,0,15,0,0
181123,-102.040816326531,4,1,0,15,0,0
181129,-99.009900990099,4,1,0,15,0,0
181134,-97.0873786407767,4,1,0,15,0,0
181140,-94.3396226415094,4,1,0,15,0,0
181146,-91.743119266055,4,1,0,15,0,0
181151,-89.2857142857143,4,1,0,15,0,0
181157,-86.9565217391304,4,1,0,15,0,0
181163,-84.7457627118644,4,1,0,15,0,0
181168,-82.6446280991736,4,1,0,15,0,0
181174,-80.6451612903226,4,1,0,15,0,0
181179,-78.740157480315,4,1,0,15,0,0
181185,-76.9230769230769,4,1,0,15,0,0
181191,-75.187969924812,4,1,0,15,0,0
181196,-74.0740740740741,4,1,0,15,0,0
181202,-72.463768115942,4,1,0,15,0,0
181208,-70.9219858156028,4,1,0,15,0,0
181213,-69.4444444444444,4,1,0,15,0,0
181219,-68.0272108843538,4,1,0,15,0,0
181225,-66.6666666666667,4,1,0,15,0,0
181286,-200,4,1,0,15,0,0
181291,-192.307692307692,4,1,0,15,0,0
181297,-188.679245283019,4,1,0,15,0,0
181303,-181.818181818182,4,1,0,15,0,0
181309,-178.571428571429,4,1,0,15,0,0
181315,-172.413793103448,4,1,0,15,0,0
181320,-169.491525423729,4,1,0,15,0,0
181326,-163.934426229508,4,1,0,15,0,0
181332,-158.730158730159,4,1,0,15,0,0
181338,-156.25,4,1,0,15,0,0
181344,-151.515151515152,4,1,0,15,0,0
181349,-149.253731343284,4,1,0,15,0,0
181355,-144.927536231884,4,1,0,15,0,0
181361,-142.857142857143,4,1,0,15,0,0
181367,-138.888888888889,4,1,0,15,0,0
181373,-136.986301369863,4,1,0,15,0,0
181379,-133.333333333333,4,1,0,15,0,0
181384,-129.87012987013,4,1,0,15,0,0
181390,-128.205128205128,4,1,0,15,0,0
181396,-125,4,1,0,15,0,0
181402,-123.456790123457,4,1,0,15,0,0
181408,-120.481927710843,4,1,0,15,0,0
181413,-119.047619047619,4,1,0,15,0,0
181419,-116.279069767442,4,1,0,15,0,0
181425,-113.636363636364,4,1,0,15,0,0
181431,-112.359550561798,4,1,0,15,0,0
181437,-109.89010989011,4,1,0,15,0,0
181442,-108.695652173913,4,1,0,15,0,0
181448,-106.382978723404,4,1,0,15,0,0
181454,-105.263157894737,4,1,0,15,0,0
181460,-103.092783505155,4,1,0,15,0,0
181466,-102.040816326531,4,1,0,15,0,0
181472,-100,4,1,0,15,0,0
228084,-66.6666666666667,4,1,0,15,0,0
228125,-222.222222222222,4,1,0,15,0,0
228208,-66.6666666666667,4,1,0,15,0,0
228249,-222.222222222222,4,1,0,15,0,0
228332,-100,4,1,0,15,0,0
229076,-100,4,1,0,15,0,0
229168,-101.010101010101,4,1,0,15,0,0
229261,-102.040816326531,4,1,0,15,0,0
229354,-103.092783505155,4,1,0,15,0,0
229447,-103.092783505155,4,1,0,15,0,0
229540,-104.166666666667,4,1,0,15,0,0
229633,-105.263157894737,4,1,0,15,0,0
229726,-106.382978723404,4,1,0,15,0,0
229819,-107.52688172043,4,1,0,15,0,0
229912,-108.695652173913,4,1,0,15,0,0
230005,-109.89010989011,4,1,0,15,0,0
230098,-109.89010989011,4,1,0,15,0,0
230191,-111.111111111111,4,1,0,15,0,0
230284,-112.359550561798,4,1,0,15,0,0
230377,-113.636363636364,4,1,0,15,0,0
230470,-114.942528735632,4,1,0,15,0,0
230563,-116.279069767442,4,1,0,15,0,0
230656,-117.647058823529,4,1,0,15,0,0
230749,-117.647058823529,4,1,0,15,0,0
230842,-119.047619047619,4,1,0,15,0,0
230935,-120.481927710843,4,1,0,15,0,0
231028,-121.951219512195,4,1,0,15,0,0
231121,-123.456790123457,4,1,0,15,0,0
231214,-125,4,1,0,15,0,0
231307,-126.582278481013,4,1,0,15,0,0
231400,-126.582278481013,4,1,0,15,0,0
231493,-128.205128205128,4,1,0,15,0,0
231586,-129.87012987013,4,1,0,15,0,0
231679,-131.578947368421,4,1,0,15,0,0
231772,-133.333333333333,4,1,0,15,0,0
231865,-135.135135135135,4,1,0,15,0,0
231958,-136.986301369863,4,1,0,15,0,0
232051,-136.986301369863,4,1,0,15,0,0
232143,-138.888888888889,4,1,0,15,0,0
232236,-140.845070422535,4,1,0,15,0,0
232329,-142.857142857143,4,1,0,15,0,0
232422,-144.927536231884,4,1,0,15,0,0
232515,-147.058823529412,4,1,0,15,0,0
232608,-149.253731343284,4,1,0,15,0,0
232701,-151.515151515152,4,1,0,15,0,0
232794,-151.515151515152,4,1,0,15,0,0
232887,-153.846153846154,4,1,0,15,0,0
232980,-156.25,4,1,0,15,0,0
233073,-158.730158730159,4,1,0,15,0,0
233166,-161.290322580645,4,1,0,15,0,0
233259,-163.934426229508,4,1,0,15,0,0
233352,-166.666666666667,4,1,0,15,0,0
233445,-166.666666666667,4,1,0,15,0,0
233538,-169.491525423729,4,1,0,15,0,0
233631,-172.413793103448,4,1,0,15,0,0
233724,-175.438596491228,4,1,0,15,0,0
233817,-178.571428571429,4,1,0,15,0,0
233910,-181.818181818182,4,1,0,15,0,0
234003,-185.185185185185,4,1,0,15,0,0
234096,-185.185185185185,4,1,0,15,0,0
234189,-188.679245283019,4,1,0,15,0,0
234282,-192.307692307692,4,1,0,15,0,0
234375,-196.078431372549,4,1,0,15,0,0
234468,-200,4,1,0,15,0,0
234561,-204.081632653061,4,1,0,15,0,0
234654,-208.333333333333,4,1,0,15,0,0
234747,-208.333333333333,4,1,0,15,0,0
234840,-212.765957446809,4,1,0,15,0,0
234933,-217.391304347826,4,1,0,15,0,0
235026,-222.222222222222,4,1,0,15,0,0
235522,-212.765957446809,4,1,0,15,0,0
236018,-204.081632653061,4,1,0,15,0,0
236514,-196.078431372549,4,1,0,15,0,0
237009,-188.679245283019,4,1,0,15,0,0
237256,-185.185185185185,4,1,0,15,0,0
237504,-178.571428571429,4,1,0,15,0,0
237752,-175.438596491228,4,1,0,15,0,0
238000,-169.491525423729,4,1,0,15,0,0
238248,-166.666666666667,4,1,0,15,0,0
238496,-161.290322580645,4,1,0,15,0,0
238744,-158.730158730159,4,1,0,15,0,0
238992,-153.846153846154,4,1,0,15,0,0
239240,-151.515151515152,4,1,0,15,0,0
239488,-147.058823529412,4,1,0,15,0,0
239736,-144.927536231884,4,1,0,15,0,0
239984,-140.845070422535,4,1,0,15,0,0
240232,-138.888888888889,4,1,0,15,0,0
240480,-135.135135135135,4,1,0,15,0,0
240728,-133.333333333333,4,1,0,15,0,0
240976,-129.87012987013,4,1,0,15,0,0
241223,-128.205128205128,4,1,0,15,0,0
241471,-126.582278481013,4,1,0,15,0,0
241719,-123.456790123457,4,1,0,15,0,0
241967,-121.951219512195,4,1,0,15,0,0
242215,-119.047619047619,4,1,0,15,0,0
242463,-117.647058823529,4,1,0,15,0,0
242711,-114.942528735632,4,1,0,15,0,0
242959,-113.636363636364,4,1,0,15,0,0
243207,-111.111111111111,4,1,0,15,0,0
243455,-109.89010989011,4,1,0,15,0,0
243703,-107.52688172043,4,1,0,15,0,0
243951,-106.382978723404,4,1,0,15,0,0
244199,-104.166666666667,4,1,0,15,0,0
244447,-103.092783505155,4,1,0,15,0,0
244695,-101.010101010101,4,1,0,15,0,0
244943,-100,4,1,0,15,0,0
288580,-90.0900900900901,4,1,0,15,0,0
288595,-101.010101010101,4,1,0,15,0,0
288621,-81.9672131147541,4,1,0,15,0,0
288642,-113.636363636364,4,1,0,15,0,0
288657,-75.187969924812,4,1,0,15,0,0
288673,-129.87012987013,4,1,0,15,0,0
288704,-90.0900900900901,4,1,0,15,0,0
288719,-101.010101010101,4,1,0,15,0,0
288745,-81.9672131147541,4,1,0,15,0,0
288766,-113.636363636364,4,1,0,15,0,0
288781,-75.187969924812,4,1,0,15,0,0
288797,-129.87012987013,4,1,0,15,0,0
288828,-90.0900900900901,4,1,0,15,0,0
288843,-101.010101010101,4,1,0,15,0,0
288869,-81.9672131147541,4,1,0,15,0,0
288890,-113.636363636364,4,1,0,15,0,0
288905,-75.187969924812,4,1,0,15,0,0
288921,-129.87012987013,4,1,0,15,0,0
288952,-90.0900900900901,4,1,0,15,0,0
288967,-101.010101010101,4,1,0,15,0,0
288993,-81.9672131147541,4,1,0,15,0,0
289014,-113.636363636364,4,1,0,15,0,0
289029,-75.187969924812,4,1,0,15,0,0
289045,-129.87012987013,4,1,0,15,0,0
289076,-90.0900900900901,4,1,0,15,0,0
289091,-101.010101010101,4,1,0,15,0,0
289117,-81.9672131147541,4,1,0,15,0,0
289138,-113.636363636364,4,1,0,15,0,0
289153,-75.187969924812,4,1,0,15,0,0
289169,-129.87012987013,4,1,0,15,0,0
289200,-90.0900900900901,4,1,0,15,0,0
289215,-101.010101010101,4,1,0,15,0,0
289241,-81.9672131147541,4,1,0,15,0,0
289262,-113.636363636364,4,1,0,15,0,0
289277,-75.187969924812,4,1,0,15,0,0
289293,-129.87012987013,4,1,0,15,0,0
289323,-90.0900900900901,4,1,0,15,0,0
289338,-101.010101010101,4,1,0,15,0,0
289364,-81.9672131147541,4,1,0,15,0,0
289385,-113.636363636364,4,1,0,15,0,0
289400,-75.187969924812,4,1,0,15,0,0
289416,-129.87012987013,4,1,0,15,0,0
289447,-90.0900900900901,4,1,0,15,0,0
289462,-101.010101010101,4,1,0,15,0,0
289488,-81.9672131147541,4,1,0,15,0,0
289509,-113.636363636364,4,1,0,15,0,0
289524,-75.187969924812,4,1,0,15,0,0
289540,-129.87012987013,4,1,0,15,0,0
289571,-75.187969924812,4,1,0,15,0,0
289587,-129.87012987013,4,1,0,15,0,0
289613,-69.4444444444444,4,1,0,15,0,0
289633,-151.515151515152,4,1,0,15,0,0
289649,-64.5161290322581,4,1,0,15,0,0
289664,-181.818181818182,4,1,0,15,0,0
289695,-75.187969924812,4,1,0,15,0,0
289711,-129.87012987013,4,1,0,15,0,0
289737,-69.4444444444444,4,1,0,15,0,0
289757,-151.515151515152,4,1,0,15,0,0
289773,-64.5161290322581,4,1,0,15,0,0
289788,-181.818181818182,4,1,0,15,0,0
289819,-75.187969924812,4,1,0,15,0,0
289835,-129.87012987013,4,1,0,15,0,0
289861,-69.4444444444444,4,1,0,15,0,0
289881,-151.515151515152,4,1,0,15,0,0
289897,-64.5161290322581,4,1,0,15,0,0
289912,-181.818181818182,4,1,0,15,0,0
289943,-75.187969924812,4,1,0,15,0,0
289959,-129.87012987013,4,1,0,15,0,0
289985,-69.4444444444444,4,1,0,15,0,0
290005,-151.515151515152,4,1,0,15,0,0
290021,-64.5161290322581,4,1,0,15,0,0
290036,-181.818181818182,4,1,0,15,0,0
290067,-75.187969924812,4,1,0,15,0,0
290083,-129.87012987013,4,1,0,15,0,0
290109,-69.4444444444444,4,1,0,15,0,0
290129,-151.515151515152,4,1,0,15,0,0
290145,-64.5161290322581,4,1,0,15,0,0
290160,-181.818181818182,4,1,0,15,0,0
290191,-75.187969924812,4,1,0,15,0,0
290207,-129.87012987013,4,1,0,15,0,0
290233,-69.4444444444444,4,1,0,15,0,0
290253,-151.515151515152,4,1,0,15,0,0
290269,-64.5161290322581,4,1,0,15,0,0
290284,-181.818181818182,4,1,0,15,0,0
290315,-75.187969924812,4,1,0,15,0,0
290331,-129.87012987013,4,1,0,15,0,0
290357,-69.4444444444444,4,1,0,15,0,0
290377,-151.515151515152,4,1,0,15,0,0
290393,-64.5161290322581,4,1,0,15,0,0
290408,-181.818181818182,4,1,0,15,0,0
290439,-75.187969924812,4,1,0,15,0,0
290455,-129.87012987013,4,1,0,15,0,0
290481,-69.4444444444444,4,1,0,15,0,0
290501,-151.515151515152,4,1,0,15,0,0
290517,-64.5161290322581,4,1,0,15,0,0
290532,-181.818181818182,4,1,0,15,0,0
290563,-45.045045045045,4,1,0,15,0,0
290584,-454.545454545455,4,1,0,15,0,0
290605,-90.0900900900901,4,1,0,15,0,0
290625,-151.515151515152,4,1,0,15,0,0
290687,-45.045045045045,4,1,0,15,0,0
290708,-454.545454545455,4,1,0,15,0,0
290729,-90.0900900900901,4,1,0,15,0,0
290749,-151.515151515152,4,1,0,15,0,0
290811,-45.045045045045,4,1,0,15,0,0
290832,-454.545454545455,4,1,0,15,0,0
290853,-90.0900900900901,4,1,0,15,0,0
290873,-151.515151515152,4,1,0,15,0,0
290935,-45.045045045045,4,1,0,15,0,0
290956,-454.545454545455,4,1,0,15,0,0
290977,-90.0900900900901,4,1,0,15,0,0
290997,-151.515151515152,4,1,0,15,0,0
291059,-45.045045045045,4,1,0,15,0,0
291080,-454.545454545455,4,1,0,15,0,0
291101,-90.0900900900901,4,1,0,15,0,0
291121,-151.515151515152,4,1,0,15,0,0
291183,-45.045045045045,4,1,0,15,0,0
291204,-454.545454545455,4,1,0,15,0,0
291225,-90.0900900900901,4,1,0,15,0,0
291245,-151.515151515152,4,1,0,15,0,0
291307,-45.045045045045,4,1,0,15,0,0
291328,-454.545454545455,4,1,0,15,0,0
291349,-90.0900900900901,4,1,0,15,0,0
291369,-151.515151515152,4,1,0,15,0,0
291431,-45.045045045045,4,1,0,15,0,0
291452,-454.545454545455,4,1,0,15,0,0
291473,-90.0900900900901,4,1,0,15,0,0
291493,-151.515151515152,4,1,0,15,0,0
291555,-60.2409638554217,4,1,0,15,0,0
291571,-151.515151515152,4,1,0,15,0,0
291576,-75.187969924812,4,1,0,15,0,0
291586,-129.87012987013,4,1,0,15,0,0
291597,-81.9672131147541,4,1,0,15,0,0
291617,-113.636363636364,4,1,0,15,0,0
291633,-90.0900900900901,4,1,0,15,0,0
291679,-60.2409638554217,4,1,0,15,0,0
291695,-151.515151515152,4,1,0,15,0,0
291700,-75.187969924812,4,1,0,15,0,0
291710,-129.87012987013,4,1,0,15,0,0
291721,-81.9672131147541,4,1,0,15,0,0
291741,-113.636363636364,4,1,0,15,0,0
291757,-90.0900900900901,4,1,0,15,0,0
291803,-60.2409638554217,4,1,0,15,0,0
291819,-151.515151515152,4,1,0,15,0,0
291824,-75.187969924812,4,1,0,15,0,0
291834,-129.87012987013,4,1,0,15,0,0
291845,-81.9672131147541,4,1,0,15,0,0
291865,-113.636363636364,4,1,0,15,0,0
291881,-90.0900900900901,4,1,0,15,0,0
291927,-60.2409638554217,4,1,0,15,0,0
291943,-151.515151515152,4,1,0,15,0,0
291948,-75.187969924812,4,1,0,15,0,0
291958,-129.87012987013,4,1,0,15,0,0
291969,-81.9672131147541,4,1,0,15,0,0
291989,-113.636363636364,4,1,0,15,0,0
292005,-90.0900900900901,4,1,0,15,0,0
292051,-60.2409638554217,4,1,0,15,0,0
292067,-151.515151515152,4,1,0,15,0,0
292072,-75.187969924812,4,1,0,15,0,0
292082,-129.87012987013,4,1,0,15,0,0
292093,-81.9672131147541,4,1,0,15,0,0
292113,-113.636363636364,4,1,0,15,0,0
292129,-90.0900900900901,4,1,0,15,0,0
292175,-60.2409638554217,4,1,0,15,0,0
292191,-151.515151515152,4,1,0,15,0,0
292196,-75.187969924812,4,1,0,15,0,0
292206,-129.87012987013,4,1,0,15,0,0
292217,-81.9672131147541,4,1,0,15,0,0
292237,-113.636363636364,4,1,0,15,0,0
292253,-90.0900900900901,4,1,0,15,0,0
292299,-60.2409638554217,4,1,0,15,0,0
292315,-151.515151515152,4,1,0,15,0,0
292320,-75.187969924812,4,1,0,15,0,0
292330,-129.87012987013,4,1,0,15,0,0
292341,-81.9672131147541,4,1,0,15,0,0
292361,-113.636363636364,4,1,0,15,0,0
292377,-90.0900900900901,4,1,0,15,0,0
292423,-60.2409638554217,4,1,0,15,0,0
292439,-151.515151515152,4,1,0,15,0,0
292444,-75.187969924812,4,1,0,15,0,0
292454,-129.87012987013,4,1,0,15,0,0
292465,-81.9672131147541,4,1,0,15,0,0
292485,-113.636363636364,4,1,0,15,0,0
292501,-90.0900900900901,4,1,0,15,0,0
292547,-100,4,1,0,15,0,0
296514,-10.01001001001,4,1,0,15,0,0
296530,-1111.11111111111,4,1,0,15,0,0
296545,-15.015015015015,4,1,0,15,0,0
296561,-909.090909090909,4,1,0,15,0,0
296576,-30.03003003003,4,1,0,15,0,0
296592,-454.545454545455,4,1,0,15,0,0
296607,-60.2409638554217,4,1,0,15,0,0
296623,-303.030303030303,4,1,0,15,0,0
296638,-75.187969924812,4,1,0,15,0,0
296654,-227.272727272727,4,1,0,15,0,0
296669,-86.2068965517241,4,1,0,15,0,0
296685,-181.818181818182,4,1,0,15,0,0
296700,-92.5925925925926,4,1,0,15,0,0
296716,-151.515151515152,4,1,0,15,0,0
296731,-303.030303030303,4,1,0,15,0,0
296762,-100,4,1,0,15,0,0
315976,-66.6666666666667,4,1,0,15,0,0
316023,-200,4,1,0,15,0,0
316054,-151.515151515152,4,1,0,15,0,0
316100,-66.6666666666667,4,1,0,15,0,0
316147,-200,4,1,0,15,0,0
316178,-151.515151515152,4,1,0,15,0,0
316224,-66.6666666666667,4,1,0,15,0,0
316271,-200,4,1,0,15,0,0
316302,-151.515151515152,4,1,0,15,0,0
316348,-45.045045045045,4,1,0,15,0,0
316369,-454.545454545455,4,1,0,15,0,0
316390,-90.0900900900901,4,1,0,15,0,0
316410,-151.515151515152,4,1,0,15,0,0
316472,-22.5225225225225,4,1,0,15,0,0
316488,-227.272727272727,4,1,0,15,0,0
316503,-151.515151515152,4,1,0,15,0,0
316514,-129.87012987013,4,1,0,15,0,0
316534,-113.636363636364,4,1,0,15,0,0
316596,-100,4,1,0,15,0,0
320315,-45.045045045045,4,1,0,15,0,0
320336,-90.0900900900901,4,1,0,15,0,0
320357,-151.515151515152,4,1,0,15,0,0
320377,-303.030303030303,4,1,0,15,0,0
320393,-625,4,1,0,15,0,0
320408,-200,4,1,0,15,0,0
320439,-45.045045045045,4,1,0,15,0,0
320460,-90.0900900900901,4,1,0,15,0,0
320481,-151.515151515152,4,1,0,15,0,0
320501,-303.030303030303,4,1,0,15,0,0
320517,-625,4,1,0,15,0,0
320532,-200,4,1,0,15,0,0
320563,-53.1914893617021,4,1,0,15,0,0
320579,-113.636363636364,4,1,0,15,0,0
320584,-75.187969924812,4,1,0,15,0,0
320594,-303.030303030303,4,1,0,15,0,0
320605,-80,4,1,0,15,0,0
320625,-200,4,1,0,15,0,0
320641,-90.0900900900901,4,1,0,15,0,0
320687,-101.010101010101,4,1,0,15,0,0
320703,-113.636363636364,4,1,0,15,0,0
320718,-129.87012987013,4,1,0,15,0,0
320734,-151.515151515152,4,1,0,15,0,0
320811,-45.045045045045,4,1,0,15,0,0
320832,-90.0900900900901,4,1,0,15,0,0
320853,-151.515151515152,4,1,0,15,0,0
320873,-303.030303030303,4,1,0,15,0,0
320889,-625,4,1,0,15,0,0
320904,-200,4,1,0,15,0,0
320935,-45.045045045045,4,1,0,15,0,0
320956,-90.0900900900901,4,1,0,15,0,0
320977,-151.515151515152,4,1,0,15,0,0
320997,-303.030303030303,4,1,0,15,0,0
321013,-625,4,1,0,15,0,0
321028,-200,4,1,0,15,0,0
321059,-53.1914893617021,4,1,0,15,0,0
321075,-113.636363636364,4,1,0,15,0,0
321080,-75.187969924812,4,1,0,15,0,0
321090,-303.030303030303,4,1,0,15,0,0
321101,-80,4,1,0,15,0,0
321121,-200,4,1,0,15,0,0
321137,-90.0900900900901,4,1,0,15,0,0
321183,-101.010101010101,4,1,0,15,0,0
321199,-113.636363636364,4,1,0,15,0,0
321214,-129.87012987013,4,1,0,15,0,0
321230,-151.515151515152,4,1,0,15,0,0
321307,-45.045045045045,4,1,0,15,0,0
321328,-90.0900900900901,4,1,0,15,0,0
321349,-151.515151515152,4,1,0,15,0,0
321369,-303.030303030303,4,1,0,15,0,0
321385,-625,4,1,0,15,0,0
321400,-200,4,1,0,15,0,0
321431,-45.045045045045,4,1,0,15,0,0
321452,-90.0900900900901,4,1,0,15,0,0
321473,-151.515151515152,4,1,0,15,0,0
321493,-303.030303030303,4,1,0,15,0,0
321509,-625,4,1,0,15,0,0
321524,-200,4,1,0,15,0,0
321555,-53.1914893617021,4,1,0,15,0,0
321571,-113.636363636364,4,1,0,15,0,0
321576,-75.187969924812,4,1,0,15,0,0
321586,-303.030303030303,4,1,0,15,0,0
321597,-80,4,1,0,15,0,0
321617,-200,4,1,0,15,0,0
321633,-90.0900900900901,4,1,0,15,0,0
321679,-101.010101010101,4,1,0,15,0,0
321695,-113.636363636364,4,1,0,15,0,0
321710,-129.87012987013,4,1,0,15,0,0
321726,-151.515151515152,4,1,0,15,0,0
321803,-45.045045045045,4,1,0,15,0,0
321824,-90.0900900900901,4,1,0,15,0,0
321845,-151.515151515152,4,1,0,15,0,0
321865,-303.030303030303,4,1,0,15,0,0
321881,-625,4,1,0,15,0,0
321896,-200,4,1,0,15,0,0
321927,-45.045045045045,4,1,0,15,0,0
321948,-90.0900900900901,4,1,0,15,0,0
321969,-151.515151515152,4,1,0,15,0,0
321989,-303.030303030303,4,1,0,15,0,0
322005,-625,4,1,0,15,0,0
322020,-200,4,1,0,15,0,0
322051,-53.1914893617021,4,1,0,15,0,0
322067,-113.636363636364,4,1,0,15,0,0
322072,-75.187969924812,4,1,0,15,0,0
322082,-303.030303030303,4,1,0,15,0,0
322093,-80,4,1,0,15,0,0
322113,-200,4,1,0,15,0,0
322129,-90.0900900900901,4,1,0,15,0,0
322175,-101.010101010101,4,1,0,15,0,0
322191,-113.636363636364,4,1,0,15,0,0
322206,-129.87012987013,4,1,0,15,0,0
322222,-151.515151515152,4,1,0,15,0,0
322299,-45.045045045045,4,1,0,15,0,0
322320,-90.0900900900901,4,1,0,15,0,0
322341,-151.515151515152,4,1,0,15,0,0
322361,-303.030303030303,4,1,0,15,0,0
322377,-625,4,1,0,15,0,0
322392,-200,4,1,0,15,0,0
322423,-45.045045045045,4,1,0,15,0,0
322444,-90.0900900900901,4,1,0,15,0,0
322465,-151.515151515152,4,1,0,15,0,0
322485,-303.030303030303,4,1,0,15,0,0
322501,-625,4,1,0,15,0,0
322516,-200,4,1,0,15,0,0
322547,-53.1914893617021,4,1,0,15,0,0
322563,-113.636363636364,4,1,0,15,0,0
322568,-75.187969924812,4,1,0,15,0,0
322578,-303.030303030303,4,1,0,15,0,0
322589,-80,4,1,0,15,0,0
322609,-200,4,1,0,15,0,0
322625,-90.0900900900901,4,1,0,15,0,0
322671,-101.010101010101,4,1,0,15,0,0
322687,-113.636363636364,4,1,0,15,0,0
322702,-129.87012987013,4,1,0,15,0,0
322718,-151.515151515152,4,1,0,15,0,0
322795,-45.045045045045,4,1,0,15,0,0
322816,-90.0900900900901,4,1,0,15,0,0
322837,-151.515151515152,4,1,0,15,0,0
322857,-303.030303030303,4,1,0,15,0,0
322873,-625,4,1,0,15,0,0
322888,-200,4,1,0,15,0,0
322919,-45.045045045045,4,1,0,15,0,0
322940,-90.0900900900901,4,1,0,15,0,0
322961,-151.515151515152,4,1,0,15,0,0
322981,-303.030303030303,4,1,0,15,0,0
322997,-625,4,1,0,15,0,0
323012,-200,4,1,0,15,0,0
323043,-53.1914893617021,4,1,0,15,0,0
323059,-113.636363636364,4,1,0,15,0,0
323064,-75.187969924812,4,1,0,15,0,0
323074,-303.030303030303,4,1,0,15,0,0
323085,-80,4,1,0,15,0,0
323105,-200,4,1,0,15,0,0
323121,-90.0900900900901,4,1,0,15,0,0
323167,-101.010101010101,4,1,0,15,0,0
323183,-113.636363636364,4,1,0,15,0,0
323198,-129.87012987013,4,1,0,15,0,0
323214,-151.515151515152,4,1,0,15,0,0
323228,-66.6666666666667,4,1,0,15,0,0
323290,-101.010101010101,4,1,0,15,0,0
323306,-113.636363636364,4,1,0,15,0,0
323321,-129.87012987013,4,1,0,15,0,0
323337,-151.515151515152,4,1,0,15,0,0
323351,-66.6666666666667,4,1,0,15,0,0
323414,-101.010101010101,4,1,0,15,0,0
323430,-113.636363636364,4,1,0,15,0,0
323445,-129.87012987013,4,1,0,15,0,0
323461,-151.515151515152,4,1,0,15,0,0
323475,-66.6666666666667,4,1,0,15,0,0
323538,-101.010101010101,4,1,0,15,0,0
323554,-113.636363636364,4,1,0,15,0,0
323569,-129.87012987013,4,1,0,15,0,0
323585,-151.515151515152,4,1,0,15,0,0
323599,-66.6666666666667,4,1,0,15,0,0
323662,-101.010101010101,4,1,0,15,0,0
323678,-113.636363636364,4,1,0,15,0,0
323693,-129.87012987013,4,1,0,15,0,0
323709,-151.515151515152,4,1,0,15,0,0
323723,-66.6666666666667,4,1,0,15,0,0
323786,-45.045045045045,4,1,0,15,0,0
323807,-454.545454545455,4,1,0,15,0,0
323828,-90.0900900900901,4,1,0,15,0,0
323848,-151.515151515152,4,1,0,15,0,0
323910,-45.045045045045,4,1,0,15,0,0
323931,-454.545454545455,4,1,0,15,0,0
323952,-90.0900900900901,4,1,0,15,0,0
323972,-151.515151515152,4,1,0,15,0,0
324034,-45.045045045045,4,1,0,15,0,0
324055,-454.545454545455,4,1,0,15,0,0
324076,-90.0900900900901,4,1,0,15,0,0
324096,-151.515151515152,4,1,0,15,0,0
324200,-100,4,1,0,15,0,0
324282,-45.045045045045,4,1,0,15,0,0
324297,-454.545454545455,4,1,0,15,0,0
324313,-45.045045045045,4,1,0,15,0,0
324328,-454.545454545455,4,1,0,15,0,0
324344,-45.045045045045,4,1,0,15,0,0
324359,-454.545454545455,4,1,0,15,0,0
324375,-45.045045045045,4,1,0,15,0,0
324390,-454.545454545455,4,1,0,15,0,0
324406,-45.045045045045,4,1,0,15,0,0
324421,-454.545454545455,4,1,0,15,0,0
324437,-45.045045045045,4,1,0,15,0,0
324452,-454.545454545455,4,1,0,15,0,0
324468,-45.045045045045,4,1,0,15,0,0
324483,-454.545454545455,4,1,0,15,0,0
324499,-45.045045045045,4,1,0,15,0,0
324514,-454.545454545455,4,1,0,15,0,0
324530,-100,4,1,0,15,0,0
331720,-400,4,1,0,15,0,0
331735,-40,4,1,0,15,0,0
331751,-100,4,1,0,15,0,0
331782,-200,4,1,0,15,0,0
331844,-66.6666666666667,4,1,0,15,0,0
331906,-200,4,1,0,15,0,0
331968,-400,4,1,0,15,0,0
331983,-40,4,1,0,15,0,0
331999,-100,4,1,0,15,0,0
332030,-200,4,1,0,15,0,0
332092,-66.6666666666667,4,1,0,15,0,0
332154,-200,4,1,0,15,0,0
332216,-151.515151515152,4,1,0,15,0,0
332232,-75.187969924812,4,1,0,15,0,0
332247,-151.515151515152,4,1,0,15,0,0
332263,-75.187969924812,4,1,0,15,0,0
332278,-151.515151515152,4,1,0,15,0,0
332294,-75.187969924812,4,1,0,15,0,0
332309,-151.515151515152,4,1,0,15,0,0
332325,-75.187969924812,4,1,0,15,0,0
332340,-151.515151515152,4,1,0,15,0,0
332356,-75.187969924812,4,1,0,15,0,0
332371,-151.515151515152,4,1,0,15,0,0
332387,-75.187969924812,4,1,0,15,0,0
332402,-151.515151515152,4,1,0,15,0,0
332418,-75.187969924812,4,1,0,15,0,0
332433,-151.515151515152,4,1,0,15,0,0
332449,-75.187969924812,4,1,0,15,0,0
332464,-151.515151515152,4,1,0,15,0,0
332480,-75.187969924812,4,1,0,15,0,0
332495,-151.515151515152,4,1,0,15,0,0
332511,-75.187969924812,4,1,0,15,0,0
332526,-151.515151515152,4,1,0,15,0,0
332542,-75.187969924812,4,1,0,15,0,0
332557,-151.515151515152,4,1,0,15,0,0
332573,-75.187969924812,4,1,0,15,0,0
332588,-151.515151515152,4,1,0,15,0,0
332604,-75.187969924812,4,1,0,15,0,0
332619,-151.515151515152,4,1,0,15,0,0
332635,-75.187969924812,4,1,0,15,0,0
332650,-151.515151515152,4,1,0,15,0,0
332666,-75.187969924812,4,1,0,15,0,0
332681,-151.515151515152,4,1,0,15,0,0
332697,-75.187969924812,4,1,0,15,0,0
332712,-151.515151515152,4,1,0,15,0,0
332728,-75.187969924812,4,1,0,15,0,0
332743,-151.515151515152,4,1,0,15,0,0
332759,-75.187969924812,4,1,0,15,0,0
332774,-151.515151515152,4,1,0,15,0,0
332790,-75.187969924812,4,1,0,15,0,0
332805,-151.515151515152,4,1,0,15,0,0
332821,-75.187969924812,4,1,0,15,0,0
332836,-151.515151515152,4,1,0,15,0,0
332852,-75.187969924812,4,1,0,15,0,0
332867,-151.515151515152,4,1,0,15,0,0
332883,-75.187969924812,4,1,0,15,0,0
332898,-151.515151515152,4,1,0,15,0,0
332914,-75.187969924812,4,1,0,15,0,0
332929,-151.515151515152,4,1,0,15,0,0
332945,-75.187969924812,4,1,0,15,0,0
332960,-151.515151515152,4,1,0,15,0,0
332976,-75.187969924812,4,1,0,15,0,0
332991,-151.515151515152,4,1,0,15,0,0
333007,-75.187969924812,4,1,0,15,0,0
333022,-151.515151515152,4,1,0,15,0,0
333038,-75.187969924812,4,1,0,15,0,0
333053,-151.515151515152,4,1,0,15,0,0
333069,-75.187969924812,4,1,0,15,0,0
333084,-151.515151515152,4,1,0,15,0,0
333100,-75.187969924812,4,1,0,15,0,0
333115,-151.515151515152,4,1,0,15,0,0
333131,-75.187969924812,4,1,0,15,0,0
333146,-151.515151515152,4,1,0,15,0,0
333162,-75.187969924812,4,1,0,15,0,0
333177,-151.515151515152,4,1,0,15,0,0
333193,-75.187969924812,4,1,0,15,0,0
333208,-75.187969924812,4,1,0,15,0,0
333239,-133.333333333333,4,1,0,15,0,0
333270,-75.187969924812,4,1,0,15,0,0
333301,-133.333333333333,4,1,0,15,0,0
333332,-75.187969924812,4,1,0,15,0,0
333363,-133.333333333333,4,1,0,15,0,0
333394,-75.187969924812,4,1,0,15,0,0
333425,-133.333333333333,4,1,0,15,0,0
333456,-75.187969924812,4,1,0,15,0,0
333487,-133.333333333333,4,1,0,15,0,0
333518,-75.187969924812,4,1,0,15,0,0
333549,-133.333333333333,4,1,0,15,0,0
333580,-75.187969924812,4,1,0,15,0,0
333611,-133.333333333333,4,1,0,15,0,0
333642,-75.187969924812,4,1,0,15,0,0
333673,-133.333333333333,4,1,0,15,0,0
333704,-75.187969924812,4,1,0,15,0,0
333735,-133.333333333333,4,1,0,15,0,0
333766,-75.187969924812,4,1,0,15,0,0
333797,-133.333333333333,4,1,0,15,0,0
333828,-75.187969924812,4,1,0,15,0,0
333859,-133.333333333333,4,1,0,15,0,0
333890,-75.187969924812,4,1,0,15,0,0
333921,-133.333333333333,4,1,0,15,0,0
333952,-75.187969924812,4,1,0,15,0,0
333983,-133.333333333333,4,1,0,15,0,0
334014,-75.187969924812,4,1,0,15,0,0
334045,-133.333333333333,4,1,0,15,0,0
334076,-75.187969924812,4,1,0,15,0,0
334107,-133.333333333333,4,1,0,15,0,0
334138,-75.187969924812,4,1,0,15,0,0
334169,-133.333333333333,4,1,0,15,0,0
334200,-80,4,1,0,15,0,0
334262,-133.333333333333,4,1,0,15,0,0
334306,-131.578947368421,4,1,0,15,0,0
334351,-129.87012987013,4,1,0,15,0,0
334395,-128.205128205128,4,1,0,15,0,0
334440,-126.582278481013,4,1,0,15,0,0
334484,-125,4,1,0,15,0,0
334529,-121.951219512195,4,1,0,15,0,0
334573,-120.481927710843,4,1,0,15,0,0
334618,-119.047619047619,4,1,0,15,0,0
334662,-117.647058823529,4,1,0,15,0,0
334707,-116.279069767442,4,1,0,15,0,0
334751,-114.942528735632,4,1,0,15,0,0
334796,-113.636363636364,4,1,0,15,0,0
334840,-112.359550561798,4,1,0,15,0,0
334885,-111.111111111111,4,1,0,15,0,0
334929,-109.89010989011,4,1,0,15,0,0
334974,-107.52688172043,4,1,0,15,0,0
335019,-106.382978723404,4,1,0,15,0,0
335063,-105.263157894737,4,1,0,15,0,0
335108,-104.166666666667,4,1,0,15,0,0
335152,-103.092783505155,4,1,0,15,0,0
335197,-102.040816326531,4,1,0,15,0,0
335241,-101.010101010101,4,1,0,15,0,0
335286,-100,4,1,0,15,0,0
335330,-99.009900990099,4,1,0,15,0,0
335375,-98.0392156862745,4,1,0,15,0,0
335419,-97.0873786407767,4,1,0,15,0,0
335464,-95.2380952380952,4,1,0,15,0,0
335508,-94.3396226415094,4,1,0,15,0,0
335553,-93.4579439252336,4,1,0,15,0,0
335597,-92.5925925925926,4,1,0,15,0,0
335642,-91.743119266055,4,1,0,15,0,0
335687,-90.9090909090909,4,1,0,15,0,0
335935,-50,4,1,0,15,0,0
335997,-200,4,1,0,15,0,0
336059,-50,4,1,0,15,0,0
336121,-200,4,1,0,15,0,0
336183,-100,4,1,0,15,0,0
352051,-200,4,1,0,15,0,0
352066,-50,4,1,0,15,0,0
352082,-133.333333333333,4,1,0,15,0,0
352175,-400,4,1,0,15,0,0
352190,-50,4,1,0,15,0,0
352206,-100,4,1,0,15,0,0
352299,-200,4,1,0,15,0,0
352314,-50,4,1,0,15,0,0
352330,-133.333333333333,4,1,0,15,0,0
352423,-400,4,1,0,15,0,0
352438,-50,4,1,0,15,0,0
352454,-100,4,1,0,15,0,0
352547,-200,4,1,0,15,0,0
352562,-50,4,1,0,15,0,0
352578,-133.333333333333,4,1,0,15,0,0
352671,-400,4,1,0,15,0,0
352686,-50,4,1,0,15,0,0
352702,-100,4,1,0,15,0,0
352795,-200,4,1,0,15,0,0
352810,-50,4,1,0,15,0,0
352826,-133.333333333333,4,1,0,15,0,0
352919,-400,4,1,0,15,0,0
352934,-50,4,1,0,15,0,0
352950,-100,4,1,0,15,0,0
354034,-200,4,1,0,15,0,0
354049,-50,4,1,0,15,0,0
354065,-133.333333333333,4,1,0,15,0,0
354158,-400,4,1,0,15,0,0
354173,-50,4,1,0,15,0,0
354189,-100,4,1,0,15,0,0
354282,-200,4,1,0,15,0,0
354297,-50,4,1,0,15,0,0
354313,-133.333333333333,4,1,0,15,0,0
354406,-400,4,1,0,15,0,0
354421,-50,4,1,0,15,0,0
354437,-100,4,1,0,15,0,0
354530,-200,4,1,0,15,0,0
354545,-50,4,1,0,15,0,0
354561,-133.333333333333,4,1,0,15,0,0
354654,-400,4,1,0,15,0,0
354669,-50,4,1,0,15,0,0
354685,-100,4,1,0,15,0,0
354778,-200,4,1,0,15,0,0
354793,-50,4,1,0,15,0,0
354809,-133.333333333333,4,1,0,15,0,0
354902,-400,4,1,0,15,0,0
354917,-50,4,1,0,15,0,0
354933,-100,4,1,0,15,0,0
355026,-200,4,1,0,15,0,0
355041,-50,4,1,0,15,0,0
355057,-133.333333333333,4,1,0,15,0,0
355150,-400,4,1,0,15,0,0
355165,-50,4,1,0,15,0,0
355181,-100,4,1,0,15,0,0
355274,-200,4,1,0,15,0,0
355289,-50,4,1,0,15,0,0
355305,-133.333333333333,4,1,0,15,0,0
355398,-400,4,1,0,15,0,0
355413,-50,4,1,0,15,0,0
355429,-100,4,1,0,15,0,0
355522,-200,4,1,0,15,0,0
355537,-50,4,1,0,15,0,0
355553,-133.333333333333,4,1,0,15,0,0
355646,-400,4,1,0,15,0,0
355661,-50,4,1,0,15,0,0
355677,-100,4,1,0,15,0,0
355770,-200,4,1,0,15,0,0
355785,-50,4,1,0,15,0,0
355801,-133.333333333333,4,1,0,15,0,0
355894,-400,4,1,0,15,0,0
355909,-50,4,1,0,15,0,0
355925,-100,4,1,0,15,0,0
356018,-76.9230769230769,4,1,0,15,0,0
356059,-142.857142857143,4,1,0,15,0,0
356142,-76.9230769230769,4,1,0,15,0,0
356183,-142.857142857143,4,1,0,15,0,0
356266,-76.9230769230769,4,1,0,15,0,0
356307,-142.857142857143,4,1,0,15,0,0
356390,-100,4,1,0,15,0,0
358001,-57.1428571428571,4,1,0,15,0,0
358042,-200,4,1,0,15,0,0
358125,-57.1428571428571,4,1,0,15,0,0
358166,-200,4,1,0,15,0,0
358249,-100,4,1,0,15,0,0
358373,-50,4,1,0,15,0,0
358404,-200,4,1,0,15,0,0
358435,-50,4,1,0,15,0,0
358466,-200,4,1,0,15,0,0
358497,-50,4,1,0,15,0,0
358559,-133.333333333333,4,1,0,15,0,0
358621,-50,4,1,0,15,0,0
358683,-133.333333333333,4,1,0,15,0,0
358745,-50,4,1,0,15,0,0
358807,-133.333333333333,4,1,0,15,0,0
358869,-10.01001001001,4,1,0,15,0,0
358885,-1111.11111111111,4,1,0,15,0,0
358900,-15.015015015015,4,1,0,15,0,0
358916,-909.090909090909,4,1,0,15,0,0
358931,-30.03003003003,4,1,0,15,0,0
358947,-454.545454545455,4,1,0,15,0,0
358962,-60.2409638554217,4,1,0,15,0,0
358978,-303.030303030303,4,1,0,15,0,0
358993,-75.187969924812,4,1,0,15,0,0
359009,-227.272727272727,4,1,0,15,0,0
359024,-86.2068965517241,4,1,0,15,0,0
359040,-181.818181818182,4,1,0,15,0,0
359055,-92.5925925925926,4,1,0,15,0,0
359071,-151.515151515152,4,1,0,15,0,0
359086,-303.030303030303,4,1,0,15,0,0
359117,-10.01001001001,4,1,0,15,0,0
359133,-1111.11111111111,4,1,0,15,0,0
359148,-15.015015015015,4,1,0,15,0,0
359164,-909.090909090909,4,1,0,15,0,0
359179,-30.03003003003,4,1,0,15,0,0
359195,-454.545454545455,4,1,0,15,0,0
359210,-60.2409638554217,4,1,0,15,0,0
359226,-303.030303030303,4,1,0,15,0,0
359241,-75.187969924812,4,1,0,15,0,0
359257,-227.272727272727,4,1,0,15,0,0
359272,-86.2068965517241,4,1,0,15,0,0
359288,-181.818181818182,4,1,0,15,0,0
359303,-92.5925925925926,4,1,0,15,0,0
359319,-151.515151515152,4,1,0,15,0,0
359334,-303.030303030303,4,1,0,15,0,0
359365,-10.01001001001,4,1,0,15,0,0
359381,-1111.11111111111,4,1,0,15,0,0
359396,-15.015015015015,4,1,0,15,0,0
359412,-909.090909090909,4,1,0,15,0,0
359427,-30.03003003003,4,1,0,15,0,0
359443,-454.545454545455,4,1,0,15,0,0
359458,-60.2409638554217,4,1,0,15,0,0
359474,-303.030303030303,4,1,0,15,0,0
359489,-75.187969924812,4,1,0,15,0,0
359505,-227.272727272727,4,1,0,15,0,0
359520,-86.2068965517241,4,1,0,15,0,0
359536,-181.818181818182,4,1,0,15,0,0
359551,-92.5925925925926,4,1,0,15,0,0
359567,-151.515151515152,4,1,0,15,0,0
359582,-303.030303030303,4,1,0,15,0,0
359613,-45.045045045045,4,1,0,15,0,0
359634,-454.545454545455,4,1,0,15,0,0
359655,-90.0900900900901,4,1,0,15,0,0
359675,-151.515151515152,4,1,0,15,0,0
359737,-45.045045045045,4,1,0,15,0,0
359758,-454.545454545455,4,1,0,15,0,0
359779,-90.0900900900901,4,1,0,15,0,0
359799,-151.515151515152,4,1,0,15,0,0
359861,-100,4,1,0,15,0,0

[HitObjects]
475,192,2960,128,0,9902:0:0:0:0:
256,192,2960,1,0,0:0:0:0:
256,192,3084,1,0,0:0:0:0:
402,192,3208,1,0,0:0:0:0:
329,192,3456,1,0,0:0:0:0:
256,192,3704,1,0,0:0:0:0:
182,192,3828,1,0,0:0:0:0:
182,192,4076,1,0,0:0:0:0:
109,192,4323,128,0,4571:0:0:0:0:
256,192,4571,1,0,0:0:0:0:
182,192,4695,1,0,0:0:0:0:
109,192,4819,1,0,0:0:0:0:
256,192,4943,1,0,0:0:0:0:
256,192,5067,1,0,0:0:0:0:
402,192,5191,1,0,0:0:0:0:
329,192,5439,1,0,0:0:0:0:
256,192,5687,1,0,0:0:0:0:
182,192,5811,1,0,0:0:0:0:
182,192,6059,1,0,0:0:0:0:
109,192,6307,128,0,6555:0:0:0:0:
256,192,6555,1,0,0:0:0:0:
182,192,6679,1,0,0:0:0:0:
109,192,6803,1,0,0:0:0:0:
182,192,6927,1,0,0:0:0:0:
182,192,7051,1,0,0:0:0:0:
329,192,7175,1,0,0:0:0:0:
256,192,7423,1,0,0:0:0:0:
182,192,7671,1,0,0:0:0:0:
109,192,7795,1,0,0:0:0:0:
109,192,8042,1,0,0:0:0:0:
36,192,8290,128,0,8538:0:0:0:0:
182,192,8538,1,0,0:0:0:0:
109,192,8662,1,0,0:0:0:0:
36,192,8786,1,0,0:0:0:0:
182,192,8910,1,0,0:0:0:0:
182,192,9034,1,0,0:0:0:0:
329,192,9158,1,0,0:0:0:0:
256,192,9406,1,0,0:0:0:0:
182,192,9654,1,0,0:0:0:0:
109,192,9778,1,0,0:0:0:0:
256,192,9902,1,0,0:0:0:0:
329,192,9902,1,0,0:0:0:0:
402,192,9902,1,0,0:0:0:0:
182,192,10026,1,0,0:0:0:0:
329,192,10026,1,0,0:0:0:0:
475,192,10026,1,0,0:0:0:0:
402,192,10026,1,0,0:0:0:0:
475,192,10150,1,0,0:0:0:0:
402,192,10150,1,0,0:0:0:0:
329,192,10150,1,0,0:0:0:0:
109,192,10150,1,0,0:0:0:0:
36,192,10274,128,0,10522:0:0:0:0:
329,192,10274,1,0,0:0:0:0:
402,192,10274,1,0,0:0:0:0:
475,192,10274,1,0,0:0:0:0:
475,192,10398,1,0,0:0:0:0:
402,192,10398,1,0,0:0:0:0:
329,192,10398,1,0,0:0:0:0:
182,192,10522,1,0,0:0:0:0:
475,192,10522,1,0,0:0:0:0:
402,192,10522,1,0,0:0:0:0:
329,192,10522,1,0,0:0:0:0:
109,192,10646,1,0,0:0:0:0:
256,192,10646,1,0,0:0:0:0:
329,192,10646,1,0,0:0:0:0:
402,192,10646,1,0,0:0:0:0:
36,192,10770,1,0,0:0:0:0:
329,192,10770,1,0,0:0:0:0:
256,192,10770,1,0,0:0:0:0:
182,192,10770,1,0,0:0:0:0:
36,192,10894,128,0,10925:0:0:0:0:
109,192,10894,128,0,10956:0:0:0:0:
182,192,10894,128,0,10987:0:0:0:0:
256,192,10894,128,0,11018:0:0:0:0:
329,192,11018,1,0,0:0:0:0:
475,192,11142,1,0,0:0:0:0:
402,192,11390,1,0,0:0:0:0:
329,192,11762,1,0,0:0:0:0:
256,192,12009,1,0,0:0:0:0:
182,192,12257,1,0,0:0:0:0:
182,192,12505,1,0,0:0:0:0:
256,192,12505,128,0,12536:0:0:0:0:
329,192,12505,128,0,12567:0:0:0:0:
402,192,12505,128,0,12598:0:0:0:0:
475,192,12505,128,0,12629:0:0:0:0:
109,192,12629,1,0,0:0:0:0:
36,192,12753,1,0,0:0:0:0:
182,192,12877,1,0,0:0:0:0:
475,192,12877,128,0,12908:0:0:0:0:
402,192,12877,128,0,12939:0:0:0:0:
329,192,12877,128,0,12970:0:0:0:0:
256,192,12877,128,0,13001:0:0:0:0:
109,192,13001,1,0,0:0:0:0:
475,192,13001,1,0,0:0:0:0:
36,192,13125,1,0,0:0:0:0:
329,192,13125,128,0,13187:0:0:0:0:
402,192,13125,128,0,13218:0:0:0:0:
256,192,13125,128,0,13156:0:0:0:0:
475,192,13125,128,0,13249:0:0:0:0:
109,192,13373,1,0,0:0:0:0:
182,192,13745,1,0,0:0:0:0:
256,192,13993,1,0,0:0:0:0:
329,192,14241,1,0,0:0:0:0:
109,192,14489,128,0,14582:0:0:0:0:
36,192,14489,128,0,14613:0:0:0:0:
256,192,14489,128,0,14520:0:0:0:0:
182,192,14489,128,0,14551:0:0:0:0:
329,192,14489,1,0,0:0:0:0:
402,192,14613,1,0,0:0:0:0:
475,192,14737,1,0,0:0:0:0:
182,192,14861,128,0,14954:0:0:0:0:
256,192,14861,128,0,14985:0:0:0:0:
36,192,14861,128,0,14892:0:0:0:0:
109,192,14861,128,0,14923:0:0:0:0:
329,192,14861,1,0,0:0:0:0:
329,192,14985,1,0,0:0:0:0:
475,192,15109,1,0,0:0:0:0:
402,192,15357,1,0,0:0:0:0:
329,192,15728,1,0,0:0:0:0:
256,192,15976,1,0,0:0:0:0:
182,192,16224,1,0,0:0:0:0:
182,192,16472,1,0,0:0:0:0:
329,192,16472,128,0,16534:0:0:0:0:
402,192,16472,128,0,16565:0:0:0:0:
475,192,16472,128,0,16596:0:0:0:0:
256,192,16472,128,0,16503:0:0:0:0:
109,192,16596,1,0,0:0:0:0:
36,192,16720,1,0,0:0:0:0:
475,192,16844,128,0,16875:0:0:0:0:
402,192,16844,128,0,16906:0:0:0:0:
256,192,16844,128,0,16968:0:0:0:0:
329,192,16844,128,0,16937:0:0:0:0:
475,192,16968,1,0,0:0:0:0:
402,192,17092,1,0,0:0:0:0:
182,192,17340,128,0,17433:0:0:0:0:
256,192,17340,128,0,17464:0:0:0:0:
36,192,17340,128,0,17371:0:0:0:0:
109,192,17340,128,0,17402:0:0:0:0:
329,192,17340,1,0,0:0:0:0:
256,192,17712,128,0,17836:0:0:0:0:
475,192,17712,128,0,17743:0:0:0:0:
402,192,17712,128,0,17774:0:0:0:0:
329,192,17712,128,0,17805:0:0:0:0:
182,192,17712,1,0,0:0:0:0:
109,192,17836,1,0,0:0:0:0:
36,192,17836,1,0,0:0:0:0:
36,192,17960,1,0,0:0:0:0:
109,192,17960,1,0,0:0:0:0:
475,192,17960,128,0,17991:0:0:0:0:
402,192,17960,128,0,18022:0:0:0:0:
329,192,17960,128,0,18053:0:0:0:0:
109,192,18084,1,0,0:0:0:0:
36,192,18084,1,0,0:0:0:0:
36,192,18208,1,0,0:0:0:0:
109,192,18208,1,0,0:0:0:0:
475,192,18208,128,0,18270:0:0:0:0:
402,192,18239,128,0,18301:0:0:0:0:
329,192,18270,128,0,18332:0:0:0:0:
109,192,18332,1,0,0:0:0:0:
36,192,18332,1,0,0:0:0:0:
402,192,18456,128,0,18487:0:0:0:0:
329,192,18456,128,0,18518:0:0:0:0:
182,192,18456,128,0,18549:0:0:0:0:
109,192,18456,128,0,18580:0:0:0:0:
402,192,18580,1,0,0:0:0:0:
475,192,18580,1,0,0:0:0:0:
256,192,18580,1,0,0:0:0:0:
402,192,18704,1,0,0:0:0:0:
475,192,18704,1,0,0:0:0:0:
475,192,18828,1,0,0:0:0:0:
402,192,18828,1,0,0:0:0:0:
109,192,18828,128,0,20067:0:0:0:0:
36,192,18828,128,0,20315:0:0:0:0:
256,192,18828,1,0,0:0:0:0:
256,192,18952,1,0,0:0:0:0:
402,192,19076,1,0,0:0:0:0:
182,192,19323,128,0,19354:0:0:0:0:
329,192,19323,128,0,19354:0:0:0:0:
256,192,19323,1,0,0:0:0:0:
475,192,19447,1,0,0:0:0:0:
402,192,19509,1,0,0:0:0:0:
329,192,19571,1,0,0:0:0:0:
256,192,19633,1,0,0:0:0:0:
182,192,19695,1,0,0:0:0:0:
402,192,19757,1,0,0:0:0:0:
329,192,19819,1,0,0:0:0:0:
256,192,19881,1,0,0:0:0:0:
475,192,19943,1,0,0:0:0:0:
402,192,20005,1,0,0:0:0:0:
329,192,20067,1,0,0:0:0:0:
182,192,20129,1,0,0:0:0:0:
109,192,20191,1,0,0:0:0:0:
256,192,20253,1,0,0:0:0:0:
182,192,20315,1,0,0:0:0:0:
329,192,20315,128,0,20346:0:0:0:0:
475,192,20315,128,0,20346:0:0:0:0:
402,192,20315,1,0,0:0:0:0:
109,192,20377,1,0,0:0:0:0:
402,192,20439,1,0,0:0:0:0:
475,192,20439,1,0,0:0:0:0:
329,192,20439,1,0,0:0:0:0:
36,192,20439,1,0,0:0:0:0:
256,192,20501,1,0,0:0:0:0:
182,192,20563,1,0,0:0:0:0:
109,192,20625,1,0,0:0:0:0:
182,192,20687,1,0,0:0:0:0:
256,192,20749,1,0,0:0:0:0:
182,192,20811,128,0,20935:0:0:0:0:
109,192,20811,128,0,20935:0:0:0:0:
36,192,20811,128,0,20935:0:0:0:0:
329,192,20811,1,0,0:0:0:0:
475,192,20811,1,0,0:0:0:0:
402,192,20935,1,0,0:0:0:0:
329,192,21059,1,0,0:0:0:0:
182,192,21059,128,0,21555:0:0:0:0:
109,192,21059,128,0,21803:0:0:0:0:
36,192,21059,128,0,22051:0:0:0:0:
475,192,21059,1,0,0:0:0:0:
402,192,21059,1,0,0:0:0:0:
402,192,21307,1,0,0:0:0:0:
329,192,21307,128,0,21338:0:0:0:0:
475,192,21307,128,0,21338:0:0:0:0:
256,192,21431,1,0,0:0:0:0:
329,192,21555,1,0,0:0:0:0:
475,192,21555,1,0,0:0:0:0:
182,192,21679,1,0,0:0:0:0:
256,192,21803,1,0,0:0:0:0:
402,192,21803,1,0,0:0:0:0:
109,192,21927,1,0,0:0:0:0:
182,192,22051,1,0,0:0:0:0:
329,192,22051,1,0,0:0:0:0:
36,192,22175,1,0,0:0:0:0:
109,192,22299,1,0,0:0:0:0:
256,192,22299,1,0,0:0:0:0:
475,192,22299,128,0,22330:0:0:0:0:
329,192,22299,128,0,22330:0:0:0:0:
402,192,22299,1,0,0:0:0:0:
329,192,22423,128,0,22795:0:0:0:0:
475,192,22423,128,0,22795:0:0:0:0:
402,192,22423,1,0,0:0:0:0:
182,192,22423,1,0,0:0:0:0:
36,192,22423,1,0,0:0:0:0:
256,192,22547,1,0,0:0:0:0:
182,192,22671,1,0,0:0:0:0:
109,192,22795,1,0,0:0:0:0:
256,192,22795,128,0,23290:0:0:0:0:
402,192,22795,128,0,23538:0:0:0:0:
182,192,22795,1,0,0:0:0:0:
36,192,22795,1,0,0:0:0:0:
109,192,22919,1,0,0:0:0:0:
182,192,23042,1,0,0:0:0:0:
109,192,23290,1,0,0:0:0:0:
329,192,23290,128,0,23321:0:0:0:0:
475,192,23290,128,0,23321:0:0:0:0:
256,192,23538,1,0,0:0:0:0:
182,192,23538,1,0,0:0:0:0:
36,192,23662,1,0,0:0:0:0:
256,192,23786,1,0,0:0:0:0:
329,192,23786,1,0,0:0:0:0:
109,192,23910,1,0,0:0:0:0:
329,192,24034,1,0,0:0:0:0:
402,192,24034,1,0,0:0:0:0:
182,192,24158,1,0,0:0:0:0:
329,192,24282,128,0,24313:0:0:0:0:
475,192,24282,128,0,24313:0:0:0:0:
256,192,24406,1,0,0:0:0:0:
182,192,24406,1,0,0:0:0:0:
109,192,24406,1,0,0:0:0:0:
36,192,24406,1,0,0:0:0:0:
329,192,24530,1,0,0:0:0:0:
402,192,24654,1,0,0:0:0:0:
475,192,24778,1,0,0:0:0:0:
329,192,24778,1,0,0:0:0:0:
36,192,24778,1,0,0:0:0:0:
256,192,24778,1,0,0:0:0:0:
182,192,24902,1,0,0:0:0:0:
109,192,25026,1,0,0:0:0:0:
402,192,25274,1,0,0:0:0:0:
256,192,25274,1,0,0:0:0:0:
182,192,25274,1,0,0:0:0:0:
109,192,25274,1,0,0:0:0:0:
329,192,25274,1,0,0:0:0:0:
475,192,25646,1,0,0:0:0:0:
402,192,25646,1,0,0:0:0:0:
329,192,25646,1,0,0:0:0:0:
182,192,25646,1,0,0:0:0:0:
109,192,25646,1,0,0:0:0:0:
36,192,25646,1,0,0:0:0:0:
256,192,25894,1,0,0:0:0:0:
256,192,26018,1,0,0:0:0:0:
402,192,26142,1,0,0:0:0:0:
329,192,26142,1,0,0:0:0:0:
475,192,26142,1,0,0:0:0:0:
109,192,26204,1,0,0:0:0:0:
182,192,26204,1,0,0:0:0:0:
36,192,26204,1,0,0:0:0:0:
329,192,26266,1,0,0:0:0:0:
475,192,26266,1,0,0:0:0:0:
402,192,26266,1,0,0:0:0:0:
329,192,26390,1,0,0:0:0:0:
256,192,26390,1,0,0:0:0:0:
182,192,26390,1,0,0:0:0:0:
182,192,26514,1,0,0:0:0:0:
109,192,26514,1,0,0:0:0:0:
36,192,26514,1,0,0:0:0:0:
256,192,26762,1,0,0:0:0:0:
109,192,26762,1,0,0:0:0:0:
36,192,26762,1,0,0:0:0:0:
402,192,26762,1,0,0:0:0:0:
475,192,26762,1,0,0:0:0:0:
182,192,26885,1,0,0:0:0:0:
36,192,26885,128,0,27629:0:0:0:0:
329,192,26885,1,0,0:0:0:0:
109,192,27009,1,0,0:0:0:0:
402,192,27009,1,0,0:0:0:0:
402,192,27133,1,0,0:0:0:0:
402,192,27257,1,0,0:0:0:0:
475,192,27257,128,0,28125:0:0:0:0:
109,192,27257,1,0,0:0:0:0:
256,192,27257,1,0,0:0:0:0:
402,192,27381,1,0,0:0:0:0:
329,192,27505,1,0,0:0:0:0:
256,192,27629,1,0,0:0:0:0:
109,192,27753,1,0,0:0:0:0:
182,192,27753,1,0,0:0:0:0:
36,192,27753,128,0,28621:0:0:0:0:
109,192,27877,1,0,0:0:0:0:
256,192,27877,1,0,0:0:0:0:
109,192,28001,1,0,0:0:0:0:
329,192,28001,1,0,0:0:0:0:
182,192,28125,1,0,0:0:0:0:
402,192,28125,1,0,0:0:0:0:
329,192,28249,1,0,0:0:0:0:
402,192,28249,1,0,0:0:0:0:
475,192,28249,128,0,29117:0:0:0:0:
256,192,28249,1,0,0:0:0:0:
402,192,28373,1,0,0:0:0:0:
256,192,28373,1,0,0:0:0:0:
329,192,28497,1,0,0:0:0:0:
182,192,28497,1,0,0:0:0:0:
109,192,28621,1,0,0:0:0:0:
256,192,28621,1,0,0:0:0:0:
256,192,28745,1,0,0:0:0:0:
36,192,28745,128,0,29613:0:0:0:0:
402,192,28745,1,0,0:0:0:0:
182,192,28869,1,0,0:0:0:0:
109,192,28993,1,0,0:0:0:0:
256,192,28993,1,0,0:0:0:0:
182,192,29117,1,0,0:0:0:0:
329,192,29117,1,0,0:0:0:0:
256,192,29241,1,0,0:0:0:0:
402,192,29241,1,0,0:0:0:0:
475,192,29241,128,0,30109:0:0:0:0:
109,192,29241,1,0,0:0:0:0:
182,192,29365,1,0,0:0:0:0:
329,192,29365,1,0,0:0:0:0:
402,192,29489,1,0,0:0:0:0:
256,192,29489,1,0,0:0:0:0:
329,192,29613,1,0,0:0:0:0:
109,192,29613,1,0,0:0:0:0:
402,192,29737,1,0,0:0:0:0:
182,192,29737,1,0,0:0:0:0:
36,192,29737,128,0,30481:0:0:0:0:
329,192,29861,1,0,0:0:0:0:
109,192,29861,1,0,0:0:0:0:
182,192,29985,1,0,0:0:0:0:
402,192,29985,1,0,0:0:0:0:
109,192,30109,1,0,0:0:0:0:
329,192,30109,1,0,0:0:0:0:
402,192,30233,1,0,0:0:0:0:
329,192,30233,1,0,0:0:0:0:
475,192,30233,128,0,30976:0:0:0:0:
182,192,30233,1,0,0:0:0:0:
109,192,30357,1,0,0:0:0:0:
329,192,30357,1,0,0:0:0:0:
182,192,30481,1,0,0:0:0:0:
402,192,30481,1,0,0:0:0:0:
109,192,30604,1,0,0:0:0:0:
329,192,30604,1,0,0:0:0:0:
256,192,30728,1,0,0:0:0:0:
36,192,30728,128,0,31720:0:0:0:0:
109,192,30728,1,0,0:0:0:0:
182,192,30728,1,0,0:0:0:0:
402,192,30852,1,0,0:0:0:0:
329,192,30852,1,0,0:0:0:0:
256,192,30852,1,0,0:0:0:0:
109,192,30976,1,0,0:0:0:0:
182,192,30976,1,0,0:0:0:0:
256,192,30976,1,0,0:0:0:0:
256,192,31100,1,0,0:0:0:0:
402,192,31100,1,0,0:0:0:0:
402,192,31224,1,0,0:0:0:0:
475,192,31224,128,0,31720:0:0:0:0:
256,192,31224,1,0,0:0:0:0:
329,192,31348,1,0,0:0:0:0:
182,192,31348,1,0,0:0:0:0:
402,192,31472,1,0,0:0:0:0:
256,192,31472,1,0,0:0:0:0:
109,192,31472,1,0,0:0:0:0:
256,192,31596,1,0,0:0:0:0:
402,192,31596,1,0,0:0:0:0:
109,192,31596,1,0,0:0:0:0:
182,192,31720,1,0,0:0:0:0:
256,192,31720,1,0,0:0:0:0:
475,192,31782,1,0,0:0:0:0:
329,192,31782,1,0,0:0:0:0:
402,192,31782,1,0,0:0:0:0:
109,192,31844,1,0,0:0:0:0:
256,192,31844,1,0,0:0:0:0:
182,192,31844,1,0,0:0:0:0:
329,192,31906,1,0,0:0:0:0:
475,192,31906,1,0,0:0:0:0:
402,192,31906,1,0,0:0:0:0:
36,192,31968,1,0,0:0:0:0:
109,192,31968,1,0,0:0:0:0:
182,192,31968,1,0,0:0:0:0:
475,192,32030,1,0,0:0:0:0:
402,192,32030,1,0,0:0:0:0:
329,192,32030,1,0,0:0:0:0:
182,192,32092,1,0,0:0:0:0:
109,192,32092,1,0,0:0:0:0:
36,192,32092,1,0,0:0:0:0:
475,192,32154,1,0,0:0:0:0:
402,192,32154,1,0,0:0:0:0:
36,192,32216,1,0,0:0:0:0:
109,192,32216,1,0,0:0:0:0:
256,192,32216,1,0,0:0:0:0:
329,192,32278,1,0,0:0:0:0:
182,192,32278,1,0,0:0:0:0:
402,192,32340,1,0,0:0:0:0:
109,192,32340,1,0,0:0:0:0:
475,192,32402,1,0,0:0:0:0:
36,192,32402,1,0,0:0:0:0:
256,192,32464,1,0,0:0:0:0:
182,192,32505,1,0,0:0:0:0:
475,192,32505,1,0,0:0:0:0:
109,192,32547,1,0,0:0:0:0:
402,192,32547,1,0,0:0:0:0:
36,192,32588,1,0,0:0:0:0:
329,192,32588,1,0,0:0:0:0:
256,192,32629,1,0,0:0:0:0:
182,192,32671,1,0,0:0:0:0:
109,192,32712,128,0,32774:0:0:0:0:
402,192,32712,128,0,32774:0:0:0:0:
256,192,32712,128,0,32774:0:0:0:0:
36,192,32712,1,0,0:0:0:0:
475,192,32712,1,0,0:0:0:0:
182,192,32836,128,0,32898:0:0:0:0:
256,192,32836,128,0,32898:0:0:0:0:
329,192,32836,128,0,32898:0:0:0:0:
109,192,32960,128,0,33022:0:0:0:0:
402,192,32960,128,0,33022:0:0:0:0:
329,192,33208,128,0,33270:0:0:0:0:
182,192,33208,128,0,33270:0:0:0:0:
475,192,33580,128,0,33642:0:0:0:0:
256,192,33580,128,0,33642:0:0:0:0:
402,192,33828,128,0,33890:0:0:0:0:
182,192,33828,128,0,33890:0:0:0:0:
329,192,34076,128,0,34138:0:0:0:0:
109,192,34076,128,0,34138:0:0:0:0:
256,192,34323,128,0,34385:0:0:0:0:
182,192,34323,128,0,34385:0:0:0:0:
182,192,34447,128,0,34509:0:0:0:0:
109,192,34447,128,0,34509:0:0:0:0:
109,192,34571,128,0,34633:0:0:0:0:
36,192,34571,128,0,34633:0:0:0:0:
329,192,34695,1,0,0:0:0:0:
109,192,34695,1,0,0:0:0:0:
36,192,34695,1,0,0:0:0:0:
402,192,34695,128,0,34757:0:0:0:0:
475,192,34695,128,0,34757:0:0:0:0:
256,192,34757,1,0,0:0:0:0:
182,192,34819,1,0,0:0:0:0:
329,192,34881,1,0,0:0:0:0:
256,192,34943,1,0,0:0:0:0:
36,192,34943,128,0,35191:0:0:0:0:
475,192,34943,128,0,35005:0:0:0:0:
182,192,34943,1,0,0:0:0:0:
109,192,34943,128,0,35005:0:0:0:0:
402,192,35005,128,0,35067:0:0:0:0:
329,192,35067,128,0,35129:0:0:0:0:
256,192,35129,128,0,35191:0:0:0:0:
182,192,35191,1,0,0:0:0:0:
402,192,35191,128,0,35439:0:0:0:0:
475,192,35191,128,0,35253:0:0:0:0:
109,192,35253,1,0,0:0:0:0:
36,192,35315,1,0,0:0:0:0:
109,192,35377,1,0,0:0:0:0:
182,192,35439,1,0,0:0:0:0:
256,192,35439,128,0,35501:0:0:0:0:
475,192,35439,1,0,0:0:0:0:
329,192,35501,128,0,35563:0:0:0:0:
402,192,35563,128,0,35625:0:0:0:0:
109,192,35563,128,0,35687:0:0:0:0:
36,192,35563,128,0,35687:0:0:0:0:
475,192,35625,128,0,35687:0:0:0:0:
329,192,35687,128,0,35873:0:0:0:0:
402,192,35687,128,0,35749:0:0:0:0:
182,192,35687,128,0,35749:0:0:0:0:
256,192,35749,128,0,35811:0:0:0:0:
475,192,35811,128,0,36059:0:0:0:0:
109,192,35811,128,0,35997:0:0:0:0:
402,192,35873,1,0,0:0:0:0:
36,192,35873,128,0,35935:0:0:0:0:
182,192,35873,128,0,35935:0:0:0:0:
329,192,35935,1,0,0:0:0:0:
256,192,35997,1,0,0:0:0:0:
182,192,36059,1,0,0:0:0:0:
36,192,36059,128,0,36369:0:0:0:0:
402,192,36059,128,0,36307:0:0:0:0:
109,192,36121,1,0,0:0:0:0:
475,192,36183,128,0,36245:0:0:0:0:
329,192,36183,128,0,36245:0:0:0:0:
256,192,36183,1,0,0:0:0:0:
182,192,36245,1,0,0:0:0:0:
109,192,36307,1,0,0:0:0:0:
329,192,36307,1,0,0:0:0:0:
256,192,36369,128,0,36555:0:0:0:0:
402,192,36369,1,0,0:0:0:0:
182,192,36431,128,0,36493:0:0:0:0:
329,192,36431,128,0,36493:0:0:0:0:
36,192,36431,128,0,36493:0:0:0:0:
475,192,36431,1,0,0:0:0:0:
109,192,36493,128,0,36555:0:0:0:0:
402,192,36493,1,0,0:0:0:0:
182,192,36555,128,0,36617:0:0:0:0:
329,192,36555,1,0,0:0:0:0:
256,192,36617,128,0,36679:0:0:0:0:
329,192,36679,128,0,36741:0:0:0:0:
402,192,36679,128,0,36741:0:0:0:0:
182,192,36679,1,0,0:0:0:0:
36,192,36679,1,0,0:0:0:0:
475,192,36679,128,0,36741:0:0:0:0:
109,192,36741,1,0,0:0:0:0:
182,192,36803,1,0,0:0:0:0:
256,192,36865,1,0,0:0:0:0:
402,192,36927,1,0,0:0:0:0:
182,192,36927,128,0,36989:0:0:0:0:
36,192,36927,128,0,36989:0:0:0:0:
329,192,36927,128,0,36989:0:0:0:0:
475,192,36927,1,0,0:0:0:0:
256,192,36989,128,0,37051:0:0:0:0:
182,192,37051,128,0,37113:0:0:0:0:
109,192,37113,128,0,37175:0:0:0:0:
402,192,37175,128,0,37237:0:0:0:0:
475,192,37175,128,0,37237:0:0:0:0:
256,192,37175,1,0,0:0:0:0:
36,192,37175,1,0,0:0:0:0:
329,192,37237,1,0,0:0:0:0:
402,192,37299,1,0,0:0:0:0:
329,192,37361,1,0,0:0:0:0:
256,192,37423,1,0,0:0:0:0:
109,192,37423,128,0,37485:0:0:0:0:
475,192,37423,1,0,0:0:0:0:
182,192,37485,128,0,37547:0:0:0:0:
36,192,37485,128,0,37857:0:0:0:0:
256,192,37547,128,0,37609:0:0:0:0:
109,192,37547,128,0,37795:0:0:0:0:
329,192,37609,128,0,37671:0:0:0:0:
182,192,37609,128,0,37733:0:0:0:0:
256,192,37671,1,0,0:0:0:0:
402,192,37671,128,0,37733:0:0:0:0:
329,192,37733,128,0,37795:0:0:0:0:
475,192,37733,128,0,38104:0:0:0:0:
256,192,37795,128,0,37857:0:0:0:0:
402,192,37795,128,0,38042:0:0:0:0:
329,192,37857,128,0,37981:0:0:0:0:
182,192,37857,128,0,37919:0:0:0:0:
256,192,37919,1,0,0:0:0:0:
109,192,37919,128,0,37981:0:0:0:0:
36,192,37981,128,0,38352:0:0:0:0:
182,192,37981,128,0,38042:0:0:0:0:
109,192,38042,128,0,38290:0:0:0:0:
256,192,38042,128,0,38104:0:0:0:0:
182,192,38104,128,0,38228:0:0:0:0:
329,192,38104,128,0,38166:0:0:0:0:
256,192,38166,1,0,0:0:0:0:
402,192,38166,128,0,38228:0:0:0:0:
475,192,38228,128,0,38352:0:0:0:0:
329,192,38228,128,0,38290:0:0:0:0:
256,192,38290,128,0,38352:0:0:0:0:
402,192,38290,128,0,38414:0:0:0:0:
329,192,38352,128,0,38476:0:0:0:0:
182,192,38352,128,0,38414:0:0:0:0:
256,192,38414,1,0,0:0:0:0:
36,192,38414,128,0,38476:0:0:0:0:
475,192,38414,1,0,0:0:0:0:
109,192,38476,128,0,38538:0:0:0:0:
402,192,38476,1,0,0:0:0:0:
182,192,38538,128,0,38600:0:0:0:0:
329,192,38538,1,0,0:0:0:0:
256,192,38600,128,0,38662:0:0:0:0:
109,192,38662,128,0,38724:0:0:0:0:
36,192,38662,128,0,38724:0:0:0:0:
475,192,38662,1,0,0:0:0:0:
182,192,38662,1,0,0:0:0:0:
256,192,38724,1,0,0:0:0:0:
402,192,38724,1,0,0:0:0:0:
329,192,38786,1,0,0:0:0:0:
256,192,38848,1,0,0:0:0:0:
402,192,38848,1,0,0:0:0:0:
182,192,38910,1,0,0:0:0:0:
475,192,38910,1,0,0:0:0:0:
109,192,38910,128,0,38972:0:0:0:0:
36,192,38910,128,0,38972:0:0:0:0:
329,192,38910,128,0,38972:0:0:0:0:
256,192,38972,128,0,39034:0:0:0:0:
182,192,39034,128,0,39096:0:0:0:0:
109,192,39096,128,0,39158:0:0:0:0:
329,192,39158,1,0,0:0:0:0:
36,192,39158,1,0,0:0:0:0:
475,192,39158,128,0,39220:0:0:0:0:
402,192,39158,128,0,39220:0:0:0:0:
109,192,39220,1,0,0:0:0:0:
256,192,39220,1,0,0:0:0:0:
182,192,39282,1,0,0:0:0:0:
109,192,39344,1,0,0:0:0:0:
256,192,39344,1,0,0:0:0:0:
36,192,39406,1,0,0:0:0:0:
402,192,39406,128,0,39468:0:0:0:0:
329,192,39406,1,0,0:0:0:0:
475,192,39406,128,0,39468:0:0:0:0:
182,192,39406,128,0,39468:0:0:0:0:
256,192,39468,128,0,39530:0:0:0:0:
329,192,39530,128,0,39592:0:0:0:0:
402,192,39592,128,0,39654:0:0:0:0:
475,192,39654,128,0,39840:0:0:0:0:
36,192,39654,1,0,0:0:0:0:
402,192,39716,128,0,39840:0:0:0:0:
109,192,39716,1,0,0:0:0:0:
329,192,39778,128,0,39840:0:0:0:0:
36,192,39778,128,0,39964:0:0:0:0:
182,192,39778,1,0,0:0:0:0:
256,192,39840,1,0,0:0:0:0:
109,192,39840,128,0,39964:0:0:0:0:
182,192,39902,128,0,39964:0:0:0:0:
475,192,39902,128,0,40088:0:0:0:0:
256,192,39964,1,0,0:0:0:0:
402,192,39964,128,0,40088:0:0:0:0:
329,192,40026,128,0,40088:0:0:0:0:
36,192,40026,128,0,40212:0:0:0:0:
256,192,40088,1,0,0:0:0:0:
109,192,40088,128,0,40212:0:0:0:0:
182,192,40150,128,0,40212:0:0:0:0:
475,192,40150,128,0,40336:0:0:0:0:
256,192,40212,1,0,0:0:0:0:
402,192,40212,128,0,40336:0:0:0:0:
329,192,40274,128,0,40336:0:0:0:0:
36,192,40274,128,0,40460:0:0:0:0:
256,192,40336,1,0,0:0:0:0:
109,192,40336,128,0,40460:0:0:0:0:
182,192,40398,128,0,40460:0:0:0:0:
475,192,40398,128,0,40491:0:0:0:0:
402,192,40429,128,0,40491:0:0:0:0:
329,192,40460,128,0,40491:0:0:0:0:
256,192,40460,1,0,0:0:0:0:
36,192,40522,128,0,40615:0:0:0:0:
109,192,40553,128,0,40615:0:0:0:0:
256,192,40584,1,0,0:0:0:0:
182,192,40584,128,0,40615:0:0:0:0:
329,192,40646,128,0,40708:0:0:0:0:
402,192,40646,128,0,40708:0:0:0:0:
36,192,40646,1,0,0:0:0:0:
109,192,40646,1,0,0:0:0:0:
475,192,40708,1,0,0:0:0:0:
402,192,40770,1,0,0:0:0:0:
182,192,40770,128,0,40956:0:0:0:0:
329,192,40832,1,0,0:0:0:0:
256,192,40894,1,0,0:0:0:0:
402,192,40894,128,0,40956:0:0:0:0:
475,192,40894,128,0,40956:0:0:0:0:
109,192,40894,1,0,0:0:0:0:
36,192,40894,1,0,0:0:0:0:
329,192,40956,1,0,0:0:0:0:
402,192,41018,1,0,0:0:0:0:
182,192,41018,128,0,41080:0:0:0:0:
475,192,41080,1,0,0:0:0:0:
182,192,41142,128,0,41204:0:0:0:0:
109,192,41142,128,0,41204:0:0:0:0:
329,192,41142,1,0,0:0:0:0:
402,192,41142,1,0,0:0:0:0:
36,192,41204,1,0,0:0:0:0:
109,192,41266,1,0,0:0:0:0:
329,192,41266,128,0,41452:0:0:0:0:
182,192,41328,1,0,0:0:0:0:
402,192,41390,1,0,0:0:0:0:
109,192,41390,128,0,41452:0:0:0:0:
36,192,41390,128,0,41452:0:0:0:0:
256,192,41390,1,0,0:0:0:0:
475,192,41390,1,0,0:0:0:0:
182,192,41452,1,0,0:0:0:0:
109,192,41514,1,0,0:0:0:0:
329,192,41514,128,0,41576:0:0:0:0:
36,192,41576,1,0,0:0:0:0:
475,192,41638,1,0,0:0:0:0:
402,192,41638,1,0,0:0:0:0:
182,192,41638,1,0,0:0:0:0:
256,192,41638,1,0,0:0:0:0:
256,192,41762,128,0,41823:0:0:0:0:
109,192,41762,1,0,0:0:0:0:
402,192,41762,1,0,0:0:0:0:
402,192,41885,1,0,0:0:0:0:
329,192,41885,1,0,0:0:0:0:
182,192,41885,1,0,0:0:0:0:
109,192,41885,1,0,0:0:0:0:
182,192,42009,128,0,42071:0:0:0:0:
36,192,42009,1,0,0:0:0:0:
329,192,42009,1,0,0:0:0:0:
109,192,42133,1,0,0:0:0:0:
36,192,42133,1,0,0:0:0:0:
256,192,42133,1,0,0:0:0:0:
329,192,42133,1,0,0:0:0:0:
36,192,42257,128,0,42319:0:0:0:0:
256,192,42257,128,0,42319:0:0:0:0:
109,192,42319,128,0,42381:0:0:0:0:
329,192,42319,128,0,42381:0:0:0:0:
182,192,42381,128,0,42443:0:0:0:0:
402,192,42381,128,0,42443:0:0:0:0:
256,192,42443,128,0,42505:0:0:0:0:
475,192,42443,128,0,42505:0:0:0:0:
329,192,42505,128,0,42567:0:0:0:0:
36,192,42505,128,0,42567:0:0:0:0:
402,192,42567,128,0,42629:0:0:0:0:
109,192,42567,128,0,42629:0:0:0:0:
329,192,42629,1,0,0:0:0:0:
256,192,42629,1,0,0:0:0:0:
182,192,42629,1,0,0:0:0:0:
36,192,42629,1,0,0:0:0:0:
475,192,42629,1,0,0:0:0:0:
256,192,42753,1,0,0:0:0:0:
109,192,42753,1,0,0:0:0:0:
402,192,42753,1,0,0:0:0:0:
256,192,42877,1,0,0:0:0:0:
329,192,42877,1,0,0:0:0:0:
182,192,42877,1,0,0:0:0:0:
36,192,42877,128,0,42939:0:0:0:0:
475,192,42877,128,0,42939:0:0:0:0:
109,192,42939,128,0,43001:0:0:0:0:
402,192,42939,128,0,43001:0:0:0:0:
182,192,43001,128,0,43063:0:0:0:0:
329,192,43001,128,0,43063:0:0:0:0:
256,192,43063,128,0,43125:0:0:0:0:
329,192,43125,128,0,43187:0:0:0:0:
182,192,43125,128,0,43187:0:0:0:0:
109,192,43187,128,0,43249:0:0:0:0:
402,192,43187,128,0,43249:0:0:0:0:
36,192,43249,128,0,43373:0:0:0:0:
475,192,43249,128,0,43373:0:0:0:0:
402,192,43311,128,0,43373:0:0:0:0:
109,192,43311,128,0,43373:0:0:0:0:
329,192,43373,128,0,43497:0:0:0:0:
256,192,43373,128,0,43497:0:0:0:0:
182,192,43373,128,0,43497:0:0:0:0:
109,192,43497,1,0,0:0:0:0:
36,192,43497,1,0,0:0:0:0:
402,192,43497,1,0,0:0:0:0:
475,192,43497,1,0,0:0:0:0:
256,192,43621,128,0,43745:0:0:0:0:
109,192,43621,128,0,43745:0:0:0:0:
402,192,43621,128,0,43745:0:0:0:0:
329,192,43745,1,0,0:0:0:0:
182,192,43745,1,0,0:0:0:0:
36,192,43869,128,0,43993:0:0:0:0:
182,192,43869,128,0,43993:0:0:0:0:
329,192,43869,128,0,43993:0:0:0:0:
475,192,43869,128,0,43993:0:0:0:0:
402,192,43993,1,0,0:0:0:0:
256,192,43993,1,0,0:0:0:0:
109,192,43993,1,0,0:0:0:0:
36,192,44117,128,0,44179:0:0:0:0:
475,192,44117,128,0,44179:0:0:0:0:
109,192,44117,128,0,44179:0:0:0:0:
402,192,44117,128,0,44179:0:0:0:0:
256,192,44117,1,0,0:0:0:0:
36,192,44241,1,0,0:0:0:0:
475,192,44241,1,0,0:0:0:0:
109,192,44241,1,0,0:0:0:0:
402,192,44241,1,0,0:0:0:0:
402,192,44365,128,0,44427:0:0:0:0:
329,192,44365,128,0,44427:0:0:0:0:
182,192,44365,128,0,44427:0:0:0:0:
109,192,44365,128,0,44427:0:0:0:0:
256,192,44365,1,0,0:0:0:0:
109,192,44489,1,0,0:0:0:0:
182,192,44489,1,0,0:0:0:0:
329,192,44489,1,0,0:0:0:0:
402,192,44489,1,0,0:0:0:0:
329,192,44613,1,0,0:0:0:0:
256,192,44613,1,0,0:0:0:0:
182,192,44613,1,0,0:0:0:0:
36,192,44613,1,0,0:0:0:0:
475,192,44613,1,0,0:0:0:0:
109,192,44737,1,0,0:0:0:0:
402,192,44737,1,0,0:0:0:0:
256,192,44861,1,0,0:0:0:0:
329,192,44861,1,0,0:0:0:0:
182,192,44861,1,0,0:0:0:0:
36,192,44861,128,0,44923:0:0:0:0:
475,192,44861,128,0,44923:0:0:0:0:
109,192,44923,128,0,44985:0:0:0:0:
402,192,44923,128,0,44985:0:0:0:0:
182,192,44985,128,0,45047:0:0:0:0:
329,192,44985,128,0,45047:0:0:0:0:
256,192,45047,128,0,45109:0:0:0:0:
329,192,45109,128,0,45171:0:0:0:0:
182,192,45109,128,0,45171:0:0:0:0:
109,192,45171,128,0,45233:0:0:0:0:
402,192,45171,128,0,45233:0:0:0:0:
36,192,45233,128,0,45357:0:0:0:0:
475,192,45233,128,0,45357:0:0:0:0:
402,192,45295,128,0,45357:0:0:0:0:
109,192,45295,128,0,45357:0:0:0:0:
329,192,45357,1,0,0:0:0:0:
256,192,45357,1,0,0:0:0:0:
182,192,45357,1,0,0:0:0:0:
109,192,45481,1,0,0:0:0:0:
182,192,45481,1,0,0:0:0:0:
402,192,45481,1,0,0:0:0:0:
256,192,45481,1,0,0:0:0:0:
329,192,45481,1,0,0:0:0:0:
402,192,45728,1,0,0:0:0:0:
329,192,45728,1,0,0:0:0:0:
256,192,45728,1,0,0:0:0:0:
182,192,45728,1,0,0:0:0:0:
109,192,45728,1,0,0:0:0:0:
402,192,45976,1,0,0:0:0:0:
329,192,45976,1,0,0:0:0:0:
256,192,45976,1,0,0:0:0:0:
182,192,45976,1,0,0:0:0:0:
109,192,45976,1,0,0:0:0:0:
475,192,46100,128,0,46142:0:0:0:0:
402,192,46142,128,0,46183:0:0:0:0:
329,192,46183,128,0,46224:0:0:0:0:
256,192,46224,128,0,46266:0:0:0:0:
182,192,46266,128,0,46307:0:0:0:0:
109,192,46307,128,0,46348:0:0:0:0:
36,192,46348,128,0,46390:0:0:0:0:
475,192,46348,128,0,46390:0:0:0:0:
402,192,46348,128,0,46390:0:0:0:0:
329,192,46348,128,0,46390:0:0:0:0:
402,192,46472,128,0,46514:0:0:0:0:
475,192,46472,128,0,46514:0:0:0:0:
109,192,46596,128,0,46658:0:0:0:0:
36,192,46596,128,0,46658:0:0:0:0:
182,192,46596,128,0,46658:0:0:0:0:
256,192,46596,128,0,46658:0:0:0:0:
329,192,46596,128,0,46658:0:0:0:0:
256,192,46720,128,0,46782:0:0:0:0:
109,192,46720,128,0,46782:0:0:0:0:
182,192,46720,128,0,47030:0:0:0:0:
402,192,46844,128,0,46906:0:0:0:0:
475,192,46844,128,0,46906:0:0:0:0:
329,192,46844,128,0,47030:0:0:0:0:
109,192,46968,128,0,47030:0:0:0:0:
256,192,46968,128,0,47030:0:0:0:0:
402,192,46968,128,0,47030:0:0:0:0:
475,192,46968,128,0,47030:0:0:0:0:
256,192,47092,128,0,47154:0:0:0:0:
329,192,47092,128,0,47154:0:0:0:0:
182,192,47092,128,0,47154:0:0:0:0:
109,192,47092,128,0,47154:0:0:0:0:
36,192,47092,128,0,47154:0:0:0:0:
475,192,47092,128,0,47154:0:0:0:0:
109,192,47216,128,0,47278:0:0:0:0:
182,192,47216,128,0,47278:0:0:0:0:
256,192,47216,128,0,47278:0:0:0:0:
402,192,47216,128,0,47278:0:0:0:0:
182,192,47340,128,0,47402:0:0:0:0:
329,192,47340,128,0,47402:0:0:0:0:
109,192,47340,128,0,47402:0:0:0:0:
36,192,47340,128,0,47402:0:0:0:0:
256,192,47464,128,0,47526:0:0:0:0:
36,192,47464,128,0,47526:0:0:0:0:
109,192,47464,128,0,47526:0:0:0:0:
402,192,47588,128,0,47650:0:0:0:0:
475,192,47588,128,0,47650:0:0:0:0:
329,192,47588,128,0,47650:0:0:0:0:
256,192,47588,128,0,47650:0:0:0:0:
182,192,47588,128,0,47650:0:0:0:0:
256,192,47712,128,0,47774:0:0:0:0:
402,192,47712,128,0,47774:0:0:0:0:
329,192,47712,128,0,48022:0:0:0:0:
109,192,47836,128,0,47898:0:0:0:0:
36,192,47836,128,0,47898:0:0:0:0:
182,192,47836,128,0,48022:0:0:0:0:
402,192,47960,128,0,48022:0:0:0:0:
256,192,47960,128,0,48022:0:0:0:0:
109,192,47960,128,0,48022:0:0:0:0:
36,192,47960,128,0,48022:0:0:0:0:
256,192,48084,128,0,48146:0:0:0:0:
182,192,48084,128,0,48146:0:0:0:0:
329,192,48084,128,0,48146:0:0:0:0:
402,192,48084,128,0,48146:0:0:0:0:
475,192,48084,128,0,48146:0:0:0:0:
36,192,48084,128,0,48146:0:0:0:0:
402,192,48208,128,0,48270:0:0:0:0:
329,192,48208,128,0,48270:0:0:0:0:
256,192,48208,128,0,48270:0:0:0:0:
109,192,48208,128,0,48270:0:0:0:0:
329,192,48332,128,0,48394:0:0:0:0:
182,192,48332,128,0,48394:0:0:0:0:
256,192,48456,128,0,48518:0:0:0:0:
109,192,48580,128,0,48642:0:0:0:0:
182,192,48580,128,0,48642:0:0:0:0:
256,192,48580,128,0,48642:0:0:0:0:
329,192,48580,128,0,48642:0:0:0:0:
402,192,48580,128,0,48642:0:0:0:0:
36,192,48580,1,0,0:0:0:0:
475,192,48580,1,0,0:0:0:0:
329,192,48704,128,0,48766:0:0:0:0:
256,192,48704,128,0,48766:0:0:0:0:
182,192,48704,128,0,48766:0:0:0:0:
402,192,48704,1,0,0:0:0:0:
109,192,48704,1,0,0:0:0:0:
182,192,48828,1,0,0:0:0:0:
329,192,48828,1,0,0:0:0:0:
256,192,48828,1,0,0:0:0:0:
182,192,48952,1,0,0:0:0:0:
329,192,48952,1,0,0:0:0:0:
256,192,48952,1,0,0:0:0:0:
109,192,49076,1,0,0:0:0:0:
182,192,49076,1,0,0:0:0:0:
329,192,49076,1,0,0:0:0:0:
402,192,49076,1,0,0:0:0:0:
256,192,49076,128,0,49138:0:0:0:0:
36,192,49076,1,0,0:0:0:0:
475,192,49076,1,0,0:0:0:0:
256,192,49200,128,0,49262:0:0:0:0:
329,192,49200,128,0,49262:0:0:0:0:
182,192,49200,128,0,49262:0:0:0:0:
329,192,49323,1,0,0:0:0:0:
256,192,49323,128,0,49385:0:0:0:0:
109,192,49323,128,0,49385:0:0:0:0:
402,192,49323,128,0,49385:0:0:0:0:
182,192,49323,1,0,0:0:0:0:
182,192,49447,128,0,49509:0:0:0:0:
329,192,49447,128,0,49509:0:0:0:0:
36,192,49447,128,0,49509:0:0:0:0:
475,192,49447,128,0,49509:0:0:0:0:
109,192,49447,1,0,0:0:0:0:
256,192,49447,1,0,0:0:0:0:
402,192,49447,1,0,0:0:0:0:
402,192,49571,1,0,0:0:0:0:
475,192,49571,1,0,0:0:0:0:
109,192,49571,1,0,0:0:0:0:
36,192,49571,1,0,0:0:0:0:
182,192,49602,1,0,0:0:0:0:
256,192,49633,1,0,0:0:0:0:
329,192,49664,1,0,0:0:0:0:
402,192,49695,128,0,49757:0:0:0:0:
475,192,49695,1,0,0:0:0:0:
402,192,49819,1,0,0:0:0:0:
475,192,49819,1,0,0:0:0:0:
182,192,49819,1,0,0:0:0:0:
109,192,49819,1,0,0:0:0:0:
36,192,49819,1,0,0:0:0:0:
329,192,49850,1,0,0:0:0:0:
256,192,49881,1,0,0:0:0:0:
182,192,49912,1,0,0:0:0:0:
109,192,49943,128,0,50005:0:0:0:0:
36,192,49943,1,0,0:0:0:0:
256,192,50067,128,0,50109:0:0:0:0:
182,192,50067,128,0,50150:0:0:0:0:
109,192,50067,128,0,50191:0:0:0:0:
36,192,50067,128,0,50233:0:0:0:0:
475,192,50067,128,0,50315:0:0:0:0:
402,192,50109,128,0,50150:0:0:0:0:
329,192,50150,128,0,50191:0:0:0:0:
256,192,50191,128,0,50233:0:0:0:0:
182,192,50233,128,0,50274:0:0:0:0:
109,192,50274,128,0,50315:0:0:0:0:
402,192,50315,128,0,50357:0:0:0:0:
36,192,50315,128,0,50357:0:0:0:0:
329,192,50357,128,0,50398:0:0:0:0:
256,192,50398,128,0,50439:0:0:0:0:
182,192,50439,128,0,50481:0:0:0:0:
109,192,50481,128,0,50522:0:0:0:0:
36,192,50522,128,0,50563:0:0:0:0:
182,192,50563,128,0,50594:0:0:0:0:
256,192,50563,128,0,50594:0:0:0:0:
329,192,50563,128,0,50594:0:0:0:0:
402,192,50563,128,0,50594:0:0:0:0:
475,192,50563,128,0,50997:0:0:0:0:
329,192,50687,128,0,50718:0:0:0:0:
402,192,50687,128,0,50718:0:0:0:0:
402,192,50811,128,0,50997:0:0:0:0:
329,192,50811,128,0,50997:0:0:0:0:
475,192,51059,1,0,0:0:0:0:
402,192,51059,1,0,0:0:0:0:
329,192,51059,1,0,0:0:0:0:
182,192,51059,1,0,0:0:0:0:
109,192,51059,1,0,0:0:0:0:
36,192,51059,1,0,0:0:0:0:
256,192,51183,128,0,51214:0:0:0:0:
182,192,51183,128,0,51214:0:0:0:0:
256,192,51307,128,0,51338:0:0:0:0:
329,192,51307,128,0,51338:0:0:0:0:
329,192,51431,128,0,51462:0:0:0:0:
402,192,51431,128,0,51462:0:0:0:0:
36,192,51431,128,0,51586:0:0:0:0:
109,192,51462,128,0,51586:0:0:0:0:
182,192,51493,128,0,51586:0:0:0:0:
256,192,51524,128,0,51586:0:0:0:0:
182,192,51679,128,0,51710:0:0:0:0:
475,192,51679,128,0,51834:0:0:0:0:
109,192,51679,128,0,51710:0:0:0:0:
402,192,51710,128,0,51834:0:0:0:0:
329,192,51741,128,0,51834:0:0:0:0:
256,192,51772,128,0,51834:0:0:0:0:
402,192,51927,128,0,52082:0:0:0:0:
329,192,51958,128,0,52113:0:0:0:0:
256,192,51989,128,0,52144:0:0:0:0:
182,192,52020,128,0,52175:0:0:0:0:
109,192,52051,128,0,52206:0:0:0:0:
402,192,52175,128,0,52206:0:0:0:0:
36,192,52175,128,0,52206:0:0:0:0:
475,192,52175,128,0,52206:0:0:0:0:
402,192,52299,128,0,52330:0:0:0:0:
329,192,52299,128,0,52330:0:0:0:0:
36,192,52299,128,0,52330:0:0:0:0:
329,192,52423,128,0,52454:0:0:0:0:
256,192,52423,128,0,52454:0:0:0:0:
36,192,52423,128,0,52454:0:0:0:0:
256,192,52547,128,0,52588:0:0:0:0:
402,192,52547,128,0,52588:0:0:0:0:
475,192,52578,1,0,0:0:0:0:
182,192,52671,128,0,52712:0:0:0:0:
329,192,52671,128,0,52712:0:0:0:0:
402,192,52702,1,0,0:0:0:0:
256,192,52795,128,0,52836:0:0:0:0:
109,192,52795,128,0,52836:0:0:0:0:
36,192,52795,128,0,53290:0:0:0:0:
329,192,52826,1,0,0:0:0:0:
182,192,53042,128,0,53290:0:0:0:0:
109,192,53042,128,0,53290:0:0:0:0:
329,192,53042,128,0,53073:0:0:0:0:
256,192,53073,1,0,0:0:0:0:
402,192,53166,128,0,53197:0:0:0:0:
329,192,53197,1,0,0:0:0:0:
402,192,53290,128,0,53321:0:0:0:0:
475,192,53290,128,0,53321:0:0:0:0:
256,192,53414,128,0,53569:0:0:0:0:
182,192,53445,128,0,53600:0:0:0:0:
109,192,53476,128,0,53569:0:0:0:0:
36,192,53507,128,0,53538:0:0:0:0:
329,192,53538,1,0,0:0:0:0:
256,192,53662,128,0,53817:0:0:0:0:
329,192,53693,128,0,53848:0:0:0:0:
402,192,53724,128,0,53817:0:0:0:0:
475,192,53755,128,0,53786:0:0:0:0:
182,192,53786,1,0,0:0:0:0:
109,192,53910,128,0,54065:0:0:0:0:
182,192,53941,128,0,54096:0:0:0:0:
256,192,53972,128,0,54065:0:0:0:0:
329,192,54003,128,0,54034:0:0:0:0:
36,192,54034,1,0,0:0:0:0:
475,192,54034,1,0,0:0:0:0:
402,192,54034,1,0,0:0:0:0:
36,192,54158,1,0,0:0:0:0:
475,192,54158,1,0,0:0:0:0:
402,192,54158,1,0,0:0:0:0:
329,192,54158,1,0,0:0:0:0:
36,192,54282,1,0,0:0:0:0:
475,192,54282,1,0,0:0:0:0:
402,192,54282,1,0,0:0:0:0:
329,192,54282,1,0,0:0:0:0:
256,192,54282,1,0,0:0:0:0:
36,192,54406,1,0,0:0:0:0:
182,192,54406,1,0,0:0:0:0:
256,192,54406,1,0,0:0:0:0:
475,192,54406,1,0,0:0:0:0:
329,192,54406,1,0,0:0:0:0:
402,192,54406,1,0,0:0:0:0:
36,192,54530,128,0,55026:0:0:0:0:
475,192,54530,1,0,0:0:0:0:
402,192,54530,128,0,54561:0:0:0:0:
329,192,54530,128,0,54592:0:0:0:0:
256,192,54530,128,0,54623:0:0:0:0:
182,192,54530,128,0,54654:0:0:0:0:
109,192,54530,128,0,54685:0:0:0:0:
329,192,54654,128,0,54685:0:0:0:0:
402,192,54654,1,0,0:0:0:0:
256,192,54778,128,0,54809:0:0:0:0:
329,192,54778,1,0,0:0:0:0:
109,192,55026,128,0,55067:0:0:0:0:
256,192,55026,128,0,55067:0:0:0:0:
182,192,55036,128,0,55067:0:0:0:0:
182,192,55150,128,0,55191:0:0:0:0:
329,192,55150,128,0,55191:0:0:0:0:
256,192,55160,128,0,55191:0:0:0:0:
256,192,55274,128,0,55315:0:0:0:0:
402,192,55274,128,0,55315:0:0:0:0:
329,192,55284,128,0,55315:0:0:0:0:
36,192,55305,128,0,55336:0:0:0:0:
109,192,55336,128,0,55398:0:0:0:0:
182,192,55367,128,0,55460:0:0:0:0:
256,192,55398,128,0,55522:0:0:0:0:
329,192,55429,128,0,55584:0:0:0:0:
402,192,55460,128,0,55646:0:0:0:0:
475,192,55491,1,0,0:0:0:0:
36,192,55522,128,0,55553:0:0:0:0:
109,192,55553,128,0,55615:0:0:0:0:
182,192,55584,128,0,55677:0:0:0:0:
256,192,55615,128,0,55739:0:0:0:0:
475,192,55646,128,0,55677:0:0:0:0:
329,192,55646,128,0,55801:0:0:0:0:
402,192,55708,1,0,0:0:0:0:
36,192,55770,128,0,55801:0:0:0:0:
109,192,55801,128,0,55863:0:0:0:0:
182,192,55832,128,0,55925:0:0:0:0:
256,192,55863,128,0,55987:0:0:0:0:
475,192,55894,128,0,56018:0:0:0:0:
402,192,55925,128,0,56080:0:0:0:0:
329,192,55956,128,0,56142:0:0:0:0:
36,192,56018,128,0,56049:0:0:0:0:
256,192,56018,1,0,0:0:0:0:
109,192,56049,128,0,56111:0:0:0:0:
182,192,56080,128,0,56173:0:0:0:0:
475,192,56111,128,0,56235:0:0:0:0:
402,192,56142,128,0,56297:0:0:0:0:
329,192,56173,128,0,56359:0:0:0:0:
256,192,56204,1,0,0:0:0:0:
36,192,56266,128,0,56390:0:0:0:0:
109,192,56297,128,0,56452:0:0:0:0:
182,192,56328,128,0,56514:0:0:0:0:
475,192,56328,128,0,56452:0:0:0:0:
402,192,56359,128,0,56514:0:0:0:0:
256,192,56390,1,0,0:0:0:0:
329,192,56390,128,0,56576:0:0:0:0:
256,192,56452,1,0,0:0:0:0:
256,192,56514,1,0,0:0:0:0:
256,192,56638,1,0,0:0:0:0:
256,192,56762,1,0,0:0:0:0:
256,192,57009,1,0,0:0:0:0:
256,192,57381,1,0,0:0:0:0:
256,192,57629,1,0,0:0:0:0:
182,192,57753,128,0,57784:0:0:0:0:
36,192,57753,128,0,57784:0:0:0:0:
256,192,57877,1,0,0:0:0:0:
329,192,58001,128,0,58042:0:0:0:0:
475,192,58001,128,0,58042:0:0:0:0:
402,192,58011,128,0,58042:0:0:0:0:
109,192,58063,1,0,0:0:0:0:
36,192,58063,1,0,0:0:0:0:
182,192,58125,128,0,58166:0:0:0:0:
329,192,58125,128,0,58166:0:0:0:0:
256,192,58135,128,0,58166:0:0:0:0:
402,192,58187,1,0,0:0:0:0:
475,192,58187,1,0,0:0:0:0:
36,192,58249,128,0,58290:0:0:0:0:
182,192,58249,128,0,58290:0:0:0:0:
329,192,58249,128,0,58435:0:0:0:0:
109,192,58259,128,0,58290:0:0:0:0:
256,192,58311,128,0,58497:0:0:0:0:
182,192,58373,128,0,58497:0:0:0:0:
109,192,58435,128,0,58497:0:0:0:0:
402,192,58497,1,0,0:0:0:0:
475,192,58497,1,0,0:0:0:0:
329,192,58497,1,0,0:0:0:0:
36,192,58497,1,0,0:0:0:0:
109,192,58559,1,0,0:0:0:0:
182,192,58621,1,0,0:0:0:0:
256,192,58683,1,0,0:0:0:0:
329,192,58745,1,0,0:0:0:0:
402,192,58745,1,0,0:0:0:0:
475,192,58745,1,0,0:0:0:0:
36,192,58745,1,0,0:0:0:0:
109,192,58807,1,0,0:0:0:0:
182,192,58869,1,0,0:0:0:0:
475,192,58869,128,0,59055:0:0:0:0:
256,192,58931,1,0,0:0:0:0:
329,192,58993,1,0,0:0:0:0:
402,192,58993,1,0,0:0:0:0:
36,192,58993,1,0,0:0:0:0:
182,192,59055,1,0,0:0:0:0:
256,192,59117,1,0,0:0:0:0:
475,192,59117,128,0,59303:0:0:0:0:
109,192,59179,1,0,0:0:0:0:
182,192,59241,1,0,0:0:0:0:
329,192,59241,1,0,0:0:0:0:
402,192,59241,1,0,0:0:0:0:
256,192,59303,1,0,0:0:0:0:
36,192,59365,1,0,0:0:0:0:
475,192,59365,128,0,59551:0:0:0:0:
109,192,59427,1,0,0:0:0:0:
182,192,59489,1,0,0:0:0:0:
329,192,59489,1,0,0:0:0:0:
402,192,59489,1,0,0:0:0:0:
256,192,59489,1,0,0:0:0:0:
109,192,59551,1,0,0:0:0:0:
182,192,59613,1,0,0:0:0:0:
475,192,59613,128,0,59737:0:0:0:0:
36,192,59675,1,0,0:0:0:0:
256,192,59737,1,0,0:0:0:0:
329,192,59737,1,0,0:0:0:0:
402,192,59737,1,0,0:0:0:0:
109,192,59737,1,0,0:0:0:0:
182,192,59799,1,0,0:0:0:0:
109,192,59861,1,0,0:0:0:0:
256,192,59861,128,0,59985:0:0:0:0:
36,192,59923,1,0,0:0:0:0:
329,192,59985,1,0,0:0:0:0:
402,192,59985,1,0,0:0:0:0:
475,192,59985,1,0,0:0:0:0:
109,192,59985,1,0,0:0:0:0:
256,192,60047,1,0,0:0:0:0:
182,192,60109,1,0,0:0:0:0:
402,192,60109,128,0,60233:0:0:0:0:
329,192,60171,1,0,0:0:0:0:
109,192,60233,1,0,0:0:0:0:
36,192,60233,1,0,0:0:0:0:
182,192,60233,1,0,0:0:0:0:
475,192,60233,128,0,60295:0:0:0:0:
402,192,60295,128,0,60357:0:0:0:0:
329,192,60357,128,0,60419:0:0:0:0:
256,192,60419,128,0,60481:0:0:0:0:
182,192,60481,1,0,0:0:0:0:
475,192,60481,1,0,0:0:0:0:
109,192,60481,1,0,0:0:0:0:
36,192,60481,1,0,0:0:0:0:
402,192,60542,1,0,0:0:0:0:
329,192,60604,1,0,0:0:0:0:
256,192,60666,1,0,0:0:0:0:
36,192,60728,1,0,0:0:0:0:
475,192,60728,1,0,0:0:0:0:
182,192,60728,1,0,0:0:0:0:
109,192,60728,1,0,0:0:0:0:
402,192,60790,1,0,0:0:0:0:
329,192,60852,1,0,0:0:0:0:
36,192,60852,128,0,61038:0:0:0:0:
256,192,60914,1,0,0:0:0:0:
475,192,60976,1,0,0:0:0:0:
109,192,60976,1,0,0:0:0:0:
182,192,60976,1,0,0:0:0:0:
256,192,61038,1,0,0:0:0:0:
329,192,61100,1,0,0:0:0:0:
36,192,61100,128,0,61286:0:0:0:0:
402,192,61162,1,0,0:0:0:0:
109,192,61224,1,0,0:0:0:0:
182,192,61224,1,0,0:0:0:0:
475,192,61224,1,0,0:0:0:0:
256,192,61286,1,0,0:0:0:0:
329,192,61348,1,0,0:0:0:0:
36,192,61348,128,0,61472:0:0:0:0:
402,192,61410,1,0,0:0:0:0:
109,192,61472,1,0,0:0:0:0:
475,192,61472,1,0,0:0:0:0:
329,192,61472,1,0,0:0:0:0:
182,192,61472,1,0,0:0:0:0:
402,192,61534,1,0,0:0:0:0:
329,192,61596,1,0,0:0:0:0:
36,192,61596,128,0,61720:0:0:0:0:
256,192,61658,1,0,0:0:0:0:
109,192,61720,1,0,0:0:0:0:
182,192,61720,1,0,0:0:0:0:
329,192,61720,1,0,0:0:0:0:
475,192,61782,1,0,0:0:0:0:
329,192,61844,1,0,0:0:0:0:
109,192,61844,128,0,61968:0:0:0:0:
475,192,61906,1,0,0:0:0:0:
36,192,61968,1,0,0:0:0:0:
402,192,61968,1,0,0:0:0:0:
182,192,61968,1,0,0:0:0:0:
256,192,61968,1,0,0:0:0:0:
329,192,62030,1,0,0:0:0:0:
256,192,62092,128,0,62216:0:0:0:0:
182,192,62154,128,0,62216:0:0:0:0:
475,192,62216,1,0,0:0:0:0:
36,192,62216,128,0,62278:0:0:0:0:
402,192,62216,128,0,62278:0:0:0:0:
329,192,62216,128,0,62340:0:0:0:0:
109,192,62278,128,0,62340:0:0:0:0:
182,192,62340,128,0,62402:0:0:0:0:
256,192,62402,128,0,62464:0:0:0:0:
475,192,62464,1,0,0:0:0:0:
402,192,62464,1,0,0:0:0:0:
329,192,62464,1,0,0:0:0:0:
36,192,62464,128,0,62712:0:0:0:0:
109,192,62526,1,0,0:0:0:0:
182,192,62588,1,0,0:0:0:0:
256,192,62650,1,0,0:0:0:0:
329,192,62712,1,0,0:0:0:0:
402,192,62712,1,0,0:0:0:0:
109,192,62712,128,0,62960:0:0:0:0:
475,192,62712,1,0,0:0:0:0:
182,192,62774,1,0,0:0:0:0:
256,192,62836,128,0,62960:0:0:0:0:
329,192,62898,1,0,0:0:0:0:
475,192,62960,1,0,0:0:0:0:
402,192,62960,128,0,63208:0:0:0:0:
36,192,62960,1,0,0:0:0:0:
329,192,63022,1,0,0:0:0:0:
256,192,63084,128,0,63208:0:0:0:0:
182,192,63146,1,0,0:0:0:0:
109,192,63208,1,0,0:0:0:0:
36,192,63208,1,0,0:0:0:0:
475,192,63208,128,0,63456:0:0:0:0:
402,192,63270,1,0,0:0:0:0:
329,192,63332,128,0,63456:0:0:0:0:
256,192,63394,1,0,0:0:0:0:
182,192,63456,1,0,0:0:0:0:
36,192,63456,1,0,0:0:0:0:
109,192,63456,128,0,63704:0:0:0:0:
475,192,63580,128,0,63704:0:0:0:0:
402,192,63642,1,0,0:0:0:0:
329,192,63704,1,0,0:0:0:0:
256,192,63704,1,0,0:0:0:0:
182,192,63704,1,0,0:0:0:0:
36,192,63704,128,0,63952:0:0:0:0:
109,192,63766,1,0,0:0:0:0:
182,192,63828,128,0,63952:0:0:0:0:
256,192,63890,1,0,0:0:0:0:
402,192,63952,1,0,0:0:0:0:
475,192,63952,1,0,0:0:0:0:
329,192,63952,128,0,64200:0:0:0:0:
256,192,64014,1,0,0:0:0:0:
182,192,64076,1,0,0:0:0:0:
109,192,64138,1,0,0:0:0:0:
36,192,64200,1,0,0:0:0:0:
475,192,64200,1,0,0:0:0:0:
402,192,64200,128,0,64385:0:0:0:0:
329,192,64262,128,0,64385:0:0:0:0:
256,192,64323,128,0,64447:0:0:0:0:
182,192,64385,128,0,64447:0:0:0:0:
36,192,64447,128,0,64695:0:0:0:0:
109,192,64447,1,0,0:0:0:0:
329,192,64447,128,0,64571:0:0:0:0:
402,192,64447,128,0,64571:0:0:0:0:
475,192,64447,128,0,64571:0:0:0:0:
256,192,64571,1,0,0:0:0:0:
182,192,64571,1,0,0:0:0:0:
109,192,64695,128,0,64943:0:0:0:0:
329,192,64695,128,0,64819:0:0:0:0:
402,192,64695,128,0,64819:0:0:0:0:
475,192,64695,128,0,64819:0:0:0:0:
256,192,64819,1,0,0:0:0:0:
36,192,64819,1,0,0:0:0:0:
182,192,64819,1,0,0:0:0:0:
402,192,64943,128,0,65191:0:0:0:0:
329,192,64943,1,0,0:0:0:0:
475,192,64943,128,0,65067:0:0:0:0:
36,192,64943,128,0,65067:0:0:0:0:
329,192,65067,1,0,0:0:0:0:
256,192,65067,1,0,0:0:0:0:
182,192,65067,1,0,0:0:0:0:
475,192,65191,128,0,65439:0:0:0:0:
182,192,65191,128,0,65315:0:0:0:0:
109,192,65191,128,0,65315:0:0:0:0:
36,192,65191,128,0,65315:0:0:0:0:
329,192,65315,1,0,0:0:0:0:
256,192,65315,1,0,0:0:0:0:
402,192,65315,1,0,0:0:0:0:
109,192,65439,128,0,65687:0:0:0:0:
402,192,65439,1,0,0:0:0:0:
182,192,65439,128,0,65563:0:0:0:0:
36,192,65439,128,0,65563:0:0:0:0:
475,192,65563,1,0,0:0:0:0:
329,192,65563,1,0,0:0:0:0:
402,192,65563,1,0,0:0:0:0:
256,192,65687,1,0,0:0:0:0:
182,192,65687,1,0,0:0:0:0:
36,192,65687,128,0,65935:0:0:0:0:
475,192,65687,128,0,65873:0:0:0:0:
402,192,65687,128,0,65811:0:0:0:0:
329,192,65687,128,0,65749:0:0:0:0:
109,192,65749,1,0,0:0:0:0:
182,192,65811,1,0,0:0:0:0:
256,192,65873,1,0,0:0:0:0:
402,192,65935,1,0,0:0:0:0:
329,192,65935,128,0,65997:0:0:0:0:
256,192,65997,1,0,0:0:0:0:
475,192,65997,128,0,66059:0:0:0:0:
182,192,66059,1,0,0:0:0:0:
402,192,66059,128,0,66121:0:0:0:0:
109,192,66121,1,0,0:0:0:0:
329,192,66121,128,0,66183:0:0:0:0:
36,192,66183,1,0,0:0:0:0:
475,192,66183,1,0,0:0:0:0:
256,192,66183,128,0,66245:0:0:0:0:
402,192,66245,1,0,0:0:0:0:
182,192,66245,128,0,66307:0:0:0:0:
329,192,66307,1,0,0:0:0:0:
109,192,66307,128,0,66369:0:0:0:0:
256,192,66369,1,0,0:0:0:0:
36,192,66369,128,0,66431:0:0:0:0:
329,192,66431,1,0,0:0:0:0:
402,192,66431,1,0,0:0:0:0:
109,192,66431,1,0,0:0:0:0:
182,192,66431,128,0,66679:0:0:0:0:
475,192,66431,1,0,0:0:0:0:
256,192,66493,1,0,0:0:0:0:
329,192,66555,1,0,0:0:0:0:
402,192,66617,1,0,0:0:0:0:
256,192,66679,1,0,0:0:0:0:
109,192,66679,1,0,0:0:0:0:
329,192,66679,1,0,0:0:0:0:
36,192,66679,128,0,66927:0:0:0:0:
475,192,66679,1,0,0:0:0:0:
182,192,66741,1,0,0:0:0:0:
256,192,66803,128,0,66865:0:0:0:0:
329,192,66865,1,0,0:0:0:0:
402,192,66927,1,0,0:0:0:0:
109,192,66927,1,0,0:0:0:0:
182,192,66927,1,0,0:0:0:0:
475,192,66927,128,0,67175:0:0:0:0:
256,192,66989,1,0,0:0:0:0:
329,192,67051,128,0,67113:0:0:0:0:
402,192,67113,1,0,0:0:0:0:
36,192,67175,1,0,0:0:0:0:
256,192,67175,1,0,0:0:0:0:
329,192,67175,1,0,0:0:0:0:
109,192,67175,128,0,67423:0:0:0:0:
182,192,67237,1,0,0:0:0:0:
256,192,67299,128,0,67361:0:0:0:0:
329,192,67361,1,0,0:0:0:0:
36,192,67423,1,0,0:0:0:0:
402,192,67423,1,0,0:0:0:0:
182,192,67423,1,0,0:0:0:0:
475,192,67423,128,0,67671:0:0:0:0:
329,192,67485,1,0,0:0:0:0:
256,192,67547,128,0,67609:0:0:0:0:
182,192,67609,1,0,0:0:0:0:
109,192,67671,1,0,0:0:0:0:
402,192,67671,1,0,0:0:0:0:
329,192,67671,1,0,0:0:0:0:
36,192,67671,128,0,67919:0:0:0:0:
256,192,67733,1,0,0:0:0:0:
182,192,67795,128,0,67857:0:0:0:0:
109,192,67857,1,0,0:0:0:0:
475,192,67919,1,0,0:0:0:0:
256,192,67919,1,0,0:0:0:0:
182,192,67919,1,0,0:0:0:0:
402,192,67919,128,0,68166:0:0:0:0:
329,192,67981,1,0,0:0:0:0:
256,192,68042,128,0,68104:0:0:0:0:
182,192,68104,1,0,0:0:0:0:
36,192,68166,1,0,0:0:0:0:
256,192,68166,1,0,0:0:0:0:
329,192,68166,1,0,0:0:0:0:
475,192,68166,1,0,0:0:0:0:
109,192,68166,128,0,68414:0:0:0:0:
402,192,68228,1,0,0:0:0:0:
329,192,68290,128,0,68352:0:0:0:0:
256,192,68352,1,0,0:0:0:0:
475,192,68414,1,0,0:0:0:0:
182,192,68414,1,0,0:0:0:0:
36,192,68414,1,0,0:0:0:0:
402,192,68414,1,0,0:0:0:0:
329,192,68414,128,0,68662:0:0:0:0:
256,192,68476,1,0,0:0:0:0:
182,192,68538,1,0,0:0:0:0:
109,192,68600,1,0,0:0:0:0:
256,192,68662,1,0,0:0:0:0:
402,192,68662,1,0,0:0:0:0:
182,192,68662,1,0,0:0:0:0:
475,192,68662,128,0,68910:0:0:0:0:
36,192,68662,1,0,0:0:0:0:
329,192,68724,1,0,0:0:0:0:
256,192,68786,128,0,68848:0:0:0:0:
182,192,68848,1,0,0:0:0:0:
109,192,68910,1,0,0:0:0:0:
402,192,68910,1,0,0:0:0:0:
329,192,68910,1,0,0:0:0:0:
36,192,68910,128,0,69158:0:0:0:0:
256,192,68972,1,0,0:0:0:0:
182,192,69034,128,0,69096:0:0:0:0:
109,192,69096,1,0,0:0:0:0:
475,192,69158,1,0,0:0:0:0:
256,192,69158,1,0,0:0:0:0:
182,192,69158,1,0,0:0:0:0:
402,192,69158,128,0,69406:0:0:0:0:
329,192,69220,1,0,0:0:0:0:
256,192,69282,128,0,69344:0:0:0:0:
182,192,69344,1,0,0:0:0:0:
475,192,69406,1,0,0:0:0:0:
109,192,69406,1,0,0:0:0:0:
329,192,69406,1,0,0:0:0:0:
36,192,69406,128,0,69654:0:0:0:0:
182,192,69468,1,0,0:0:0:0:
256,192,69530,128,0,69592:0:0:0:0:
329,192,69592,1,0,0:0:0:0:
402,192,69654,1,0,0:0:0:0:
109,192,69654,1,0,0:0:0:0:
182,192,69654,1,0,0:0:0:0:
475,192,69654,128,0,69902:0:0:0:0:
256,192,69716,1,0,0:0:0:0:
329,192,69778,128,0,69840:0:0:0:0:
402,192,69840,1,0,0:0:0:0:
36,192,69902,1,0,0:0:0:0:
256,192,69902,1,0,0:0:0:0:
329,192,69902,1,0,0:0:0:0:
109,192,69902,128,0,70150:0:0:0:0:
182,192,69964,1,0,0:0:0:0:
256,192,70026,128,0,70088:0:0:0:0:
329,192,70088,1,0,0:0:0:0:
402,192,70150,128,0,70398:0:0:0:0:
475,192,70150,1,0,0:0:0:0:
256,192,70150,1,0,0:0:0:0:
182,192,70150,1,0,0:0:0:0:
36,192,70150,1,0,0:0:0:0:
109,192,70212,1,0,0:0:0:0:
182,192,70274,128,0,70336:0:0:0:0:
256,192,70336,1,0,0:0:0:0:
182,192,70398,128,0,70584:0:0:0:0:
329,192,70398,128,0,70584:0:0:0:0:
36,192,70398,1,0,0:0:0:0:
475,192,70398,1,0,0:0:0:0:
402,192,70522,128,0,70584:0:0:0:0:
256,192,70522,128,0,70584:0:0:0:0:
256,192,70646,128,0,70832:0:0:0:0:
402,192,70646,128,0,70832:0:0:0:0:
329,192,70646,1,0,0:0:0:0:
182,192,70646,1,0,0:0:0:0:
109,192,70646,1,0,0:0:0:0:
475,192,70646,1,0,0:0:0:0:
329,192,70770,128,0,70832:0:0:0:0:
475,192,70770,128,0,70832:0:0:0:0:
329,192,70894,128,0,71080:0:0:0:0:
182,192,70894,128,0,71080:0:0:0:0:
256,192,70894,1,0,0:0:0:0:
36,192,70894,1,0,0:0:0:0:
475,192,70894,1,0,0:0:0:0:
256,192,71018,128,0,71080:0:0:0:0:
402,192,71018,128,0,71080:0:0:0:0:
109,192,71142,128,0,71328:0:0:0:0:
256,192,71142,128,0,71328:0:0:0:0:
36,192,71142,1,0,0:0:0:0:
402,192,71142,1,0,0:0:0:0:
182,192,71142,1,0,0:0:0:0:
329,192,71266,128,0,71328:0:0:0:0:
182,192,71266,128,0,71328:0:0:0:0:
182,192,71390,128,0,71452:0:0:0:0:
36,192,71390,128,0,71452:0:0:0:0:
475,192,71390,1,0,0:0:0:0:
402,192,71390,1,0,0:0:0:0:
182,192,71514,128,0,71576:0:0:0:0:
329,192,71514,128,0,71576:0:0:0:0:
36,192,71514,1,0,0:0:0:0:
256,192,71638,128,0,71700:0:0:0:0:
109,192,71638,128,0,71700:0:0:0:0:
475,192,71638,1,0,0:0:0:0:
402,192,71638,1,0,0:0:0:0:
256,192,71762,128,0,71823:0:0:0:0:
402,192,71762,128,0,71823:0:0:0:0:
182,192,71762,1,0,0:0:0:0:
329,192,71885,128,0,71947:0:0:0:0:
182,192,71885,128,0,71947:0:0:0:0:
36,192,71885,1,0,0:0:0:0:
109,192,71885,1,0,0:0:0:0:
329,192,72009,128,0,72071:0:0:0:0:
475,192,72009,128,0,72071:0:0:0:0:
256,192,72009,1,0,0:0:0:0:
402,192,72133,128,0,72195:0:0:0:0:
256,192,72133,128,0,72195:0:0:0:0:
109,192,72133,1,0,0:0:0:0:
36,192,72133,1,0,0:0:0:0:
329,192,72257,128,0,72319:0:0:0:0:
475,192,72257,128,0,72319:0:0:0:0:
109,192,72257,1,0,0:0:0:0:
256,192,72257,1,0,0:0:0:0:
402,192,72381,128,0,72629:0:0:0:0:
475,192,72381,128,0,72629:0:0:0:0:
256,192,72381,1,0,0:0:0:0:
329,192,72381,1,0,0:0:0:0:
36,192,72381,1,0,0:0:0:0:
182,192,72443,1,0,0:0:0:0:
109,192,72505,1,0,0:0:0:0:
36,192,72567,1,0,0:0:0:0:
109,192,72629,128,0,72691:0:0:0:0:
329,192,72629,1,0,0:0:0:0:
256,192,72629,1,0,0:0:0:0:
182,192,72691,128,0,72753:0:0:0:0:
256,192,72753,128,0,72815:0:0:0:0:
329,192,72815,128,0,72877:0:0:0:0:
182,192,72877,128,0,73125:0:0:0:0:
109,192,72877,128,0,73125:0:0:0:0:
256,192,72877,1,0,0:0:0:0:
402,192,72877,1,0,0:0:0:0:
36,192,72877,1,0,0:0:0:0:
475,192,72939,1,0,0:0:0:0:
402,192,73001,1,0,0:0:0:0:
329,192,73063,1,0,0:0:0:0:
402,192,73125,128,0,73187:0:0:0:0:
475,192,73125,128,0,73187:0:0:0:0:
256,192,73125,1,0,0:0:0:0:
36,192,73125,1,0,0:0:0:0:
36,192,73249,1,0,0:0:0:0:
256,192,73249,1,0,0:0:0:0:
402,192,73249,128,0,73497:0:0:0:0:
475,192,73249,128,0,73497:0:0:0:0:
256,192,73497,128,0,73559:0:0:0:0:
36,192,73497,128,0,73559:0:0:0:0:
182,192,73497,128,0,73559:0:0:0:0:
36,192,73621,1,0,0:0:0:0:
256,192,73621,1,0,0:0:0:0:
182,192,73621,1,0,0:0:0:0:
109,192,73745,128,0,73807:0:0:0:0:
329,192,73745,128,0,73807:0:0:0:0:
256,192,73745,128,0,73807:0:0:0:0:
109,192,73869,1,0,0:0:0:0:
329,192,73869,1,0,0:0:0:0:
256,192,73869,1,0,0:0:0:0:
182,192,73993,128,0,74055:0:0:0:0:
402,192,73993,128,0,74055:0:0:0:0:
329,192,73993,128,0,74055:0:0:0:0:
402,192,74117,1,0,0:0:0:0:
182,192,74117,1,0,0:0:0:0:
329,192,74117,1,0,0:0:0:0:
256,192,74241,128,0,74303:0:0:0:0:
475,192,74241,128,0,74303:0:0:0:0:
402,192,74241,128,0,74303:0:0:0:0:
36,192,74365,128,0,74819:0:0:0:0:
329,192,74365,1,0,0:0:0:0:
402,192,74365,128,0,74406:0:0:0:0:
475,192,74365,128,0,74406:0:0:0:0:
256,192,74365,1,0,0:0:0:0:
109,192,74406,1,0,0:0:0:0:
182,192,74447,128,0,74613:0:0:0:0:
256,192,74489,1,0,0:0:0:0:
329,192,74530,128,0,74695:0:0:0:0:
402,192,74571,1,0,0:0:0:0:
475,192,74613,128,0,74778:0:0:0:0:
109,192,74613,128,0,74654:0:0:0:0:
182,192,74654,1,0,0:0:0:0:
256,192,74695,128,0,74737:0:0:0:0:
329,192,74737,128,0,74985:0:0:0:0:
402,192,74778,128,0,74819:0:0:0:0:
475,192,74819,1,0,0:0:0:0:
36,192,74861,128,0,75315:0:0:0:0:
256,192,74861,1,0,0:0:0:0:
109,192,74902,128,0,74943:0:0:0:0:
182,192,74943,128,0,75233:0:0:0:0:
256,192,74985,128,0,75026:0:0:0:0:
329,192,75026,1,0,0:0:0:0:
402,192,75067,128,0,75109:0:0:0:0:
475,192,75109,128,0,75315:0:0:0:0:
109,192,75109,1,0,0:0:0:0:
402,192,75150,1,0,0:0:0:0:
329,192,75191,1,0,0:0:0:0:
256,192,75233,128,0,75357:0:0:0:0:
182,192,75274,1,0,0:0:0:0:
109,192,75315,1,0,0:0:0:0:
402,192,75357,128,0,75419:0:0:0:0:
475,192,75357,128,0,75388:0:0:0:0:
36,192,75357,128,0,75728:0:0:0:0:
329,192,75377,128,0,75419:0:0:0:0:
256,192,75398,128,0,75419:0:0:0:0:
329,192,75481,128,0,75542:0:0:0:0:
256,192,75481,128,0,75522:0:0:0:0:
182,192,75481,128,0,75501:0:0:0:0:
402,192,75512,128,0,75542:0:0:0:0:
182,192,75604,128,0,75666:0:0:0:0:
109,192,75604,128,0,75635:0:0:0:0:
256,192,75625,128,0,75666:0:0:0:0:
329,192,75646,128,0,75666:0:0:0:0:
182,192,75728,128,0,75770:0:0:0:0:
109,192,75728,128,0,75790:0:0:0:0:
256,192,75728,128,0,75749:0:0:0:0:
36,192,75759,128,0,75790:0:0:0:0:
329,192,75852,128,0,75914:0:0:0:0:
256,192,75852,128,0,75883:0:0:0:0:
402,192,75873,128,0,75914:0:0:0:0:
475,192,75894,128,0,75914:0:0:0:0:
256,192,75976,128,0,76038:0:0:0:0:
329,192,75976,128,0,76018:0:0:0:0:
402,192,75976,128,0,75997:0:0:0:0:
182,192,76007,128,0,76038:0:0:0:0:
256,192,76100,128,0,76162:0:0:0:0:
329,192,76100,128,0,76131:0:0:0:0:
182,192,76121,128,0,76162:0:0:0:0:
109,192,76142,128,0,76162:0:0:0:0:
182,192,76224,128,0,76286:0:0:0:0:
109,192,76224,128,0,76266:0:0:0:0:
36,192,76224,128,0,76245:0:0:0:0:
256,192,76255,128,0,76286:0:0:0:0:
475,192,76348,128,0,76379:0:0:0:0:
402,192,76379,128,0,76410:0:0:0:0:
329,192,76410,128,0,76441:0:0:0:0:
256,192,76441,128,0,76472:0:0:0:0:
182,192,76472,128,0,76503:0:0:0:0:
109,192,76503,128,0,76534:0:0:0:0:
36,192,76534,128,0,76565:0:0:0:0:
109,192,76565,128,0,76596:0:0:0:0:
182,192,76596,128,0,76627:0:0:0:0:
256,192,76627,128,0,76658:0:0:0:0:
329,192,76658,128,0,76689:0:0:0:0:
402,192,76689,128,0,76720:0:0:0:0:
475,192,76720,128,0,76751:0:0:0:0:
36,192,76844,128,0,77588:0:0:0:0:
109,192,76844,128,0,76885:0:0:0:0:
402,192,76844,1,0,0:0:0:0:
329,192,76844,1,0,0:0:0:0:
475,192,76844,128,0,77278:0:0:0:0:
182,192,76885,128,0,76927:0:0:0:0:
256,192,76927,128,0,77051:0:0:0:0:
329,192,76968,128,0,77009:0:0:0:0:
402,192,77009,128,0,77092:0:0:0:0:
329,192,77051,128,0,77092:0:0:0:0:
256,192,77092,128,0,77257:0:0:0:0:
109,192,77092,1,0,0:0:0:0:
182,192,77133,128,0,77175:0:0:0:0:
109,192,77175,128,0,77547:0:0:0:0:
402,192,77216,128,0,77381:0:0:0:0:
329,192,77257,128,0,77423:0:0:0:0:
256,192,77299,128,0,77464:0:0:0:0:
182,192,77340,128,0,77505:0:0:0:0:
475,192,77340,1,0,0:0:0:0:
475,192,77381,128,0,77795:0:0:0:0:
402,192,77423,128,0,77795:0:0:0:0:
329,192,77464,128,0,77753:0:0:0:0:
256,192,77505,128,0,77712:0:0:0:0:
182,192,77547,128,0,77671:0:0:0:0:
109,192,77588,128,0,77629:0:0:0:0:
36,192,77629,1,0,0:0:0:0:
109,192,77671,1,0,0:0:0:0:
182,192,77712,1,0,0:0:0:0:
256,192,77753,1,0,0:0:0:0:
329,192,77795,1,0,0:0:0:0:
475,192,77836,128,0,78270:0:0:0:0:
402,192,77836,1,0,0:0:0:0:
182,192,77836,128,0,78125:0:0:0:0:
109,192,77836,128,0,78125:0:0:0:0:
36,192,77836,128,0,78125:0:0:0:0:
36,192,78208,128,0,78270:0:0:0:0:
182,192,78208,128,0,78270:0:0:0:0:
109,192,78208,128,0,78270:0:0:0:0:
475,192,78332,128,0,78394:0:0:0:0:
182,192,78332,1,0,0:0:0:0:
109,192,78332,1,0,0:0:0:0:
36,192,78332,1,0,0:0:0:0:
329,192,78332,128,0,78394:0:0:0:0:
402,192,78332,128,0,78394:0:0:0:0:
256,192,78394,128,0,78456:0:0:0:0:
36,192,78456,1,0,0:0:0:0:
182,192,78456,128,0,78518:0:0:0:0:
109,192,78518,1,0,0:0:0:0:
475,192,78580,128,0,78642:0:0:0:0:
402,192,78580,128,0,78642:0:0:0:0:
329,192,78580,128,0,78642:0:0:0:0:
256,192,78642,128,0,78704:0:0:0:0:
36,192,78704,1,0,0:0:0:0:
182,192,78704,128,0,78766:0:0:0:0:
109,192,78766,1,0,0:0:0:0:
329,192,78828,128,0,78890:0:0:0:0:
256,192,78828,128,0,78890:0:0:0:0:
182,192,78890,128,0,78952:0:0:0:0:
402,192,78890,128,0,78952:0:0:0:0:
256,192,78952,128,0,79014:0:0:0:0:
475,192,78952,128,0,79014:0:0:0:0:
109,192,78952,1,0,0:0:0:0:
36,192,79014,1,0,0:0:0:0:
329,192,79076,128,0,79138:0:0:0:0:
109,192,79076,128,0,79138:0:0:0:0:
182,192,79138,128,0,79200:0:0:0:0:
402,192,79138,128,0,79200:0:0:0:0:
256,192,79200,128,0,79262:0:0:0:0:
475,192,79200,128,0,79262:0:0:0:0:
109,192,79200,128,0,79262:0:0:0:0:
36,192,79262,128,0,79323:0:0:0:0:
109,192,79323,128,0,79385:0:0:0:0:
182,192,79323,128,0,79447:0:0:0:0:
256,192,79323,128,0,79509:0:0:0:0:
402,192,79323,1,0,0:0:0:0:
475,192,79323,1,0,0:0:0:0:
329,192,79385,128,0,79571:0:0:0:0:
402,192,79447,128,0,79571:0:0:0:0:
475,192,79509,128,0,79571:0:0:0:0:
109,192,79571,128,0,79633:0:0:0:0:
182,192,79571,128,0,79695:0:0:0:0:
256,192,79571,128,0,79757:0:0:0:0:
36,192,79571,1,0,0:0:0:0:
329,192,79633,128,0,79819:0:0:0:0:
402,192,79695,128,0,79819:0:0:0:0:
475,192,79757,128,0,79819:0:0:0:0:
256,192,79819,128,0,80005:0:0:0:0:
109,192,79819,1,0,0:0:0:0:
36,192,79819,1,0,0:0:0:0:
182,192,79881,128,0,80067:0:0:0:0:
109,192,79943,128,0,80067:0:0:0:0:
475,192,79943,1,0,0:0:0:0:
402,192,79943,1,0,0:0:0:0:
329,192,79943,1,0,0:0:0:0:
36,192,80005,128,0,80067:0:0:0:0:
256,192,80067,1,0,0:0:0:0:
475,192,80067,1,0,0:0:0:0:
402,192,80098,1,0,0:0:0:0:
329,192,80129,128,0,80284:0:0:0:0:
256,192,80160,1,0,0:0:0:0:
182,192,80191,128,0,80222:0:0:0:0:
109,192,80222,1,0,0:0:0:0:
36,192,80253,128,0,80408:0:0:0:0:
182,192,80284,1,0,0:0:0:0:
402,192,80315,1,0,0:0:0:0:
475,192,80315,128,0,80625:0:0:0:0:
329,192,80346,128,0,80377:0:0:0:0:
256,192,80377,1,0,0:0:0:0:
182,192,80408,128,0,80470:0:0:0:0:
109,192,80439,1,0,0:0:0:0:
36,192,80470,128,0,80532:0:0:0:0:
329,192,80501,1,0,0:0:0:0:
109,192,80532,1,0,0:0:0:0:
182,192,80563,1,0,0:0:0:0:
256,192,80594,128,0,80656:0:0:0:0:
329,192,80625,1,0,0:0:0:0:
402,192,80656,1,0,0:0:0:0:
475,192,80687,128,0,80904:0:0:0:0:
36,192,80718,128,0,80811:0:0:0:0:
109,192,80749,128,0,80811:0:0:0:0:
182,192,80780,128,0,80811:0:0:0:0:
256,192,80811,128,0,80842:0:0:0:0:
402,192,80811,128,0,80842:0:0:0:0:
329,192,80842,1,0,0:0:0:0:
182,192,80935,1,0,0:0:0:0:
109,192,80935,1,0,0:0:0:0:
36,192,80935,1,0,0:0:0:0:
475,192,81059,1,0,0:0:0:0:
402,192,81059,128,0,81090:0:0:0:0:
329,192,81059,1,0,0:0:0:0:
182,192,81059,1,0,0:0:0:0:
109,192,81059,1,0,0:0:0:0:
36,192,81059,1,0,0:0:0:0:
256,192,81090,1,0,0:0:0:0:
109,192,81183,1,0,0:0:0:0:
329,192,81183,1,0,0:0:0:0:
402,192,81214,1,0,0:0:0:0:
182,192,81214,1,0,0:0:0:0:
256,192,81245,1,0,0:0:0:0:
109,192,81307,128,0,81338:0:0:0:0:
36,192,81307,1,0,0:0:0:0:
475,192,81307,1,0,0:0:0:0:
182,192,81338,128,0,81369:0:0:0:0:
256,192,81369,128,0,81400:0:0:0:0:
329,192,81400,128,0,81431:0:0:0:0:
36,192,81431,128,0,81741:0:0:0:0:
109,192,81462,128,0,81710:0:0:0:0:
182,192,81493,128,0,81586:0:0:0:0:
256,192,81524,128,0,81555:0:0:0:0:
402,192,81555,128,0,81586:0:0:0:0:
475,192,81555,1,0,0:0:0:0:
329,192,81586,128,0,81617:0:0:0:0:
256,192,81617,128,0,81648:0:0:0:0:
182,192,81648,128,0,81679:0:0:0:0:
475,192,81679,128,0,81927:0:0:0:0:
402,192,81710,128,0,81896:0:0:0:0:
329,192,81741,128,0,81865:0:0:0:0:
256,192,81772,128,0,81834:0:0:0:0:
36,192,81803,128,0,82206:0:0:0:0:
109,192,81834,128,0,82175:0:0:0:0:
182,192,81865,128,0,82144:0:0:0:0:
256,192,81896,128,0,82113:0:0:0:0:
329,192,81927,128,0,82082:0:0:0:0:
402,192,81958,128,0,82051:0:0:0:0:
475,192,81989,128,0,82020:0:0:0:0:
475,192,82051,1,0,0:0:0:0:
402,192,82082,1,0,0:0:0:0:
329,192,82113,1,0,0:0:0:0:
256,192,82144,1,0,0:0:0:0:
182,192,82175,1,0,0:0:0:0:
109,192,82206,1,0,0:0:0:0:
36,192,82237,1,0,0:0:0:0:
402,192,82299,128,0,82516:0:0:0:0:
256,192,82299,1,0,0:0:0:0:
182,192,82299,1,0,0:0:0:0:
475,192,82299,1,0,0:0:0:0:
329,192,82330,128,0,82485:0:0:0:0:
109,192,82361,1,0,0:0:0:0:
182,192,82423,1,0,0:0:0:0:
256,192,82485,1,0,0:0:0:0:
329,192,82547,1,0,0:0:0:0:
109,192,82547,1,0,0:0:0:0:
36,192,82547,1,0,0:0:0:0:
475,192,82547,128,0,82795:0:0:0:0:
402,192,82609,128,0,82671:0:0:0:0:
182,192,82609,1,0,0:0:0:0:
256,192,82671,128,0,82733:0:0:0:0:
36,192,82671,1,0,0:0:0:0:
402,192,82733,128,0,82795:0:0:0:0:
109,192,82733,1,0,0:0:0:0:
329,192,82795,128,0,83012:0:0:0:0:
182,192,82795,1,0,0:0:0:0:
256,192,82826,128,0,82981:0:0:0:0:
109,192,82857,1,0,0:0:0:0:
36,192,82919,1,0,0:0:0:0:
475,192,82981,1,0,0:0:0:0:
402,192,83042,1,0,0:0:0:0:
256,192,83042,1,0,0:0:0:0:
36,192,83042,1,0,0:0:0:0:
329,192,83104,128,0,83166:0:0:0:0:
109,192,83104,1,0,0:0:0:0:
402,192,83166,128,0,83228:0:0:0:0:
182,192,83166,1,0,0:0:0:0:
329,192,83228,128,0,83290:0:0:0:0:
109,192,83228,1,0,0:0:0:0:
256,192,83290,128,0,83507:0:0:0:0:
36,192,83290,1,0,0:0:0:0:
475,192,83290,1,0,0:0:0:0:
182,192,83321,128,0,83476:0:0:0:0:
402,192,83352,1,0,0:0:0:0:
329,192,83414,1,0,0:0:0:0:
109,192,83414,1,0,0:0:0:0:
402,192,83476,1,0,0:0:0:0:
182,192,83538,1,0,0:0:0:0:
329,192,83538,1,0,0:0:0:0:
475,192,83538,1,0,0:0:0:0:
36,192,83538,1,0,0:0:0:0:
256,192,83600,128,0,83662:0:0:0:0:
109,192,83600,128,0,83662:0:0:0:0:
329,192,83662,128,0,83724:0:0:0:0:
475,192,83662,128,0,83724:0:0:0:0:
256,192,83724,128,0,83786:0:0:0:0:
402,192,83724,128,0,83786:0:0:0:0:
182,192,83786,128,0,84003:0:0:0:0:
475,192,83786,1,0,0:0:0:0:
36,192,83786,1,0,0:0:0:0:
109,192,83817,128,0,83972:0:0:0:0:
402,192,83848,1,0,0:0:0:0:
329,192,83910,1,0,0:0:0:0:
402,192,83972,1,0,0:0:0:0:
109,192,84034,1,0,0:0:0:0:
256,192,84034,1,0,0:0:0:0:
475,192,84034,1,0,0:0:0:0:
182,192,84096,128,0,84158:0:0:0:0:
36,192,84096,128,0,84158:0:0:0:0:
329,192,84158,128,0,84220:0:0:0:0:
475,192,84158,128,0,84220:0:0:0:0:
182,192,84220,128,0,84282:0:0:0:0:
36,192,84220,128,0,84282:0:0:0:0:
402,192,84282,128,0,84716:0:0:0:0:
475,192,84282,1,0,0:0:0:0:
109,192,84282,1,0,0:0:0:0:
329,192,84313,128,0,84468:0:0:0:0:
182,192,84344,1,0,0:0:0:0:
256,192,84406,1,0,0:0:0:0:
36,192,84468,1,0,0:0:0:0:
475,192,84530,1,0,0:0:0:0:
182,192,84530,128,0,84592:0:0:0:0:
109,192,84530,128,0,84592:0:0:0:0:
256,192,84592,128,0,84654:0:0:0:0:
329,192,84592,128,0,84654:0:0:0:0:
475,192,84654,128,0,84716:0:0:0:0:
36,192,84654,1,0,0:0:0:0:
109,192,84716,1,0,0:0:0:0:
329,192,84778,128,0,85212:0:0:0:0:
402,192,84778,1,0,0:0:0:0:
182,192,84778,1,0,0:0:0:0:
475,192,84778,1,0,0:0:0:0:
256,192,84809,128,0,84964:0:0:0:0:
36,192,84840,1,0,0:0:0:0:
402,192,84902,1,0,0:0:0:0:
109,192,84902,1,0,0:0:0:0:
182,192,84964,1,0,0:0:0:0:
256,192,85026,1,0,0:0:0:0:
475,192,85026,1,0,0:0:0:0:
109,192,85026,128,0,85088:0:0:0:0:
36,192,85026,128,0,85088:0:0:0:0:
402,192,85088,128,0,85150:0:0:0:0:
256,192,85150,128,0,85212:0:0:0:0:
109,192,85212,128,0,85274:0:0:0:0:
256,192,85274,128,0,85708:0:0:0:0:
329,192,85274,1,0,0:0:0:0:
36,192,85274,1,0,0:0:0:0:
475,192,85274,1,0,0:0:0:0:
182,192,85305,128,0,85460:0:0:0:0:
402,192,85336,1,0,0:0:0:0:
329,192,85398,1,0,0:0:0:0:
109,192,85460,1,0,0:0:0:0:
329,192,85522,1,0,0:0:0:0:
182,192,85522,1,0,0:0:0:0:
36,192,85522,128,0,85584:0:0:0:0:
475,192,85584,128,0,85646:0:0:0:0:
109,192,85584,128,0,85646:0:0:0:0:
402,192,85646,128,0,85708:0:0:0:0:
182,192,85646,128,0,85708:0:0:0:0:
329,192,85708,128,0,85770:0:0:0:0:
182,192,85770,128,0,86204:0:0:0:0:
256,192,85770,1,0,0:0:0:0:
36,192,85770,1,0,0:0:0:0:
475,192,85770,1,0,0:0:0:0:
109,192,85801,128,0,85956:0:0:0:0:
402,192,85832,1,0,0:0:0:0:
329,192,85894,1,0,0:0:0:0:
402,192,85956,1,0,0:0:0:0:
256,192,86018,1,0,0:0:0:0:
109,192,86018,1,0,0:0:0:0:
475,192,86018,128,0,86080:0:0:0:0:
402,192,86080,128,0,86142:0:0:0:0:
329,192,86142,128,0,86204:0:0:0:0:
36,192,86142,1,0,0:0:0:0:
475,192,86142,128,0,86204:0:0:0:0:
256,192,86204,128,0,86266:0:0:0:0:
402,192,86204,128,0,86266:0:0:0:0:
182,192,86266,1,0,0:0:0:0:
329,192,86266,128,0,87195:0:0:0:0:
109,192,86266,128,0,86390:0:0:0:0:
36,192,86328,128,0,86390:0:0:0:0:
256,192,86390,1,0,0:0:0:0:
182,192,86390,128,0,86514:0:0:0:0:
109,192,86452,128,0,86514:0:0:0:0:
402,192,86514,1,0,0:0:0:0:
256,192,86514,128,0,86638:0:0:0:0:
36,192,86514,128,0,86700:0:0:0:0:
182,192,86576,128,0,86638:0:0:0:0:
402,192,86638,128,0,86762:0:0:0:0:
475,192,86638,128,0,86762:0:0:0:0:
182,192,86700,1,0,0:0:0:0:
256,192,86700,128,0,86762:0:0:0:0:
109,192,86762,128,0,86823:0:0:0:0:
36,192,86762,128,0,86823:0:0:0:0:
182,192,86823,128,0,86885:0:0:0:0:
256,192,86823,128,0,86885:0:0:0:0:
402,192,86885,128,0,86947:0:0:0:0:
475,192,86885,128,0,86947:0:0:0:0:
182,192,86947,128,0,87009:0:0:0:0:
109,192,86947,128,0,87009:0:0:0:0:
256,192,87009,128,0,87071:0:0:0:0:
475,192,87009,128,0,87071:0:0:0:0:
402,192,87009,128,0,87071:0:0:0:0:
109,192,87071,128,0,87133:0:0:0:0:
36,192,87071,128,0,87133:0:0:0:0:
256,192,87133,128,0,87195:0:0:0:0:
182,192,87133,128,0,87195:0:0:0:0:
402,192,87195,128,0,87257:0:0:0:0:
475,192,87195,128,0,87257:0:0:0:0:
36,192,87257,128,0,87288:0:0:0:0:
109,192,87257,128,0,87319:0:0:0:0:
182,192,87278,128,0,87319:0:0:0:0:
256,192,87299,128,0,87319:0:0:0:0:
329,192,87381,128,0,87402:0:0:0:0:
256,192,87381,128,0,87423:0:0:0:0:
182,192,87381,128,0,87443:0:0:0:0:
109,192,87412,128,0,87443:0:0:0:0:
402,192,87505,128,0,87536:0:0:0:0:
329,192,87505,128,0,87567:0:0:0:0:
256,192,87526,128,0,87567:0:0:0:0:
182,192,87547,128,0,87567:0:0:0:0:
256,192,87629,128,0,87650:0:0:0:0:
402,192,87629,128,0,87691:0:0:0:0:
329,192,87629,128,0,87671:0:0:0:0:
475,192,87660,128,0,87691:0:0:0:0:
256,192,87753,128,0,87784:0:0:0:0:
182,192,87753,128,0,87815:0:0:0:0:
109,192,87774,128,0,87815:0:0:0:0:
36,192,87795,128,0,87815:0:0:0:0:
109,192,87877,128,0,87898:0:0:0:0:
182,192,87877,128,0,87919:0:0:0:0:
256,192,87877,128,0,87939:0:0:0:0:
329,192,87908,128,0,87939:0:0:0:0:
182,192,88001,128,0,88032:0:0:0:0:
256,192,88001,128,0,88063:0:0:0:0:
329,192,88022,128,0,88063:0:0:0:0:
402,192,88042,128,0,88063:0:0:0:0:
475,192,88125,128,0,88146:0:0:0:0:
402,192,88125,128,0,88166:0:0:0:0:
329,192,88125,128,0,88187:0:0:0:0:
256,192,88156,128,0,88187:0:0:0:0:
109,192,88249,128,0,89241:0:0:0:0:
182,192,88249,1,0,0:0:0:0:
36,192,88249,1,0,0:0:0:0:
402,192,88249,128,0,88621:0:0:0:0:
475,192,88249,128,0,88559:0:0:0:0:
329,192,88311,128,0,88621:0:0:0:0:
256,192,88373,128,0,88559:0:0:0:0:
182,192,88435,128,0,88497:0:0:0:0:
36,192,88497,1,0,0:0:0:0:
182,192,88559,1,0,0:0:0:0:
256,192,88621,1,0,0:0:0:0:
475,192,88621,128,0,89055:0:0:0:0:
402,192,88683,128,0,88993:0:0:0:0:
182,192,88683,1,0,0:0:0:0:
36,192,88745,1,0,0:0:0:0:
329,192,88745,128,0,88931:0:0:0:0:
256,192,88807,128,0,88869:0:0:0:0:
182,192,88869,128,0,88993:0:0:0:0:
256,192,88931,128,0,89055:0:0:0:0:
36,192,88993,1,0,0:0:0:0:
329,192,88993,128,0,89117:0:0:0:0:
402,192,89055,128,0,89179:0:0:0:0:
182,192,89055,1,0,0:0:0:0:
256,192,89117,1,0,0:0:0:0:
475,192,89117,128,0,89179:0:0:0:0:
182,192,89179,1,0,0:0:0:0:
475,192,89241,128,0,90398:0:0:0:0:
36,192,89241,128,0,89365:0:0:0:0:
402,192,89241,1,0,0:0:0:0:
329,192,89241,1,0,0:0:0:0:
109,192,89282,128,0,89406:0:0:0:0:
182,192,89323,128,0,89447:0:0:0:0:
256,192,89365,128,0,89489:0:0:0:0:
329,192,89406,128,0,89530:0:0:0:0:
402,192,89447,128,0,89571:0:0:0:0:
182,192,89489,128,0,89778:0:0:0:0:
109,192,89489,128,0,89819:0:0:0:0:
36,192,89489,128,0,89861:0:0:0:0:
402,192,89613,128,0,89654:0:0:0:0:
329,192,89613,128,0,89695:0:0:0:0:
256,192,89613,128,0,89737:0:0:0:0:
402,192,89737,128,0,89861:0:0:0:0:
329,192,89778,128,0,89902:0:0:0:0:
256,192,89819,128,0,89943:0:0:0:0:
182,192,89861,128,0,89985:0:0:0:0:
109,192,89902,128,0,90026:0:0:0:0:
36,192,89943,128,0,90067:0:0:0:0:
256,192,89985,128,0,90274:0:0:0:0:
329,192,89985,128,0,90315:0:0:0:0:
402,192,89985,128,0,90357:0:0:0:0:
182,192,90109,128,0,90233:0:0:0:0:
109,192,90109,128,0,90191:0:0:0:0:
36,192,90109,128,0,90150:0:0:0:0:
36,192,90233,128,0,90542:0:0:0:0:
109,192,90233,128,0,90295:0:0:0:0:
182,192,90295,128,0,90357:0:0:0:0:
256,192,90357,128,0,90419:0:0:0:0:
329,192,90419,128,0,90481:0:0:0:0:
402,192,90481,128,0,90542:0:0:0:0:
475,192,90481,128,0,90728:0:0:0:0:
182,192,90481,1,0,0:0:0:0:
109,192,90481,1,0,0:0:0:0:
329,192,90542,128,0,90604:0:0:0:0:
256,192,90604,128,0,90666:0:0:0:0:
182,192,90666,128,0,90728:0:0:0:0:
36,192,90728,128,0,90790:0:0:0:0:
109,192,90728,128,0,91038:0:0:0:0:
329,192,90728,1,0,0:0:0:0:
402,192,90728,1,0,0:0:0:0:
475,192,90790,128,0,90852:0:0:0:0:
402,192,90852,128,0,90914:0:0:0:0:
329,192,90914,128,0,90976:0:0:0:0:
256,192,90976,128,0,91286:0:0:0:0:
36,192,90976,128,0,91038:0:0:0:0:
475,192,90976,1,0,0:0:0:0:
402,192,90976,1,0,0:0:0:0:
182,192,91038,128,0,91100:0:0:0:0:
329,192,91100,128,0,91162:0:0:0:0:
402,192,91162,128,0,91224:0:0:0:0:
475,192,91224,128,0,91534:0:0:0:0:
109,192,91224,1,0,0:0:0:0:
36,192,91224,1,0,0:0:0:0:
182,192,91224,128,0,91286:0:0:0:0:
329,192,91286,128,0,91348:0:0:0:0:
256,192,91348,128,0,91410:0:0:0:0:
109,192,91348,128,0,91390:0:0:0:0:
36,192,91348,128,0,91390:0:0:0:0:
182,192,91410,128,0,91472:0:0:0:0:
329,192,91472,1,0,0:0:0:0:
402,192,91472,1,0,0:0:0:0:
256,192,91472,128,0,91782:0:0:0:0:
36,192,91472,128,0,91534:0:0:0:0:
109,192,91534,128,0,91596:0:0:0:0:
182,192,91596,128,0,91658:0:0:0:0:
402,192,91596,128,0,91638:0:0:0:0:
475,192,91596,128,0,91638:0:0:0:0:
329,192,91658,128,0,91720:0:0:0:0:
182,192,91720,1,0,0:0:0:0:
109,192,91720,1,0,0:0:0:0:
36,192,91720,128,0,92030:0:0:0:0:
475,192,91720,128,0,91782:0:0:0:0:
402,192,91782,128,0,91844:0:0:0:0:
329,192,91844,128,0,91906:0:0:0:0:
182,192,91844,128,0,91885:0:0:0:0:
109,192,91844,128,0,91885:0:0:0:0:
256,192,91906,128,0,91968:0:0:0:0:
402,192,91968,1,0,0:0:0:0:
475,192,91968,1,0,0:0:0:0:
329,192,91968,128,0,92278:0:0:0:0:
182,192,91968,128,0,92030:0:0:0:0:
109,192,92030,128,0,92092:0:0:0:0:
36,192,92092,128,0,92154:0:0:0:0:
402,192,92092,128,0,92133:0:0:0:0:
475,192,92092,128,0,92133:0:0:0:0:
256,192,92154,128,0,92216:0:0:0:0:
182,192,92216,1,0,0:0:0:0:
109,192,92216,1,0,0:0:0:0:
475,192,92216,128,0,92526:0:0:0:0:
402,192,92278,128,0,92340:0:0:0:0:
36,192,92340,128,0,92381:0:0:0:0:
182,192,92340,128,0,92381:0:0:0:0:
109,192,92350,128,0,92381:0:0:0:0:
256,192,92402,128,0,92464:0:0:0:0:
109,192,92464,128,0,92774:0:0:0:0:
402,192,92464,1,0,0:0:0:0:
329,192,92464,1,0,0:0:0:0:
36,192,92526,128,0,92588:0:0:0:0:
329,192,92588,128,0,92629:0:0:0:0:
475,192,92588,128,0,92629:0:0:0:0:
402,192,92598,128,0,92629:0:0:0:0:
256,192,92650,128,0,92712:0:0:0:0:
402,192,92712,128,0,93022:0:0:0:0:
182,192,92712,128,0,92774:0:0:0:0:
36,192,92774,128,0,92836:0:0:0:0:
109,192,92836,128,0,92898:0:0:0:0:
329,192,92836,1,0,0:0:0:0:
475,192,92836,1,0,0:0:0:0:
182,192,92898,128,0,92960:0:0:0:0:
36,192,92960,128,0,93270:0:0:0:0:
256,192,92960,128,0,93022:0:0:0:0:
109,192,92960,1,0,0:0:0:0:
329,192,93022,128,0,93084:0:0:0:0:
182,192,93022,1,0,0:0:0:0:
402,192,93084,128,0,93146:0:0:0:0:
256,192,93084,1,0,0:0:0:0:
475,192,93146,128,0,93208:0:0:0:0:
329,192,93146,1,0,0:0:0:0:
256,192,93208,128,0,93518:0:0:0:0:
109,192,93208,128,0,93270:0:0:0:0:
402,192,93208,1,0,0:0:0:0:
182,192,93270,128,0,93332:0:0:0:0:
36,192,93332,128,0,93394:0:0:0:0:
402,192,93332,1,0,0:0:0:0:
329,192,93332,1,0,0:0:0:0:
475,192,93332,128,0,93394:0:0:0:0:
109,192,93394,128,0,93456:0:0:0:0:
475,192,93456,128,0,93766:0:0:0:0:
182,192,93456,128,0,93518:0:0:0:0:
36,192,93456,1,0,0:0:0:0:
329,192,93518,128,0,93580:0:0:0:0:
109,192,93518,1,0,0:0:0:0:
402,192,93580,128,0,93642:0:0:0:0:
182,192,93580,1,0,0:0:0:0:
256,192,93642,1,0,0:0:0:0:
402,192,93704,128,0,93828:0:0:0:0:
329,192,93704,128,0,93890:0:0:0:0:
256,192,93704,128,0,93952:0:0:0:0:
182,192,93704,128,0,94014:0:0:0:0:
109,192,93704,128,0,94076:0:0:0:0:
36,192,93704,128,0,94138:0:0:0:0:
109,192,94200,1,0,0:0:0:0:
36,192,94200,128,0,94303:0:0:0:0:
182,192,94220,128,0,94303:0:0:0:0:
402,192,94262,1,0,0:0:0:0:
475,192,94262,128,0,94365:0:0:0:0:
329,192,94282,128,0,94365:0:0:0:0:
109,192,94323,1,0,0:0:0:0:
36,192,94323,1,0,0:0:0:0:
182,192,94323,1,0,0:0:0:0:
402,192,94385,1,0,0:0:0:0:
475,192,94385,1,0,0:0:0:0:
329,192,94406,128,0,94489:0:0:0:0:
109,192,94447,1,0,0:0:0:0:
36,192,94447,128,0,94551:0:0:0:0:
182,192,94468,128,0,94551:0:0:0:0:
475,192,94509,1,0,0:0:0:0:
402,192,94509,1,0,0:0:0:0:
329,192,94530,1,0,0:0:0:0:
256,192,94571,1,0,0:0:0:0:
182,192,94571,1,0,0:0:0:0:
109,192,94571,1,0,0:0:0:0:
36,192,94571,1,0,0:0:0:0:
256,192,94695,1,0,0:0:0:0:
402,192,94695,1,0,0:0:0:0:
475,192,94695,1,0,0:0:0:0:
329,192,94695,1,0,0:0:0:0:
256,192,94819,1,0,0:0:0:0:
109,192,94819,1,0,0:0:0:0:
182,192,94819,1,0,0:0:0:0:
36,192,94819,1,0,0:0:0:0:
256,192,94943,1,0,0:0:0:0:
329,192,94943,1,0,0:0:0:0:
475,192,94943,1,0,0:0:0:0:
402,192,94943,1,0,0:0:0:0:
256,192,95067,1,0,0:0:0:0:
182,192,95067,1,0,0:0:0:0:
109,192,95067,1,0,0:0:0:0:
36,192,95067,1,0,0:0:0:0:
329,192,95191,1,0,0:0:0:0:
475,192,95191,1,0,0:0:0:0:
402,192,95191,128,0,95253:0:0:0:0:
329,192,95315,1,0,0:0:0:0:
182,192,95315,1,0,0:0:0:0:
256,192,95315,128,0,95377:0:0:0:0:
182,192,95439,1,0,0:0:0:0:
36,192,95439,1,0,0:0:0:0:
109,192,95439,128,0,95501:0:0:0:0:
256,192,95563,1,0,0:0:0:0:
329,192,95563,1,0,0:0:0:0:
402,192,95563,1,0,0:0:0:0:
182,192,95625,1,0,0:0:0:0:
109,192,95625,1,0,0:0:0:0:
36,192,95625,1,0,0:0:0:0:
329,192,95687,1,0,0:0:0:0:
475,192,95687,1,0,0:0:0:0:
402,192,95687,128,0,95749:0:0:0:0:
329,192,95811,1,0,0:0:0:0:
182,192,95811,1,0,0:0:0:0:
256,192,95811,128,0,95873:0:0:0:0:
182,192,95935,128,0,96121:0:0:0:0:
109,192,95935,128,0,96121:0:0:0:0:
36,192,95935,128,0,96121:0:0:0:0:
36,192,96183,128,0,96224:0:0:0:0:
109,192,96193,128,0,96224:0:0:0:0:
182,192,96245,1,0,0:0:0:0:
36,192,96307,128,0,96348:0:0:0:0:
109,192,96317,128,0,96348:0:0:0:0:
182,192,96369,1,0,0:0:0:0:
109,192,96431,1,0,0:0:0:0:
36,192,96431,1,0,0:0:0:0:
402,192,96431,1,0,0:0:0:0:
475,192,96431,1,0,0:0:0:0:
182,192,96493,1,0,0:0:0:0:
329,192,96493,1,0,0:0:0:0:
109,192,96555,1,0,0:0:0:0:
36,192,96555,1,0,0:0:0:0:
402,192,96555,1,0,0:0:0:0:
475,192,96555,1,0,0:0:0:0:
182,192,96617,1,0,0:0:0:0:
329,192,96617,1,0,0:0:0:0:
256,192,96679,1,0,0:0:0:0:
109,192,96679,1,0,0:0:0:0:
36,192,96679,1,0,0:0:0:0:
475,192,96679,1,0,0:0:0:0:
402,192,96679,1,0,0:0:0:0:
109,192,96803,1,0,0:0:0:0:
36,192,96803,1,0,0:0:0:0:
256,192,96803,1,0,0:0:0:0:
402,192,96803,1,0,0:0:0:0:
475,192,96803,1,0,0:0:0:0:
402,192,96927,1,0,0:0:0:0:
329,192,96927,1,0,0:0:0:0:
182,192,96927,1,0,0:0:0:0:
109,192,96927,1,0,0:0:0:0:
182,192,97051,1,0,0:0:0:0:
402,192,97051,1,0,0:0:0:0:
329,192,97051,1,0,0:0:0:0:
109,192,97051,1,0,0:0:0:0:
109,192,97175,1,0,0:0:0:0:
182,192,97206,1,0,0:0:0:0:
329,192,97237,1,0,0:0:0:0:
402,192,97268,1,0,0:0:0:0:
109,192,97299,1,0,0:0:0:0:
182,192,97330,1,0,0:0:0:0:
329,192,97361,1,0,0:0:0:0:
402,192,97392,1,0,0:0:0:0:
36,192,97423,1,0,0:0:0:0:
109,192,97443,1,0,0:0:0:0:
182,192,97464,1,0,0:0:0:0:
329,192,97485,1,0,0:0:0:0:
402,192,97505,1,0,0:0:0:0:
475,192,97526,1,0,0:0:0:0:
36,192,97547,1,0,0:0:0:0:
109,192,97567,1,0,0:0:0:0:
182,192,97588,1,0,0:0:0:0:
329,192,97609,1,0,0:0:0:0:
402,192,97629,1,0,0:0:0:0:
475,192,97650,1,0,0:0:0:0:
36,192,97671,1,0,0:0:0:0:
109,192,97691,1,0,0:0:0:0:
182,192,97712,1,0,0:0:0:0:
256,192,97733,1,0,0:0:0:0:
329,192,97753,1,0,0:0:0:0:
402,192,97774,1,0,0:0:0:0:
475,192,97795,1,0,0:0:0:0:
36,192,97815,1,0,0:0:0:0:
109,192,97836,1,0,0:0:0:0:
182,192,97857,1,0,0:0:0:0:
256,192,97877,1,0,0:0:0:0:
329,192,97898,1,0,0:0:0:0:
402,192,97919,1,0,0:0:0:0:
475,192,97939,1,0,0:0:0:0:
36,192,97960,1,0,0:0:0:0:
109,192,97981,1,0,0:0:0:0:
182,192,98001,1,0,0:0:0:0:
256,192,98022,1,0,0:0:0:0:
329,192,98042,1,0,0:0:0:0:
402,192,98063,1,0,0:0:0:0:
475,192,98084,1,0,0:0:0:0:
36,192,98104,128,0,98166:0:0:0:0:
109,192,98135,128,0,98166:0:0:0:0:
182,192,98166,1,0,0:0:0:0:
329,192,98166,128,0,98259:0:0:0:0:
402,192,98166,128,0,98228:0:0:0:0:
475,192,98166,128,0,98197:0:0:0:0:
256,192,98166,1,0,0:0:0:0:
329,192,98290,128,0,98414:0:0:0:0:
475,192,98290,1,0,0:0:0:0:
256,192,98290,1,0,0:0:0:0:
182,192,98290,1,0,0:0:0:0:
402,192,98321,1,0,0:0:0:0:
182,192,98414,128,0,98445:0:0:0:0:
109,192,98414,128,0,98476:0:0:0:0:
36,192,98414,128,0,98507:0:0:0:0:
256,192,98414,1,0,0:0:0:0:
256,192,98518,1,0,0:0:0:0:
36,192,98538,128,0,98662:0:0:0:0:
182,192,98538,1,0,0:0:0:0:
109,192,98559,1,0,0:0:0:0:
475,192,98662,128,0,98755:0:0:0:0:
402,192,98662,128,0,98724:0:0:0:0:
329,192,98662,128,0,98693:0:0:0:0:
109,192,98662,1,0,0:0:0:0:
182,192,98693,1,0,0:0:0:0:
256,192,98724,1,0,0:0:0:0:
329,192,98755,1,0,0:0:0:0:
475,192,98786,128,0,98910:0:0:0:0:
402,192,98786,1,0,0:0:0:0:
182,192,98786,128,0,98817:0:0:0:0:
109,192,98786,128,0,98848:0:0:0:0:
36,192,98786,128,0,98879:0:0:0:0:
256,192,98786,1,0,0:0:0:0:
256,192,98890,1,0,0:0:0:0:
36,192,98910,128,0,99034:0:0:0:0:
182,192,98910,1,0,0:0:0:0:
329,192,98910,128,0,98972:0:0:0:0:
402,192,98910,128,0,99096:0:0:0:0:
109,192,98931,1,0,0:0:0:0:
329,192,99014,1,0,0:0:0:0:
256,192,99034,1,0,0:0:0:0:
182,192,99055,1,0,0:0:0:0:
109,192,99096,1,0,0:0:0:0:
475,192,99158,128,0,99282:0:0:0:0:
36,192,99158,128,0,99251:0:0:0:0:
109,192,99189,128,0,99251:0:0:0:0:
182,192,99220,128,0,99251:0:0:0:0:
256,192,99251,1,0,0:0:0:0:
402,192,99282,128,0,99313:0:0:0:0:
109,192,99282,1,0,0:0:0:0:
182,192,99282,1,0,0:0:0:0:
36,192,99282,1,0,0:0:0:0:
329,192,99313,128,0,99344:0:0:0:0:
256,192,99344,128,0,99375:0:0:0:0:
182,192,99375,128,0,99406:0:0:0:0:
109,192,99406,128,0,99437:0:0:0:0:
475,192,99406,128,0,99499:0:0:0:0:
402,192,99406,128,0,99468:0:0:0:0:
329,192,99406,128,0,99437:0:0:0:0:
182,192,99468,1,0,0:0:0:0:
256,192,99499,1,0,0:0:0:0:
36,192,99530,128,0,99592:0:0:0:0:
109,192,99530,1,0,0:0:0:0:
329,192,99530,1,0,0:0:0:0:
402,192,99561,1,0,0:0:0:0:
475,192,99592,1,0,0:0:0:0:
36,192,99654,128,0,99778:0:0:0:0:
475,192,99654,128,0,99747:0:0:0:0:
402,192,99685,128,0,99747:0:0:0:0:
329,192,99716,128,0,99747:0:0:0:0:
256,192,99747,1,0,0:0:0:0:
402,192,99778,1,0,0:0:0:0:
109,192,99778,128,0,99809:0:0:0:0:
329,192,99778,1,0,0:0:0:0:
475,192,99778,1,0,0:0:0:0:
182,192,99809,128,0,99840:0:0:0:0:
256,192,99840,128,0,99871:0:0:0:0:
329,192,99871,128,0,99902:0:0:0:0:
182,192,99902,128,0,99933:0:0:0:0:
402,192,99902,128,0,99933:0:0:0:0:
36,192,99902,128,0,99995:0:0:0:0:
109,192,99902,128,0,99964:0:0:0:0:
329,192,99964,1,0,0:0:0:0:
256,192,99995,1,0,0:0:0:0:
182,192,100026,1,0,0:0:0:0:
475,192,100026,128,0,100088:0:0:0:0:
402,192,100026,1,0,0:0:0:0:
109,192,100057,1,0,0:0:0:0:
36,192,100088,1,0,0:0:0:0:
475,192,100150,128,0,100274:0:0:0:0:
36,192,100150,128,0,100243:0:0:0:0:
109,192,100181,128,0,100243:0:0:0:0:
182,192,100212,128,0,100243:0:0:0:0:
256,192,100243,1,0,0:0:0:0:
402,192,100274,128,0,100305:0:0:0:0:
109,192,100274,1,0,0:0:0:0:
182,192,100274,1,0,0:0:0:0:
36,192,100274,1,0,0:0:0:0:
329,192,100305,128,0,100336:0:0:0:0:
256,192,100336,128,0,100367:0:0:0:0:
182,192,100367,128,0,100398:0:0:0:0:
109,192,100398,128,0,100429:0:0:0:0:
475,192,100398,128,0,100491:0:0:0:0:
402,192,100398,128,0,100460:0:0:0:0:
329,192,100398,128,0,100429:0:0:0:0:
182,192,100460,1,0,0:0:0:0:
256,192,100491,1,0,0:0:0:0:
36,192,100522,128,0,100584:0:0:0:0:
109,192,100522,1,0,0:0:0:0:
329,192,100522,1,0,0:0:0:0:
402,192,100553,1,0,0:0:0:0:
475,192,100584,1,0,0:0:0:0:
36,192,100646,128,0,100770:0:0:0:0:
475,192,100646,128,0,100739:0:0:0:0:
402,192,100677,128,0,100739:0:0:0:0:
329,192,100708,128,0,100739:0:0:0:0:
256,192,100739,1,0,0:0:0:0:
402,192,100770,1,0,0:0:0:0:
109,192,100770,128,0,100801:0:0:0:0:
329,192,100770,1,0,0:0:0:0:
475,192,100770,1,0,0:0:0:0:
182,192,100801,128,0,100832:0:0:0:0:
256,192,100832,128,0,100863:0:0:0:0:
329,192,100863,128,0,100894:0:0:0:0:
182,192,100894,128,0,100925:0:0:0:0:
402,192,100894,128,0,100925:0:0:0:0:
36,192,100894,128,0,100987:0:0:0:0:
109,192,100894,128,0,100956:0:0:0:0:
329,192,100956,1,0,0:0:0:0:
256,192,100987,1,0,0:0:0:0:
182,192,101018,1,0,0:0:0:0:
475,192,101018,128,0,101080:0:0:0:0:
402,192,101018,1,0,0:0:0:0:
109,192,101049,1,0,0:0:0:0:
36,192,101080,1,0,0:0:0:0:
475,192,101142,1,0,0:0:0:0:
36,192,101142,128,0,101266:0:0:0:0:
402,192,101173,1,0,0:0:0:0:
109,192,101173,128,0,101266:0:0:0:0:
329,192,101204,1,0,0:0:0:0:
182,192,101204,128,0,101266:0:0:0:0:
256,192,101235,128,0,101266:0:0:0:0:
402,192,101266,128,0,101297:0:0:0:0:
329,192,101297,128,0,101328:0:0:0:0:
256,192,101328,128,0,101359:0:0:0:0:
182,192,101359,128,0,101390:0:0:0:0:
109,192,101390,128,0,101421:0:0:0:0:
36,192,101421,128,0,101607:0:0:0:0:
182,192,101452,1,0,0:0:0:0:
256,192,101483,1,0,0:0:0:0:
329,192,101514,1,0,0:0:0:0:
402,192,101545,1,0,0:0:0:0:
475,192,101576,1,0,0:0:0:0:
36,192,101638,1,0,0:0:0:0:
475,192,101638,128,0,101762:0:0:0:0:
402,192,101669,128,0,101762:0:0:0:0:
109,192,101669,1,0,0:0:0:0:
329,192,101700,128,0,101762:0:0:0:0:
182,192,101700,1,0,0:0:0:0:
256,192,101731,128,0,101762:0:0:0:0:
109,192,101762,128,0,101792:0:0:0:0:
182,192,101792,128,0,101823:0:0:0:0:
256,192,101823,128,0,101854:0:0:0:0:
329,192,101854,128,0,101885:0:0:0:0:
402,192,101885,128,0,101916:0:0:0:0:
475,192,101916,128,0,102102:0:0:0:0:
329,192,101947,1,0,0:0:0:0:
256,192,101978,1,0,0:0:0:0:
182,192,102009,1,0,0:0:0:0:
109,192,102040,1,0,0:0:0:0:
36,192,102071,1,0,0:0:0:0:
475,192,102133,128,0,102164:0:0:0:0:
402,192,102133,128,0,102164:0:0:0:0:
329,192,102133,128,0,102164:0:0:0:0:
182,192,102133,128,0,102381:0:0:0:0:
329,192,102257,128,0,102288:0:0:0:0:
402,192,102257,128,0,102288:0:0:0:0:
475,192,102257,128,0,102288:0:0:0:0:
475,192,102381,1,0,0:0:0:0:
402,192,102381,1,0,0:0:0:0:
329,192,102381,1,0,0:0:0:0:
402,192,102629,128,0,102660:0:0:0:0:
109,192,102629,128,0,102660:0:0:0:0:
182,192,102629,1,0,0:0:0:0:
329,192,102629,1,0,0:0:0:0:
256,192,102753,128,0,102784:0:0:0:0:
109,192,102877,128,0,102908:0:0:0:0:
402,192,102877,128,0,102908:0:0:0:0:
329,192,102877,1,0,0:0:0:0:
182,192,102877,1,0,0:0:0:0:
36,192,103001,128,0,103032:0:0:0:0:
475,192,103001,128,0,103032:0:0:0:0:
402,192,103125,128,0,103156:0:0:0:0:
256,192,103125,128,0,103156:0:0:0:0:
109,192,103125,128,0,103156:0:0:0:0:
182,192,103125,1,0,0:0:0:0:
36,192,103125,128,0,103249:0:0:0:0:
329,192,103249,128,0,103280:0:0:0:0:
182,192,103249,128,0,103497:0:0:0:0:
329,192,103497,128,0,103993:0:0:0:0:
475,192,103497,128,0,103528:0:0:0:0:
475,192,103745,128,0,103776:0:0:0:0:
402,192,103807,128,0,103838:0:0:0:0:
256,192,103869,128,0,103900:0:0:0:0:
109,192,103993,128,0,104024:0:0:0:0:
256,192,104117,128,0,104148:0:0:0:0:
402,192,104117,128,0,104148:0:0:0:0:
475,192,104117,128,0,104148:0:0:0:0:
36,192,104117,1,0,0:0:0:0:
475,192,104241,128,0,104272:0:0:0:0:
402,192,104241,128,0,104272:0:0:0:0:
256,192,104241,128,0,104272:0:0:0:0:
109,192,104241,1,0,0:0:0:0:
256,192,104365,128,0,105109:0:0:0:0:
182,192,104365,1,0,0:0:0:0:
475,192,104613,128,0,104644:0:0:0:0:
402,192,104613,128,0,105109:0:0:0:0:
475,192,104737,128,0,104768:0:0:0:0:
329,192,104737,128,0,104768:0:0:0:0:
329,192,104861,128,0,104892:0:0:0:0:
182,192,104861,128,0,104892:0:0:0:0:
182,192,104985,128,0,105016:0:0:0:0:
36,192,104985,128,0,105016:0:0:0:0:
109,192,104985,128,0,105481:0:0:0:0:
182,192,105109,1,0,0:0:0:0:
36,192,105109,1,0,0:0:0:0:
329,192,105109,1,0,0:0:0:0:
475,192,105109,1,0,0:0:0:0:
329,192,105233,128,0,105852:0:0:0:0:
256,192,105357,1,0,0:0:0:0:
182,192,105481,128,0,105852:0:0:0:0:
475,192,105481,128,0,105852:0:0:0:0:
36,192,105481,128,0,105852:0:0:0:0:
109,192,105728,128,0,105759:0:0:0:0:
402,192,105728,128,0,105759:0:0:0:0:
256,192,105790,128,0,105821:0:0:0:0:
109,192,105852,128,0,105883:0:0:0:0:
402,192,105852,128,0,105883:0:0:0:0:
109,192,105976,128,0,106007:0:0:0:0:
402,192,105976,128,0,106007:0:0:0:0:
256,192,105976,128,0,106007:0:0:0:0:
402,192,106100,128,0,106131:0:0:0:0:
475,192,106100,128,0,106534:0:0:0:0:
36,192,106100,128,0,106131:0:0:0:0:
329,192,106224,128,0,106255:0:0:0:0:
109,192,106224,128,0,106255:0:0:0:0:
256,192,106348,128,0,106379:0:0:0:0:
182,192,106348,128,0,106379:0:0:0:0:
182,192,106596,128,0,106627:0:0:0:0:
109,192,106596,128,0,106627:0:0:0:0:
36,192,106596,128,0,106627:0:0:0:0:
256,192,106596,128,0,106658:0:0:0:0:
329,192,106596,128,0,106782:0:0:0:0:
402,192,106596,128,0,106906:0:0:0:0:
475,192,106596,128,0,107030:0:0:0:0:
182,192,106720,128,0,106751:0:0:0:0:
256,192,106720,128,0,106751:0:0:0:0:
109,192,106720,128,0,106751:0:0:0:0:
182,192,106844,128,0,106875:0:0:0:0:
329,192,106844,128,0,106875:0:0:0:0:
256,192,106844,128,0,106875:0:0:0:0:
256,192,106968,128,0,106999:0:0:0:0:
329,192,106968,128,0,106999:0:0:0:0:
402,192,106968,128,0,106999:0:0:0:0:
182,192,107092,1,0,0:0:0:0:
109,192,107092,1,0,0:0:0:0:
36,192,107092,1,0,0:0:0:0:
329,192,107092,128,0,107133:0:0:0:0:
475,192,107092,128,0,107133:0:0:0:0:
402,192,107102,128,0,107133:0:0:0:0:
402,192,107216,128,0,107257:0:0:0:0:
256,192,107216,128,0,107257:0:0:0:0:
36,192,107216,128,0,108084:0:0:0:0:
329,192,107226,128,0,107257:0:0:0:0:
329,192,107464,128,0,107505:0:0:0:0:
182,192,107464,128,0,107505:0:0:0:0:
475,192,107464,128,0,108084:0:0:0:0:
256,192,107474,128,0,107505:0:0:0:0:
109,192,107712,128,0,107743:0:0:0:0:
402,192,107712,128,0,107743:0:0:0:0:
256,192,107712,128,0,107743:0:0:0:0:
182,192,107774,128,0,107805:0:0:0:0:
329,192,107774,128,0,107805:0:0:0:0:
109,192,107836,128,0,107867:0:0:0:0:
402,192,107836,128,0,107867:0:0:0:0:
256,192,107836,128,0,107867:0:0:0:0:
256,192,107960,128,0,107991:0:0:0:0:
109,192,107960,128,0,107991:0:0:0:0:
402,192,107960,128,0,107991:0:0:0:0:
402,192,108084,128,0,108146:0:0:0:0:
329,192,108084,1,0,0:0:0:0:
256,192,108084,1,0,0:0:0:0:
182,192,108084,1,0,0:0:0:0:
109,192,108084,1,0,0:0:0:0:
329,192,108208,128,0,108270:0:0:0:0:
256,192,108208,1,0,0:0:0:0:
182,192,108208,1,0,0:0:0:0:
109,192,108208,1,0,0:0:0:0:
256,192,108332,128,0,108394:0:0:0:0:
109,192,108332,1,0,0:0:0:0:
182,192,108332,1,0,0:0:0:0:
182,192,108456,128,0,108518:0:0:0:0:
109,192,108456,1,0,0:0:0:0:
36,192,108580,1,0,0:0:0:0:
402,192,108580,1,0,0:0:0:0:
475,192,108580,1,0,0:0:0:0:
329,192,108580,1,0,0:0:0:0:
256,192,108580,128,0,108642:0:0:0:0:
475,192,108704,1,0,0:0:0:0:
402,192,108704,1,0,0:0:0:0:
329,192,108704,128,0,108766:0:0:0:0:
36,192,108704,1,0,0:0:0:0:
402,192,108828,128,0,108890:0:0:0:0:
475,192,108828,1,0,0:0:0:0:
36,192,108828,1,0,0:0:0:0:
329,192,108828,1,0,0:0:0:0:
475,192,108952,128,0,109014:0:0:0:0:
36,192,108952,1,0,0:0:0:0:
329,192,108952,1,0,0:0:0:0:
402,192,108952,1,0,0:0:0:0:
475,192,109076,1,0,0:0:0:0:
182,192,109076,128,0,109117:0:0:0:0:
109,192,109076,128,0,109117:0:0:0:0:
36,192,109076,128,0,109117:0:0:0:0:
36,192,109200,1,0,0:0:0:0:
109,192,109200,1,0,0:0:0:0:
182,192,109200,1,0,0:0:0:0:
475,192,109200,128,0,109262:0:0:0:0:
36,192,109323,1,0,0:0:0:0:
402,192,109323,128,0,109365:0:0:0:0:
329,192,109323,128,0,109365:0:0:0:0:
256,192,109323,128,0,109365:0:0:0:0:
256,192,109447,1,0,0:0:0:0:
329,192,109447,1,0,0:0:0:0:
402,192,109447,1,0,0:0:0:0:
36,192,109447,128,0,109509:0:0:0:0:
475,192,109571,1,0,0:0:0:0:
256,192,109571,128,0,109613:0:0:0:0:
182,192,109571,128,0,109613:0:0:0:0:
109,192,109571,128,0,109613:0:0:0:0:
109,192,109695,1,0,0:0:0:0:
182,192,109695,1,0,0:0:0:0:
256,192,109695,1,0,0:0:0:0:
475,192,109695,1,0,0:0:0:0:
36,192,109819,1,0,0:0:0:0:
329,192,109819,128,0,109861:0:0:0:0:
402,192,109819,128,0,109861:0:0:0:0:
475,192,109819,128,0,109861:0:0:0:0:
329,192,109943,1,0,0:0:0:0:
402,192,109943,1,0,0:0:0:0:
475,192,109943,1,0,0:0:0:0:
36,192,109943,1,0,0:0:0:0:
256,192,110067,1,0,0:0:0:0:
109,192,110067,128,0,110315:0:0:0:0:
182,192,110067,128,0,111121:0:0:0:0:
329,192,110315,128,0,110563:0:0:0:0:
475,192,110563,1,0,0:0:0:0:
402,192,110625,1,0,0:0:0:0:
329,192,110687,1,0,0:0:0:0:
109,192,110749,1,0,0:0:0:0:
36,192,110811,1,0,0:0:0:0:
475,192,110873,1,0,0:0:0:0:
402,192,110935,1,0,0:0:0:0:
329,192,110997,1,0,0:0:0:0:
36,192,111059,1,0,0:0:0:0:
109,192,111121,1,0,0:0:0:0:
182,192,111183,1,0,0:0:0:0:
329,192,111245,1,0,0:0:0:0:
402,192,111307,1,0,0:0:0:0:
475,192,111369,1,0,0:0:0:0:
402,192,111431,1,0,0:0:0:0:
329,192,111493,1,0,0:0:0:0:
182,192,111555,1,0,0:0:0:0:
36,192,111586,128,0,112082:0:0:0:0:
109,192,111617,1,0,0:0:0:0:
256,192,111679,1,0,0:0:0:0:
182,192,111741,1,0,0:0:0:0:
329,192,111803,1,0,0:0:0:0:
256,192,111865,1,0,0:0:0:0:
402,192,111927,1,0,0:0:0:0:
329,192,111989,1,0,0:0:0:0:
256,192,112051,1,0,0:0:0:0:
182,192,112082,128,0,113073:0:0:0:0:
402,192,112113,1,0,0:0:0:0:
329,192,112175,1,0,0:0:0:0:
475,192,112237,1,0,0:0:0:0:
402,192,112299,1,0,0:0:0:0:
329,192,112361,128,0,112423:0:0:0:0:
256,192,112423,128,0,112547:0:0:0:0:
109,192,112485,128,0,112671:0:0:0:0:
36,192,112547,128,0,112795:0:0:0:0:
402,192,112547,128,0,112609:0:0:0:0:
329,192,112609,128,0,112671:0:0:0:0:
256,192,112671,128,0,112733:0:0:0:0:
109,192,112733,128,0,112795:0:0:0:0:
256,192,112795,128,0,112857:0:0:0:0:
329,192,112857,128,0,112981:0:0:0:0:
402,192,112919,128,0,113104:0:0:0:0:
475,192,112981,128,0,113228:0:0:0:0:
109,192,113042,128,0,113104:0:0:0:0:
36,192,113042,1,0,0:0:0:0:
329,192,113073,128,0,114065:0:0:0:0:
182,192,113104,128,0,113166:0:0:0:0:
256,192,113166,128,0,113228:0:0:0:0:
36,192,113166,1,0,0:0:0:0:
402,192,113228,128,0,113290:0:0:0:0:
36,192,113290,1,0,0:0:0:0:
475,192,113290,128,0,113352:0:0:0:0:
402,192,113352,128,0,113414:0:0:0:0:
109,192,113414,1,0,0:0:0:0:
182,192,113414,1,0,0:0:0:0:
36,192,113476,128,0,113538:0:0:0:0:
256,192,113538,1,0,0:0:0:0:
402,192,113538,1,0,0:0:0:0:
475,192,113538,1,0,0:0:0:0:
182,192,113662,1,0,0:0:0:0:
109,192,113662,1,0,0:0:0:0:
36,192,113662,1,0,0:0:0:0:
256,192,113786,1,0,0:0:0:0:
402,192,113786,1,0,0:0:0:0:
475,192,113786,1,0,0:0:0:0:
109,192,113910,1,0,0:0:0:0:
182,192,113910,1,0,0:0:0:0:
36,192,113910,1,0,0:0:0:0:
256,192,114034,128,0,114096:0:0:0:0:
402,192,114034,128,0,114096:0:0:0:0:
475,192,114050,1,0,0:0:0:0:
329,192,114158,128,0,114220:0:0:0:0:
182,192,114158,128,0,114220:0:0:0:0:
402,192,114174,1,0,0:0:0:0:
256,192,114282,128,0,114344:0:0:0:0:
109,192,114282,128,0,114344:0:0:0:0:
329,192,114298,1,0,0:0:0:0:
182,192,114406,128,0,114468:0:0:0:0:
36,192,114406,128,0,114468:0:0:0:0:
256,192,114422,1,0,0:0:0:0:
109,192,114530,128,0,114592:0:0:0:0:
402,192,114530,1,0,0:0:0:0:
329,192,114530,1,0,0:0:0:0:
475,192,114530,128,0,114778:0:0:0:0:
36,192,114530,128,0,114592:0:0:0:0:
182,192,114592,128,0,114654:0:0:0:0:
256,192,114654,128,0,114716:0:0:0:0:
329,192,114716,128,0,114778:0:0:0:0:
402,192,114778,128,0,114840:0:0:0:0:
109,192,114778,128,0,114840:0:0:0:0:
36,192,114778,128,0,115026:0:0:0:0:
256,192,114778,1,0,0:0:0:0:
182,192,114840,128,0,114902:0:0:0:0:
256,192,114902,128,0,114964:0:0:0:0:
329,192,114964,128,0,115026:0:0:0:0:
402,192,115026,128,0,115088:0:0:0:0:
109,192,115026,1,0,0:0:0:0:
475,192,115026,128,0,115274:0:0:0:0:
329,192,115088,128,0,115150:0:0:0:0:
256,192,115150,128,0,115212:0:0:0:0:
182,192,115212,128,0,115274:0:0:0:0:
109,192,115274,128,0,115336:0:0:0:0:
402,192,115274,128,0,115336:0:0:0:0:
36,192,115274,1,0,0:0:0:0:
329,192,115336,128,0,115398:0:0:0:0:
256,192,115398,128,0,115460:0:0:0:0:
182,192,115460,128,0,115522:0:0:0:0:
402,192,115522,128,0,115894:0:0:0:0:
329,192,115522,128,0,115584:0:0:0:0:
109,192,115522,128,0,115584:0:0:0:0:
475,192,115522,1,0,0:0:0:0:
36,192,115584,128,0,115646:0:0:0:0:
256,192,115646,128,0,115770:0:0:0:0:
329,192,115646,1,0,0:0:0:0:
182,192,115708,128,0,115832:0:0:0:0:
109,192,115770,128,0,115894:0:0:0:0:
329,192,115770,1,0,0:0:0:0:
36,192,115832,128,0,115956:0:0:0:0:
329,192,115894,1,0,0:0:0:0:
182,192,115894,128,0,116018:0:0:0:0:
256,192,115956,128,0,116080:0:0:0:0:
329,192,116018,128,0,116266:0:0:0:0:
109,192,116018,128,0,116080:0:0:0:0:
36,192,116018,128,0,116080:0:0:0:0:
402,192,116080,1,0,0:0:0:0:
36,192,116142,128,0,116266:0:0:0:0:
475,192,116142,1,0,0:0:0:0:
109,192,116204,128,0,116328:0:0:0:0:
402,192,116204,1,0,0:0:0:0:
256,192,116266,128,0,116514:0:0:0:0:
182,192,116266,128,0,116328:0:0:0:0:
329,192,116328,1,0,0:0:0:0:
475,192,116390,128,0,116514:0:0:0:0:
182,192,116390,1,0,0:0:0:0:
402,192,116452,128,0,116576:0:0:0:0:
109,192,116452,1,0,0:0:0:0:
182,192,116514,128,0,116762:0:0:0:0:
329,192,116514,128,0,116576:0:0:0:0:
36,192,116514,1,0,0:0:0:0:
329,192,116638,128,0,116700:0:0:0:0:
402,192,116638,128,0,116700:0:0:0:0:
475,192,116638,128,0,116700:0:0:0:0:
475,192,116762,128,0,116823:0:0:0:0:
402,192,116762,128,0,116823:0:0:0:0:
329,192,116762,128,0,116823:0:0:0:0:
109,192,116762,1,0,0:0:0:0:
36,192,116762,1,0,0:0:0:0:
256,192,116762,128,0,117009:0:0:0:0:
329,192,116885,128,0,116947:0:0:0:0:
402,192,116885,128,0,116947:0:0:0:0:
475,192,116885,128,0,116947:0:0:0:0:
36,192,117009,128,0,117381:0:0:0:0:
329,192,117009,128,0,117071:0:0:0:0:
109,192,117009,128,0,117071:0:0:0:0:
182,192,117071,128,0,117195:0:0:0:0:
402,192,117071,128,0,117133:0:0:0:0:
256,192,117133,128,0,117257:0:0:0:0:
109,192,117133,1,0,0:0:0:0:
475,192,117133,1,0,0:0:0:0:
329,192,117195,128,0,117319:0:0:0:0:
402,192,117257,128,0,117381:0:0:0:0:
109,192,117257,1,0,0:0:0:0:
475,192,117319,128,0,117443:0:0:0:0:
329,192,117381,128,0,117505:0:0:0:0:
109,192,117381,1,0,0:0:0:0:
256,192,117443,128,0,117567:0:0:0:0:
182,192,117505,128,0,117753:0:0:0:0:
402,192,117505,128,0,117567:0:0:0:0:
475,192,117505,128,0,117567:0:0:0:0:
109,192,117505,1,0,0:0:0:0:
36,192,117505,1,0,0:0:0:0:
329,192,117567,1,0,0:0:0:0:
402,192,117629,128,0,117753:0:0:0:0:
329,192,117691,128,0,117815:0:0:0:0:
256,192,117753,128,0,118001:0:0:0:0:
109,192,117753,128,0,117815:0:0:0:0:
36,192,117753,128,0,117815:0:0:0:0:
182,192,117815,1,0,0:0:0:0:
475,192,117877,128,0,118125:0:0:0:0:
402,192,117939,128,0,118125:0:0:0:0:
329,192,118001,128,0,118249:0:0:0:0:
36,192,118001,128,0,118063:0:0:0:0:
109,192,118001,128,0,118063:0:0:0:0:
182,192,118001,128,0,118063:0:0:0:0:
182,192,118125,128,0,118187:0:0:0:0:
109,192,118125,128,0,118187:0:0:0:0:
36,192,118125,128,0,118187:0:0:0:0:
36,192,118249,128,0,118311:0:0:0:0:
109,192,118249,128,0,118311:0:0:0:0:
182,192,118249,128,0,118311:0:0:0:0:
475,192,118249,1,0,0:0:0:0:
256,192,118249,128,0,118497:0:0:0:0:
402,192,118311,1,0,0:0:0:0:
182,192,118373,128,0,118559:0:0:0:0:
329,192,118373,1,0,0:0:0:0:
109,192,118435,128,0,118621:0:0:0:0:
36,192,118497,128,0,118931:0:0:0:0:
329,192,118497,128,0,118559:0:0:0:0:
402,192,118497,128,0,118559:0:0:0:0:
475,192,118497,128,0,118559:0:0:0:0:
256,192,118559,1,0,0:0:0:0:
475,192,118621,128,0,118683:0:0:0:0:
402,192,118621,128,0,118683:0:0:0:0:
329,192,118621,128,0,118683:0:0:0:0:
182,192,118683,1,0,0:0:0:0:
329,192,118745,128,0,118807:0:0:0:0:
109,192,118745,1,0,0:0:0:0:
402,192,118776,128,0,118838:0:0:0:0:
182,192,118807,1,0,0:0:0:0:
475,192,118807,128,0,118869:0:0:0:0:
329,192,118869,128,0,118931:0:0:0:0:
109,192,118869,1,0,0:0:0:0:
402,192,118900,128,0,118962:0:0:0:0:
475,192,118931,128,0,118993:0:0:0:0:
182,192,118931,1,0,0:0:0:0:
36,192,118993,128,0,119055:0:0:0:0:
109,192,119024,128,0,119086:0:0:0:0:
182,192,119055,128,0,119117:0:0:0:0:
329,192,119055,1,0,0:0:0:0:
402,192,119055,1,0,0:0:0:0:
36,192,119117,128,0,119179:0:0:0:0:
109,192,119148,128,0,119210:0:0:0:0:
182,192,119179,128,0,119241:0:0:0:0:
329,192,119179,1,0,0:0:0:0:
402,192,119179,1,0,0:0:0:0:
475,192,119241,128,0,119303:0:0:0:0:
256,192,119241,128,0,119303:0:0:0:0:
36,192,119303,128,0,119365:0:0:0:0:
475,192,119365,128,0,119396:0:0:0:0:
256,192,119365,1,0,0:0:0:0:
36,192,119427,128,0,119458:0:0:0:0:
329,192,119489,128,0,119551:0:0:0:0:
402,192,119520,128,0,119582:0:0:0:0:
475,192,119551,128,0,119613:0:0:0:0:
256,192,119582,128,0,119644:0:0:0:0:
36,192,119613,128,0,119675:0:0:0:0:
109,192,119644,128,0,119706:0:0:0:0:
182,192,119675,128,0,119737:0:0:0:0:
256,192,119706,1,0,0:0:0:0:
329,192,119737,128,0,119799:0:0:0:0:
402,192,119768,128,0,119830:0:0:0:0:
475,192,119799,128,0,119861:0:0:0:0:
36,192,119861,128,0,119923:0:0:0:0:
109,192,119892,128,0,119954:0:0:0:0:
182,192,119923,128,0,119985:0:0:0:0:
256,192,119954,1,0,0:0:0:0:
329,192,119985,128,0,120512:0:0:0:0:
402,192,119985,128,0,120078:0:0:0:0:
475,192,119985,128,0,120171:0:0:0:0:
36,192,119985,1,0,0:0:0:0:
256,192,120047,128,0,120109:0:0:0:0:
182,192,120109,128,0,120171:0:0:0:0:
109,192,120171,128,0,120295:0:0:0:0:
402,192,120233,128,0,120295:0:0:0:0:
36,192,120233,1,0,0:0:0:0:
256,192,120295,128,0,120357:0:0:0:0:
182,192,120357,128,0,120481:0:0:0:0:
475,192,120419,128,0,120481:0:0:0:0:
402,192,120481,128,0,120542:0:0:0:0:
109,192,120481,1,0,0:0:0:0:
36,192,120481,1,0,0:0:0:0:
256,192,120542,128,0,120666:0:0:0:0:
182,192,120604,1,0,0:0:0:0:
329,192,120604,1,0,0:0:0:0:
36,192,120666,128,0,120728:0:0:0:0:
402,192,120728,1,0,0:0:0:0:
475,192,120728,1,0,0:0:0:0:
109,192,120728,128,0,120790:0:0:0:0:
256,192,120790,128,0,120914:0:0:0:0:
329,192,120852,1,0,0:0:0:0:
182,192,120852,1,0,0:0:0:0:
475,192,120914,128,0,120976:0:0:0:0:
109,192,120976,1,0,0:0:0:0:
36,192,120976,1,0,0:0:0:0:
402,192,120976,128,0,121038:0:0:0:0:
256,192,121038,128,0,121162:0:0:0:0:
475,192,121100,1,0,0:0:0:0:
329,192,121100,1,0,0:0:0:0:
182,192,121162,1,0,0:0:0:0:
36,192,121162,1,0,0:0:0:0:
109,192,121224,128,0,121348:0:0:0:0:
402,192,121286,1,0,0:0:0:0:
475,192,121286,1,0,0:0:0:0:
329,192,121348,1,0,0:0:0:0:
182,192,121348,1,0,0:0:0:0:
109,192,121410,1,0,0:0:0:0:
36,192,121410,1,0,0:0:0:0:
256,192,121472,128,0,121596:0:0:0:0:
475,192,121472,128,0,121596:0:0:0:0:
402,192,121472,128,0,121596:0:0:0:0:
329,192,121472,1,0,0:0:0:0:
329,192,121596,128,0,121720:0:0:0:0:
182,192,121596,128,0,121720:0:0:0:0:
256,192,121720,128,0,121844:0:0:0:0:
109,192,121720,128,0,121844:0:0:0:0:
36,192,121720,128,0,121844:0:0:0:0:
475,192,121720,128,0,121844:0:0:0:0:
402,192,121720,1,0,0:0:0:0:
402,192,121844,128,0,121968:0:0:0:0:
329,192,121844,128,0,121968:0:0:0:0:
182,192,121844,1,0,0:0:0:0:
36,192,121968,1,0,0:0:0:0:
182,192,121968,128,0,122092:0:0:0:0:
256,192,121968,128,0,122216:0:0:0:0:
475,192,121968,128,0,122092:0:0:0:0:
109,192,121968,1,0,0:0:0:0:
109,192,122092,1,0,0:0:0:0:
329,192,122092,128,0,122216:0:0:0:0:
402,192,122092,128,0,122340:0:0:0:0:
182,192,122216,1,0,0:0:0:0:
475,192,122216,128,0,122464:0:0:0:0:
36,192,122216,128,0,122340:0:0:0:0:
256,192,122340,1,0,0:0:0:0:
109,192,122340,128,0,122464:0:0:0:0:
329,192,122464,1,0,0:0:0:0:
182,192,122464,128,0,122588:0:0:0:0:
36,192,122464,128,0,122836:0:0:0:0:
402,192,122526,1,0,0:0:0:0:
109,192,122588,128,0,122712:0:0:0:0:
475,192,122588,1,0,0:0:0:0:
402,192,122650,1,0,0:0:0:0:
182,192,122712,1,0,0:0:0:0:
329,192,122712,1,0,0:0:0:0:
256,192,122774,1,0,0:0:0:0:
475,192,122836,128,0,122960:0:0:0:0:
329,192,122836,1,0,0:0:0:0:
256,192,122898,1,0,0:0:0:0:
182,192,122960,1,0,0:0:0:0:
36,192,122960,1,0,0:0:0:0:
402,192,122960,128,0,123022:0:0:0:0:
109,192,123022,1,0,0:0:0:0:
329,192,123022,128,0,123084:0:0:0:0:
182,192,123084,1,0,0:0:0:0:
475,192,123084,128,0,123146:0:0:0:0:
256,192,123146,1,0,0:0:0:0:
402,192,123146,128,0,123208:0:0:0:0:
182,192,123208,1,0,0:0:0:0:
329,192,123208,128,0,123270:0:0:0:0:
36,192,123208,128,0,123394:0:0:0:0:
109,192,123270,1,0,0:0:0:0:
475,192,123270,128,0,123332:0:0:0:0:
256,192,123332,1,0,0:0:0:0:
402,192,123332,128,0,123394:0:0:0:0:
182,192,123394,1,0,0:0:0:0:
402,192,123456,1,0,0:0:0:0:
475,192,123456,128,0,123704:0:0:0:0:
109,192,123456,1,0,0:0:0:0:
36,192,123456,1,0,0:0:0:0:
329,192,123456,128,0,123518:0:0:0:0:
256,192,123518,128,0,123580:0:0:0:0:
182,192,123580,128,0,123642:0:0:0:0:
256,192,123642,128,0,123704:0:0:0:0:
329,192,123704,128,0,123766:0:0:0:0:
36,192,123704,128,0,123890:0:0:0:0:
402,192,123766,128,0,123828:0:0:0:0:
109,192,123766,128,0,123952:0:0:0:0:
475,192,123828,128,0,123952:0:0:0:0:
182,192,123828,128,0,123952:0:0:0:0:
256,192,123890,128,0,123952:0:0:0:0:
36,192,123952,1,0,0:0:0:0:
329,192,123952,1,0,0:0:0:0:
402,192,123952,1,0,0:0:0:0:
109,192,123993,1,0,0:0:0:0:
182,192,124034,1,0,0:0:0:0:
256,192,124076,1,0,0:0:0:0:
475,192,124076,1,0,0:0:0:0:
402,192,124138,1,0,0:0:0:0:
182,192,124138,1,0,0:0:0:0:
329,192,124200,1,0,0:0:0:0:
109,192,124200,1,0,0:0:0:0:
36,192,124200,1,0,0:0:0:0:
182,192,124262,1,0,0:0:0:0:
402,192,124262,1,0,0:0:0:0:
256,192,124323,1,0,0:0:0:0:
475,192,124323,1,0,0:0:0:0:
36,192,124323,1,0,0:0:0:0:
329,192,124385,1,0,0:0:0:0:
109,192,124385,1,0,0:0:0:0:
402,192,124447,1,0,0:0:0:0:
182,192,124447,1,0,0:0:0:0:
475,192,124489,1,0,0:0:0:0:
109,192,124509,1,0,0:0:0:0:
402,192,124530,1,0,0:0:0:0:
329,192,124571,1,0,0:0:0:0:
36,192,124571,1,0,0:0:0:0:
109,192,124633,1,0,0:0:0:0:
402,192,124633,1,0,0:0:0:0:
182,192,124695,1,0,0:0:0:0:
475,192,124695,1,0,0:0:0:0:
256,192,124695,1,0,0:0:0:0:
329,192,124737,1,0,0:0:0:0:
402,192,124778,1,0,0:0:0:0:
475,192,124819,1,0,0:0:0:0:
109,192,124819,1,0,0:0:0:0:
36,192,124819,1,0,0:0:0:0:
402,192,124881,1,0,0:0:0:0:
182,192,124943,1,0,0:0:0:0:
256,192,124943,1,0,0:0:0:0:
329,192,124943,1,0,0:0:0:0:
109,192,124985,1,0,0:0:0:0:
36,192,125026,1,0,0:0:0:0:
475,192,125067,1,0,0:0:0:0:
329,192,125067,1,0,0:0:0:0:
402,192,125129,1,0,0:0:0:0:
256,192,125129,1,0,0:0:0:0:
329,192,125191,1,0,0:0:0:0:
182,192,125191,1,0,0:0:0:0:
109,192,125253,1,0,0:0:0:0:
256,192,125253,1,0,0:0:0:0:
475,192,125315,1,0,0:0:0:0:
182,192,125315,1,0,0:0:0:0:
36,192,125315,1,0,0:0:0:0:
402,192,125377,1,0,0:0:0:0:
329,192,125377,1,0,0:0:0:0:
36,192,125439,1,0,0:0:0:0:
182,192,125439,128,0,125563:0:0:0:0:
109,192,125439,128,0,125501:0:0:0:0:
256,192,125501,128,0,125563:0:0:0:0:
329,192,125501,128,0,125625:0:0:0:0:
402,192,125563,128,0,125625:0:0:0:0:
475,192,125563,128,0,125687:0:0:0:0:
36,192,125625,128,0,125687:0:0:0:0:
109,192,125625,128,0,125749:0:0:0:0:
182,192,125687,128,0,125749:0:0:0:0:
256,192,125687,128,0,125811:0:0:0:0:
329,192,125687,128,0,125749:0:0:0:0:
402,192,125749,128,0,125873:0:0:0:0:
475,192,125749,128,0,125811:0:0:0:0:
109,192,125811,128,0,125873:0:0:0:0:
36,192,125811,128,0,125935:0:0:0:0:
182,192,125873,128,0,125997:0:0:0:0:
256,192,125873,128,0,125935:0:0:0:0:
402,192,125935,128,0,125997:0:0:0:0:
329,192,125935,128,0,126431:0:0:0:0:
475,192,125935,1,0,0:0:0:0:
36,192,125997,128,0,126059:0:0:0:0:
182,192,126059,128,0,126121:0:0:0:0:
402,192,126121,128,0,126183:0:0:0:0:
109,192,126183,128,0,126245:0:0:0:0:
256,192,126245,128,0,126307:0:0:0:0:
36,192,126307,128,0,126555:0:0:0:0:
475,192,126307,128,0,126369:0:0:0:0:
109,192,126369,128,0,126493:0:0:0:0:
182,192,126431,128,0,126927:0:0:0:0:
475,192,126431,128,0,126493:0:0:0:0:
256,192,126431,128,0,126493:0:0:0:0:
402,192,126431,1,0,0:0:0:0:
329,192,126493,128,0,126555:0:0:0:0:
402,192,126555,128,0,126617:0:0:0:0:
36,192,126617,128,0,126679:0:0:0:0:
475,192,126679,128,0,126741:0:0:0:0:
109,192,126679,128,0,126741:0:0:0:0:
256,192,126741,128,0,126989:0:0:0:0:
402,192,126803,128,0,126865:0:0:0:0:
329,192,126865,128,0,127051:0:0:0:0:
36,192,126927,128,0,127423:0:0:0:0:
475,192,126927,128,0,126989:0:0:0:0:
109,192,126927,1,0,0:0:0:0:
402,192,126989,128,0,127051:0:0:0:0:
256,192,127051,128,0,127113:0:0:0:0:
109,192,127113,128,0,127175:0:0:0:0:
475,192,127175,128,0,127237:0:0:0:0:
402,192,127175,128,0,127237:0:0:0:0:
329,192,127237,128,0,127299:0:0:0:0:
109,192,127299,128,0,127485:0:0:0:0:
256,192,127299,128,0,127361:0:0:0:0:
182,192,127361,128,0,127547:0:0:0:0:
475,192,127361,128,0,127423:0:0:0:0:
402,192,127423,128,0,127919:0:0:0:0:
329,192,127423,128,0,127485:0:0:0:0:
256,192,127423,1,0,0:0:0:0:
36,192,127485,128,0,127547:0:0:0:0:
109,192,127547,128,0,127609:0:0:0:0:
182,192,127609,128,0,127671:0:0:0:0:
256,192,127671,128,0,127733:0:0:0:0:
475,192,127733,128,0,127857:0:0:0:0:
182,192,127733,128,0,127795:0:0:0:0:
329,192,127795,128,0,127981:0:0:0:0:
109,192,127795,128,0,127857:0:0:0:0:
36,192,127857,128,0,127919:0:0:0:0:
256,192,127919,128,0,128414:0:0:0:0:
475,192,127919,128,0,127981:0:0:0:0:
182,192,127919,128,0,127981:0:0:0:0:
109,192,127919,1,0,0:0:0:0:
402,192,127981,128,0,128042:0:0:0:0:
329,192,128042,128,0,128104:0:0:0:0:
182,192,128104,128,0,128166:0:0:0:0:
109,192,128166,128,0,128228:0:0:0:0:
475,192,128166,128,0,128228:0:0:0:0:
36,192,128228,128,0,128290:0:0:0:0:
402,192,128228,128,0,128290:0:0:0:0:
329,192,128290,128,0,128352:0:0:0:0:
182,192,128352,128,0,128538:0:0:0:0:
109,192,128414,128,0,128910:0:0:0:0:
402,192,128414,128,0,128476:0:0:0:0:
475,192,128414,1,0,0:0:0:0:
36,192,128476,128,0,128600:0:0:0:0:
329,192,128476,128,0,128538:0:0:0:0:
256,192,128538,128,0,128600:0:0:0:0:
329,192,128600,128,0,128662:0:0:0:0:
402,192,128662,128,0,128724:0:0:0:0:
36,192,128724,128,0,128786:0:0:0:0:
475,192,128724,128,0,128786:0:0:0:0:
329,192,128786,128,0,128910:0:0:0:0:
182,192,128786,128,0,128848:0:0:0:0:
402,192,128848,128,0,128972:0:0:0:0:
256,192,128848,128,0,128972:0:0:0:0:
475,192,128910,128,0,129406:0:0:0:0:
36,192,128910,128,0,128972:0:0:0:0:
182,192,128910,1,0,0:0:0:0:
109,192,128972,128,0,129034:0:0:0:0:
182,192,129034,128,0,129096:0:0:0:0:
256,192,129096,128,0,129158:0:0:0:0:
329,192,129158,128,0,129220:0:0:0:0:
36,192,129158,128,0,129282:0:0:0:0:
402,192,129220,128,0,129282:0:0:0:0:
109,192,129220,128,0,129344:0:0:0:0:
182,192,129282,128,0,129406:0:0:0:0:
256,192,129344,128,0,129468:0:0:0:0:
329,192,129406,128,0,129902:0:0:0:0:
109,192,129406,128,0,129468:0:0:0:0:
402,192,129406,128,0,129468:0:0:0:0:
36,192,129406,1,0,0:0:0:0:
182,192,129468,128,0,129530:0:0:0:0:
256,192,129530,128,0,129592:0:0:0:0:
182,192,129592,128,0,129654:0:0:0:0:
109,192,129654,128,0,129716:0:0:0:0:
475,192,129654,128,0,129778:0:0:0:0:
36,192,129716,128,0,129778:0:0:0:0:
402,192,129716,128,0,129840:0:0:0:0:
256,192,129778,128,0,129964:0:0:0:0:
182,192,129840,128,0,130026:0:0:0:0:
109,192,129902,128,0,130398:0:0:0:0:
475,192,129902,128,0,129964:0:0:0:0:
36,192,129902,1,0,0:0:0:0:
402,192,129964,128,0,130026:0:0:0:0:
329,192,130026,128,0,130088:0:0:0:0:
256,192,130088,128,0,130150:0:0:0:0:
182,192,130150,128,0,130212:0:0:0:0:
329,192,130212,1,0,0:0:0:0:
256,192,130274,128,0,130460:0:0:0:0:
402,192,130274,1,0,0:0:0:0:
329,192,130336,128,0,130522:0:0:0:0:
475,192,130336,1,0,0:0:0:0:
402,192,130398,128,0,130894:0:0:0:0:
182,192,130398,1,0,0:0:0:0:
36,192,130398,1,0,0:0:0:0:
109,192,130460,1,0,0:0:0:0:
182,192,130522,1,0,0:0:0:0:
256,192,130584,1,0,0:0:0:0:
329,192,130646,1,0,0:0:0:0:
36,192,130646,128,0,130832:0:0:0:0:
109,192,130708,128,0,131018:0:0:0:0:
475,192,130708,1,0,0:0:0:0:
182,192,130770,128,0,130956:0:0:0:0:
329,192,130770,128,0,130832:0:0:0:0:
475,192,130832,128,0,130894:0:0:0:0:
256,192,130894,128,0,131390:0:0:0:0:
36,192,130894,128,0,131080:0:0:0:0:
329,192,130894,1,0,0:0:0:0:
475,192,130956,128,0,131018:0:0:0:0:
402,192,131018,128,0,131080:0:0:0:0:
182,192,131018,1,0,0:0:0:0:
329,192,131080,128,0,131142:0:0:0:0:
109,192,131080,1,0,0:0:0:0:
475,192,131142,128,0,131204:0:0:0:0:
36,192,131142,1,0,0:0:0:0:
402,192,131204,128,0,131266:0:0:0:0:
182,192,131266,128,0,131452:0:0:0:0:
329,192,131266,128,0,131328:0:0:0:0:
109,192,131328,128,0,131514:0:0:0:0:
36,192,131390,128,0,131885:0:0:0:0:
475,192,131390,1,0,0:0:0:0:
402,192,131390,1,0,0:0:0:0:
329,192,131452,1,0,0:0:0:0:
256,192,131514,1,0,0:0:0:0:
182,192,131576,1,0,0:0:0:0:
109,192,131638,1,0,0:0:0:0:
402,192,131638,1,0,0:0:0:0:
329,192,131638,1,0,0:0:0:0:
256,192,131700,1,0,0:0:0:0:
475,192,131762,128,0,131947:0:0:0:0:
182,192,131762,1,0,0:0:0:0:
402,192,131823,128,0,132009:0:0:0:0:
109,192,131823,1,0,0:0:0:0:
329,192,131885,128,0,132381:0:0:0:0:
256,192,131885,1,0,0:0:0:0:
182,192,131947,1,0,0:0:0:0:
109,192,132009,1,0,0:0:0:0:
475,192,132009,128,0,132071:0:0:0:0:
36,192,132071,1,0,0:0:0:0:
402,192,132071,128,0,132133:0:0:0:0:
109,192,132133,1,0,0:0:0:0:
256,192,132133,128,0,132195:0:0:0:0:
182,192,132195,128,0,132257:0:0:0:0:
109,192,132257,128,0,132505:0:0:0:0:
36,192,132319,128,0,132443:0:0:0:0:
402,192,132319,1,0,0:0:0:0:
256,192,132319,128,0,132381:0:0:0:0:
182,192,132381,128,0,132877:0:0:0:0:
475,192,132381,1,0,0:0:0:0:
402,192,132443,128,0,132505:0:0:0:0:
475,192,132505,128,0,132567:0:0:0:0:
256,192,132505,1,0,0:0:0:0:
329,192,132567,128,0,132629:0:0:0:0:
36,192,132567,128,0,132629:0:0:0:0:
109,192,132629,128,0,132691:0:0:0:0:
402,192,132629,128,0,132691:0:0:0:0:
256,192,132691,128,0,132753:0:0:0:0:
329,192,132753,128,0,132939:0:0:0:0:
402,192,132815,128,0,133001:0:0:0:0:
475,192,132877,128,0,133373:0:0:0:0:
256,192,132877,128,0,132939:0:0:0:0:
109,192,132877,1,0,0:0:0:0:
36,192,132877,1,0,0:0:0:0:
182,192,132939,128,0,133001:0:0:0:0:
329,192,133001,128,0,133063:0:0:0:0:
256,192,133063,128,0,133125:0:0:0:0:
402,192,133125,128,0,133187:0:0:0:0:
182,192,133125,1,0,0:0:0:0:
36,192,133125,1,0,0:0:0:0:
329,192,133187,128,0,133249:0:0:0:0:
402,192,133249,128,0,133435:0:0:0:0:
256,192,133249,128,0,133311:0:0:0:0:
329,192,133311,128,0,133497:0:0:0:0:
182,192,133311,128,0,133373:0:0:0:0:
256,192,133373,128,0,133869:0:0:0:0:
109,192,133373,1,0,0:0:0:0:
36,192,133373,1,0,0:0:0:0:
475,192,133435,1,0,0:0:0:0:
402,192,133497,1,0,0:0:0:0:
329,192,133559,1,0,0:0:0:0:
182,192,133621,1,0,0:0:0:0:
36,192,133621,1,0,0:0:0:0:
475,192,133621,128,0,133683:0:0:0:0:
402,192,133683,128,0,133745:0:0:0:0:
182,192,133745,128,0,133993:0:0:0:0:
329,192,133745,128,0,133807:0:0:0:0:
109,192,133807,128,0,133931:0:0:0:0:
402,192,133869,128,0,134365:0:0:0:0:
329,192,133869,128,0,133931:0:0:0:0:
475,192,133869,1,0,0:0:0:0:
36,192,133931,1,0,0:0:0:0:
256,192,133931,128,0,134055:0:0:0:0:
109,192,133993,1,0,0:0:0:0:
475,192,133993,128,0,134055:0:0:0:0:
182,192,134055,1,0,0:0:0:0:
329,192,134055,128,0,134117:0:0:0:0:
256,192,134117,1,0,0:0:0:0:
36,192,134117,128,0,134179:0:0:0:0:
109,192,134179,128,0,134241:0:0:0:0:
329,192,134179,1,0,0:0:0:0:
182,192,134241,128,0,134489:0:0:0:0:
475,192,134241,1,0,0:0:0:0:
256,192,134303,128,0,134427:0:0:0:0:
109,192,134365,128,0,134861:0:0:0:0:
329,192,134365,1,0,0:0:0:0:
475,192,134365,1,0,0:0:0:0:
402,192,134427,1,0,0:0:0:0:
329,192,134489,1,0,0:0:0:0:
36,192,134489,128,0,134551:0:0:0:0:
256,192,134551,1,0,0:0:0:0:
182,192,134613,1,0,0:0:0:0:
36,192,134613,1,0,0:0:0:0:
402,192,134613,128,0,134675:0:0:0:0:
475,192,134613,128,0,134675:0:0:0:0:
256,192,134675,1,0,0:0:0:0:
329,192,134737,128,0,134985:0:0:0:0:
402,192,134799,128,0,134923:0:0:0:0:
256,192,134861,128,0,135357:0:0:0:0:
475,192,134861,1,0,0:0:0:0:
36,192,134861,1,0,0:0:0:0:
109,192,134923,1,0,0:0:0:0:
182,192,134985,1,0,0:0:0:0:
329,192,135047,1,0,0:0:0:0:
402,192,135109,128,0,135171:0:0:0:0:
475,192,135109,128,0,135171:0:0:0:0:
36,192,135109,1,0,0:0:0:0:
109,192,135171,1,0,0:0:0:0:
329,192,135171,128,0,135233:0:0:0:0:
182,192,135233,128,0,135419:0:0:0:0:
402,192,135233,128,0,135295:0:0:0:0:
109,192,135295,128,0,135481:0:0:0:0:
475,192,135295,128,0,135357:0:0:0:0:
36,192,135357,128,0,135852:0:0:0:0:
402,192,135357,1,0,0:0:0:0:
329,192,135357,128,0,135419:0:0:0:0:
256,192,135419,128,0,135481:0:0:0:0:
182,192,135481,128,0,135542:0:0:0:0:
109,192,135542,128,0,135604:0:0:0:0:
475,192,135604,128,0,135666:0:0:0:0:
402,192,135604,128,0,135666:0:0:0:0:
256,192,135604,1,0,0:0:0:0:
329,192,135666,128,0,135728:0:0:0:0:
256,192,135728,128,0,135976:0:0:0:0:
182,192,135790,128,0,135914:0:0:0:0:
329,192,135852,128,0,136348:0:0:0:0:
109,192,135852,1,0,0:0:0:0:
402,192,135852,1,0,0:0:0:0:
475,192,135852,1,0,0:0:0:0:
36,192,135914,128,0,135976:0:0:0:0:
109,192,135976,128,0,136038:0:0:0:0:
182,192,136038,128,0,136100:0:0:0:0:
256,192,136100,128,0,136162:0:0:0:0:
402,192,136100,1,0,0:0:0:0:
475,192,136100,1,0,0:0:0:0:
36,192,136100,128,0,136162:0:0:0:0:
109,192,136162,128,0,136224:0:0:0:0:
182,192,136224,128,0,136472:0:0:0:0:
256,192,136286,128,0,136410:0:0:0:0:
109,192,136348,128,0,136844:0:0:0:0:
475,192,136348,1,0,0:0:0:0:
36,192,136348,1,0,0:0:0:0:
402,192,136348,128,0,136410:0:0:0:0:
329,192,136410,128,0,136472:0:0:0:0:
256,192,136472,128,0,136534:0:0:0:0:
182,192,136534,128,0,136596:0:0:0:0:
36,192,136596,1,0,0:0:0:0:
475,192,136596,1,0,0:0:0:0:
329,192,136596,1,0,0:0:0:0:
256,192,136658,1,0,0:0:0:0:
329,192,136720,128,0,136968:0:0:0:0:
182,192,136720,1,0,0:0:0:0:
402,192,136720,1,0,0:0:0:0:
256,192,136782,128,0,136906:0:0:0:0:
36,192,136782,1,0,0:0:0:0:
402,192,136844,128,0,137340:0:0:0:0:
182,192,136844,1,0,0:0:0:0:
475,192,136844,1,0,0:0:0:0:
109,192,136906,128,0,136968:0:0:0:0:
182,192,136968,128,0,137030:0:0:0:0:
475,192,136968,1,0,0:0:0:0:
109,192,137030,128,0,137092:0:0:0:0:
256,192,137092,128,0,137154:0:0:0:0:
36,192,137092,1,0,0:0:0:0:
475,192,137092,128,0,137216:0:0:0:0:
329,192,137092,1,0,0:0:0:0:
182,192,137154,128,0,137216:0:0:0:0:
109,192,137216,128,0,137278:0:0:0:0:
36,192,137216,1,0,0:0:0:0:
329,192,137216,128,0,137340:0:0:0:0:
256,192,137278,128,0,137340:0:0:0:0:
182,192,137340,128,0,137836:0:0:0:0:
109,192,137340,1,0,0:0:0:0:
36,192,137340,1,0,0:0:0:0:
475,192,137340,128,0,137526:0:0:0:0:
402,192,137402,128,0,137774:0:0:0:0:
329,192,137464,128,0,137712:0:0:0:0:
109,192,137464,1,0,0:0:0:0:
36,192,137464,1,0,0:0:0:0:
256,192,137526,128,0,137650:0:0:0:0:
475,192,137588,1,0,0:0:0:0:
36,192,137588,128,0,137774:0:0:0:0:
109,192,137650,128,0,137774:0:0:0:0:
256,192,137712,128,0,137774:0:0:0:0:
475,192,137712,1,0,0:0:0:0:
329,192,137774,1,0,0:0:0:0:
402,192,137836,1,0,0:0:0:0:
475,192,137836,1,0,0:0:0:0:
109,192,137836,1,0,0:0:0:0:
36,192,137836,1,0,0:0:0:0:
36,192,138084,128,0,138115:0:0:0:0:
182,192,138084,128,0,138115:0:0:0:0:
329,192,138208,128,0,138239:0:0:0:0:
475,192,138208,128,0,138239:0:0:0:0:
475,192,138456,128,0,138487:0:0:0:0:
402,192,138456,128,0,138487:0:0:0:0:
329,192,138704,128,0,138735:0:0:0:0:
475,192,138704,128,0,138735:0:0:0:0:
402,192,138952,128,0,138983:0:0:0:0:
256,192,138952,128,0,138983:0:0:0:0:
329,192,139200,128,0,139757:0:0:0:0:
402,192,139200,128,0,139757:0:0:0:0:
256,192,139447,1,0,0:0:0:0:
182,192,139447,1,0,0:0:0:0:
36,192,139447,1,0,0:0:0:0:
109,192,139447,1,0,0:0:0:0:
256,192,139695,128,0,139757:0:0:0:0:
182,192,139695,128,0,139757:0:0:0:0:
109,192,139695,128,0,139757:0:0:0:0:
36,192,139695,128,0,139757:0:0:0:0:
329,192,139819,128,0,140005:0:0:0:0:
402,192,139819,128,0,140005:0:0:0:0:
475,192,139819,128,0,140005:0:0:0:0:
402,192,140067,128,0,140129:0:0:0:0:
475,192,140067,128,0,140129:0:0:0:0:
329,192,140067,128,0,140129:0:0:0:0:
256,192,140067,1,0,0:0:0:0:
182,192,140067,1,0,0:0:0:0:
109,192,140067,1,0,0:0:0:0:
36,192,140067,1,0,0:0:0:0:
329,192,140191,128,0,140222:0:0:0:0:
402,192,140191,128,0,140222:0:0:0:0:
475,192,140191,128,0,140222:0:0:0:0:
402,192,140439,128,0,140470:0:0:0:0:
329,192,140439,128,0,140470:0:0:0:0:
182,192,140439,128,0,140470:0:0:0:0:
329,192,140687,128,0,140718:0:0:0:0:
182,192,140718,128,0,140749:0:0:0:0:
36,192,140749,128,0,140780:0:0:0:0:
256,192,140935,128,0,141090:0:0:0:0:
182,192,140966,128,0,141214:0:0:0:0:
109,192,140997,128,0,141338:0:0:0:0:
36,192,141028,128,0,141462:0:0:0:0:
329,192,141059,128,0,141090:0:0:0:0:
256,192,141183,128,0,141214:0:0:0:0:
182,192,141307,128,0,141338:0:0:0:0:
256,192,141431,128,0,141741:0:0:0:0:
329,192,141431,1,0,0:0:0:0:
402,192,141431,1,0,0:0:0:0:
475,192,141431,1,0,0:0:0:0:
109,192,141431,128,0,141462:0:0:0:0:
256,192,141803,128,0,141989:0:0:0:0:
182,192,141803,128,0,141989:0:0:0:0:
109,192,141803,128,0,141989:0:0:0:0:
36,192,141803,128,0,141989:0:0:0:0:
182,192,142051,128,0,142082:0:0:0:0:
256,192,142051,128,0,142082:0:0:0:0:
109,192,142051,128,0,142082:0:0:0:0:
36,192,142051,128,0,142082:0:0:0:0:
182,192,142175,128,0,142206:0:0:0:0:
36,192,142175,128,0,142206:0:0:0:0:
109,192,142423,128,0,142454:0:0:0:0:
182,192,142423,128,0,142454:0:0:0:0:
109,192,142671,128,0,142702:0:0:0:0:
256,192,142671,128,0,142702:0:0:0:0:
182,192,142919,128,0,142950:0:0:0:0:
329,192,142919,128,0,142950:0:0:0:0:
329,192,143166,128,0,143197:0:0:0:0:
402,192,143166,128,0,143197:0:0:0:0:
182,192,143414,1,0,0:0:0:0:
109,192,143414,1,0,0:0:0:0:
36,192,143414,1,0,0:0:0:0:
329,192,143414,128,0,143724:0:0:0:0:
402,192,143414,128,0,143724:0:0:0:0:
475,192,143414,128,0,143724:0:0:0:0:
256,192,143414,128,0,143724:0:0:0:0:
182,192,143724,128,0,143786:0:0:0:0:
109,192,143755,128,0,143786:0:0:0:0:
36,192,143786,1,0,0:0:0:0:
329,192,143786,128,0,144034:0:0:0:0:
402,192,143786,128,0,144034:0:0:0:0:
475,192,143786,128,0,144034:0:0:0:0:
256,192,144034,128,0,144065:0:0:0:0:
182,192,144065,128,0,144096:0:0:0:0:
109,192,144096,1,0,0:0:0:0:
36,192,144096,1,0,0:0:0:0:
329,192,144158,1,0,0:0:0:0:
402,192,144158,1,0,0:0:0:0:
182,192,144282,128,0,144530:0:0:0:0:
109,192,144282,128,0,144530:0:0:0:0:
36,192,144282,128,0,144530:0:0:0:0:
256,192,144406,128,0,144468:0:0:0:0:
402,192,144406,128,0,144468:0:0:0:0:
329,192,144530,128,0,144592:0:0:0:0:
475,192,144530,128,0,144592:0:0:0:0:
256,192,144654,128,0,144902:0:0:0:0:
182,192,144654,128,0,144902:0:0:0:0:
36,192,144654,128,0,144902:0:0:0:0:
109,192,144654,128,0,144902:0:0:0:0:
475,192,144902,128,0,144995:0:0:0:0:
402,192,144933,128,0,145026:0:0:0:0:
329,192,144964,128,0,145057:0:0:0:0:
182,192,145026,128,0,145119:0:0:0:0:
109,192,145057,128,0,145150:0:0:0:0:
36,192,145088,128,0,145181:0:0:0:0:
475,192,145150,128,0,145243:0:0:0:0:
402,192,145181,128,0,145274:0:0:0:0:
329,192,145212,128,0,145305:0:0:0:0:
182,192,145274,128,0,145367:0:0:0:0:
109,192,145305,128,0,145398:0:0:0:0:
36,192,145336,128,0,145429:0:0:0:0:
475,192,145398,128,0,145522:0:0:0:0:
402,192,145429,128,0,145553:0:0:0:0:
329,192,145460,128,0,145584:0:0:0:0:
256,192,145491,128,0,145522:0:0:0:0:
36,192,145522,128,0,145646:0:0:0:0:
109,192,145553,128,0,145677:0:0:0:0:
182,192,145584,128,0,145708:0:0:0:0:
256,192,145615,128,0,145646:0:0:0:0:
475,192,145646,128,0,145770:0:0:0:0:
402,192,145677,128,0,145770:0:0:0:0:
329,192,145708,128,0,145770:0:0:0:0:
256,192,145739,128,0,145770:0:0:0:0:
182,192,145770,1,0,0:0:0:0:
109,192,145770,1,0,0:0:0:0:
36,192,145770,1,0,0:0:0:0:
182,192,145894,128,0,145956:0:0:0:0:
109,192,145894,128,0,145956:0:0:0:0:
36,192,145894,128,0,145956:0:0:0:0:
109,192,146018,1,0,0:0:0:0:
36,192,146018,1,0,0:0:0:0:
256,192,146018,1,0,0:0:0:0:
329,192,146018,1,0,0:0:0:0:
329,192,146142,128,0,146204:0:0:0:0:
256,192,146142,128,0,146204:0:0:0:0:
182,192,146142,128,0,146204:0:0:0:0:
402,192,146266,1,0,0:0:0:0:
475,192,146266,1,0,0:0:0:0:
256,192,146266,1,0,0:0:0:0:
182,192,146266,1,0,0:0:0:0:
109,192,146390,128,0,146452:0:0:0:0:
182,192,146390,128,0,146452:0:0:0:0:
329,192,146390,128,0,146452:0:0:0:0:
182,192,146514,1,0,0:0:0:0:
109,192,146514,1,0,0:0:0:0:
36,192,146514,1,0,0:0:0:0:
329,192,146514,1,0,0:0:0:0:
182,192,146638,128,0,146700:0:0:0:0:
402,192,146638,128,0,146700:0:0:0:0:
329,192,146638,128,0,146700:0:0:0:0:
329,192,146762,1,0,0:0:0:0:
475,192,146762,1,0,0:0:0:0:
402,192,146762,1,0,0:0:0:0:
182,192,146762,1,0,0:0:0:0:
109,192,146885,128,0,146947:0:0:0:0:
182,192,146885,128,0,146947:0:0:0:0:
329,192,146885,128,0,146947:0:0:0:0:
109,192,147009,1,0,0:0:0:0:
329,192,147009,1,0,0:0:0:0:
402,192,147009,1,0,0:0:0:0:
182,192,147009,1,0,0:0:0:0:
256,192,147133,128,0,147195:0:0:0:0:
109,192,147133,128,0,147195:0:0:0:0:
402,192,147133,128,0,147195:0:0:0:0:
256,192,147257,1,0,0:0:0:0:
329,192,147257,1,0,0:0:0:0:
402,192,147257,1,0,0:0:0:0:
475,192,147257,1,0,0:0:0:0:
109,192,147257,128,0,147319:0:0:0:0:
36,192,147319,128,0,147381:0:0:0:0:
182,192,147381,128,0,147443:0:0:0:0:
109,192,147443,128,0,147505:0:0:0:0:
256,192,147505,128,0,147567:0:0:0:0:
329,192,147505,1,0,0:0:0:0:
475,192,147505,1,0,0:0:0:0:
402,192,147505,1,0,0:0:0:0:
36,192,147505,1,0,0:0:0:0:
182,192,147567,128,0,147629:0:0:0:0:
329,192,147629,128,0,147691:0:0:0:0:
256,192,147691,128,0,147753:0:0:0:0:
329,192,147753,1,0,0:0:0:0:
402,192,147753,1,0,0:0:0:0:
475,192,147753,1,0,0:0:0:0:
182,192,147753,1,0,0:0:0:0:
36,192,147753,1,0,0:0:0:0:
109,192,147877,128,0,147939:0:0:0:0:
256,192,147877,128,0,147939:0:0:0:0:
475,192,147877,128,0,147939:0:0:0:0:
109,192,148001,1,0,0:0:0:0:
36,192,148001,1,0,0:0:0:0:
475,192,148001,1,0,0:0:0:0:
256,192,148001,1,0,0:0:0:0:
402,192,148001,1,0,0:0:0:0:
329,192,148125,128,0,148187:0:0:0:0:
182,192,148125,128,0,148187:0:0:0:0:
36,192,148125,128,0,148187:0:0:0:0:
402,192,148249,1,0,0:0:0:0:
475,192,148249,1,0,0:0:0:0:
36,192,148249,1,0,0:0:0:0:
182,192,148249,1,0,0:0:0:0:
329,192,148249,1,0,0:0:0:0:
256,192,148373,128,0,148435:0:0:0:0:
402,192,148373,128,0,148435:0:0:0:0:
36,192,148373,128,0,148435:0:0:0:0:
256,192,148497,1,0,0:0:0:0:
109,192,148497,1,0,0:0:0:0:
36,192,148497,1,0,0:0:0:0:
402,192,148497,1,0,0:0:0:0:
475,192,148497,1,0,0:0:0:0:
329,192,148621,128,0,148683:0:0:0:0:
475,192,148621,128,0,148683:0:0:0:0:
109,192,148621,128,0,148683:0:0:0:0:
329,192,148745,1,0,0:0:0:0:
402,192,148745,1,0,0:0:0:0:
475,192,148745,1,0,0:0:0:0:
109,192,148745,1,0,0:0:0:0:
256,192,148745,1,0,0:0:0:0:
256,192,148869,128,0,148931:0:0:0:0:
36,192,148869,128,0,148931:0:0:0:0:
402,192,148869,128,0,148931:0:0:0:0:
182,192,148993,1,0,0:0:0:0:
36,192,148993,1,0,0:0:0:0:
475,192,148993,1,0,0:0:0:0:
256,192,148993,1,0,0:0:0:0:
402,192,148993,1,0,0:0:0:0:
182,192,149117,128,0,149179:0:0:0:0:
329,192,149117,128,0,149179:0:0:0:0:
475,192,149117,128,0,149179:0:0:0:0:
256,192,149241,1,0,0:0:0:0:
402,192,149241,1,0,0:0:0:0:
475,192,149241,1,0,0:0:0:0:
329,192,149241,1,0,0:0:0:0:
182,192,149241,1,0,0:0:0:0:
182,192,149365,128,0,149427:0:0:0:0:
329,192,149365,128,0,149427:0:0:0:0:
36,192,149365,128,0,149427:0:0:0:0:
36,192,149489,1,0,0:0:0:0:
109,192,149489,1,0,0:0:0:0:
182,192,149489,1,0,0:0:0:0:
256,192,149489,1,0,0:0:0:0:
329,192,149489,1,0,0:0:0:0:
402,192,149613,128,0,149675:0:0:0:0:
256,192,149613,128,0,149675:0:0:0:0:
109,192,149613,128,0,149675:0:0:0:0:
329,192,149737,128,0,149954:0:0:0:0:
402,192,149737,128,0,149799:0:0:0:0:
475,192,149737,128,0,149799:0:0:0:0:
109,192,149737,1,0,0:0:0:0:
256,192,149737,1,0,0:0:0:0:
182,192,149737,1,0,0:0:0:0:
36,192,149737,1,0,0:0:0:0:
109,192,149861,128,0,149923:0:0:0:0:
182,192,149861,128,0,149923:0:0:0:0:
109,192,149985,128,0,150047:0:0:0:0:
182,192,149985,128,0,150202:0:0:0:0:
329,192,149985,1,0,0:0:0:0:
36,192,149985,128,0,150047:0:0:0:0:
475,192,149985,1,0,0:0:0:0:
256,192,149985,1,0,0:0:0:0:
402,192,149985,1,0,0:0:0:0:
329,192,150109,128,0,150171:0:0:0:0:
402,192,150109,128,0,150171:0:0:0:0:
329,192,150233,128,0,150450:0:0:0:0:
402,192,150233,128,0,150295:0:0:0:0:
475,192,150233,128,0,150295:0:0:0:0:
182,192,150233,1,0,0:0:0:0:
36,192,150233,1,0,0:0:0:0:
256,192,150233,1,0,0:0:0:0:
109,192,150233,1,0,0:0:0:0:
109,192,150357,128,0,150419:0:0:0:0:
182,192,150357,128,0,150419:0:0:0:0:
109,192,150481,128,0,150542:0:0:0:0:
182,192,150481,128,0,150697:0:0:0:0:
329,192,150481,1,0,0:0:0:0:
36,192,150481,128,0,150542:0:0:0:0:
256,192,150481,1,0,0:0:0:0:
475,192,150481,1,0,0:0:0:0:
402,192,150481,1,0,0:0:0:0:
402,192,150604,128,0,150666:0:0:0:0:
329,192,150604,128,0,150666:0:0:0:0:
182,192,150728,1,0,0:0:0:0:
475,192,150728,128,0,150790:0:0:0:0:
329,192,150728,128,0,150790:0:0:0:0:
36,192,150728,1,0,0:0:0:0:
402,192,150728,128,0,150945:0:0:0:0:
256,192,150728,1,0,0:0:0:0:
109,192,150728,1,0,0:0:0:0:
36,192,150852,128,0,150914:0:0:0:0:
109,192,150852,128,0,150914:0:0:0:0:
36,192,150976,128,0,151038:0:0:0:0:
475,192,150976,1,0,0:0:0:0:
329,192,150976,1,0,0:0:0:0:
182,192,150976,128,0,151038:0:0:0:0:
109,192,150976,128,0,151193:0:0:0:0:
256,192,150976,1,0,0:0:0:0:
402,192,150976,1,0,0:0:0:0:
475,192,151100,128,0,151162:0:0:0:0:
402,192,151100,128,0,151162:0:0:0:0:
182,192,151224,1,0,0:0:0:0:
329,192,151224,128,0,151286:0:0:0:0:
402,192,151224,128,0,151441:0:0:0:0:
475,192,151224,128,0,151286:0:0:0:0:
36,192,151224,1,0,0:0:0:0:
256,192,151224,1,0,0:0:0:0:
109,192,151224,1,0,0:0:0:0:
36,192,151348,128,0,151410:0:0:0:0:
109,192,151348,128,0,151410:0:0:0:0:
109,192,151472,128,0,151689:0:0:0:0:
182,192,151472,128,0,151534:0:0:0:0:
36,192,151472,128,0,151534:0:0:0:0:
475,192,151472,1,0,0:0:0:0:
329,192,151472,1,0,0:0:0:0:
256,192,151472,1,0,0:0:0:0:
402,192,151472,1,0,0:0:0:0:
475,192,151596,128,0,151658:0:0:0:0:
402,192,151596,128,0,151658:0:0:0:0:
36,192,151720,128,0,151937:0:0:0:0:
329,192,151720,128,0,151782:0:0:0:0:
256,192,151720,128,0,151844:0:0:0:0:
182,192,151720,128,0,151875:0:0:0:0:
109,192,151720,128,0,151906:0:0:0:0:
475,192,151720,1,0,0:0:0:0:
402,192,151782,1,0,0:0:0:0:
329,192,151844,1,0,0:0:0:0:
256,192,151906,1,0,0:0:0:0:
182,192,151968,1,0,0:0:0:0:
475,192,151968,128,0,152216:0:0:0:0:
109,192,151968,1,0,0:0:0:0:
36,192,151968,1,0,0:0:0:0:
402,192,152030,128,0,152216:0:0:0:0:
329,192,152092,128,0,152216:0:0:0:0:
36,192,152092,1,0,0:0:0:0:
256,192,152154,128,0,152216:0:0:0:0:
182,192,152216,1,0,0:0:0:0:
36,192,152216,128,0,152340:0:0:0:0:
109,192,152216,1,0,0:0:0:0:
182,192,152340,128,0,152464:0:0:0:0:
329,192,152340,1,0,0:0:0:0:
475,192,152464,1,0,0:0:0:0:
402,192,152464,1,0,0:0:0:0:
329,192,152464,128,0,152588:0:0:0:0:
109,192,152588,1,0,0:0:0:0:
36,192,152588,1,0,0:0:0:0:
256,192,152588,128,0,153084:0:0:0:0:
182,192,152588,1,0,0:0:0:0:
109,192,152836,1,0,0:0:0:0:
36,192,152836,1,0,0:0:0:0:
182,192,152836,1,0,0:0:0:0:
402,192,152960,1,0,0:0:0:0:
475,192,152960,1,0,0:0:0:0:
329,192,152960,1,0,0:0:0:0:
182,192,153084,1,0,0:0:0:0:
109,192,153084,1,0,0:0:0:0:
36,192,153084,1,0,0:0:0:0:
329,192,153208,1,0,0:0:0:0:
402,192,153208,1,0,0:0:0:0:
475,192,153208,1,0,0:0:0:0:
182,192,153208,128,0,153270:0:0:0:0:
182,192,153332,1,0,0:0:0:0:
109,192,153332,1,0,0:0:0:0:
36,192,153332,1,0,0:0:0:0:
329,192,153332,128,0,153394:0:0:0:0:
402,192,153456,1,0,0:0:0:0:
475,192,153456,1,0,0:0:0:0:
329,192,153456,1,0,0:0:0:0:
182,192,153456,128,0,153549:0:0:0:0:
182,192,153580,1,0,0:0:0:0:
109,192,153580,1,0,0:0:0:0:
36,192,153580,1,0,0:0:0:0:
329,192,153580,128,0,153673:0:0:0:0:
475,192,153704,128,0,153735:0:0:0:0:
402,192,153704,128,0,153766:0:0:0:0:
329,192,153704,128,0,153797:0:0:0:0:
256,192,153704,128,0,153828:0:0:0:0:
182,192,153704,128,0,153859:0:0:0:0:
109,192,153704,128,0,153890:0:0:0:0:
36,192,153704,128,0,153921:0:0:0:0:
475,192,153828,128,0,153890:0:0:0:0:
402,192,153859,128,0,153890:0:0:0:0:
329,192,153890,1,0,0:0:0:0:
256,192,153952,128,0,154169:0:0:0:0:
475,192,153952,1,0,0:0:0:0:
402,192,153952,128,0,153983:0:0:0:0:
329,192,153952,128,0,154014:0:0:0:0:
182,192,153983,128,0,154138:0:0:0:0:
109,192,154014,128,0,154107:0:0:0:0:
36,192,154045,128,0,154076:0:0:0:0:
475,192,154076,128,0,154169:0:0:0:0:
402,192,154107,128,0,154169:0:0:0:0:
329,192,154138,128,0,154169:0:0:0:0:
36,192,154200,128,0,154231:0:0:0:0:
109,192,154200,128,0,154262:0:0:0:0:
182,192,154200,128,0,154292:0:0:0:0:
256,192,154200,128,0,154323:0:0:0:0:
329,192,154200,128,0,154354:0:0:0:0:
402,192,154200,128,0,154385:0:0:0:0:
475,192,154200,128,0,154416:0:0:0:0:
36,192,154323,128,0,154385:0:0:0:0:
109,192,154354,128,0,154385:0:0:0:0:
182,192,154385,1,0,0:0:0:0:
182,192,154447,128,0,154509:0:0:0:0:
36,192,154447,1,0,0:0:0:0:
109,192,154447,128,0,154478:0:0:0:0:
256,192,154447,128,0,154664:0:0:0:0:
329,192,154478,128,0,154633:0:0:0:0:
402,192,154509,128,0,154602:0:0:0:0:
475,192,154540,128,0,154571:0:0:0:0:
36,192,154571,128,0,154664:0:0:0:0:
109,192,154602,128,0,154664:0:0:0:0:
182,192,154633,128,0,154664:0:0:0:0:
475,192,154695,128,0,154726:0:0:0:0:
402,192,154695,128,0,154757:0:0:0:0:
329,192,154716,128,0,154757:0:0:0:0:
256,192,154737,128,0,154757:0:0:0:0:
182,192,154819,128,0,154840:0:0:0:0:
256,192,154819,128,0,154861:0:0:0:0:
329,192,154819,128,0,154881:0:0:0:0:
402,192,154850,128,0,154881:0:0:0:0:
109,192,154943,128,0,154974:0:0:0:0:
182,192,154943,128,0,155005:0:0:0:0:
256,192,154964,128,0,155005:0:0:0:0:
329,192,154985,128,0,155005:0:0:0:0:
256,192,155067,128,0,155088:0:0:0:0:
109,192,155067,128,0,155129:0:0:0:0:
182,192,155067,128,0,155109:0:0:0:0:
36,192,155098,128,0,155129:0:0:0:0:
256,192,155191,128,0,155222:0:0:0:0:
329,192,155191,128,0,155253:0:0:0:0:
402,192,155212,128,0,155253:0:0:0:0:
475,192,155233,128,0,155253:0:0:0:0:
402,192,155315,128,0,155336:0:0:0:0:
329,192,155315,128,0,155357:0:0:0:0:
256,192,155315,128,0,155377:0:0:0:0:
182,192,155346,128,0,155377:0:0:0:0:
329,192,155439,128,0,155470:0:0:0:0:
256,192,155439,128,0,155501:0:0:0:0:
182,192,155460,128,0,155501:0:0:0:0:
109,192,155481,128,0,155501:0:0:0:0:
36,192,155563,128,0,155584:0:0:0:0:
109,192,155563,128,0,155604:0:0:0:0:
182,192,155563,128,0,155625:0:0:0:0:
256,192,155594,128,0,155625:0:0:0:0:
475,192,155687,128,0,155718:0:0:0:0:
402,192,155687,128,0,155749:0:0:0:0:
329,192,155687,128,0,155780:0:0:0:0:
182,192,155749,128,0,155780:0:0:0:0:
109,192,155749,128,0,155811:0:0:0:0:
36,192,155749,128,0,155842:0:0:0:0:
475,192,155811,128,0,155935:0:0:0:0:
402,192,155842,128,0,155935:0:0:0:0:
329,192,155873,128,0,155935:0:0:0:0:
182,192,155873,128,0,155935:0:0:0:0:
109,192,155904,128,0,155935:0:0:0:0:
36,192,155935,1,0,0:0:0:0:
475,192,155966,1,0,0:0:0:0:
402,192,155997,1,0,0:0:0:0:
329,192,156028,1,0,0:0:0:0:
256,192,156059,1,0,0:0:0:0:
182,192,156090,1,0,0:0:0:0:
109,192,156121,1,0,0:0:0:0:
36,192,156152,1,0,0:0:0:0:
256,192,156183,1,0,0:0:0:0:
256,192,156307,1,0,0:0:0:0:
256,192,156431,1,0,0:0:0:0:
182,192,156431,1,0,0:0:0:0:
36,192,156431,1,0,0:0:0:0:
109,192,156431,1,0,0:0:0:0:
256,192,156555,1,0,0:0:0:0:
256,192,156679,1,0,0:0:0:0:
182,192,156679,1,0,0:0:0:0:
329,192,156679,1,0,0:0:0:0:
109,192,156679,1,0,0:0:0:0:
402,192,156679,1,0,0:0:0:0:
256,192,156803,1,0,0:0:0:0:
256,192,156927,1,0,0:0:0:0:
402,192,156927,1,0,0:0:0:0:
475,192,156927,1,0,0:0:0:0:
329,192,156927,1,0,0:0:0:0:
256,192,157051,1,0,0:0:0:0:
256,192,157175,1,0,0:0:0:0:
182,192,157175,1,0,0:0:0:0:
109,192,157175,1,0,0:0:0:0:
36,192,157175,1,0,0:0:0:0:
329,192,157175,1,0,0:0:0:0:
402,192,157175,1,0,0:0:0:0:
475,192,157175,1,0,0:0:0:0:
475,192,157671,128,0,157919:0:0:0:0:
402,192,157671,128,0,157919:0:0:0:0:
36,192,157671,128,0,157919:0:0:0:0:
329,192,157671,128,0,157919:0:0:0:0:
182,192,157671,128,0,157919:0:0:0:0:
109,192,157671,128,0,157919:0:0:0:0:
256,192,157671,128,0,157919:0:0:0:0:
36,192,158166,1,0,0:0:0:0:
475,192,158166,1,0,0:0:0:0:
402,192,158208,1,0,0:0:0:0:
329,192,158249,1,0,0:0:0:0:
36,192,158290,1,0,0:0:0:0:
256,192,158290,1,0,0:0:0:0:
475,192,158290,1,0,0:0:0:0:
182,192,158332,1,0,0:0:0:0:
402,192,158332,1,0,0:0:0:0:
109,192,158373,1,0,0:0:0:0:
329,192,158373,1,0,0:0:0:0:
36,192,158414,1,0,0:0:0:0:
256,192,158414,1,0,0:0:0:0:
475,192,158414,1,0,0:0:0:0:
182,192,158456,1,0,0:0:0:0:
109,192,158497,1,0,0:0:0:0:
475,192,158538,1,0,0:0:0:0:
36,192,158538,1,0,0:0:0:0:
402,192,158538,1,0,0:0:0:0:
329,192,158580,1,0,0:0:0:0:
256,192,158621,1,0,0:0:0:0:
475,192,158662,1,0,0:0:0:0:
182,192,158662,128,0,158786:0:0:0:0:
109,192,158662,128,0,158910:0:0:0:0:
36,192,158662,128,0,159282:0:0:0:0:
402,192,158724,1,0,0:0:0:0:
329,192,158786,128,0,158848:0:0:0:0:
402,192,158848,1,0,0:0:0:0:
256,192,158910,128,0,158972:0:0:0:0:
475,192,158910,1,0,0:0:0:0:
329,192,158972,1,0,0:0:0:0:
182,192,159034,128,0,159096:0:0:0:0:
402,192,159034,1,0,0:0:0:0:
256,192,159096,1,0,0:0:0:0:
475,192,159158,128,0,159406:0:0:0:0:
109,192,159158,128,0,159220:0:0:0:0:
329,192,159158,1,0,0:0:0:0:
402,192,159158,1,0,0:0:0:0:
182,192,159220,1,0,0:0:0:0:
256,192,159282,128,0,159344:0:0:0:0:
402,192,159282,1,0,0:0:0:0:
109,192,159344,1,0,0:0:0:0:
36,192,159406,128,0,159654:0:0:0:0:
182,192,159406,128,0,159468:0:0:0:0:
402,192,159406,1,0,0:0:0:0:
256,192,159406,1,0,0:0:0:0:
329,192,159468,1,0,0:0:0:0:
182,192,159530,128,0,159592:0:0:0:0:
329,192,159592,1,0,0:0:0:0:
256,192,159654,1,0,0:0:0:0:
475,192,159654,1,0,0:0:0:0:
402,192,159654,1,0,0:0:0:0:
182,192,159695,1,0,0:0:0:0:
109,192,159737,1,0,0:0:0:0:
36,192,159778,1,0,0:0:0:0:
475,192,159778,1,0,0:0:0:0:
402,192,159819,1,0,0:0:0:0:
329,192,159861,1,0,0:0:0:0:
256,192,159902,1,0,0:0:0:0:
475,192,159902,1,0,0:0:0:0:
182,192,159943,1,0,0:0:0:0:
109,192,159985,1,0,0:0:0:0:
36,192,160026,1,0,0:0:0:0:
256,192,160026,1,0,0:0:0:0:
329,192,160026,1,0,0:0:0:0:
402,192,160088,1,0,0:0:0:0:
475,192,160088,1,0,0:0:0:0:
256,192,160150,1,0,0:0:0:0:
182,192,160150,1,0,0:0:0:0:
109,192,160150,1,0,0:0:0:0:
36,192,160150,1,0,0:0:0:0:
256,192,160274,1,0,0:0:0:0:
109,192,160274,1,0,0:0:0:0:
182,192,160274,1,0,0:0:0:0:
329,192,160274,1,0,0:0:0:0:
256,192,160398,1,0,0:0:0:0:
182,192,160398,1,0,0:0:0:0:
402,192,160398,1,0,0:0:0:0:
329,192,160398,1,0,0:0:0:0:
182,192,160522,128,0,160563:0:0:0:0:
256,192,160522,128,0,160604:0:0:0:0:
329,192,160522,128,0,160646:0:0:0:0:
402,192,160522,128,0,160687:0:0:0:0:
475,192,160522,128,0,160728:0:0:0:0:
182,192,160646,1,0,0:0:0:0:
109,192,160646,1,0,0:0:0:0:
36,192,160646,1,0,0:0:0:0:
329,192,160708,1,0,0:0:0:0:
182,192,160770,1,0,0:0:0:0:
109,192,160770,1,0,0:0:0:0:
329,192,160832,1,0,0:0:0:0:
402,192,160832,1,0,0:0:0:0:
182,192,160894,1,0,0:0:0:0:
109,192,160894,1,0,0:0:0:0:
329,192,160956,1,0,0:0:0:0:
402,192,160956,1,0,0:0:0:0:
109,192,161018,1,0,0:0:0:0:
182,192,161018,1,0,0:0:0:0:
475,192,161018,1,0,0:0:0:0:
402,192,161080,1,0,0:0:0:0:
329,192,161111,1,0,0:0:0:0:
256,192,161142,1,0,0:0:0:0:
182,192,161204,1,0,0:0:0:0:
109,192,161204,1,0,0:0:0:0:
36,192,161204,1,0,0:0:0:0:
329,192,161266,1,0,0:0:0:0:
402,192,161266,1,0,0:0:0:0:
475,192,161266,1,0,0:0:0:0:
182,192,161328,1,0,0:0:0:0:
36,192,161328,1,0,0:0:0:0:
109,192,161343,1,0,0:0:0:0:
329,192,161390,1,0,0:0:0:0:
475,192,161390,1,0,0:0:0:0:
402,192,161405,1,0,0:0:0:0:
182,192,161452,1,0,0:0:0:0:
36,192,161452,1,0,0:0:0:0:
109,192,161467,1,0,0:0:0:0:
329,192,161514,1,0,0:0:0:0:
475,192,161514,1,0,0:0:0:0:
402,192,161529,1,0,0:0:0:0:
182,192,161576,1,0,0:0:0:0:
36,192,161576,1,0,0:0:0:0:
109,192,161591,1,0,0:0:0:0:
256,192,161638,1,0,0:0:0:0:
329,192,161638,1,0,0:0:0:0:
402,192,161638,1,0,0:0:0:0:
475,192,161638,1,0,0:0:0:0:
402,192,161762,1,0,0:0:0:0:
329,192,161762,1,0,0:0:0:0:
109,192,161762,1,0,0:0:0:0:
182,192,161762,1,0,0:0:0:0:
109,192,161885,1,0,0:0:0:0:
36,192,161885,1,0,0:0:0:0:
329,192,161885,1,0,0:0:0:0:
256,192,161885,1,0,0:0:0:0:
36,192,162009,1,0,0:0:0:0:
109,192,162009,1,0,0:0:0:0:
182,192,162009,1,0,0:0:0:0:
256,192,162009,1,0,0:0:0:0:
475,192,162133,1,0,0:0:0:0:
36,192,162133,1,0,0:0:0:0:
402,192,162195,1,0,0:0:0:0:
109,192,162195,1,0,0:0:0:0:
182,192,162257,1,0,0:0:0:0:
329,192,162257,1,0,0:0:0:0:
109,192,162319,1,0,0:0:0:0:
256,192,162319,1,0,0:0:0:0:
402,192,162381,128,0,162505:0:0:0:0:
475,192,162381,128,0,162505:0:0:0:0:
36,192,162381,1,0,0:0:0:0:
329,192,162443,128,0,162567:0:0:0:0:
182,192,162443,128,0,162567:0:0:0:0:
256,192,162505,128,0,162567:0:0:0:0:
109,192,162567,128,0,162629:0:0:0:0:
36,192,162567,128,0,162629:0:0:0:0:
475,192,162629,128,0,162815:0:0:0:0:
402,192,162629,1,0,0:0:0:0:
402,192,162691,128,0,162815:0:0:0:0:
329,192,162753,128,0,162877:0:0:0:0:
256,192,162753,128,0,162877:0:0:0:0:
182,192,162815,128,0,162877:0:0:0:0:
109,192,162815,128,0,162877:0:0:0:0:
402,192,162877,128,0,163063:0:0:0:0:
475,192,162877,128,0,163063:0:0:0:0:
36,192,162877,1,0,0:0:0:0:
329,192,162939,128,0,163001:0:0:0:0:
256,192,163001,128,0,163125:0:0:0:0:
182,192,163001,128,0,163125:0:0:0:0:
109,192,163063,128,0,163125:0:0:0:0:
36,192,163063,128,0,163125:0:0:0:0:
475,192,163125,128,0,163249:0:0:0:0:
329,192,163125,1,0,0:0:0:0:
402,192,163187,128,0,163249:0:0:0:0:
329,192,163249,128,0,163373:0:0:0:0:
182,192,163249,128,0,163373:0:0:0:0:
109,192,163311,128,0,163373:0:0:0:0:
36,192,163311,128,0,163373:0:0:0:0:
402,192,163373,128,0,163559:0:0:0:0:
475,192,163373,128,0,163559:0:0:0:0:
256,192,163373,1,0,0:0:0:0:
329,192,163435,128,0,163559:0:0:0:0:
182,192,163497,128,0,163559:0:0:0:0:
256,192,163497,128,0,163559:0:0:0:0:
182,192,163621,1,0,0:0:0:0:
109,192,163621,128,0,163745:0:0:0:0:
36,192,163621,128,0,163745:0:0:0:0:
182,192,163683,128,0,163807:0:0:0:0:
329,192,163745,128,0,163869:0:0:0:0:
256,192,163745,128,0,163807:0:0:0:0:
402,192,163807,128,0,163869:0:0:0:0:
475,192,163807,128,0,163869:0:0:0:0:
36,192,163869,128,0,164055:0:0:0:0:
182,192,163869,1,0,0:0:0:0:
109,192,163931,128,0,164055:0:0:0:0:
182,192,163993,128,0,164117:0:0:0:0:
256,192,163993,128,0,164117:0:0:0:0:
329,192,164055,128,0,164117:0:0:0:0:
402,192,164055,128,0,164117:0:0:0:0:
109,192,164117,128,0,164303:0:0:0:0:
36,192,164117,128,0,164303:0:0:0:0:
475,192,164117,1,0,0:0:0:0:
182,192,164179,128,0,164241:0:0:0:0:
256,192,164241,128,0,164365:0:0:0:0:
329,192,164241,128,0,164427:0:0:0:0:
402,192,164303,128,0,164427:0:0:0:0:
475,192,164303,128,0,164551:0:0:0:0:
36,192,164365,128,0,164489:0:0:0:0:
182,192,164365,1,0,0:0:0:0:
109,192,164427,128,0,164489:0:0:0:0:
182,192,164489,128,0,164551:0:0:0:0:
256,192,164489,128,0,164551:0:0:0:0:
329,192,164551,128,0,164613:0:0:0:0:
402,192,164551,128,0,164613:0:0:0:0:
109,192,164613,128,0,164861:0:0:0:0:
36,192,164613,128,0,165047:0:0:0:0:
475,192,164613,1,0,0:0:0:0:
182,192,164675,128,0,164799:0:0:0:0:
402,192,164737,128,0,164799:0:0:0:0:
256,192,164737,128,0,164799:0:0:0:0:
329,192,164799,1,0,0:0:0:0:
475,192,164861,128,0,165295:0:0:0:0:
402,192,164861,128,0,165109:0:0:0:0:
182,192,164861,1,0,0:0:0:0:
329,192,164923,128,0,165047:0:0:0:0:
256,192,164985,128,0,165047:0:0:0:0:
109,192,164985,128,0,165047:0:0:0:0:
182,192,165047,1,0,0:0:0:0:
109,192,165109,128,0,165357:0:0:0:0:
329,192,165109,1,0,0:0:0:0:
36,192,165109,1,0,0:0:0:0:
182,192,165171,128,0,165295:0:0:0:0:
256,192,165233,128,0,165295:0:0:0:0:
402,192,165233,128,0,165295:0:0:0:0:
329,192,165295,1,0,0:0:0:0:
475,192,165357,128,0,165542:0:0:0:0:
402,192,165357,128,0,165542:0:0:0:0:
182,192,165357,1,0,0:0:0:0:
36,192,165357,128,0,165542:0:0:0:0:
329,192,165419,128,0,165542:0:0:0:0:
109,192,165481,128,0,165542:0:0:0:0:
256,192,165481,128,0,165542:0:0:0:0:
182,192,165542,1,0,0:0:0:0:
36,192,165604,1,0,0:0:0:0:
109,192,165604,1,0,0:0:0:0:
475,192,165604,128,0,166596:0:0:0:0:
402,192,165604,1,0,0:0:0:0:
329,192,165604,1,0,0:0:0:0:
36,192,165976,1,0,0:0:0:0:
109,192,165976,1,0,0:0:0:0:
256,192,166038,1,0,0:0:0:0:
182,192,166038,1,0,0:0:0:0:
329,192,166100,1,0,0:0:0:0:
402,192,166100,1,0,0:0:0:0:
256,192,166224,1,0,0:0:0:0:
329,192,166224,1,0,0:0:0:0:
182,192,166348,1,0,0:0:0:0:
256,192,166348,1,0,0:0:0:0:
182,192,166472,1,0,0:0:0:0:
109,192,166472,1,0,0:0:0:0:
182,192,166596,1,0,0:0:0:0:
109,192,166596,1,0,0:0:0:0:
36,192,166596,1,0,0:0:0:0:
329,192,166596,128,0,166658:0:0:0:0:
402,192,166720,128,0,166782:0:0:0:0:
256,192,166720,1,0,0:0:0:0:
182,192,166720,1,0,0:0:0:0:
109,192,166720,1,0,0:0:0:0:
475,192,166844,128,0,166906:0:0:0:0:
329,192,166844,1,0,0:0:0:0:
256,192,166844,1,0,0:0:0:0:
182,192,166844,1,0,0:0:0:0:
402,192,166968,128,0,167030:0:0:0:0:
109,192,166968,1,0,0:0:0:0:
182,192,166968,1,0,0:0:0:0:
256,192,166968,1,0,0:0:0:0:
329,192,167092,128,0,167154:0:0:0:0:
182,192,167092,1,0,0:0:0:0:
109,192,167092,1,0,0:0:0:0:
36,192,167092,1,0,0:0:0:0:
256,192,167216,128,0,167278:0:0:0:0:
329,192,167216,1,0,0:0:0:0:
402,192,167216,1,0,0:0:0:0:
475,192,167216,1,0,0:0:0:0:
182,192,167340,128,0,167402:0:0:0:0:
329,192,167340,1,0,0:0:0:0:
402,192,167340,1,0,0:0:0:0:
475,192,167340,1,0,0:0:0:0:
256,192,167340,1,0,0:0:0:0:
329,192,167464,1,0,0:0:0:0:
402,192,167464,1,0,0:0:0:0:
475,192,167464,1,0,0:0:0:0:
109,192,167464,128,0,167526:0:0:0:0:
256,192,167464,1,0,0:0:0:0:
182,192,167464,1,0,0:0:0:0:
36,192,167588,128,0,169014:0:0:0:0:
329,192,167588,128,0,167836:0:0:0:0:
402,192,167588,128,0,167774:0:0:0:0:
475,192,167588,128,0,167712:0:0:0:0:
109,192,167650,128,0,167960:0:0:0:0:
182,192,167712,128,0,167898:0:0:0:0:
256,192,167774,128,0,167836:0:0:0:0:
475,192,167836,128,0,168208:0:0:0:0:
402,192,167898,128,0,168146:0:0:0:0:
329,192,167960,128,0,168084:0:0:0:0:
256,192,168022,1,0,0:0:0:0:
109,192,168084,128,0,168518:0:0:0:0:
182,192,168146,128,0,168456:0:0:0:0:
256,192,168208,128,0,168394:0:0:0:0:
329,192,168270,128,0,168332:0:0:0:0:
475,192,168332,128,0,168456:0:0:0:0:
402,192,168394,128,0,168642:0:0:0:0:
329,192,168456,128,0,168580:0:0:0:0:
256,192,168518,1,0,0:0:0:0:
475,192,168580,128,0,169571:0:0:0:0:
109,192,168580,128,0,168952:0:0:0:0:
182,192,168642,128,0,168890:0:0:0:0:
256,192,168704,128,0,168828:0:0:0:0:
329,192,168766,1,0,0:0:0:0:
402,192,168828,128,0,169200:0:0:0:0:
329,192,168890,128,0,169138:0:0:0:0:
256,192,168952,128,0,169076:0:0:0:0:
182,192,169014,1,0,0:0:0:0:
36,192,169076,128,0,169509:0:0:0:0:
109,192,169138,128,0,169447:0:0:0:0:
182,192,169200,128,0,169385:0:0:0:0:
256,192,169262,128,0,169323:0:0:0:0:
402,192,169323,128,0,169695:0:0:0:0:
329,192,169385,128,0,169633:0:0:0:0:
256,192,169447,128,0,169571:0:0:0:0:
182,192,169509,1,0,0:0:0:0:
36,192,169571,128,0,169819:0:0:0:0:
109,192,169613,128,0,169778:0:0:0:0:
182,192,169654,128,0,169737:0:0:0:0:
256,192,169695,1,0,0:0:0:0:
329,192,169737,128,0,169902:0:0:0:0:
402,192,169778,128,0,169861:0:0:0:0:
475,192,169819,1,0,0:0:0:0:
109,192,169819,128,0,170026:0:0:0:0:
182,192,169861,128,0,169985:0:0:0:0:
256,192,169902,128,0,169943:0:0:0:0:
329,192,169943,128,0,170026:0:0:0:0:
402,192,169985,128,0,170026:0:0:0:0:
475,192,170026,1,0,0:0:0:0:
475,192,170067,128,0,170315:0:0:0:0:
256,192,170067,128,0,170109:0:0:0:0:
182,192,170067,128,0,170150:0:0:0:0:
109,192,170067,128,0,170191:0:0:0:0:
36,192,170067,128,0,170233:0:0:0:0:
402,192,170109,128,0,170274:0:0:0:0:
329,192,170150,128,0,170233:0:0:0:0:
256,192,170191,1,0,0:0:0:0:
182,192,170233,128,0,170398:0:0:0:0:
109,192,170274,128,0,170357:0:0:0:0:
402,192,170315,128,0,170563:0:0:0:0:
36,192,170315,1,0,0:0:0:0:
329,192,170357,128,0,170522:0:0:0:0:
256,192,170398,128,0,170481:0:0:0:0:
182,192,170439,128,0,170604:0:0:0:0:
109,192,170481,128,0,170563:0:0:0:0:
36,192,170522,1,0,0:0:0:0:
329,192,170563,128,0,170594:0:0:0:0:
475,192,170563,128,0,170594:0:0:0:0:
256,192,170563,1,0,0:0:0:0:
182,192,170687,1,0,0:0:0:0:
329,192,170687,128,0,170718:0:0:0:0:
475,192,170687,128,0,170718:0:0:0:0:
109,192,170811,1,0,0:0:0:0:
329,192,170811,128,0,170842:0:0:0:0:
475,192,170811,128,0,170842:0:0:0:0:
36,192,170935,1,0,0:0:0:0:
329,192,170935,128,0,170966:0:0:0:0:
475,192,170935,128,0,170966:0:0:0:0:
109,192,171059,1,0,0:0:0:0:
329,192,171059,128,0,171090:0:0:0:0:
475,192,171059,128,0,171090:0:0:0:0:
182,192,171183,1,0,0:0:0:0:
329,192,171183,128,0,171214:0:0:0:0:
475,192,171183,128,0,171214:0:0:0:0:
256,192,171307,1,0,0:0:0:0:
329,192,171307,128,0,171338:0:0:0:0:
475,192,171307,128,0,171338:0:0:0:0:
182,192,171431,128,0,171462:0:0:0:0:
329,192,171431,128,0,171462:0:0:0:0:
402,192,171431,1,0,0:0:0:0:
182,192,171555,128,0,171586:0:0:0:0:
36,192,171555,128,0,171586:0:0:0:0:
256,192,171555,1,0,0:0:0:0:
329,192,171617,128,0,171679:0:0:0:0:
475,192,171617,128,0,171679:0:0:0:0:
182,192,171679,1,0,0:0:0:0:
36,192,171679,1,0,0:0:0:0:
182,192,171803,128,0,171989:0:0:0:0:
36,192,171803,128,0,171989:0:0:0:0:
182,192,172051,128,0,172082:0:0:0:0:
36,192,172051,128,0,172082:0:0:0:0:
256,192,172051,1,0,0:0:0:0:
36,192,172175,128,0,172206:0:0:0:0:
182,192,172175,128,0,172206:0:0:0:0:
329,192,172175,1,0,0:0:0:0:
182,192,172299,128,0,172330:0:0:0:0:
36,192,172299,128,0,172330:0:0:0:0:
402,192,172299,1,0,0:0:0:0:
36,192,172423,128,0,172454:0:0:0:0:
182,192,172423,128,0,172454:0:0:0:0:
475,192,172423,1,0,0:0:0:0:
36,192,172547,128,0,172578:0:0:0:0:
182,192,172547,128,0,172578:0:0:0:0:
402,192,172547,1,0,0:0:0:0:
182,192,172671,128,0,172702:0:0:0:0:
36,192,172671,128,0,172702:0:0:0:0:
329,192,172671,1,0,0:0:0:0:
36,192,172795,128,0,172826:0:0:0:0:
182,192,172795,128,0,172826:0:0:0:0:
256,192,172795,1,0,0:0:0:0:
182,192,172919,128,0,172950:0:0:0:0:
36,192,172919,128,0,172950:0:0:0:0:
329,192,172919,1,0,0:0:0:0:
402,192,173042,1,0,0:0:0:0:
475,192,173042,1,0,0:0:0:0:
329,192,173042,1,0,0:0:0:0:
256,192,173042,1,0,0:0:0:0:
182,192,173042,1,0,0:0:0:0:
109,192,173042,1,0,0:0:0:0:
36,192,173042,1,0,0:0:0:0:
402,192,173538,1,0,0:0:0:0:
475,192,173538,1,0,0:0:0:0:
36,192,173538,1,0,0:0:0:0:
109,192,173559,1,0,0:0:0:0:
182,192,173580,1,0,0:0:0:0:
329,192,173600,1,0,0:0:0:0:
256,192,173600,1,0,0:0:0:0:
402,192,173662,1,0,0:0:0:0:
475,192,173662,1,0,0:0:0:0:
182,192,173724,1,0,0:0:0:0:
109,192,173724,1,0,0:0:0:0:
256,192,173786,1,0,0:0:0:0:
329,192,173786,1,0,0:0:0:0:
182,192,173848,1,0,0:0:0:0:
109,192,173848,1,0,0:0:0:0:
402,192,173910,1,0,0:0:0:0:
475,192,173910,1,0,0:0:0:0:
329,192,173972,1,0,0:0:0:0:
256,192,173972,1,0,0:0:0:0:
402,192,174034,1,0,0:0:0:0:
475,192,174034,1,0,0:0:0:0:
182,192,174034,1,0,0:0:0:0:
256,192,174055,1,0,0:0:0:0:
329,192,174076,1,0,0:0:0:0:
109,192,174096,1,0,0:0:0:0:
36,192,174096,1,0,0:0:0:0:
182,192,174158,1,0,0:0:0:0:
256,192,174158,1,0,0:0:0:0:
109,192,174220,1,0,0:0:0:0:
36,192,174220,1,0,0:0:0:0:
329,192,174282,1,0,0:0:0:0:
402,192,174282,1,0,0:0:0:0:
256,192,174344,1,0,0:0:0:0:
182,192,174344,1,0,0:0:0:0:
329,192,174406,128,0,174468:0:0:0:0:
402,192,174406,128,0,174468:0:0:0:0:
182,192,174530,1,0,0:0:0:0:
256,192,174530,1,0,0:0:0:0:
475,192,174530,1,0,0:0:0:0:
402,192,174551,1,0,0:0:0:0:
329,192,174571,1,0,0:0:0:0:
109,192,174592,1,0,0:0:0:0:
36,192,174592,1,0,0:0:0:0:
402,192,174654,1,0,0:0:0:0:
329,192,174654,1,0,0:0:0:0:
256,192,174716,1,0,0:0:0:0:
182,192,174716,1,0,0:0:0:0:
36,192,174778,1,0,0:0:0:0:
109,192,174778,1,0,0:0:0:0:
475,192,174840,1,0,0:0:0:0:
402,192,174840,1,0,0:0:0:0:
329,192,174902,1,0,0:0:0:0:
256,192,174902,1,0,0:0:0:0:
182,192,174964,1,0,0:0:0:0:
109,192,174964,1,0,0:0:0:0:
329,192,175026,1,0,0:0:0:0:
256,192,175026,1,0,0:0:0:0:
36,192,175026,1,0,0:0:0:0:
109,192,175047,1,0,0:0:0:0:
182,192,175067,1,0,0:0:0:0:
402,192,175088,1,0,0:0:0:0:
475,192,175088,1,0,0:0:0:0:
182,192,175150,1,0,0:0:0:0:
109,192,175150,1,0,0:0:0:0:
256,192,175212,1,0,0:0:0:0:
329,192,175212,1,0,0:0:0:0:
402,192,175274,1,0,0:0:0:0:
475,192,175274,1,0,0:0:0:0:
109,192,175305,1,0,0:0:0:0:
36,192,175305,1,0,0:0:0:0:
182,192,175336,1,0,0:0:0:0:
256,192,175336,1,0,0:0:0:0:
329,192,175367,1,0,0:0:0:0:
402,192,175367,1,0,0:0:0:0:
475,192,175398,1,0,0:0:0:0:
402,192,175419,1,0,0:0:0:0:
329,192,175439,1,0,0:0:0:0:
256,192,175460,1,0,0:0:0:0:
182,192,175481,1,0,0:0:0:0:
109,192,175501,1,0,0:0:0:0:
36,192,175522,1,0,0:0:0:0:
109,192,175646,1,0,0:0:0:0:
182,192,175646,1,0,0:0:0:0:
256,192,175646,1,0,0:0:0:0:
475,192,175646,1,0,0:0:0:0:
402,192,175646,1,0,0:0:0:0:
329,192,175646,1,0,0:0:0:0:
36,192,175770,1,0,0:0:0:0:
402,192,175770,1,0,0:0:0:0:
329,192,175770,1,0,0:0:0:0:
475,192,175894,1,0,0:0:0:0:
182,192,175894,1,0,0:0:0:0:
109,192,175894,1,0,0:0:0:0:
402,192,176018,1,0,0:0:0:0:
329,192,176018,1,0,0:0:0:0:
256,192,176018,1,0,0:0:0:0:
182,192,176018,1,0,0:0:0:0:
109,192,176018,1,0,0:0:0:0:
36,192,176018,1,0,0:0:0:0:
475,192,176142,1,0,0:0:0:0:
182,192,176142,1,0,0:0:0:0:
109,192,176142,1,0,0:0:0:0:
36,192,176266,1,0,0:0:0:0:
329,192,176266,1,0,0:0:0:0:
402,192,176266,1,0,0:0:0:0:
475,192,176390,1,0,0:0:0:0:
402,192,176390,1,0,0:0:0:0:
256,192,176390,1,0,0:0:0:0:
182,192,176390,1,0,0:0:0:0:
109,192,176390,1,0,0:0:0:0:
36,192,176390,1,0,0:0:0:0:
329,192,176390,1,0,0:0:0:0:
256,192,176514,1,0,0:0:0:0:
182,192,176514,128,0,176545:0:0:0:0:
329,192,176514,128,0,176545:0:0:0:0:
109,192,176514,128,0,176576:0:0:0:0:
36,192,176514,128,0,176607:0:0:0:0:
402,192,176514,128,0,176576:0:0:0:0:
475,192,176514,128,0,176607:0:0:0:0:
475,192,176638,128,0,176731:0:0:0:0:
36,192,176638,128,0,176731:0:0:0:0:
402,192,176669,128,0,176731:0:0:0:0:
109,192,176669,128,0,176731:0:0:0:0:
329,192,176700,128,0,176731:0:0:0:0:
182,192,176700,128,0,176731:0:0:0:0:
256,192,176731,1,0,0:0:0:0:
475,192,176762,128,0,176854:0:0:0:0:
402,192,176762,128,0,176823:0:0:0:0:
329,192,176762,128,0,176792:0:0:0:0:
182,192,176762,128,0,176792:0:0:0:0:
109,192,176762,128,0,176823:0:0:0:0:
36,192,176762,128,0,176854:0:0:0:0:
256,192,176762,1,0,0:0:0:0:
475,192,176885,128,0,176978:0:0:0:0:
36,192,176885,128,0,176978:0:0:0:0:
402,192,176916,128,0,176978:0:0:0:0:
109,192,176916,128,0,176978:0:0:0:0:
182,192,176947,128,0,176978:0:0:0:0:
329,192,176947,128,0,176978:0:0:0:0:
256,192,176978,1,0,0:0:0:0:
256,192,177009,128,0,177195:0:0:0:0:
182,192,177040,128,0,177164:0:0:0:0:
329,192,177040,128,0,177164:0:0:0:0:
109,192,177071,128,0,177133:0:0:0:0:
402,192,177071,128,0,177133:0:0:0:0:
36,192,177102,1,0,0:0:0:0:
475,192,177102,1,0,0:0:0:0:
475,192,177133,128,0,177226:0:0:0:0:
36,192,177133,128,0,177226:0:0:0:0:
109,192,177164,128,0,177226:0:0:0:0:
402,192,177164,128,0,177226:0:0:0:0:
182,192,177195,128,0,177226:0:0:0:0:
329,192,177195,128,0,177226:0:0:0:0:
256,192,177242,1,0,0:0:0:0:
475,192,177257,128,0,177350:0:0:0:0:
36,192,177257,128,0,177350:0:0:0:0:
109,192,177257,128,0,177319:0:0:0:0:
402,192,177257,128,0,177319:0:0:0:0:
182,192,177257,128,0,177288:0:0:0:0:
329,192,177257,128,0,177288:0:0:0:0:
256,192,177288,128,0,177474:0:0:0:0:
182,192,177319,128,0,177443:0:0:0:0:
329,192,177319,128,0,177443:0:0:0:0:
402,192,177350,128,0,177412:0:0:0:0:
109,192,177350,128,0,177412:0:0:0:0:
36,192,177381,1,0,0:0:0:0:
475,192,177381,1,0,0:0:0:0:
109,192,177443,1,0,0:0:0:0:
402,192,177443,1,0,0:0:0:0:
182,192,177474,1,0,0:0:0:0:
329,192,177474,1,0,0:0:0:0:
256,192,177505,1,0,0:0:0:0:
36,192,177505,1,0,0:0:0:0:
475,192,177505,1,0,0:0:0:0:
109,192,177567,1,0,0:0:0:0:
402,192,177567,1,0,0:0:0:0:
182,192,177629,1,0,0:0:0:0:
329,192,177629,1,0,0:0:0:0:
256,192,177691,1,0,0:0:0:0:
109,192,177753,128,0,177815:0:0:0:0:
402,192,177753,128,0,177815:0:0:0:0:
36,192,177753,1,0,0:0:0:0:
475,192,177753,1,0,0:0:0:0:
182,192,177815,128,0,177877:0:0:0:0:
329,192,177815,128,0,177877:0:0:0:0:
256,192,177877,128,0,177939:0:0:0:0:
36,192,177877,128,0,177939:0:0:0:0:
475,192,177877,128,0,177939:0:0:0:0:
109,192,177939,128,0,178001:0:0:0:0:
402,192,177939,128,0,178001:0:0:0:0:
329,192,178001,128,0,178125:0:0:0:0:
182,192,178001,128,0,178125:0:0:0:0:
256,192,178001,128,0,178063:0:0:0:0:
109,192,178063,128,0,178187:0:0:0:0:
402,192,178063,128,0,178187:0:0:0:0:
36,192,178125,128,0,178249:0:0:0:0:
475,192,178125,128,0,178249:0:0:0:0:
256,192,178187,128,0,178249:0:0:0:0:
182,192,178249,128,0,178311:0:0:0:0:
329,192,178249,128,0,178311:0:0:0:0:
109,192,178311,128,0,178373:0:0:0:0:
402,192,178311,128,0,178373:0:0:0:0:
256,192,178373,128,0,178683:0:0:0:0:
36,192,178373,128,0,178435:0:0:0:0:
475,192,178373,128,0,178435:0:0:0:0:
182,192,178435,128,0,178621:0:0:0:0:
329,192,178435,128,0,178621:0:0:0:0:
109,192,178497,128,0,178559:0:0:0:0:
402,192,178497,128,0,178559:0:0:0:0:
36,192,178559,1,0,0:0:0:0:
475,192,178559,1,0,0:0:0:0:
402,192,178621,1,0,0:0:0:0:
109,192,178621,1,0,0:0:0:0:
182,192,178683,1,0,0:0:0:0:
329,192,178683,1,0,0:0:0:0:
256,192,178745,1,0,0:0:0:0:
36,192,178745,128,0,178931:0:0:0:0:
475,192,178745,128,0,178931:0:0:0:0:
109,192,178807,128,0,178993:0:0:0:0:
402,192,178807,128,0,178993:0:0:0:0:
329,192,178869,128,0,179055:0:0:0:0:
182,192,178869,128,0,179055:0:0:0:0:
256,192,178931,128,0,178993:0:0:0:0:
36,192,178993,1,0,0:0:0:0:
475,192,178993,1,0,0:0:0:0:
109,192,179055,1,0,0:0:0:0:
402,192,179055,1,0,0:0:0:0:
182,192,179117,1,0,0:0:0:0:
329,192,179117,1,0,0:0:0:0:
256,192,179179,1,0,0:0:0:0:
182,192,179241,1,0,0:0:0:0:
329,192,179241,1,0,0:0:0:0:
256,192,179303,128,0,179365:0:0:0:0:
109,192,179303,1,0,0:0:0:0:
402,192,179303,1,0,0:0:0:0:
182,192,179365,128,0,179427:0:0:0:0:
329,192,179365,128,0,179427:0:0:0:0:
36,192,179365,1,0,0:0:0:0:
475,192,179365,1,0,0:0:0:0:
109,192,179427,128,0,179489:0:0:0:0:
402,192,179427,128,0,179489:0:0:0:0:
256,192,179489,1,0,0:0:0:0:
36,192,179489,128,0,179551:0:0:0:0:
475,192,179489,128,0,179551:0:0:0:0:
182,192,179551,128,0,179613:0:0:0:0:
329,192,179551,128,0,179613:0:0:0:0:
109,192,179613,128,0,179675:0:0:0:0:
402,192,179613,128,0,179675:0:0:0:0:
256,192,179675,128,0,179892:0:0:0:0:
36,192,179706,1,0,0:0:0:0:
475,192,179706,1,0,0:0:0:0:
109,192,179737,128,0,179799:0:0:0:0:
402,192,179737,128,0,179799:0:0:0:0:
182,192,179799,128,0,179861:0:0:0:0:
329,192,179799,128,0,179861:0:0:0:0:
256,192,179923,1,0,0:0:0:0:
329,192,179985,128,0,180047:0:0:0:0:
109,192,179985,128,0,180047:0:0:0:0:
36,192,179985,128,0,180171:0:0:0:0:
402,192,179985,128,0,180047:0:0:0:0:
475,192,179985,128,0,180171:0:0:0:0:
182,192,179985,128,0,180047:0:0:0:0:
256,192,179985,1,0,0:0:0:0:
256,192,180047,128,0,180109:0:0:0:0:
109,192,180109,128,0,180171:0:0:0:0:
402,192,180109,128,0,180171:0:0:0:0:
182,192,180109,128,0,180171:0:0:0:0:
329,192,180109,128,0,180171:0:0:0:0:
256,192,180171,128,0,180233:0:0:0:0:
475,192,180233,128,0,180295:0:0:0:0:
36,192,180233,128,0,180295:0:0:0:0:
109,192,180233,128,0,180295:0:0:0:0:
402,192,180233,128,0,180295:0:0:0:0:
182,192,180233,128,0,180295:0:0:0:0:
329,192,180233,128,0,180295:0:0:0:0:
256,192,180295,128,0,180357:0:0:0:0:
109,192,180357,128,0,180419:0:0:0:0:
402,192,180357,128,0,180419:0:0:0:0:
329,192,180357,128,0,180419:0:0:0:0:
182,192,180357,128,0,180419:0:0:0:0:
36,192,180357,128,0,180419:0:0:0:0:
475,192,180357,128,0,180419:0:0:0:0:
256,192,180419,1,0,0:0:0:0:
182,192,180481,128,0,181472:0:0:0:0:
329,192,180481,128,0,181472:0:0:0:0:
36,192,180481,1,0,0:0:0:0:
475,192,180481,1,0,0:0:0:0:
402,192,180481,1,0,0:0:0:0:
109,192,180481,1,0,0:0:0:0:
109,192,180976,128,0,181472:0:0:0:0:
402,192,180976,128,0,181472:0:0:0:0:
36,192,181472,1,0,0:0:0:0:
475,192,181472,1,0,0:0:0:0:
329,192,181534,1,0,0:0:0:0:
182,192,181534,1,0,0:0:0:0:
36,192,181596,1,0,0:0:0:0:
475,192,181596,1,0,0:0:0:0:
182,192,181658,1,0,0:0:0:0:
329,192,181658,1,0,0:0:0:0:
36,192,181720,1,0,0:0:0:0:
475,192,181720,1,0,0:0:0:0:
182,192,181782,1,0,0:0:0:0:
329,192,181782,1,0,0:0:0:0:
475,192,181844,1,0,0:0:0:0:
36,192,181844,1,0,0:0:0:0:
182,192,181906,1,0,0:0:0:0:
329,192,181906,1,0,0:0:0:0:
475,192,181968,1,0,0:0:0:0:
36,192,181968,1,0,0:0:0:0:
329,192,182030,1,0,0:0:0:0:
182,192,182030,1,0,0:0:0:0:
36,192,182092,1,0,0:0:0:0:
475,192,182092,1,0,0:0:0:0:
329,192,182154,1,0,0:0:0:0:
182,192,182154,1,0,0:0:0:0:
36,192,182216,1,0,0:0:0:0:
475,192,182216,1,0,0:0:0:0:
182,192,182278,1,0,0:0:0:0:
329,192,182278,1,0,0:0:0:0:
475,192,182340,1,0,0:0:0:0:
36,192,182340,1,0,0:0:0:0:
182,192,182402,1,0,0:0:0:0:
329,192,182402,1,0,0:0:0:0:
475,192,182464,1,0,0:0:0:0:
36,192,182464,1,0,0:0:0:0:
329,192,182526,1,0,0:0:0:0:
182,192,182526,1,0,0:0:0:0:
36,192,182588,1,0,0:0:0:0:
475,192,182588,1,0,0:0:0:0:
329,192,182650,1,0,0:0:0:0:
182,192,182650,1,0,0:0:0:0:
36,192,182712,1,0,0:0:0:0:
475,192,182712,1,0,0:0:0:0:
182,192,182774,1,0,0:0:0:0:
329,192,182774,1,0,0:0:0:0:
475,192,182836,1,0,0:0:0:0:
36,192,182836,1,0,0:0:0:0:
182,192,182898,1,0,0:0:0:0:
329,192,182898,1,0,0:0:0:0:
475,192,182960,1,0,0:0:0:0:
36,192,182960,1,0,0:0:0:0:
329,192,183022,1,0,0:0:0:0:
182,192,183022,1,0,0:0:0:0:
36,192,183084,1,0,0:0:0:0:
475,192,183084,1,0,0:0:0:0:
109,192,183084,128,0,183332:0:0:0:0:
256,192,183084,128,0,183394:0:0:0:0:
402,192,183084,128,0,183332:0:0:0:0:
329,192,183146,1,0,0:0:0:0:
182,192,183146,1,0,0:0:0:0:
109,192,183456,128,0,183642:0:0:0:0:
256,192,183456,128,0,183673:0:0:0:0:
402,192,183456,128,0,183642:0:0:0:0:
109,192,183704,1,0,0:0:0:0:
256,192,183704,1,0,0:0:0:0:
402,192,183704,1,0,0:0:0:0:
36,192,183952,1,0,0:0:0:0:
36,192,184200,1,0,0:0:0:0:
36,192,184447,1,0,0:0:0:0:
475,192,184447,128,0,184695:0:0:0:0:
36,192,184695,1,0,0:0:0:0:
36,192,184943,1,0,0:0:0:0:
475,192,184943,128,0,185191:0:0:0:0:
329,192,185067,1,0,0:0:0:0:
256,192,185067,1,0,0:0:0:0:
182,192,185067,1,0,0:0:0:0:
36,192,185191,1,0,0:0:0:0:
36,192,185439,1,0,0:0:0:0:
182,192,185439,1,0,0:0:0:0:
256,192,185439,1,0,0:0:0:0:
329,192,185439,1,0,0:0:0:0:
475,192,185439,128,0,185687:0:0:0:0:
109,192,185563,1,0,0:0:0:0:
182,192,185687,1,0,0:0:0:0:
475,192,185935,128,0,186183:0:0:0:0:
182,192,185935,1,0,0:0:0:0:
182,192,186183,1,0,0:0:0:0:
475,192,186431,128,0,186679:0:0:0:0:
182,192,186431,1,0,0:0:0:0:
182,192,186679,1,0,0:0:0:0:
475,192,186927,128,0,187299:0:0:0:0:
182,192,186927,1,0,0:0:0:0:
256,192,187051,1,0,0:0:0:0:
329,192,187051,1,0,0:0:0:0:
402,192,187051,1,0,0:0:0:0:
182,192,187175,1,0,0:0:0:0:
475,192,187423,128,0,187671:0:0:0:0:
182,192,187423,1,0,0:0:0:0:
402,192,187423,1,0,0:0:0:0:
329,192,187423,1,0,0:0:0:0:
256,192,187423,1,0,0:0:0:0:
36,192,187547,1,0,0:0:0:0:
109,192,187671,1,0,0:0:0:0:
475,192,187919,128,0,188166:0:0:0:0:
182,192,187919,1,0,0:0:0:0:
256,192,187919,1,0,0:0:0:0:
402,192,187919,1,0,0:0:0:0:
329,192,187919,1,0,0:0:0:0:
109,192,188166,1,0,0:0:0:0:
329,192,188290,1,0,0:0:0:0:
256,192,188290,1,0,0:0:0:0:
182,192,188290,1,0,0:0:0:0:
109,192,188290,1,0,0:0:0:0:
475,192,188414,128,0,188600:0:0:0:0:
402,192,188538,128,0,188600:0:0:0:0:
109,192,188538,1,0,0:0:0:0:
36,192,188538,1,0,0:0:0:0:
329,192,188600,128,0,188662:0:0:0:0:
256,192,188662,128,0,188724:0:0:0:0:
475,192,188662,1,0,0:0:0:0:
402,192,188662,1,0,0:0:0:0:
182,192,188724,128,0,188786:0:0:0:0:
256,192,188786,128,0,188848:0:0:0:0:
109,192,188786,1,0,0:0:0:0:
36,192,188786,1,0,0:0:0:0:
329,192,188848,128,0,188910:0:0:0:0:
182,192,188848,1,0,0:0:0:0:
402,192,188910,128,0,188972:0:0:0:0:
256,192,188910,1,0,0:0:0:0:
475,192,188972,128,0,189034:0:0:0:0:
182,192,188972,1,0,0:0:0:0:
36,192,189034,128,0,189220:0:0:0:0:
109,192,189034,1,0,0:0:0:0:
329,192,189034,1,0,0:0:0:0:
402,192,189096,1,0,0:0:0:0:
109,192,189158,128,0,189220:0:0:0:0:
475,192,189158,1,0,0:0:0:0:
182,192,189220,128,0,189282:0:0:0:0:
402,192,189220,1,0,0:0:0:0:
256,192,189282,128,0,189344:0:0:0:0:
329,192,189282,1,0,0:0:0:0:
329,192,189344,128,0,189406:0:0:0:0:
256,192,189406,128,0,189468:0:0:0:0:
475,192,189406,1,0,0:0:0:0:
402,192,189406,1,0,0:0:0:0:
182,192,189468,128,0,189530:0:0:0:0:
109,192,189530,128,0,189592:0:0:0:0:
402,192,189530,1,0,0:0:0:0:
475,192,189530,1,0,0:0:0:0:
36,192,189592,128,0,189654:0:0:0:0:
329,192,189654,128,0,189716:0:0:0:0:
475,192,189654,1,0,0:0:0:0:
402,192,189654,1,0,0:0:0:0:
256,192,189716,128,0,189778:0:0:0:0:
182,192,189778,128,0,189840:0:0:0:0:
402,192,189778,1,0,0:0:0:0:
475,192,189778,1,0,0:0:0:0:
109,192,189840,128,0,189902:0:0:0:0:
256,192,189840,128,0,189902:0:0:0:0:
36,192,189902,128,0,189964:0:0:0:0:
329,192,189902,128,0,189964:0:0:0:0:
475,192,189902,1,0,0:0:0:0:
402,192,189902,1,0,0:0:0:0:
256,192,189964,128,0,190026:0:0:0:0:
109,192,189964,128,0,190026:0:0:0:0:
182,192,190026,128,0,190088:0:0:0:0:
402,192,190026,1,0,0:0:0:0:
475,192,190026,1,0,0:0:0:0:
329,192,190088,128,0,190150:0:0:0:0:
475,192,190150,1,0,0:0:0:0:
402,192,190150,1,0,0:0:0:0:
109,192,190150,128,0,190212:0:0:0:0:
256,192,190212,128,0,190274:0:0:0:0:
402,192,190274,1,0,0:0:0:0:
475,192,190274,1,0,0:0:0:0:
36,192,190274,128,0,190336:0:0:0:0:
182,192,190336,128,0,190398:0:0:0:0:
109,192,190398,1,0,0:0:0:0:
36,192,190398,1,0,0:0:0:0:
256,192,190398,128,0,190460:0:0:0:0:
329,192,190460,128,0,190522:0:0:0:0:
36,192,190522,1,0,0:0:0:0:
109,192,190522,1,0,0:0:0:0:
402,192,190522,128,0,190584:0:0:0:0:
475,192,190584,128,0,190646:0:0:0:0:
109,192,190646,1,0,0:0:0:0:
36,192,190646,1,0,0:0:0:0:
256,192,190646,128,0,190708:0:0:0:0:
329,192,190708,128,0,190770:0:0:0:0:
109,192,190770,1,0,0:0:0:0:
182,192,190770,1,0,0:0:0:0:
402,192,190770,128,0,190832:0:0:0:0:
256,192,190832,128,0,190894:0:0:0:0:
475,192,190832,128,0,190894:0:0:0:0:
109,192,190894,1,0,0:0:0:0:
182,192,190894,1,0,0:0:0:0:
329,192,190894,128,0,190956:0:0:0:0:
402,192,190894,128,0,190956:0:0:0:0:
475,192,190956,128,0,191018:0:0:0:0:
256,192,190956,128,0,191018:0:0:0:0:
36,192,191018,1,0,0:0:0:0:
109,192,191018,1,0,0:0:0:0:
402,192,191018,128,0,191080:0:0:0:0:
182,192,191080,128,0,191142:0:0:0:0:
402,192,191142,128,0,191204:0:0:0:0:
109,192,191142,1,0,0:0:0:0:
36,192,191142,1,0,0:0:0:0:
256,192,191204,128,0,191266:0:0:0:0:
475,192,191266,128,0,191328:0:0:0:0:
36,192,191266,1,0,0:0:0:0:
109,192,191266,1,0,0:0:0:0:
329,192,191328,128,0,191390:0:0:0:0:
256,192,191390,128,0,191452:0:0:0:0:
475,192,191390,1,0,0:0:0:0:
402,192,191390,1,0,0:0:0:0:
182,192,191452,128,0,191514:0:0:0:0:
109,192,191514,128,0,191576:0:0:0:0:
402,192,191514,1,0,0:0:0:0:
475,192,191514,1,0,0:0:0:0:
36,192,191576,128,0,191638:0:0:0:0:
256,192,191638,128,0,191700:0:0:0:0:
475,192,191638,1,0,0:0:0:0:
402,192,191638,1,0,0:0:0:0:
182,192,191700,128,0,191762:0:0:0:0:
109,192,191762,128,0,191823:0:0:0:0:
329,192,191762,1,0,0:0:0:0:
402,192,191762,1,0,0:0:0:0:
36,192,191823,128,0,191885:0:0:0:0:
256,192,191823,128,0,191885:0:0:0:0:
182,192,191885,128,0,191947:0:0:0:0:
109,192,191885,128,0,191947:0:0:0:0:
402,192,191885,1,0,0:0:0:0:
329,192,191885,1,0,0:0:0:0:
256,192,191947,128,0,192009:0:0:0:0:
36,192,191947,128,0,192009:0:0:0:0:
109,192,192009,128,0,192071:0:0:0:0:
402,192,192009,1,0,0:0:0:0:
475,192,192009,1,0,0:0:0:0:
329,192,192071,128,0,192133:0:0:0:0:
475,192,192133,1,0,0:0:0:0:
402,192,192133,1,0,0:0:0:0:
109,192,192133,128,0,192195:0:0:0:0:
256,192,192195,128,0,192257:0:0:0:0:
402,192,192257,1,0,0:0:0:0:
475,192,192257,1,0,0:0:0:0:
36,192,192257,128,0,192319:0:0:0:0:
182,192,192319,128,0,192381:0:0:0:0:
36,192,192381,1,0,0:0:0:0:
109,192,192381,1,0,0:0:0:0:
256,192,192381,128,0,192443:0:0:0:0:
329,192,192443,128,0,192505:0:0:0:0:
109,192,192505,1,0,0:0:0:0:
36,192,192505,1,0,0:0:0:0:
402,192,192505,128,0,192567:0:0:0:0:
475,192,192567,128,0,192629:0:0:0:0:
402,192,192629,128,0,192691:0:0:0:0:
36,192,192629,1,0,0:0:0:0:
109,192,192629,1,0,0:0:0:0:
329,192,192691,128,0,192753:0:0:0:0:
256,192,192753,128,0,192815:0:0:0:0:
109,192,192753,1,0,0:0:0:0:
36,192,192753,1,0,0:0:0:0:
182,192,192815,128,0,192877:0:0:0:0:
475,192,192877,128,0,192939:0:0:0:0:
36,192,192877,1,0,0:0:0:0:
109,192,192877,1,0,0:0:0:0:
256,192,192877,128,0,192939:0:0:0:0:
329,192,192939,128,0,193001:0:0:0:0:
402,192,192939,128,0,193001:0:0:0:0:
109,192,193001,1,0,0:0:0:0:
36,192,193001,1,0,0:0:0:0:
256,192,193001,128,0,193063:0:0:0:0:
475,192,193001,128,0,193063:0:0:0:0:
182,192,193063,128,0,193125:0:0:0:0:
36,192,193125,1,0,0:0:0:0:
475,192,193125,1,0,0:0:0:0:
402,192,193125,128,0,193187:0:0:0:0:
109,192,193125,1,0,0:0:0:0:
329,192,193187,1,0,0:0:0:0:
256,192,193187,128,0,193249:0:0:0:0:
109,192,193249,1,0,0:0:0:0:
182,192,193249,1,0,0:0:0:0:
475,192,193249,128,0,193311:0:0:0:0:
36,192,193249,1,0,0:0:0:0:
329,192,193311,128,0,193373:0:0:0:0:
256,192,193373,1,0,0:0:0:0:
182,192,193373,1,0,0:0:0:0:
109,192,193373,1,0,0:0:0:0:
36,192,193373,1,0,0:0:0:0:
402,192,193435,128,0,193497:0:0:0:0:
109,192,193497,1,0,0:0:0:0:
182,192,193497,1,0,0:0:0:0:
256,192,193497,1,0,0:0:0:0:
329,192,193559,128,0,193621:0:0:0:0:
475,192,193559,128,0,193621:0:0:0:0:
256,192,193621,1,0,0:0:0:0:
182,192,193621,1,0,0:0:0:0:
402,192,193683,128,0,193745:0:0:0:0:
109,192,193683,128,0,193745:0:0:0:0:
256,192,193745,1,0,0:0:0:0:
329,192,193745,1,0,0:0:0:0:
182,192,193807,128,0,193869:0:0:0:0:
36,192,193807,128,0,193869:0:0:0:0:
329,192,193869,1,0,0:0:0:0:
402,192,193869,1,0,0:0:0:0:
256,192,193869,1,0,0:0:0:0:
475,192,193869,1,0,0:0:0:0:
109,192,193931,128,0,193993:0:0:0:0:
329,192,193993,1,0,0:0:0:0:
256,192,193993,1,0,0:0:0:0:
402,192,193993,1,0,0:0:0:0:
182,192,194055,128,0,194117:0:0:0:0:
36,192,194055,128,0,194117:0:0:0:0:
256,192,194117,1,0,0:0:0:0:
329,192,194117,1,0,0:0:0:0:
402,192,194179,128,0,194241:0:0:0:0:
109,192,194179,128,0,194241:0:0:0:0:
182,192,194241,1,0,0:0:0:0:
256,192,194241,1,0,0:0:0:0:
329,192,194303,128,0,194365:0:0:0:0:
475,192,194303,128,0,194365:0:0:0:0:
256,192,194365,1,0,0:0:0:0:
182,192,194365,1,0,0:0:0:0:
109,192,194365,128,0,194427:0:0:0:0:
36,192,194365,128,0,194737:0:0:0:0:
402,192,194427,128,0,194489:0:0:0:0:
256,192,194489,1,0,0:0:0:0:
182,192,194489,128,0,194551:0:0:0:0:
109,192,194489,128,0,194551:0:0:0:0:
329,192,194551,128,0,194613:0:0:0:0:
475,192,194551,128,0,194613:0:0:0:0:
182,192,194613,128,0,194675:0:0:0:0:
256,192,194613,128,0,194675:0:0:0:0:
109,192,194675,128,0,194737:0:0:0:0:
402,192,194675,128,0,194737:0:0:0:0:
256,192,194737,128,0,194799:0:0:0:0:
329,192,194737,128,0,194799:0:0:0:0:
36,192,194799,128,0,194861:0:0:0:0:
182,192,194799,128,0,194861:0:0:0:0:
329,192,194861,1,0,0:0:0:0:
256,192,194861,1,0,0:0:0:0:
475,192,194861,128,0,195233:0:0:0:0:
402,192,194861,128,0,194923:0:0:0:0:
109,192,194923,128,0,194985:0:0:0:0:
256,192,194985,1,0,0:0:0:0:
329,192,194985,128,0,195047:0:0:0:0:
402,192,194985,128,0,195047:0:0:0:0:
182,192,195047,128,0,195109:0:0:0:0:
36,192,195047,128,0,195109:0:0:0:0:
329,192,195109,128,0,195171:0:0:0:0:
256,192,195109,128,0,195171:0:0:0:0:
402,192,195171,128,0,195233:0:0:0:0:
109,192,195171,128,0,195233:0:0:0:0:
256,192,195233,128,0,195295:0:0:0:0:
182,192,195233,128,0,195295:0:0:0:0:
329,192,195295,128,0,195357:0:0:0:0:
475,192,195295,128,0,195357:0:0:0:0:
256,192,195357,1,0,0:0:0:0:
182,192,195357,1,0,0:0:0:0:
109,192,195357,1,0,0:0:0:0:
36,192,195357,1,0,0:0:0:0:
329,192,195481,1,0,0:0:0:0:
256,192,195481,1,0,0:0:0:0:
182,192,195481,1,0,0:0:0:0:
36,192,195481,1,0,0:0:0:0:
109,192,195481,1,0,0:0:0:0:
402,192,195604,1,0,0:0:0:0:
329,192,195604,1,0,0:0:0:0:
256,192,195604,1,0,0:0:0:0:
182,192,195604,1,0,0:0:0:0:
109,192,195604,1,0,0:0:0:0:
36,192,195604,1,0,0:0:0:0:
475,192,195728,1,0,0:0:0:0:
402,192,195728,1,0,0:0:0:0:
329,192,195728,1,0,0:0:0:0:
256,192,195728,1,0,0:0:0:0:
36,192,195728,1,0,0:0:0:0:
109,192,195728,1,0,0:0:0:0:
182,192,195728,1,0,0:0:0:0:
109,192,195852,128,0,195868:0:0:0:0:
182,192,195852,128,0,195868:0:0:0:0:
256,192,195852,128,0,195868:0:0:0:0:
329,192,195852,128,0,195868:0:0:0:0:
402,192,195852,128,0,195868:0:0:0:0:
475,192,195852,128,0,195868:0:0:0:0:
182,192,195976,128,0,195997:0:0:0:0:
256,192,195976,128,0,195997:0:0:0:0:
329,192,195976,128,0,195997:0:0:0:0:
402,192,195976,128,0,195997:0:0:0:0:
475,192,195976,128,0,195997:0:0:0:0:
256,192,196100,128,0,196131:0:0:0:0:
329,192,196100,128,0,196131:0:0:0:0:
475,192,196100,128,0,196131:0:0:0:0:
402,192,196100,128,0,196131:0:0:0:0:
329,192,196224,128,0,196266:0:0:0:0:
402,192,196224,128,0,196266:0:0:0:0:
475,192,196224,128,0,196266:0:0:0:0:
329,192,196348,128,0,196410:0:0:0:0:
402,192,196348,128,0,196410:0:0:0:0:
475,192,196348,128,0,196410:0:0:0:0:
329,192,196472,128,0,196555:0:0:0:0:
402,192,196472,128,0,196555:0:0:0:0:
475,192,196472,128,0,196555:0:0:0:0:
256,192,196472,1,0,0:0:0:0:
182,192,196472,1,0,0:0:0:0:
329,192,196596,128,0,196689:0:0:0:0:
256,192,196596,128,0,196689:0:0:0:0:
182,192,196596,128,0,196689:0:0:0:0:
402,192,196596,1,0,0:0:0:0:
475,192,196596,1,0,0:0:0:0:
329,192,196720,128,0,196813:0:0:0:0:
256,192,196720,128,0,196813:0:0:0:0:
182,192,196720,128,0,196813:0:0:0:0:
475,192,196720,1,0,0:0:0:0:
402,192,196720,1,0,0:0:0:0:
182,192,196844,128,0,197278:0:0:0:0:
109,192,196844,128,0,197278:0:0:0:0:
36,192,196844,128,0,197278:0:0:0:0:
475,192,196844,1,0,0:0:0:0:
402,192,196844,1,0,0:0:0:0:
329,192,196844,1,0,0:0:0:0:
256,192,196844,1,0,0:0:0:0:
475,192,197216,1,0,0:0:0:0:
329,192,197216,1,0,0:0:0:0:
402,192,197216,1,0,0:0:0:0:
182,192,197340,1,0,0:0:0:0:
109,192,197340,1,0,0:0:0:0:
36,192,197340,1,0,0:0:0:0:
329,192,197340,128,0,197526:0:0:0:0:
402,192,197340,128,0,197541:0:0:0:0:
475,192,197340,128,0,197557:0:0:0:0:
256,192,197402,1,0,0:0:0:0:
182,192,197464,1,0,0:0:0:0:
109,192,197526,1,0,0:0:0:0:
329,192,197588,1,0,0:0:0:0:
36,192,197588,1,0,0:0:0:0:
402,192,197603,1,0,0:0:0:0:
475,192,197619,1,0,0:0:0:0:
109,192,197629,1,0,0:0:0:0:
182,192,197671,1,0,0:0:0:0:
256,192,197712,1,0,0:0:0:0:
36,192,197836,1,0,0:0:0:0:
475,192,197836,1,0,0:0:0:0:
402,192,197851,1,0,0:0:0:0:
109,192,197867,1,0,0:0:0:0:
329,192,197867,1,0,0:0:0:0:
182,192,197898,1,0,0:0:0:0:
256,192,197929,1,0,0:0:0:0:
329,192,197960,1,0,0:0:0:0:
402,192,198001,1,0,0:0:0:0:
36,192,198022,128,0,198053:0:0:0:0:
475,192,198042,1,0,0:0:0:0:
109,192,198053,128,0,198084:0:0:0:0:
182,192,198084,128,0,198115:0:0:0:0:
256,192,198115,128,0,198146:0:0:0:0:
475,192,198146,128,0,198177:0:0:0:0:
402,192,198177,128,0,198208:0:0:0:0:
329,192,198208,128,0,198239:0:0:0:0:
256,192,198228,128,0,198249:0:0:0:0:
182,192,198249,128,0,198270:0:0:0:0:
109,192,198270,128,0,198290:0:0:0:0:
36,192,198290,128,0,198311:0:0:0:0:
402,192,198332,128,0,198533:0:0:0:0:
329,192,198332,128,0,198549:0:0:0:0:
256,192,198332,1,0,0:0:0:0:
182,192,198332,1,0,0:0:0:0:
109,192,198394,1,0,0:0:0:0:
36,192,198456,1,0,0:0:0:0:
475,192,198456,1,0,0:0:0:0:
256,192,198518,1,0,0:0:0:0:
182,192,198580,1,0,0:0:0:0:
109,192,198580,1,0,0:0:0:0:
36,192,198580,1,0,0:0:0:0:
475,192,198580,1,0,0:0:0:0:
402,192,198621,1,0,0:0:0:0:
329,192,198662,1,0,0:0:0:0:
256,192,198704,1,0,0:0:0:0:
182,192,198745,1,0,0:0:0:0:
109,192,198828,128,0,199014:0:0:0:0:
36,192,198828,128,0,199034:0:0:0:0:
256,192,198828,1,0,0:0:0:0:
475,192,198828,1,0,0:0:0:0:
402,192,198890,1,0,0:0:0:0:
329,192,198952,1,0,0:0:0:0:
256,192,199014,1,0,0:0:0:0:
109,192,199076,1,0,0:0:0:0:
402,192,199076,1,0,0:0:0:0:
329,192,199076,1,0,0:0:0:0:
36,192,199076,1,0,0:0:0:0:
182,192,199091,1,0,0:0:0:0:
402,192,199200,1,0,0:0:0:0:
329,192,199200,1,0,0:0:0:0:
36,192,199200,1,0,0:0:0:0:
109,192,199200,1,0,0:0:0:0:
182,192,199200,1,0,0:0:0:0:
256,192,199241,1,0,0:0:0:0:
329,192,199323,1,0,0:0:0:0:
402,192,199323,1,0,0:0:0:0:
475,192,199323,1,0,0:0:0:0:
182,192,199323,128,0,199525:0:0:0:0:
109,192,199323,128,0,199540:0:0:0:0:
36,192,199323,128,0,199556:0:0:0:0:
256,192,199385,1,0,0:0:0:0:
329,192,199447,1,0,0:0:0:0:
402,192,199509,1,0,0:0:0:0:
182,192,199571,1,0,0:0:0:0:
475,192,199571,1,0,0:0:0:0:
109,192,199587,1,0,0:0:0:0:
36,192,199602,1,0,0:0:0:0:
402,192,199613,1,0,0:0:0:0:
329,192,199654,1,0,0:0:0:0:
256,192,199695,1,0,0:0:0:0:
182,192,199757,1,0,0:0:0:0:
475,192,199819,1,0,0:0:0:0:
36,192,199819,1,0,0:0:0:0:
109,192,199835,1,0,0:0:0:0:
402,192,199850,1,0,0:0:0:0:
182,192,199850,1,0,0:0:0:0:
329,192,199881,1,0,0:0:0:0:
256,192,199912,1,0,0:0:0:0:
182,192,199943,1,0,0:0:0:0:
109,192,199985,1,0,0:0:0:0:
475,192,200005,128,0,200036:0:0:0:0:
36,192,200026,1,0,0:0:0:0:
402,192,200036,128,0,200067:0:0:0:0:
329,192,200067,128,0,200098:0:0:0:0:
256,192,200098,128,0,200129:0:0:0:0:
36,192,200129,128,0,200160:0:0:0:0:
109,192,200160,128,0,200191:0:0:0:0:
182,192,200191,128,0,200222:0:0:0:0:
256,192,200212,128,0,200233:0:0:0:0:
329,192,200233,128,0,200253:0:0:0:0:
402,192,200253,128,0,200274:0:0:0:0:
475,192,200274,128,0,200295:0:0:0:0:
109,192,200315,128,0,200517:0:0:0:0:
36,192,200315,1,0,0:0:0:0:
182,192,200331,128,0,200532:0:0:0:0:
256,192,200346,128,0,200548:0:0:0:0:
329,192,200362,128,0,200563:0:0:0:0:
109,192,200563,1,0,0:0:0:0:
402,192,200563,1,0,0:0:0:0:
475,192,200563,1,0,0:0:0:0:
182,192,200579,1,0,0:0:0:0:
256,192,200594,1,0,0:0:0:0:
329,192,200610,1,0,0:0:0:0:
402,192,200687,128,0,200827:0:0:0:0:
109,192,200687,1,0,0:0:0:0:
36,192,200687,1,0,0:0:0:0:
329,192,200703,128,0,200811:0:0:0:0:
256,192,200718,128,0,200796:0:0:0:0:
182,192,200734,128,0,200780:0:0:0:0:
109,192,200811,128,0,201044:0:0:0:0:
182,192,200827,128,0,201059:0:0:0:0:
256,192,200842,128,0,201075:0:0:0:0:
329,192,200858,128,0,201090:0:0:0:0:
402,192,200935,1,0,0:0:0:0:
475,192,200935,1,0,0:0:0:0:
402,192,201059,1,0,0:0:0:0:
475,192,201059,1,0,0:0:0:0:
475,192,201167,128,0,201338:0:0:0:0:
402,192,201183,128,0,201322:0:0:0:0:
109,192,201183,1,0,0:0:0:0:
36,192,201183,1,0,0:0:0:0:
329,192,201198,128,0,201307:0:0:0:0:
256,192,201214,128,0,201291:0:0:0:0:
182,192,201229,128,0,201276:0:0:0:0:
36,192,201307,1,0,0:0:0:0:
109,192,201322,1,0,0:0:0:0:
182,192,201353,1,0,0:0:0:0:
256,192,201369,1,0,0:0:0:0:
36,192,201369,128,0,201663:0:0:0:0:
109,192,201384,128,0,201648:0:0:0:0:
329,192,201400,1,0,0:0:0:0:
402,192,201415,1,0,0:0:0:0:
182,192,201415,128,0,201617:0:0:0:0:
475,192,201431,128,0,201617:0:0:0:0:
256,192,201431,128,0,201601:0:0:0:0:
329,192,201462,128,0,201570:0:0:0:0:
402,192,201477,128,0,201555:0:0:0:0:
475,192,201679,1,0,0:0:0:0:
329,192,201679,1,0,0:0:0:0:
256,192,201694,1,0,0:0:0:0:
402,192,201694,1,0,0:0:0:0:
475,192,201803,128,0,201818:0:0:0:0:
256,192,201803,1,0,0:0:0:0:
182,192,201818,1,0,0:0:0:0:
402,192,201818,1,0,0:0:0:0:
475,192,201927,128,0,201947:0:0:0:0:
182,192,201927,1,0,0:0:0:0:
109,192,201942,1,0,0:0:0:0:
402,192,201942,1,0,0:0:0:0:
475,192,202051,128,0,202082:0:0:0:0:
109,192,202051,128,0,202268:0:0:0:0:
256,192,202051,1,0,0:0:0:0:
36,192,202066,128,0,202252:0:0:0:0:
402,192,202066,1,0,0:0:0:0:
329,192,202113,1,0,0:0:0:0:
402,192,202175,1,0,0:0:0:0:
329,192,202237,1,0,0:0:0:0:
475,192,202299,128,0,202361:0:0:0:0:
36,192,202299,1,0,0:0:0:0:
109,192,202314,1,0,0:0:0:0:
182,192,202345,1,0,0:0:0:0:
256,192,202361,1,0,0:0:0:0:
36,192,202361,128,0,202655:0:0:0:0:
109,192,202376,128,0,202640:0:0:0:0:
329,192,202392,1,0,0:0:0:0:
402,192,202407,1,0,0:0:0:0:
182,192,202407,128,0,202609:0:0:0:0:
475,192,202423,128,0,202609:0:0:0:0:
256,192,202423,128,0,202593:0:0:0:0:
329,192,202454,128,0,202562:0:0:0:0:
402,192,202469,128,0,202547:0:0:0:0:
475,192,202671,1,0,0:0:0:0:
329,192,202671,1,0,0:0:0:0:
256,192,202686,1,0,0:0:0:0:
402,192,202686,1,0,0:0:0:0:
475,192,202795,128,0,202810:0:0:0:0:
256,192,202795,1,0,0:0:0:0:
182,192,202810,1,0,0:0:0:0:
402,192,202810,1,0,0:0:0:0:
475,192,202919,128,0,202939:0:0:0:0:
182,192,202919,1,0,0:0:0:0:
109,192,202934,1,0,0:0:0:0:
402,192,202934,1,0,0:0:0:0:
475,192,203042,128,0,203073:0:0:0:0:
109,192,203042,128,0,203275:0:0:0:0:
256,192,203042,1,0,0:0:0:0:
36,192,203058,128,0,203259:0:0:0:0:
402,192,203058,1,0,0:0:0:0:
329,192,203073,1,0,0:0:0:0:
402,192,203135,1,0,0:0:0:0:
329,192,203166,1,0,0:0:0:0:
402,192,203208,1,0,0:0:0:0:
329,192,203228,1,0,0:0:0:0:
475,192,203290,1,0,0:0:0:0:
402,192,203306,1,0,0:0:0:0:
329,192,203337,1,0,0:0:0:0:
475,192,203352,128,0,203647:0:0:0:0:
256,192,203352,1,0,0:0:0:0:
402,192,203368,128,0,203631:0:0:0:0:
182,192,203383,1,0,0:0:0:0:
329,192,203399,128,0,203600:0:0:0:0:
109,192,203399,1,0,0:0:0:0:
256,192,203414,128,0,203585:0:0:0:0:
36,192,203414,128,0,203600:0:0:0:0:
182,192,203445,128,0,203554:0:0:0:0:
109,192,203461,128,0,203538:0:0:0:0:
182,192,203662,1,0,0:0:0:0:
36,192,203662,1,0,0:0:0:0:
109,192,203678,1,0,0:0:0:0:
256,192,203678,1,0,0:0:0:0:
256,192,203786,1,0,0:0:0:0:
36,192,203786,128,0,203802:0:0:0:0:
109,192,203802,1,0,0:0:0:0:
329,192,203802,1,0,0:0:0:0:
329,192,203910,1,0,0:0:0:0:
36,192,203910,128,0,203931:0:0:0:0:
109,192,203926,1,0,0:0:0:0:
402,192,203926,1,0,0:0:0:0:
256,192,204034,1,0,0:0:0:0:
402,192,204034,128,0,204267:0:0:0:0:
36,192,204034,128,0,204065:0:0:0:0:
109,192,204050,1,0,0:0:0:0:
475,192,204050,128,0,204251:0:0:0:0:
182,192,204096,1,0,0:0:0:0:
109,192,204158,1,0,0:0:0:0:
182,192,204220,1,0,0:0:0:0:
475,192,204282,1,0,0:0:0:0:
402,192,204298,1,0,0:0:0:0:
329,192,204329,1,0,0:0:0:0:
475,192,204344,128,0,204623:0:0:0:0:
256,192,204344,1,0,0:0:0:0:
402,192,204360,128,0,204608:0:0:0:0:
182,192,204375,1,0,0:0:0:0:
329,192,204391,128,0,204592:0:0:0:0:
109,192,204391,1,0,0:0:0:0:
256,192,204406,128,0,204577:0:0:0:0:
36,192,204406,128,0,204592:0:0:0:0:
182,192,204437,128,0,204546:0:0:0:0:
109,192,204453,128,0,204530:0:0:0:0:
36,192,204654,128,0,204933:0:0:0:0:
329,192,204654,1,0,0:0:0:0:
402,192,204654,1,0,0:0:0:0:
475,192,204654,1,0,0:0:0:0:
109,192,204670,128,0,204917:0:0:0:0:
182,192,204701,128,0,204887:0:0:0:0:
256,192,204716,128,0,204856:0:0:0:0:
329,192,204747,128,0,204840:0:0:0:0:
402,192,204763,128,0,204825:0:0:0:0:
475,192,204778,1,0,0:0:0:0:
475,192,204840,128,0,204881:0:0:0:0:
402,192,204861,128,0,204902:0:0:0:0:
329,192,204881,128,0,204923:0:0:0:0:
256,192,204902,128,0,204943:0:0:0:0:
182,192,204923,128,0,204964:0:0:0:0:
109,192,204948,128,0,204979:0:0:0:0:
36,192,204964,128,0,204995:0:0:0:0:
36,192,205274,1,0,0:0:0:0:
256,192,205274,1,0,0:0:0:0:
402,192,205274,1,0,0:0:0:0:
475,192,205274,1,0,0:0:0:0:
182,192,205336,1,0,0:0:0:0:
109,192,205398,1,0,0:0:0:0:
329,192,205398,1,0,0:0:0:0:
402,192,205398,1,0,0:0:0:0:
182,192,205460,1,0,0:0:0:0:
256,192,205522,1,0,0:0:0:0:
475,192,205522,1,0,0:0:0:0:
36,192,205522,1,0,0:0:0:0:
329,192,205584,1,0,0:0:0:0:
402,192,205646,1,0,0:0:0:0:
109,192,205646,1,0,0:0:0:0:
36,192,205646,1,0,0:0:0:0:
329,192,205708,1,0,0:0:0:0:
182,192,205708,1,0,0:0:0:0:
256,192,205770,1,0,0:0:0:0:
475,192,205770,1,0,0:0:0:0:
402,192,205770,1,0,0:0:0:0:
36,192,205770,1,0,0:0:0:0:
182,192,205832,1,0,0:0:0:0:
109,192,205894,1,0,0:0:0:0:
402,192,205894,1,0,0:0:0:0:
329,192,205894,1,0,0:0:0:0:
182,192,205956,1,0,0:0:0:0:
256,192,206018,1,0,0:0:0:0:
475,192,206018,1,0,0:0:0:0:
36,192,206018,1,0,0:0:0:0:
329,192,206080,1,0,0:0:0:0:
402,192,206142,1,0,0:0:0:0:
109,192,206142,1,0,0:0:0:0:
36,192,206142,1,0,0:0:0:0:
329,192,206204,1,0,0:0:0:0:
182,192,206204,1,0,0:0:0:0:
475,192,206266,1,0,0:0:0:0:
256,192,206266,1,0,0:0:0:0:
109,192,206266,1,0,0:0:0:0:
36,192,206266,1,0,0:0:0:0:
329,192,206328,1,0,0:0:0:0:
402,192,206390,1,0,0:0:0:0:
182,192,206390,1,0,0:0:0:0:
109,192,206390,1,0,0:0:0:0:
329,192,206452,1,0,0:0:0:0:
256,192,206514,1,0,0:0:0:0:
36,192,206514,1,0,0:0:0:0:
475,192,206514,1,0,0:0:0:0:
182,192,206576,1,0,0:0:0:0:
109,192,206638,1,0,0:0:0:0:
402,192,206638,1,0,0:0:0:0:
475,192,206638,1,0,0:0:0:0:
182,192,206700,1,0,0:0:0:0:
329,192,206700,1,0,0:0:0:0:
256,192,206762,1,0,0:0:0:0:
36,192,206762,1,0,0:0:0:0:
109,192,206762,1,0,0:0:0:0:
475,192,206762,1,0,0:0:0:0:
329,192,206823,1,0,0:0:0:0:
182,192,206823,1,0,0:0:0:0:
402,192,206885,1,0,0:0:0:0:
109,192,206885,1,0,0:0:0:0:
475,192,206885,1,0,0:0:0:0:
36,192,206885,1,0,0:0:0:0:
329,192,206947,1,0,0:0:0:0:
256,192,207009,1,0,0:0:0:0:
36,192,207009,1,0,0:0:0:0:
475,192,207009,1,0,0:0:0:0:
402,192,207040,1,0,0:0:0:0:
182,192,207071,1,0,0:0:0:0:
329,192,207102,1,0,0:0:0:0:
109,192,207133,1,0,0:0:0:0:
36,192,207133,1,0,0:0:0:0:
402,192,207164,1,0,0:0:0:0:
182,192,207195,1,0,0:0:0:0:
475,192,207226,1,0,0:0:0:0:
256,192,207257,1,0,0:0:0:0:
36,192,207257,1,0,0:0:0:0:
109,192,207288,1,0,0:0:0:0:
329,192,207319,1,0,0:0:0:0:
182,192,207350,1,0,0:0:0:0:
402,192,207381,1,0,0:0:0:0:
475,192,207381,1,0,0:0:0:0:
109,192,207412,1,0,0:0:0:0:
329,192,207443,1,0,0:0:0:0:
36,192,207474,1,0,0:0:0:0:
256,192,207505,1,0,0:0:0:0:
475,192,207505,1,0,0:0:0:0:
109,192,207505,128,0,207567:0:0:0:0:
182,192,207567,1,0,0:0:0:0:
329,192,207629,1,0,0:0:0:0:
475,192,207629,1,0,0:0:0:0:
109,192,207629,128,0,207691:0:0:0:0:
256,192,207691,1,0,0:0:0:0:
402,192,207753,1,0,0:0:0:0:
475,192,207753,1,0,0:0:0:0:
109,192,207753,128,0,207877:0:0:0:0:
36,192,207753,128,0,208001:0:0:0:0:
182,192,207815,1,0,0:0:0:0:
475,192,207877,1,0,0:0:0:0:
402,192,207877,1,0,0:0:0:0:
329,192,207877,1,0,0:0:0:0:
109,192,207939,1,0,0:0:0:0:
475,192,208001,1,0,0:0:0:0:
402,192,208001,1,0,0:0:0:0:
329,192,208001,1,0,0:0:0:0:
256,192,208001,1,0,0:0:0:0:
36,192,208063,1,0,0:0:0:0:
402,192,208125,1,0,0:0:0:0:
329,192,208125,1,0,0:0:0:0:
256,192,208125,1,0,0:0:0:0:
182,192,208125,1,0,0:0:0:0:
475,192,208187,1,0,0:0:0:0:
36,192,208249,128,0,208311:0:0:0:0:
109,192,208249,128,0,208373:0:0:0:0:
256,192,208249,1,0,0:0:0:0:
182,192,208311,128,0,208373:0:0:0:0:
329,192,208311,1,0,0:0:0:0:
256,192,208373,128,0,208497:0:0:0:0:
329,192,208373,128,0,208435:0:0:0:0:
36,192,208373,1,0,0:0:0:0:
402,192,208373,1,0,0:0:0:0:
182,192,208435,128,0,208497:0:0:0:0:
109,192,208435,1,0,0:0:0:0:
475,192,208435,1,0,0:0:0:0:
402,192,208497,128,0,208621:0:0:0:0:
329,192,208497,128,0,208559:0:0:0:0:
475,192,208559,128,0,208621:0:0:0:0:
256,192,208559,1,0,0:0:0:0:
329,192,208621,1,0,0:0:0:0:
256,192,208621,1,0,0:0:0:0:
182,192,208621,1,0,0:0:0:0:
109,192,208621,1,0,0:0:0:0:
36,192,208621,1,0,0:0:0:0:
402,192,208745,1,0,0:0:0:0:
329,192,208745,1,0,0:0:0:0:
256,192,208745,1,0,0:0:0:0:
182,192,208745,1,0,0:0:0:0:
109,192,208745,1,0,0:0:0:0:
475,192,208869,1,0,0:0:0:0:
402,192,208869,1,0,0:0:0:0:
329,192,208869,1,0,0:0:0:0:
256,192,208869,1,0,0:0:0:0:
182,192,208869,1,0,0:0:0:0:
329,192,208993,128,0,209055:0:0:0:0:
402,192,208993,128,0,209117:0:0:0:0:
256,192,208993,1,0,0:0:0:0:
109,192,208993,1,0,0:0:0:0:
182,192,208993,1,0,0:0:0:0:
36,192,208993,1,0,0:0:0:0:
475,192,209055,128,0,209117:0:0:0:0:
256,192,209055,128,0,209179:0:0:0:0:
182,192,209055,128,0,209117:0:0:0:0:
329,192,209117,128,0,209179:0:0:0:0:
109,192,209117,128,0,209241:0:0:0:0:
36,192,209117,128,0,209179:0:0:0:0:
182,192,209179,128,0,209241:0:0:0:0:
256,192,209241,1,0,0:0:0:0:
329,192,209241,1,0,0:0:0:0:
402,192,209241,1,0,0:0:0:0:
475,192,209241,1,0,0:0:0:0:
256,192,209365,1,0,0:0:0:0:
36,192,209365,1,0,0:0:0:0:
402,192,209365,1,0,0:0:0:0:
475,192,209365,1,0,0:0:0:0:
329,192,209489,1,0,0:0:0:0:
182,192,209489,1,0,0:0:0:0:
36,192,209489,1,0,0:0:0:0:
475,192,209489,1,0,0:0:0:0:
256,192,209613,1,0,0:0:0:0:
109,192,209613,1,0,0:0:0:0:
36,192,209613,1,0,0:0:0:0:
475,192,209613,1,0,0:0:0:0:
402,192,209675,1,0,0:0:0:0:
109,192,209737,1,0,0:0:0:0:
36,192,209737,1,0,0:0:0:0:
329,192,209737,1,0,0:0:0:0:
475,192,209737,1,0,0:0:0:0:
256,192,209861,1,0,0:0:0:0:
402,192,209861,1,0,0:0:0:0:
36,192,209861,1,0,0:0:0:0:
182,192,209985,1,0,0:0:0:0:
329,192,209985,1,0,0:0:0:0:
36,192,209985,1,0,0:0:0:0:
475,192,209985,1,0,0:0:0:0:
256,192,210109,1,0,0:0:0:0:
109,192,210109,1,0,0:0:0:0:
402,192,210109,1,0,0:0:0:0:
475,192,210109,1,0,0:0:0:0:
329,192,210171,1,0,0:0:0:0:
182,192,210233,1,0,0:0:0:0:
36,192,210233,1,0,0:0:0:0:
402,192,210233,1,0,0:0:0:0:
475,192,210233,1,0,0:0:0:0:
329,192,210357,1,0,0:0:0:0:
182,192,210357,1,0,0:0:0:0:
475,192,210357,1,0,0:0:0:0:
36,192,210357,1,0,0:0:0:0:
256,192,210481,1,0,0:0:0:0:
109,192,210481,1,0,0:0:0:0:
36,192,210481,1,0,0:0:0:0:
475,192,210481,1,0,0:0:0:0:
256,192,210604,1,0,0:0:0:0:
402,192,210604,1,0,0:0:0:0:
36,192,210604,1,0,0:0:0:0:
475,192,210604,1,0,0:0:0:0:
109,192,210666,1,0,0:0:0:0:
329,192,210728,1,0,0:0:0:0:
182,192,210728,1,0,0:0:0:0:
36,192,210728,1,0,0:0:0:0:
475,192,210728,1,0,0:0:0:0:
256,192,210790,1,0,0:0:0:0:
329,192,210852,1,0,0:0:0:0:
475,192,210852,1,0,0:0:0:0:
109,192,210852,1,0,0:0:0:0:
182,192,210852,1,0,0:0:0:0:
256,192,210976,1,0,0:0:0:0:
475,192,210976,1,0,0:0:0:0:
182,192,211007,1,0,0:0:0:0:
402,192,211038,1,0,0:0:0:0:
109,192,211038,1,0,0:0:0:0:
36,192,211069,1,0,0:0:0:0:
329,192,211100,1,0,0:0:0:0:
475,192,211142,1,0,0:0:0:0:
256,192,211162,1,0,0:0:0:0:
402,192,211183,1,0,0:0:0:0:
329,192,211224,1,0,0:0:0:0:
182,192,211224,1,0,0:0:0:0:
109,192,211224,1,0,0:0:0:0:
36,192,211224,1,0,0:0:0:0:
475,192,211255,1,0,0:0:0:0:
402,192,211286,1,0,0:0:0:0:
329,192,211317,1,0,0:0:0:0:
256,192,211348,1,0,0:0:0:0:
36,192,211379,1,0,0:0:0:0:
109,192,211410,1,0,0:0:0:0:
329,192,211410,1,0,0:0:0:0:
182,192,211441,1,0,0:0:0:0:
256,192,211472,1,0,0:0:0:0:
402,192,211472,1,0,0:0:0:0:
475,192,211472,1,0,0:0:0:0:
36,192,211534,1,0,0:0:0:0:
109,192,211596,1,0,0:0:0:0:
475,192,211596,1,0,0:0:0:0:
402,192,211596,1,0,0:0:0:0:
256,192,211596,1,0,0:0:0:0:
182,192,211658,1,0,0:0:0:0:
402,192,211720,1,0,0:0:0:0:
475,192,211720,1,0,0:0:0:0:
329,192,211720,1,0,0:0:0:0:
36,192,211720,1,0,0:0:0:0:
109,192,211782,1,0,0:0:0:0:
329,192,211844,1,0,0:0:0:0:
475,192,211844,1,0,0:0:0:0:
182,192,211844,1,0,0:0:0:0:
402,192,211906,1,0,0:0:0:0:
256,192,211968,1,0,0:0:0:0:
475,192,211968,1,0,0:0:0:0:
109,192,211968,1,0,0:0:0:0:
36,192,211968,1,0,0:0:0:0:
329,192,212030,1,0,0:0:0:0:
182,192,212030,1,0,0:0:0:0:
402,192,212092,1,0,0:0:0:0:
256,192,212092,1,0,0:0:0:0:
475,192,212154,1,0,0:0:0:0:
182,192,212154,1,0,0:0:0:0:
256,192,212216,1,0,0:0:0:0:
109,192,212216,1,0,0:0:0:0:
36,192,212216,128,0,212247:0:0:0:0:
182,192,212216,128,0,212247:0:0:0:0:
329,192,212216,128,0,212247:0:0:0:0:
109,192,212278,128,0,212433:0:0:0:0:
256,192,212278,128,0,212433:0:0:0:0:
182,192,212340,128,0,212371:0:0:0:0:
36,192,212340,128,0,212371:0:0:0:0:
329,192,212340,128,0,212371:0:0:0:0:
109,192,212464,128,0,212495:0:0:0:0:
256,192,212464,128,0,212495:0:0:0:0:
182,192,212464,1,0,0:0:0:0:
402,192,212464,128,0,212495:0:0:0:0:
329,192,212464,1,0,0:0:0:0:
182,192,212526,128,0,212681:0:0:0:0:
329,192,212526,128,0,212681:0:0:0:0:
402,192,212588,128,0,212619:0:0:0:0:
109,192,212588,128,0,212619:0:0:0:0:
256,192,212588,128,0,212619:0:0:0:0:
256,192,212712,1,0,0:0:0:0:
182,192,212712,128,0,212743:0:0:0:0:
402,192,212712,1,0,0:0:0:0:
329,192,212712,128,0,212743:0:0:0:0:
475,192,212712,128,0,212743:0:0:0:0:
109,192,212743,1,0,0:0:0:0:
402,192,212774,128,0,212929:0:0:0:0:
256,192,212774,128,0,212929:0:0:0:0:
36,192,212805,1,0,0:0:0:0:
475,192,212836,128,0,212867:0:0:0:0:
329,192,212836,128,0,212867:0:0:0:0:
182,192,212836,128,0,212867:0:0:0:0:
109,192,212867,1,0,0:0:0:0:
36,192,212929,1,0,0:0:0:0:
256,192,212960,1,0,0:0:0:0:
475,192,212960,1,0,0:0:0:0:
182,192,212991,1,0,0:0:0:0:
402,192,212991,1,0,0:0:0:0:
109,192,213022,1,0,0:0:0:0:
329,192,213022,1,0,0:0:0:0:
36,192,213053,1,0,0:0:0:0:
256,192,213053,1,0,0:0:0:0:
182,192,213084,1,0,0:0:0:0:
475,192,213084,1,0,0:0:0:0:
109,192,213115,1,0,0:0:0:0:
402,192,213115,1,0,0:0:0:0:
36,192,213146,1,0,0:0:0:0:
329,192,213146,1,0,0:0:0:0:
256,192,213177,1,0,0:0:0:0:
182,192,213208,1,0,0:0:0:0:
109,192,213208,1,0,0:0:0:0:
36,192,213208,1,0,0:0:0:0:
329,192,213208,128,0,213409:0:0:0:0:
402,192,213208,128,0,213425:0:0:0:0:
475,192,213208,128,0,213440:0:0:0:0:
256,192,213270,128,0,213518:0:0:0:0:
182,192,213332,128,0,213487:0:0:0:0:
109,192,213394,128,0,213456:0:0:0:0:
329,192,213456,1,0,0:0:0:0:
36,192,213456,128,0,213642:0:0:0:0:
402,192,213471,1,0,0:0:0:0:
475,192,213487,1,0,0:0:0:0:
109,192,213497,128,0,213621:0:0:0:0:
182,192,213538,128,0,213580:0:0:0:0:
256,192,213580,1,0,0:0:0:0:
182,192,213621,1,0,0:0:0:0:
109,192,213662,1,0,0:0:0:0:
36,192,213704,1,0,0:0:0:0:
475,192,213704,1,0,0:0:0:0:
402,192,213719,1,0,0:0:0:0:
329,192,213735,1,0,0:0:0:0:
256,192,213750,1,0,0:0:0:0:
182,192,213766,1,0,0:0:0:0:
109,192,213797,1,0,0:0:0:0:
36,192,213828,1,0,0:0:0:0:
475,192,213828,1,0,0:0:0:0:
402,192,213828,1,0,0:0:0:0:
329,192,213859,1,0,0:0:0:0:
256,192,213890,128,0,213921:0:0:0:0:
182,192,213921,128,0,213952:0:0:0:0:
109,192,213952,128,0,213983:0:0:0:0:
402,192,213952,1,0,0:0:0:0:
36,192,213983,128,0,214014:0:0:0:0:
475,192,214014,128,0,214045:0:0:0:0:
402,192,214045,128,0,214076:0:0:0:0:
329,192,214076,128,0,214107:0:0:0:0:
256,192,214096,128,0,214117:0:0:0:0:
182,192,214117,128,0,214138:0:0:0:0:
109,192,214138,128,0,214158:0:0:0:0:
36,192,214158,128,0,214179:0:0:0:0:
402,192,214200,128,0,214401:0:0:0:0:
329,192,214200,128,0,214416:0:0:0:0:
256,192,214200,1,0,0:0:0:0:
475,192,214200,128,0,214385:0:0:0:0:
182,192,214200,1,0,0:0:0:0:
256,192,214262,1,0,0:0:0:0:
182,192,214323,1,0,0:0:0:0:
109,192,214385,1,0,0:0:0:0:
475,192,214432,1,0,0:0:0:0:
36,192,214447,1,0,0:0:0:0:
402,192,214447,1,0,0:0:0:0:
329,192,214463,1,0,0:0:0:0:
256,192,214489,1,0,0:0:0:0:
182,192,214530,1,0,0:0:0:0:
109,192,214571,1,0,0:0:0:0:
36,192,214571,1,0,0:0:0:0:
402,192,214571,1,0,0:0:0:0:
475,192,214571,1,0,0:0:0:0:
329,192,214633,1,0,0:0:0:0:
109,192,214695,128,0,214897:0:0:0:0:
182,192,214695,128,0,214912:0:0:0:0:
256,192,214695,1,0,0:0:0:0:
36,192,214695,128,0,214881:0:0:0:0:
329,192,214757,1,0,0:0:0:0:
402,192,214819,1,0,0:0:0:0:
329,192,214881,1,0,0:0:0:0:
36,192,214928,1,0,0:0:0:0:
109,192,214943,1,0,0:0:0:0:
402,192,214943,1,0,0:0:0:0:
475,192,214943,1,0,0:0:0:0:
182,192,214959,1,0,0:0:0:0:
256,192,214985,1,0,0:0:0:0:
329,192,215005,1,0,0:0:0:0:
36,192,215067,1,0,0:0:0:0:
475,192,215067,1,0,0:0:0:0:
402,192,215067,1,0,0:0:0:0:
109,192,215098,1,0,0:0:0:0:
182,192,215109,1,0,0:0:0:0:
256,192,215129,1,0,0:0:0:0:
182,192,215191,128,0,215393:0:0:0:0:
109,192,215191,128,0,215408:0:0:0:0:
36,192,215191,128,0,215424:0:0:0:0:
329,192,215191,128,0,215253:0:0:0:0:
402,192,215191,128,0,215315:0:0:0:0:
475,192,215191,128,0,215377:0:0:0:0:
256,192,215253,128,0,215501:0:0:0:0:
329,192,215315,128,0,215470:0:0:0:0:
402,192,215377,128,0,215439:0:0:0:0:
182,192,215439,1,0,0:0:0:0:
475,192,215439,128,0,215625:0:0:0:0:
109,192,215455,1,0,0:0:0:0:
36,192,215470,1,0,0:0:0:0:
402,192,215481,128,0,215604:0:0:0:0:
329,192,215522,128,0,215563:0:0:0:0:
256,192,215563,1,0,0:0:0:0:
329,192,215604,1,0,0:0:0:0:
402,192,215646,1,0,0:0:0:0:
475,192,215687,1,0,0:0:0:0:
402,192,215718,1,0,0:0:0:0:
329,192,215749,1,0,0:0:0:0:
256,192,215780,1,0,0:0:0:0:
182,192,215811,1,0,0:0:0:0:
109,192,215858,1,0,0:0:0:0:
475,192,215873,128,0,215904:0:0:0:0:
402,192,215904,128,0,215935:0:0:0:0:
36,192,215904,1,0,0:0:0:0:
329,192,215935,128,0,215966:0:0:0:0:
182,192,215935,1,0,0:0:0:0:
256,192,215966,128,0,215997:0:0:0:0:
36,192,215997,128,0,216028:0:0:0:0:
109,192,216028,128,0,216059:0:0:0:0:
182,192,216059,128,0,216090:0:0:0:0:
256,192,216080,128,0,216100:0:0:0:0:
329,192,216100,128,0,216121:0:0:0:0:
402,192,216121,128,0,216142:0:0:0:0:
475,192,216142,128,0,216162:0:0:0:0:
36,192,216167,128,0,216369:0:0:0:0:
109,192,216183,128,0,216384:0:0:0:0:
182,192,216198,128,0,216400:0:0:0:0:
256,192,216214,128,0,216415:0:0:0:0:
329,192,216229,128,0,216431:0:0:0:0:
36,192,216415,1,0,0:0:0:0:
109,192,216431,1,0,0:0:0:0:
402,192,216431,1,0,0:0:0:0:
475,192,216431,1,0,0:0:0:0:
182,192,216446,1,0,0:0:0:0:
256,192,216462,1,0,0:0:0:0:
329,192,216477,1,0,0:0:0:0:
402,192,216555,128,0,216679:0:0:0:0:
475,192,216555,1,0,0:0:0:0:
329,192,216570,128,0,216663:0:0:0:0:
256,192,216586,128,0,216648:0:0:0:0:
182,192,216601,128,0,216632:0:0:0:0:
36,192,216663,1,0,0:0:0:0:
109,192,216679,128,0,216880:0:0:0:0:
475,192,216679,1,0,0:0:0:0:
182,192,216694,128,0,216896:0:0:0:0:
256,192,216710,128,0,216911:0:0:0:0:
329,192,216725,128,0,216927:0:0:0:0:
475,192,216803,1,0,0:0:0:0:
402,192,216803,1,0,0:0:0:0:
36,192,216911,1,0,0:0:0:0:
109,192,216927,1,0,0:0:0:0:
402,192,216927,1,0,0:0:0:0:
475,192,216927,1,0,0:0:0:0:
182,192,216942,1,0,0:0:0:0:
256,192,216958,1,0,0:0:0:0:
329,192,216973,1,0,0:0:0:0:
475,192,217035,1,0,0:0:0:0:
402,192,217051,128,0,217190:0:0:0:0:
109,192,217051,1,0,0:0:0:0:
36,192,217051,1,0,0:0:0:0:
329,192,217066,128,0,217175:0:0:0:0:
256,192,217082,128,0,217159:0:0:0:0:
182,192,217097,128,0,217144:0:0:0:0:
36,192,217175,1,0,0:0:0:0:
109,192,217190,1,0,0:0:0:0:
182,192,217221,1,0,0:0:0:0:
256,192,217237,1,0,0:0:0:0:
36,192,217237,128,0,217531:0:0:0:0:
109,192,217252,128,0,217516:0:0:0:0:
329,192,217268,1,0,0:0:0:0:
402,192,217283,1,0,0:0:0:0:
182,192,217283,128,0,217485:0:0:0:0:
256,192,217299,128,0,217469:0:0:0:0:
475,192,217299,1,0,0:0:0:0:
329,192,217330,128,0,217438:0:0:0:0:
402,192,217345,128,0,217423:0:0:0:0:
475,192,217361,128,0,217392:0:0:0:0:
475,192,217547,1,0,0:0:0:0:
329,192,217547,128,0,217593:0:0:0:0:
402,192,217562,1,0,0:0:0:0:
256,192,217562,128,0,217578:0:0:0:0:
475,192,217671,128,0,217686:0:0:0:0:
256,192,217671,128,0,217717:0:0:0:0:
402,192,217686,1,0,0:0:0:0:
182,192,217686,128,0,217702:0:0:0:0:
475,192,217795,128,0,217815:0:0:0:0:
182,192,217795,128,0,217841:0:0:0:0:
402,192,217810,1,0,0:0:0:0:
109,192,217810,128,0,217826:0:0:0:0:
475,192,217919,128,0,217950:0:0:0:0:
109,192,217919,128,0,218151:0:0:0:0:
36,192,217934,128,0,218135:0:0:0:0:
182,192,217950,128,0,218135:0:0:0:0:
256,192,217981,128,0,218104:0:0:0:0:
329,192,218012,128,0,218073:0:0:0:0:
402,192,218042,1,0,0:0:0:0:
475,192,218042,1,0,0:0:0:0:
475,192,218166,128,0,218228:0:0:0:0:
36,192,218166,1,0,0:0:0:0:
109,192,218182,1,0,0:0:0:0:
182,192,218213,1,0,0:0:0:0:
256,192,218228,1,0,0:0:0:0:
36,192,218228,128,0,218523:0:0:0:0:
109,192,218244,128,0,218507:0:0:0:0:
329,192,218259,1,0,0:0:0:0:
402,192,218275,1,0,0:0:0:0:
182,192,218275,128,0,218476:0:0:0:0:
256,192,218290,128,0,218461:0:0:0:0:
475,192,218290,1,0,0:0:0:0:
329,192,218321,128,0,218430:0:0:0:0:
402,192,218337,128,0,218414:0:0:0:0:
475,192,218352,128,0,218399:0:0:0:0:
475,192,218538,1,0,0:0:0:0:
329,192,218538,1,0,0:0:0:0:
256,192,218554,1,0,0:0:0:0:
402,192,218554,1,0,0:0:0:0:
475,192,218662,128,0,218678:0:0:0:0:
256,192,218662,1,0,0:0:0:0:
182,192,218678,1,0,0:0:0:0:
402,192,218678,1,0,0:0:0:0:
475,192,218786,128,0,218807:0:0:0:0:
182,192,218786,1,0,0:0:0:0:
109,192,218802,1,0,0:0:0:0:
402,192,218802,1,0,0:0:0:0:
475,192,218910,128,0,218941:0:0:0:0:
109,192,218910,128,0,219143:0:0:0:0:
256,192,218910,128,0,219143:0:0:0:0:
36,192,218926,128,0,219127:0:0:0:0:
402,192,218926,1,0,0:0:0:0:
182,192,218926,128,0,219127:0:0:0:0:
329,192,218941,1,0,0:0:0:0:
402,192,219003,1,0,0:0:0:0:
329,192,219034,1,0,0:0:0:0:
475,192,219158,1,0,0:0:0:0:
402,192,219174,1,0,0:0:0:0:
329,192,219205,1,0,0:0:0:0:
475,192,219220,128,0,219515:0:0:0:0:
256,192,219220,1,0,0:0:0:0:
402,192,219236,128,0,219499:0:0:0:0:
182,192,219251,1,0,0:0:0:0:
329,192,219267,128,0,219468:0:0:0:0:
109,192,219267,1,0,0:0:0:0:
256,192,219282,128,0,219453:0:0:0:0:
36,192,219282,1,0,0:0:0:0:
182,192,219313,128,0,219422:0:0:0:0:
109,192,219329,128,0,219406:0:0:0:0:
36,192,219344,128,0,219391:0:0:0:0:
36,192,219530,1,0,0:0:0:0:
182,192,219530,128,0,219577:0:0:0:0:
109,192,219546,1,0,0:0:0:0:
256,192,219546,128,0,219561:0:0:0:0:
36,192,219654,128,0,219670:0:0:0:0:
256,192,219654,128,0,219701:0:0:0:0:
109,192,219670,1,0,0:0:0:0:
329,192,219670,128,0,219685:0:0:0:0:
36,192,219778,128,0,219799:0:0:0:0:
329,192,219778,128,0,219825:0:0:0:0:
109,192,219794,1,0,0:0:0:0:
402,192,219794,128,0,219809:0:0:0:0:
402,192,219902,128,0,220134:0:0:0:0:
36,192,219902,128,0,219933:0:0:0:0:
109,192,219917,1,0,0:0:0:0:
475,192,219917,128,0,220119:0:0:0:0:
329,192,219933,128,0,219964:0:0:0:0:
256,192,219964,128,0,220026:0:0:0:0:
182,192,219995,128,0,220088:0:0:0:0:
109,192,220026,128,0,220119:0:0:0:0:
475,192,220150,1,0,0:0:0:0:
402,192,220165,1,0,0:0:0:0:
329,192,220196,1,0,0:0:0:0:
475,192,220212,128,0,220506:0:0:0:0:
256,192,220212,1,0,0:0:0:0:
402,192,220227,128,0,220491:0:0:0:0:
182,192,220243,1,0,0:0:0:0:
329,192,220258,128,0,220460:0:0:0:0:
109,192,220258,1,0,0:0:0:0:
256,192,220274,128,0,220444:0:0:0:0:
36,192,220274,1,0,0:0:0:0:
182,192,220305,128,0,220413:0:0:0:0:
109,192,220320,128,0,220398:0:0:0:0:
36,192,220336,128,0,220382:0:0:0:0:
36,192,220460,1,0,0:0:0:0:
109,192,220475,1,0,0:0:0:0:
182,192,220506,1,0,0:0:0:0:
256,192,220522,1,0,0:0:0:0:
36,192,220522,128,0,220816:0:0:0:0:
109,192,220537,128,0,220801:0:0:0:0:
329,192,220553,1,0,0:0:0:0:
402,192,220568,1,0,0:0:0:0:
182,192,220568,128,0,220770:0:0:0:0:
475,192,220584,1,0,0:0:0:0:
256,192,220584,128,0,220754:0:0:0:0:
329,192,220615,128,0,220723:0:0:0:0:
402,192,220630,128,0,220708:0:0:0:0:
475,192,220646,128,0,220692:0:0:0:0:
475,192,220739,128,0,220894:0:0:0:0:
402,192,220754,128,0,220894:0:0:0:0:
329,192,220770,128,0,220894:0:0:0:0:
256,192,220801,128,0,220894:0:0:0:0:
182,192,220816,128,0,220894:0:0:0:0:
109,192,220832,128,0,220894:0:0:0:0:
36,192,220847,128,0,220894:0:0:0:0:
475,192,221142,128,0,221204:0:0:0:0:
329,192,221142,128,0,221204:0:0:0:0:
109,192,221142,128,0,221204:0:0:0:0:
36,192,221142,128,0,221204:0:0:0:0:
256,192,221204,128,0,221266:0:0:0:0:
182,192,221266,128,0,221328:0:0:0:0:
402,192,221266,128,0,221328:0:0:0:0:
109,192,221328,128,0,221390:0:0:0:0:
475,192,221328,128,0,221390:0:0:0:0:
329,192,221390,128,0,221452:0:0:0:0:
256,192,221390,128,0,221452:0:0:0:0:
36,192,221390,128,0,221452:0:0:0:0:
402,192,221452,128,0,221514:0:0:0:0:
109,192,221514,128,0,221576:0:0:0:0:
256,192,221514,128,0,221576:0:0:0:0:
475,192,221514,128,0,221947:0:0:0:0:
329,192,221576,128,0,221638:0:0:0:0:
182,192,221638,128,0,221700:0:0:0:0:
36,192,221638,128,0,221700:0:0:0:0:
402,192,221638,128,0,221885:0:0:0:0:
256,192,221700,128,0,221762:0:0:0:0:
329,192,221762,128,0,221823:0:0:0:0:
109,192,221762,128,0,221823:0:0:0:0:
182,192,221823,128,0,221885:0:0:0:0:
256,192,221885,128,0,221947:0:0:0:0:
36,192,221885,128,0,221947:0:0:0:0:
329,192,221947,128,0,222009:0:0:0:0:
109,192,221947,128,0,222009:0:0:0:0:
402,192,222009,128,0,222071:0:0:0:0:
182,192,222009,128,0,222071:0:0:0:0:
475,192,222071,128,0,222133:0:0:0:0:
256,192,222071,128,0,222133:0:0:0:0:
36,192,222133,128,0,222195:0:0:0:0:
182,192,222133,128,0,222195:0:0:0:0:
402,192,222133,128,0,222195:0:0:0:0:
256,192,222195,128,0,222257:0:0:0:0:
329,192,222257,128,0,222319:0:0:0:0:
109,192,222257,128,0,222319:0:0:0:0:
402,192,222319,128,0,222381:0:0:0:0:
36,192,222319,128,0,222381:0:0:0:0:
182,192,222381,128,0,222443:0:0:0:0:
256,192,222381,128,0,222443:0:0:0:0:
475,192,222381,128,0,222443:0:0:0:0:
109,192,222443,128,0,222505:0:0:0:0:
402,192,222505,128,0,222567:0:0:0:0:
256,192,222505,128,0,222567:0:0:0:0:
36,192,222505,128,0,222939:0:0:0:0:
182,192,222567,128,0,222629:0:0:0:0:
329,192,222629,128,0,222691:0:0:0:0:
475,192,222629,128,0,222691:0:0:0:0:
109,192,222629,128,0,222877:0:0:0:0:
256,192,222691,128,0,222753:0:0:0:0:
182,192,222753,128,0,222815:0:0:0:0:
402,192,222753,128,0,222815:0:0:0:0:
329,192,222815,128,0,222877:0:0:0:0:
256,192,222877,128,0,222939:0:0:0:0:
475,192,222877,128,0,222939:0:0:0:0:
182,192,222939,128,0,223001:0:0:0:0:
402,192,222939,128,0,223001:0:0:0:0:
109,192,223001,128,0,223063:0:0:0:0:
329,192,223001,128,0,223063:0:0:0:0:
36,192,223063,128,0,223125:0:0:0:0:
256,192,223063,128,0,223125:0:0:0:0:
475,192,223125,128,0,223156:0:0:0:0:
182,192,223125,1,0,0:0:0:0:
109,192,223125,1,0,0:0:0:0:
402,192,223156,128,0,223187:0:0:0:0:
329,192,223187,128,0,223218:0:0:0:0:
36,192,223187,1,0,0:0:0:0:
256,192,223218,128,0,223249:0:0:0:0:
402,192,223249,1,0,0:0:0:0:
182,192,223249,1,0,0:0:0:0:
109,192,223311,1,0,0:0:0:0:
329,192,223311,128,0,223373:0:0:0:0:
36,192,223373,1,0,0:0:0:0:
475,192,223373,1,0,0:0:0:0:
402,192,223373,1,0,0:0:0:0:
256,192,223373,128,0,223435:0:0:0:0:
182,192,223435,128,0,223497:0:0:0:0:
475,192,223497,1,0,0:0:0:0:
402,192,223497,1,0,0:0:0:0:
109,192,223497,128,0,223559:0:0:0:0:
329,192,223497,1,0,0:0:0:0:
36,192,223559,128,0,223621:0:0:0:0:
256,192,223559,1,0,0:0:0:0:
329,192,223621,1,0,0:0:0:0:
475,192,223621,1,0,0:0:0:0:
182,192,223621,1,0,0:0:0:0:
109,192,223683,1,0,0:0:0:0:
329,192,223745,128,0,223807:0:0:0:0:
182,192,223745,1,0,0:0:0:0:
36,192,223745,1,0,0:0:0:0:
475,192,223745,1,0,0:0:0:0:
256,192,223807,1,0,0:0:0:0:
182,192,223869,128,0,223931:0:0:0:0:
329,192,223869,1,0,0:0:0:0:
402,192,223869,1,0,0:0:0:0:
475,192,223931,1,0,0:0:0:0:
109,192,223931,1,0,0:0:0:0:
36,192,223993,128,0,224055:0:0:0:0:
256,192,223993,1,0,0:0:0:0:
182,192,223993,1,0,0:0:0:0:
329,192,223993,1,0,0:0:0:0:
475,192,224055,1,0,0:0:0:0:
402,192,224117,1,0,0:0:0:0:
329,192,224117,1,0,0:0:0:0:
36,192,224117,128,0,224148:0:0:0:0:
109,192,224148,128,0,224179:0:0:0:0:
475,192,224179,1,0,0:0:0:0:
182,192,224179,128,0,224210:0:0:0:0:
256,192,224210,128,0,224241:0:0:0:0:
329,192,224241,1,0,0:0:0:0:
36,192,224241,128,0,224365:0:0:0:0:
402,192,224241,1,0,0:0:0:0:
109,192,224303,128,0,224365:0:0:0:0:
475,192,224365,1,0,0:0:0:0:
329,192,224365,1,0,0:0:0:0:
182,192,224365,128,0,224489:0:0:0:0:
402,192,224365,1,0,0:0:0:0:
256,192,224427,128,0,224489:0:0:0:0:
475,192,224489,128,0,224520:0:0:0:0:
109,192,224489,1,0,0:0:0:0:
36,192,224489,1,0,0:0:0:0:
402,192,224520,128,0,224551:0:0:0:0:
329,192,224551,128,0,224582:0:0:0:0:
256,192,224582,128,0,224613:0:0:0:0:
182,192,224613,1,0,0:0:0:0:
402,192,224613,1,0,0:0:0:0:
475,192,224613,1,0,0:0:0:0:
36,192,224613,1,0,0:0:0:0:
329,192,224675,128,0,224799:0:0:0:0:
109,192,224675,1,0,0:0:0:0:
256,192,224737,1,0,0:0:0:0:
402,192,224737,128,0,224799:0:0:0:0:
475,192,224737,128,0,224799:0:0:0:0:
182,192,224799,128,0,224923:0:0:0:0:
109,192,224861,128,0,224923:0:0:0:0:
36,192,224861,128,0,224923:0:0:0:0:
329,192,224861,1,0,0:0:0:0:
402,192,224861,1,0,0:0:0:0:
256,192,224923,1,0,0:0:0:0:
475,192,224923,128,0,225047:0:0:0:0:
329,192,224985,128,0,225047:0:0:0:0:
402,192,224985,128,0,225047:0:0:0:0:
182,192,224985,1,0,0:0:0:0:
109,192,224985,1,0,0:0:0:0:
256,192,225047,1,0,0:0:0:0:
36,192,225047,128,0,225171:0:0:0:0:
109,192,225109,128,0,225171:0:0:0:0:
182,192,225109,128,0,225171:0:0:0:0:
329,192,225109,1,0,0:0:0:0:
402,192,225109,1,0,0:0:0:0:
475,192,225109,128,0,225171:0:0:0:0:
256,192,225171,1,0,0:0:0:0:
109,192,225233,1,0,0:0:0:0:
182,192,225233,1,0,0:0:0:0:
475,192,225233,1,0,0:0:0:0:
402,192,225233,1,0,0:0:0:0:
329,192,225295,1,0,0:0:0:0:
256,192,225295,1,0,0:0:0:0:
36,192,225357,1,0,0:0:0:0:
109,192,225357,1,0,0:0:0:0:
256,192,225419,1,0,0:0:0:0:
182,192,225419,1,0,0:0:0:0:
329,192,225481,1,0,0:0:0:0:
402,192,225481,1,0,0:0:0:0:
475,192,225481,1,0,0:0:0:0:
256,192,225542,1,0,0:0:0:0:
109,192,225542,1,0,0:0:0:0:
182,192,225542,1,0,0:0:0:0:
329,192,225604,1,0,0:0:0:0:
402,192,225604,1,0,0:0:0:0:
475,192,225604,1,0,0:0:0:0:
182,192,225666,1,0,0:0:0:0:
256,192,225666,1,0,0:0:0:0:
109,192,225666,1,0,0:0:0:0:
329,192,225728,1,0,0:0:0:0:
402,192,225728,1,0,0:0:0:0:
475,192,225728,1,0,0:0:0:0:
182,192,225790,1,0,0:0:0:0:
36,192,225790,1,0,0:0:0:0:
109,192,225790,1,0,0:0:0:0:
256,192,225852,1,0,0:0:0:0:
329,192,225852,1,0,0:0:0:0:
402,192,225852,1,0,0:0:0:0:
36,192,225914,1,0,0:0:0:0:
109,192,225914,1,0,0:0:0:0:
182,192,225914,1,0,0:0:0:0:
329,192,225976,1,0,0:0:0:0:
256,192,225976,1,0,0:0:0:0:
402,192,226038,1,0,0:0:0:0:
475,192,226038,1,0,0:0:0:0:
329,192,226100,1,0,0:0:0:0:
109,192,226100,1,0,0:0:0:0:
36,192,226100,1,0,0:0:0:0:
182,192,226100,1,0,0:0:0:0:
256,192,226100,128,0,226224:0:0:0:0:
402,192,226162,1,0,0:0:0:0:
475,192,226224,1,0,0:0:0:0:
36,192,226224,128,0,226255:0:0:0:0:
182,192,226224,128,0,226255:0:0:0:0:
109,192,226224,1,0,0:0:0:0:
402,192,226286,1,0,0:0:0:0:
329,192,226348,1,0,0:0:0:0:
109,192,226348,1,0,0:0:0:0:
182,192,226348,1,0,0:0:0:0:
329,192,226410,128,0,226534:0:0:0:0:
36,192,226410,1,0,0:0:0:0:
109,192,226472,128,0,226503:0:0:0:0:
256,192,226472,128,0,226503:0:0:0:0:
402,192,226472,1,0,0:0:0:0:
182,192,226472,1,0,0:0:0:0:
475,192,226534,1,0,0:0:0:0:
329,192,226596,1,0,0:0:0:0:
36,192,226596,1,0,0:0:0:0:
182,192,226596,1,0,0:0:0:0:
402,192,226658,128,0,226782:0:0:0:0:
109,192,226658,1,0,0:0:0:0:
256,192,226658,1,0,0:0:0:0:
182,192,226720,1,0,0:0:0:0:
475,192,226720,1,0,0:0:0:0:
329,192,226720,1,0,0:0:0:0:
109,192,226782,1,0,0:0:0:0:
256,192,226782,1,0,0:0:0:0:
182,192,226844,128,0,226875:0:0:0:0:
329,192,226844,128,0,226875:0:0:0:0:
475,192,226906,128,0,227030:0:0:0:0:
256,192,226906,1,0,0:0:0:0:
36,192,226906,1,0,0:0:0:0:
109,192,226968,128,0,226999:0:0:0:0:
402,192,226968,128,0,226999:0:0:0:0:
182,192,227030,1,0,0:0:0:0:
329,192,227030,1,0,0:0:0:0:
36,192,227092,128,0,227123:0:0:0:0:
475,192,227092,128,0,227123:0:0:0:0:
256,192,227092,1,0,0:0:0:0:
109,192,227092,1,0,0:0:0:0:
402,192,227092,1,0,0:0:0:0:
182,192,227123,128,0,227154:0:0:0:0:
402,192,227154,128,0,227185:0:0:0:0:
329,192,227185,128,0,227216:0:0:0:0:
36,192,227216,128,0,227278:0:0:0:0:
109,192,227216,128,0,227247:0:0:0:0:
182,192,227247,128,0,227278:0:0:0:0:
402,192,227278,128,0,227309:0:0:0:0:
329,192,227309,128,0,227340:0:0:0:0:
475,192,227340,1,0,0:0:0:0:
256,192,227340,128,0,227526:0:0:0:0:
36,192,227340,128,0,227402:0:0:0:0:
109,192,227340,128,0,227402:0:0:0:0:
182,192,227340,128,0,227402:0:0:0:0:
182,192,227464,128,0,227526:0:0:0:0:
109,192,227464,128,0,227526:0:0:0:0:
329,192,227464,128,0,227526:0:0:0:0:
475,192,227464,128,0,227526:0:0:0:0:
402,192,227464,128,0,227526:0:0:0:0:
36,192,227588,128,0,228053:0:0:0:0:
256,192,227588,128,0,227650:0:0:0:0:
182,192,227588,128,0,227650:0:0:0:0:
109,192,227588,128,0,227650:0:0:0:0:
402,192,227588,128,0,227650:0:0:0:0:
475,192,227588,128,0,227650:0:0:0:0:
329,192,227650,128,0,227712:0:0:0:0:
475,192,227712,128,0,227774:0:0:0:0:
256,192,227712,128,0,227774:0:0:0:0:
182,192,227712,128,0,227774:0:0:0:0:
109,192,227712,128,0,227774:0:0:0:0:
402,192,227712,1,0,0:0:0:0:
329,192,227774,128,0,227836:0:0:0:0:
475,192,227836,128,0,227898:0:0:0:0:
256,192,227836,128,0,227919:0:0:0:0:
182,192,227836,128,0,227919:0:0:0:0:
109,192,227836,128,0,227919:0:0:0:0:
402,192,227836,1,0,0:0:0:0:
329,192,227898,128,0,227960:0:0:0:0:
475,192,227960,128,0,228022:0:0:0:0:
256,192,227960,128,0,228053:0:0:0:0:
182,192,227960,128,0,228053:0:0:0:0:
109,192,227960,128,0,228053:0:0:0:0:
402,192,227960,1,0,0:0:0:0:
329,192,228022,128,0,228084:0:0:0:0:
402,192,228084,128,0,228115:0:0:0:0:
475,192,228084,128,0,228115:0:0:0:0:
475,192,228208,128,0,228239:0:0:0:0:
402,192,228332,128,0,228363:0:0:0:0:
475,192,228580,128,0,228611:0:0:0:0:
402,192,228611,128,0,228642:0:0:0:0:
329,192,228642,128,0,228673:0:0:0:0:
402,192,228704,128,0,228735:0:0:0:0:
329,192,228735,128,0,228766:0:0:0:0:
256,192,228766,128,0,228797:0:0:0:0:
329,192,228828,128,0,228859:0:0:0:0:
475,192,228828,1,0,0:0:0:0:
402,192,228828,1,0,0:0:0:0:
256,192,228859,128,0,228890:0:0:0:0:
182,192,228890,128,0,228921:0:0:0:0:
256,192,228952,128,0,228983:0:0:0:0:
402,192,228952,1,0,0:0:0:0:
475,192,228952,1,0,0:0:0:0:
329,192,228952,1,0,0:0:0:0:
182,192,228983,128,0,229014:0:0:0:0:
109,192,229014,128,0,229045:0:0:0:0:
256,192,229076,1,0,0:0:0:0:
329,192,229076,1,0,0:0:0:0:
475,192,229076,1,0,0:0:0:0:
402,192,229076,1,0,0:0:0:0:
182,192,229076,1,0,0:0:0:0:
36,192,229076,1,0,0:0:0:0:
109,192,229076,1,0,0:0:0:0:
36,192,229200,1,0,0:0:0:0:
109,192,229323,1,0,0:0:0:0:
182,192,229571,1,0,0:0:0:0:
256,192,229943,1,0,0:0:0:0:
182,192,230191,1,0,0:0:0:0:
109,192,230439,1,0,0:0:0:0:
36,192,230687,1,0,0:0:0:0:
109,192,230811,1,0,0:0:0:0:
182,192,230935,1,0,0:0:0:0:
475,192,231059,1,0,0:0:0:0:
475,192,231183,1,0,0:0:0:0:
402,192,231307,1,0,0:0:0:0:
329,192,231555,1,0,0:0:0:0:
256,192,231927,1,0,0:0:0:0:
329,192,232175,1,0,0:0:0:0:
402,192,232423,1,0,0:0:0:0:
475,192,232671,1,0,0:0:0:0:
402,192,232795,1,0,0:0:0:0:
329,192,232919,1,0,0:0:0:0:
36,192,233042,1,0,0:0:0:0:
182,192,233042,1,0,0:0:0:0:
36,192,233166,1,0,0:0:0:0:
256,192,233166,1,0,0:0:0:0:
109,192,233290,1,0,0:0:0:0:
329,192,233290,1,0,0:0:0:0:
182,192,233538,1,0,0:0:0:0:
402,192,233538,1,0,0:0:0:0:
256,192,233910,1,0,0:0:0:0:
402,192,233910,1,0,0:0:0:0:
182,192,234158,1,0,0:0:0:0:
329,192,234158,1,0,0:0:0:0:
109,192,234406,1,0,0:0:0:0:
256,192,234406,1,0,0:0:0:0:
36,192,234654,1,0,0:0:0:0:
182,192,234654,1,0,0:0:0:0:
109,192,234778,1,0,0:0:0:0:
256,192,234778,1,0,0:0:0:0:
182,192,234902,1,0,0:0:0:0:
329,192,234902,1,0,0:0:0:0:
475,192,235026,1,0,0:0:0:0:
329,192,235026,1,0,0:0:0:0:
475,192,235150,1,0,0:0:0:0:
256,192,235150,1,0,0:0:0:0:
402,192,235274,1,0,0:0:0:0:
182,192,235274,1,0,0:0:0:0:
329,192,235522,1,0,0:0:0:0:
109,192,235522,1,0,0:0:0:0:
256,192,235894,1,0,0:0:0:0:
109,192,235894,1,0,0:0:0:0:
329,192,236142,1,0,0:0:0:0:
182,192,236142,1,0,0:0:0:0:
402,192,236390,1,0,0:0:0:0:
256,192,236390,1,0,0:0:0:0:
475,192,236638,1,0,0:0:0:0:
329,192,236638,1,0,0:0:0:0:
402,192,236762,1,0,0:0:0:0:
256,192,236762,1,0,0:0:0:0:
329,192,236885,1,0,0:0:0:0:
182,192,236885,1,0,0:0:0:0:
256,192,237009,1,0,0:0:0:0:
36,192,237009,1,0,0:0:0:0:
475,192,237009,128,0,238931:0:0:0:0:
256,192,237133,1,0,0:0:0:0:
36,192,237133,1,0,0:0:0:0:
329,192,237257,1,0,0:0:0:0:
109,192,237257,1,0,0:0:0:0:
402,192,237505,1,0,0:0:0:0:
182,192,237505,1,0,0:0:0:0:
402,192,237877,1,0,0:0:0:0:
256,192,237877,1,0,0:0:0:0:
329,192,238125,1,0,0:0:0:0:
182,192,238125,1,0,0:0:0:0:
256,192,238373,1,0,0:0:0:0:
109,192,238373,1,0,0:0:0:0:
182,192,238621,1,0,0:0:0:0:
36,192,238621,1,0,0:0:0:0:
256,192,238745,1,0,0:0:0:0:
109,192,238745,1,0,0:0:0:0:
329,192,238869,1,0,0:0:0:0:
182,192,238869,1,0,0:0:0:0:
256,192,238993,1,0,0:0:0:0:
475,192,238993,1,0,0:0:0:0:
36,192,238993,128,0,240914:0:0:0:0:
256,192,239117,1,0,0:0:0:0:
475,192,239117,1,0,0:0:0:0:
182,192,239241,1,0,0:0:0:0:
402,192,239241,1,0,0:0:0:0:
109,192,239489,1,0,0:0:0:0:
329,192,239489,1,0,0:0:0:0:
109,192,239861,1,0,0:0:0:0:
256,192,239861,1,0,0:0:0:0:
109,192,239985,128,0,240914:0:0:0:0:
182,192,240109,1,0,0:0:0:0:
329,192,240109,1,0,0:0:0:0:
256,192,240357,1,0,0:0:0:0:
402,192,240357,1,0,0:0:0:0:
329,192,240604,1,0,0:0:0:0:
475,192,240604,1,0,0:0:0:0:
256,192,240728,1,0,0:0:0:0:
402,192,240728,1,0,0:0:0:0:
182,192,240852,1,0,0:0:0:0:
329,192,240852,1,0,0:0:0:0:
475,192,240976,128,0,242898:0:0:0:0:
36,192,240976,1,0,0:0:0:0:
256,192,240976,1,0,0:0:0:0:
109,192,241100,1,0,0:0:0:0:
329,192,241100,1,0,0:0:0:0:
182,192,241224,1,0,0:0:0:0:
402,192,241224,1,0,0:0:0:0:
256,192,241472,1,0,0:0:0:0:
402,192,241472,1,0,0:0:0:0:
182,192,241844,1,0,0:0:0:0:
402,192,241844,1,0,0:0:0:0:
109,192,242092,1,0,0:0:0:0:
329,192,242092,1,0,0:0:0:0:
36,192,242340,1,0,0:0:0:0:
256,192,242340,1,0,0:0:0:0:
182,192,242588,1,0,0:0:0:0:
402,192,242588,1,0,0:0:0:0:
109,192,242712,1,0,0:0:0:0:
329,192,242712,1,0,0:0:0:0:
36,192,242836,1,0,0:0:0:0:
256,192,242836,1,0,0:0:0:0:
36,192,242960,128,0,244881:0:0:0:0:
475,192,242960,1,0,0:0:0:0:
256,192,242960,1,0,0:0:0:0:
402,192,243084,1,0,0:0:0:0:
182,192,243084,1,0,0:0:0:0:
475,192,243084,128,0,243394:0:0:0:0:
329,192,243208,1,0,0:0:0:0:
109,192,243208,1,0,0:0:0:0:
256,192,243456,1,0,0:0:0:0:
109,192,243456,1,0,0:0:0:0:
329,192,243456,128,0,243766:0:0:0:0:
329,192,243828,1,0,0:0:0:0:
109,192,243828,1,0,0:0:0:0:
329,192,243952,128,0,244509:0:0:0:0:
402,192,244076,1,0,0:0:0:0:
182,192,244076,1,0,0:0:0:0:
475,192,244323,1,0,0:0:0:0:
256,192,244323,1,0,0:0:0:0:
182,192,244447,128,0,244509:0:0:0:0:
329,192,244571,1,0,0:0:0:0:
109,192,244571,1,0,0:0:0:0:
256,192,244571,128,0,244633:0:0:0:0:
402,192,244695,1,0,0:0:0:0:
182,192,244695,1,0,0:0:0:0:
329,192,244695,128,0,244757:0:0:0:0:
475,192,244819,1,0,0:0:0:0:
256,192,244819,1,0,0:0:0:0:
402,192,244819,128,0,244881:0:0:0:0:
256,192,244943,1,0,0:0:0:0:
36,192,244943,1,0,0:0:0:0:
475,192,244943,128,0,246865:0:0:0:0:
329,192,245067,1,0,0:0:0:0:
109,192,245067,1,0,0:0:0:0:
402,192,245191,1,0,0:0:0:0:
182,192,245191,1,0,0:0:0:0:
36,192,245315,128,0,245377:0:0:0:0:
402,192,245439,1,0,0:0:0:0:
256,192,245439,1,0,0:0:0:0:
109,192,245439,128,0,245501:0:0:0:0:
182,192,245563,128,0,245625:0:0:0:0:
402,192,245811,1,0,0:0:0:0:
182,192,245811,1,0,0:0:0:0:
329,192,245811,128,0,245873:0:0:0:0:
256,192,245935,128,0,245997:0:0:0:0:
329,192,246059,1,0,0:0:0:0:
109,192,246059,1,0,0:0:0:0:
182,192,246059,128,0,246121:0:0:0:0:
256,192,246307,1,0,0:0:0:0:
36,192,246307,1,0,0:0:0:0:
402,192,246307,128,0,246369:0:0:0:0:
329,192,246431,128,0,246493:0:0:0:0:
402,192,246555,1,0,0:0:0:0:
182,192,246555,1,0,0:0:0:0:
256,192,246555,128,0,246617:0:0:0:0:
329,192,246679,1,0,0:0:0:0:
109,192,246679,1,0,0:0:0:0:
182,192,246679,128,0,246741:0:0:0:0:
256,192,246803,1,0,0:0:0:0:
36,192,246803,1,0,0:0:0:0:
109,192,246803,128,0,246865:0:0:0:0:
256,192,246927,1,0,0:0:0:0:
475,192,246927,1,0,0:0:0:0:
36,192,246927,128,0,248848:0:0:0:0:
182,192,247051,1,0,0:0:0:0:
402,192,247051,1,0,0:0:0:0:
109,192,247175,1,0,0:0:0:0:
329,192,247175,1,0,0:0:0:0:
475,192,247299,128,0,247381:0:0:0:0:
109,192,247423,1,0,0:0:0:0:
256,192,247423,1,0,0:0:0:0:
402,192,247423,128,0,247505:0:0:0:0:
329,192,247547,128,0,247629:0:0:0:0:
109,192,247795,1,0,0:0:0:0:
329,192,247795,1,0,0:0:0:0:
182,192,247795,128,0,247877:0:0:0:0:
256,192,247919,128,0,248001:0:0:0:0:
182,192,248042,1,0,0:0:0:0:
402,192,248042,1,0,0:0:0:0:
329,192,248042,128,0,248125:0:0:0:0:
256,192,248290,1,0,0:0:0:0:
475,192,248290,1,0,0:0:0:0:
109,192,248290,128,0,248373:0:0:0:0:
182,192,248414,128,0,248497:0:0:0:0:
109,192,248538,1,0,0:0:0:0:
329,192,248538,1,0,0:0:0:0:
256,192,248538,128,0,248621:0:0:0:0:
182,192,248662,1,0,0:0:0:0:
402,192,248662,1,0,0:0:0:0:
329,192,248662,128,0,248745:0:0:0:0:
256,192,248786,1,0,0:0:0:0:
475,192,248786,1,0,0:0:0:0:
402,192,248786,128,0,248869:0:0:0:0:
475,192,248910,128,0,250832:0:0:0:0:
36,192,248910,1,0,0:0:0:0:
256,192,248910,1,0,0:0:0:0:
109,192,249034,1,0,0:0:0:0:
329,192,249034,1,0,0:0:0:0:
182,192,249158,1,0,0:0:0:0:
402,192,249158,1,0,0:0:0:0:
36,192,249282,128,0,249344:0:0:0:0:
109,192,249406,128,0,249468:0:0:0:0:
256,192,249406,1,0,0:0:0:0:
402,192,249406,1,0,0:0:0:0:
182,192,249530,128,0,249592:0:0:0:0:
329,192,249778,128,0,249840:0:0:0:0:
182,192,249778,1,0,0:0:0:0:
402,192,249778,1,0,0:0:0:0:
256,192,249902,128,0,249964:0:0:0:0:
182,192,250026,128,0,250088:0:0:0:0:
109,192,250026,1,0,0:0:0:0:
329,192,250026,1,0,0:0:0:0:
402,192,250274,128,0,250336:0:0:0:0:
36,192,250274,1,0,0:0:0:0:
256,192,250274,1,0,0:0:0:0:
329,192,250398,128,0,250460:0:0:0:0:
256,192,250522,128,0,250584:0:0:0:0:
182,192,250522,1,0,0:0:0:0:
402,192,250522,1,0,0:0:0:0:
182,192,250646,128,0,250708:0:0:0:0:
109,192,250646,1,0,0:0:0:0:
329,192,250646,1,0,0:0:0:0:
109,192,250770,128,0,250832:0:0:0:0:
36,192,250770,1,0,0:0:0:0:
256,192,250770,1,0,0:0:0:0:
256,192,250894,1,0,0:0:0:0:
36,192,250894,128,0,252815:0:0:0:0:
475,192,250894,128,0,251049:0:0:0:0:
182,192,251018,1,0,0:0:0:0:
402,192,251018,128,0,251173:0:0:0:0:
109,192,251142,1,0,0:0:0:0:
329,192,251142,128,0,251297:0:0:0:0:
475,192,251266,128,0,251328:0:0:0:0:
109,192,251390,1,0,0:0:0:0:
256,192,251390,1,0,0:0:0:0:
402,192,251390,128,0,251452:0:0:0:0:
329,192,251514,128,0,251576:0:0:0:0:
109,192,251762,1,0,0:0:0:0:
329,192,251762,1,0,0:0:0:0:
182,192,251762,128,0,251823:0:0:0:0:
256,192,251885,128,0,251947:0:0:0:0:
182,192,252009,1,0,0:0:0:0:
402,192,252009,1,0,0:0:0:0:
329,192,252009,128,0,252071:0:0:0:0:
256,192,252257,1,0,0:0:0:0:
475,192,252257,1,0,0:0:0:0:
109,192,252257,128,0,252319:0:0:0:0:
182,192,252381,128,0,252443:0:0:0:0:
109,192,252505,1,0,0:0:0:0:
329,192,252505,1,0,0:0:0:0:
256,192,252505,128,0,252567:0:0:0:0:
182,192,252629,1,0,0:0:0:0:
402,192,252629,1,0,0:0:0:0:
329,192,252629,128,0,252691:0:0:0:0:
256,192,252753,1,0,0:0:0:0:
475,192,252753,1,0,0:0:0:0:
402,192,252753,128,0,252815:0:0:0:0:
475,192,252877,128,0,253311:0:0:0:0:
36,192,252877,128,0,252898:0:0:0:0:
109,192,252877,128,0,252919:0:0:0:0:
182,192,252877,128,0,252939:0:0:0:0:
256,192,252877,128,0,252960:0:0:0:0:
329,192,252877,128,0,252981:0:0:0:0:
402,192,252877,128,0,253001:0:0:0:0:
256,192,253373,128,0,253807:0:0:0:0:
402,192,253373,128,0,253414:0:0:0:0:
475,192,253373,128,0,253394:0:0:0:0:
329,192,253373,128,0,253435:0:0:0:0:
182,192,253373,128,0,253456:0:0:0:0:
109,192,253373,128,0,253476:0:0:0:0:
36,192,253373,128,0,253497:0:0:0:0:
36,192,253869,128,0,254799:0:0:0:0:
182,192,253869,1,0,0:0:0:0:
475,192,253869,1,0,0:0:0:0:
329,192,253869,1,0,0:0:0:0:
182,192,253993,128,0,254014:0:0:0:0:
329,192,253993,128,0,254014:0:0:0:0:
475,192,253993,128,0,254014:0:0:0:0:
402,192,254117,128,0,254138:0:0:0:0:
256,192,254117,128,0,254138:0:0:0:0:
109,192,254117,128,0,254138:0:0:0:0:
402,192,254241,128,0,254272:0:0:0:0:
256,192,254241,128,0,254272:0:0:0:0:
109,192,254241,128,0,254272:0:0:0:0:
329,192,254365,1,0,0:0:0:0:
182,192,254365,1,0,0:0:0:0:
475,192,254365,1,0,0:0:0:0:
475,192,254489,128,0,254509:0:0:0:0:
182,192,254489,128,0,254509:0:0:0:0:
329,192,254489,128,0,254509:0:0:0:0:
256,192,254613,128,0,254633:0:0:0:0:
402,192,254613,128,0,254633:0:0:0:0:
109,192,254613,128,0,254633:0:0:0:0:
109,192,254737,128,0,254768:0:0:0:0:
402,192,254737,128,0,254768:0:0:0:0:
256,192,254737,128,0,254768:0:0:0:0:
402,192,254861,128,0,255295:0:0:0:0:
475,192,254861,1,0,0:0:0:0:
36,192,254861,128,0,254881:0:0:0:0:
109,192,254861,128,0,254902:0:0:0:0:
182,192,254861,128,0,254923:0:0:0:0:
256,192,254861,128,0,254943:0:0:0:0:
329,192,254861,128,0,254964:0:0:0:0:
256,192,255357,128,0,255790:0:0:0:0:
475,192,255357,128,0,255377:0:0:0:0:
402,192,255357,128,0,255398:0:0:0:0:
329,192,255357,128,0,255419:0:0:0:0:
182,192,255357,128,0,255439:0:0:0:0:
109,192,255357,128,0,255460:0:0:0:0:
36,192,255357,128,0,255481:0:0:0:0:
109,192,255852,128,0,256534:0:0:0:0:
182,192,255852,1,0,0:0:0:0:
256,192,255852,1,0,0:0:0:0:
329,192,255852,1,0,0:0:0:0:
402,192,255852,1,0,0:0:0:0:
475,192,255852,1,0,0:0:0:0:
36,192,255852,1,0,0:0:0:0:
256,192,256348,128,0,256410:0:0:0:0:
329,192,256348,1,0,0:0:0:0:
475,192,256348,128,0,256410:0:0:0:0:
182,192,256472,128,0,256534:0:0:0:0:
256,192,256472,1,0,0:0:0:0:
402,192,256472,128,0,256534:0:0:0:0:
109,192,256596,128,0,256658:0:0:0:0:
182,192,256596,1,0,0:0:0:0:
329,192,256596,128,0,256658:0:0:0:0:
36,192,256720,128,0,256782:0:0:0:0:
109,192,256720,1,0,0:0:0:0:
256,192,256720,128,0,256782:0:0:0:0:
36,192,256844,128,0,257278:0:0:0:0:
329,192,256844,1,0,0:0:0:0:
402,192,256844,1,0,0:0:0:0:
475,192,256844,1,0,0:0:0:0:
182,192,256844,128,0,256906:0:0:0:0:
109,192,256968,128,0,257030:0:0:0:0:
256,192,256968,128,0,257030:0:0:0:0:
182,192,257092,128,0,257154:0:0:0:0:
329,192,257092,128,0,257154:0:0:0:0:
256,192,257216,128,0,257278:0:0:0:0:
402,192,257216,128,0,257278:0:0:0:0:
182,192,257340,128,0,257774:0:0:0:0:
109,192,257340,1,0,0:0:0:0:
36,192,257340,1,0,0:0:0:0:
329,192,257340,128,0,257402:0:0:0:0:
475,192,257340,128,0,257402:0:0:0:0:
402,192,257464,128,0,257526:0:0:0:0:
256,192,257464,128,0,257526:0:0:0:0:
329,192,257588,128,0,257650:0:0:0:0:
109,192,257588,128,0,257650:0:0:0:0:
36,192,257712,128,0,257774:0:0:0:0:
402,192,257712,128,0,257774:0:0:0:0:
329,192,257836,128,0,258270:0:0:0:0:
475,192,257836,1,0,0:0:0:0:
402,192,257836,1,0,0:0:0:0:
109,192,257836,128,0,257898:0:0:0:0:
256,192,257836,128,0,257898:0:0:0:0:
182,192,257960,128,0,258022:0:0:0:0:
402,192,258084,128,0,258146:0:0:0:0:
256,192,258084,128,0,258146:0:0:0:0:
182,192,258208,128,0,258270:0:0:0:0:
475,192,258208,128,0,258270:0:0:0:0:
475,192,258332,128,0,258766:0:0:0:0:
182,192,258332,128,0,258363:0:0:0:0:
36,192,258332,128,0,258363:0:0:0:0:
109,192,258332,128,0,258363:0:0:0:0:
329,192,258332,128,0,258394:0:0:0:0:
402,192,258456,128,0,258518:0:0:0:0:
256,192,258456,128,0,258518:0:0:0:0:
182,192,258580,128,0,258642:0:0:0:0:
329,192,258580,128,0,258642:0:0:0:0:
256,192,258704,128,0,258766:0:0:0:0:
109,192,258704,128,0,258766:0:0:0:0:
402,192,258828,128,0,259262:0:0:0:0:
36,192,258828,1,0,0:0:0:0:
329,192,258828,1,0,0:0:0:0:
475,192,258828,1,0,0:0:0:0:
182,192,258828,128,0,258890:0:0:0:0:
109,192,258952,128,0,259014:0:0:0:0:
182,192,259076,128,0,259138:0:0:0:0:
109,192,259200,128,0,259262:0:0:0:0:
256,192,259323,128,0,259757:0:0:0:0:
109,192,259323,1,0,0:0:0:0:
475,192,259323,1,0,0:0:0:0:
402,192,259323,1,0,0:0:0:0:
36,192,259323,128,0,259385:0:0:0:0:
182,192,259447,128,0,259509:0:0:0:0:
36,192,259571,128,0,259633:0:0:0:0:
182,192,259695,128,0,259757:0:0:0:0:
109,192,259819,128,0,260749:0:0:0:0:
36,192,259819,1,0,0:0:0:0:
475,192,259819,1,0,0:0:0:0:
402,192,259819,1,0,0:0:0:0:
182,192,259819,128,0,259881:0:0:0:0:
329,192,259943,128,0,260005:0:0:0:0:
182,192,260067,128,0,260129:0:0:0:0:
329,192,260191,128,0,260253:0:0:0:0:
475,192,260315,128,0,260501:0:0:0:0:
329,192,260315,128,0,260346:0:0:0:0:
182,192,260315,128,0,260377:0:0:0:0:
329,192,260439,128,0,260625:0:0:0:0:
182,192,260439,128,0,260470:0:0:0:0:
182,192,260563,128,0,260749:0:0:0:0:
36,192,260563,128,0,260594:0:0:0:0:
475,192,260563,128,0,260625:0:0:0:0:
36,192,260687,128,0,260873:0:0:0:0:
329,192,260687,128,0,260749:0:0:0:0:
182,192,260811,128,0,261245:0:0:0:0:
109,192,260811,128,0,260873:0:0:0:0:
256,192,260811,128,0,260935:0:0:0:0:
329,192,260811,128,0,260904:0:0:0:0:
402,192,260811,128,0,260873:0:0:0:0:
475,192,260811,128,0,260842:0:0:0:0:
475,192,261059,128,0,261080:0:0:0:0:
402,192,261080,128,0,261100:0:0:0:0:
329,192,261100,128,0,261121:0:0:0:0:
256,192,261121,128,0,261142:0:0:0:0:
329,192,261307,128,0,261741:0:0:0:0:
256,192,261307,128,0,261431:0:0:0:0:
182,192,261307,128,0,261400:0:0:0:0:
109,192,261307,128,0,261369:0:0:0:0:
36,192,261307,128,0,261338:0:0:0:0:
402,192,261307,1,0,0:0:0:0:
475,192,261307,1,0,0:0:0:0:
256,192,261803,128,0,262733:0:0:0:0:
109,192,261803,1,0,0:0:0:0:
402,192,261803,1,0,0:0:0:0:
475,192,261803,1,0,0:0:0:0:
182,192,261803,128,0,261865:0:0:0:0:
182,192,261927,1,0,0:0:0:0:
329,192,261927,128,0,261989:0:0:0:0:
329,192,262051,1,0,0:0:0:0:
36,192,262051,1,0,0:0:0:0:
402,192,262051,128,0,262113:0:0:0:0:
402,192,262175,1,0,0:0:0:0:
109,192,262175,1,0,0:0:0:0:
475,192,262175,128,0,262237:0:0:0:0:
475,192,262299,1,0,0:0:0:0:
182,192,262299,1,0,0:0:0:0:
36,192,262299,128,0,262361:0:0:0:0:
329,192,262423,1,0,0:0:0:0:
36,192,262423,1,0,0:0:0:0:
109,192,262423,128,0,262485:0:0:0:0:
109,192,262547,1,0,0:0:0:0:
402,192,262547,1,0,0:0:0:0:
182,192,262547,128,0,262609:0:0:0:0:
329,192,262671,128,0,262733:0:0:0:0:
182,192,262671,1,0,0:0:0:0:
475,192,262671,1,0,0:0:0:0:
109,192,262795,128,0,263228:0:0:0:0:
36,192,262795,1,0,0:0:0:0:
182,192,262795,128,0,262919:0:0:0:0:
256,192,262795,128,0,262888:0:0:0:0:
329,192,262795,128,0,262857:0:0:0:0:
402,192,262795,128,0,262826:0:0:0:0:
475,192,262795,128,0,262810:0:0:0:0:
402,192,263290,128,0,263724:0:0:0:0:
475,192,263290,1,0,0:0:0:0:
36,192,263290,128,0,263306:0:0:0:0:
109,192,263290,128,0,263321:0:0:0:0:
182,192,263290,128,0,263352:0:0:0:0:
256,192,263290,128,0,263383:0:0:0:0:
329,192,263290,128,0,263414:0:0:0:0:
256,192,263786,128,0,264716:0:0:0:0:
109,192,263786,1,0,0:0:0:0:
36,192,263786,1,0,0:0:0:0:
402,192,263786,1,0,0:0:0:0:
475,192,263786,128,0,263848:0:0:0:0:
329,192,263910,1,0,0:0:0:0:
402,192,263910,128,0,263972:0:0:0:0:
182,192,264034,1,0,0:0:0:0:
475,192,264034,1,0,0:0:0:0:
329,192,264034,128,0,264096:0:0:0:0:
109,192,264158,1,0,0:0:0:0:
402,192,264158,1,0,0:0:0:0:
182,192,264158,128,0,264220:0:0:0:0:
36,192,264282,1,0,0:0:0:0:
329,192,264282,1,0,0:0:0:0:
109,192,264282,128,0,264344:0:0:0:0:
182,192,264406,1,0,0:0:0:0:
475,192,264406,1,0,0:0:0:0:
36,192,264406,128,0,264468:0:0:0:0:
402,192,264530,1,0,0:0:0:0:
109,192,264530,1,0,0:0:0:0:
475,192,264530,128,0,264592:0:0:0:0:
329,192,264654,1,0,0:0:0:0:
36,192,264654,1,0,0:0:0:0:
402,192,264654,128,0,264716:0:0:0:0:
36,192,264778,128,0,265212:0:0:0:0:
256,192,264778,128,0,264840:0:0:0:0:
475,192,264778,1,0,0:0:0:0:
402,192,264778,1,0,0:0:0:0:
329,192,264778,1,0,0:0:0:0:
182,192,264840,128,0,264902:0:0:0:0:
109,192,264902,128,0,264964:0:0:0:0:
329,192,264964,128,0,265026:0:0:0:0:
256,192,265026,128,0,265088:0:0:0:0:
182,192,265088,128,0,265150:0:0:0:0:
402,192,265150,128,0,265212:0:0:0:0:
329,192,265212,128,0,265274:0:0:0:0:
402,192,265274,128,0,265770:0:0:0:0:
256,192,265274,128,0,265336:0:0:0:0:
109,192,265274,1,0,0:0:0:0:
36,192,265274,1,0,0:0:0:0:
182,192,265274,1,0,0:0:0:0:
475,192,265274,1,0,0:0:0:0:
182,192,265336,128,0,265398:0:0:0:0:
109,192,265398,128,0,265460:0:0:0:0:
329,192,265460,128,0,265522:0:0:0:0:
256,192,265522,128,0,265584:0:0:0:0:
182,192,265584,128,0,265646:0:0:0:0:
475,192,265646,128,0,265708:0:0:0:0:
329,192,265708,128,0,265770:0:0:0:0:
256,192,265770,128,0,265832:0:0:0:0:
36,192,265770,1,0,0:0:0:0:
109,192,265770,128,0,266266:0:0:0:0:
475,192,265770,1,0,0:0:0:0:
182,192,265770,1,0,0:0:0:0:
182,192,265832,128,0,265894:0:0:0:0:
36,192,265894,128,0,265956:0:0:0:0:
475,192,265956,128,0,266018:0:0:0:0:
402,192,266018,128,0,266080:0:0:0:0:
329,192,266080,128,0,266142:0:0:0:0:
256,192,266142,128,0,266204:0:0:0:0:
182,192,266204,128,0,266266:0:0:0:0:
475,192,266266,128,0,266762:0:0:0:0:
36,192,266266,128,0,266328:0:0:0:0:
256,192,266266,128,0,266297:0:0:0:0:
329,192,266266,128,0,266297:0:0:0:0:
402,192,266266,128,0,266297:0:0:0:0:
109,192,266328,128,0,266390:0:0:0:0:
182,192,266390,128,0,266452:0:0:0:0:
256,192,266452,128,0,266514:0:0:0:0:
329,192,266514,128,0,266576:0:0:0:0:
36,192,266514,128,0,266576:0:0:0:0:
402,192,266576,128,0,266638:0:0:0:0:
109,192,266576,128,0,266638:0:0:0:0:
182,192,266638,128,0,266700:0:0:0:0:
256,192,266700,128,0,266762:0:0:0:0:
36,192,266762,128,0,267257:0:0:0:0:
402,192,266762,128,0,266823:0:0:0:0:
182,192,266762,1,0,0:0:0:0:
109,192,266762,1,0,0:0:0:0:
329,192,266762,1,0,0:0:0:0:
329,192,266823,128,0,266885:0:0:0:0:
256,192,266885,128,0,266947:0:0:0:0:
475,192,266947,128,0,267009:0:0:0:0:
402,192,267009,128,0,267071:0:0:0:0:
329,192,267071,128,0,267133:0:0:0:0:
109,192,267133,128,0,267195:0:0:0:0:
182,192,267195,128,0,267257:0:0:0:0:
475,192,267257,128,0,267753:0:0:0:0:
256,192,267257,128,0,267319:0:0:0:0:
402,192,267257,1,0,0:0:0:0:
329,192,267257,1,0,0:0:0:0:
109,192,267257,1,0,0:0:0:0:
36,192,267319,128,0,267381:0:0:0:0:
109,192,267381,128,0,267443:0:0:0:0:
182,192,267443,128,0,267505:0:0:0:0:
402,192,267505,128,0,267567:0:0:0:0:
36,192,267505,1,0,0:0:0:0:
109,192,267505,1,0,0:0:0:0:
329,192,267567,128,0,267629:0:0:0:0:
109,192,267588,1,0,0:0:0:0:
36,192,267588,1,0,0:0:0:0:
256,192,267629,128,0,267691:0:0:0:0:
36,192,267671,1,0,0:0:0:0:
109,192,267671,1,0,0:0:0:0:
182,192,267691,128,0,267753:0:0:0:0:
109,192,267753,1,0,0:0:0:0:
36,192,267753,1,0,0:0:0:0:
402,192,267753,1,0,0:0:0:0:
329,192,267815,1,0,0:0:0:0:
475,192,267836,1,0,0:0:0:0:
256,192,267877,1,0,0:0:0:0:
36,192,267919,1,0,0:0:0:0:
402,192,267919,1,0,0:0:0:0:
182,192,267939,1,0,0:0:0:0:
109,192,268001,1,0,0:0:0:0:
475,192,268001,1,0,0:0:0:0:
329,192,268001,1,0,0:0:0:0:
182,192,268063,1,0,0:0:0:0:
36,192,268084,1,0,0:0:0:0:
402,192,268084,1,0,0:0:0:0:
256,192,268125,1,0,0:0:0:0:
475,192,268166,1,0,0:0:0:0:
109,192,268166,1,0,0:0:0:0:
329,192,268187,1,0,0:0:0:0:
402,192,268249,1,0,0:0:0:0:
36,192,268249,1,0,0:0:0:0:
182,192,268249,1,0,0:0:0:0:
329,192,268311,1,0,0:0:0:0:
475,192,268332,1,0,0:0:0:0:
109,192,268332,1,0,0:0:0:0:
256,192,268373,1,0,0:0:0:0:
36,192,268414,1,0,0:0:0:0:
402,192,268414,1,0,0:0:0:0:
182,192,268435,1,0,0:0:0:0:
109,192,268497,1,0,0:0:0:0:
475,192,268497,1,0,0:0:0:0:
329,192,268497,1,0,0:0:0:0:
182,192,268559,1,0,0:0:0:0:
36,192,268580,1,0,0:0:0:0:
402,192,268580,1,0,0:0:0:0:
256,192,268621,1,0,0:0:0:0:
475,192,268662,1,0,0:0:0:0:
109,192,268662,1,0,0:0:0:0:
329,192,268683,1,0,0:0:0:0:
182,192,268745,128,0,269241:0:0:0:0:
36,192,268745,128,0,269241:0:0:0:0:
329,192,268869,128,0,269241:0:0:0:0:
475,192,268993,128,0,269241:0:0:0:0:
109,192,269241,128,0,269737:0:0:0:0:
256,192,269241,128,0,269737:0:0:0:0:
402,192,269241,128,0,269551:0:0:0:0:
402,192,269613,128,0,269861:0:0:0:0:
329,192,269737,128,0,270233:0:0:0:0:
475,192,269861,128,0,270109:0:0:0:0:
402,192,270109,128,0,270357:0:0:0:0:
256,192,270357,1,0,0:0:0:0:
182,192,270357,1,0,0:0:0:0:
109,192,270357,1,0,0:0:0:0:
36,192,270357,1,0,0:0:0:0:
329,192,270357,128,0,270481:0:0:0:0:
256,192,270481,128,0,270604:0:0:0:0:
402,192,270604,128,0,270728:0:0:0:0:
182,192,270728,128,0,271224:0:0:0:0:
36,192,270728,128,0,271224:0:0:0:0:
329,192,270728,128,0,270790:0:0:0:0:
256,192,270728,1,0,0:0:0:0:
109,192,270728,1,0,0:0:0:0:
329,192,270852,128,0,271224:0:0:0:0:
475,192,270976,128,0,271224:0:0:0:0:
109,192,270976,1,0,0:0:0:0:
256,192,270976,1,0,0:0:0:0:
402,192,270976,1,0,0:0:0:0:
109,192,271224,128,0,271720:0:0:0:0:
256,192,271224,128,0,271720:0:0:0:0:
402,192,271224,128,0,271596:0:0:0:0:
475,192,271596,128,0,271844:0:0:0:0:
182,192,271720,128,0,272216:0:0:0:0:
402,192,271844,128,0,272092:0:0:0:0:
329,192,272092,128,0,272340:0:0:0:0:
475,192,272340,128,0,272464:0:0:0:0:
256,192,272340,1,0,0:0:0:0:
182,192,272340,1,0,0:0:0:0:
109,192,272340,1,0,0:0:0:0:
36,192,272340,1,0,0:0:0:0:
402,192,272340,1,0,0:0:0:0:
402,192,272464,128,0,272588:0:0:0:0:
329,192,272588,128,0,272712:0:0:0:0:
36,192,272712,128,0,273208:0:0:0:0:
182,192,272712,128,0,273146:0:0:0:0:
109,192,272712,1,0,0:0:0:0:
256,192,272712,1,0,0:0:0:0:
475,192,272712,1,0,0:0:0:0:
402,192,272712,1,0,0:0:0:0:
329,192,272836,128,0,273208:0:0:0:0:
475,192,272960,128,0,273208:0:0:0:0:
182,192,273208,128,0,273704:0:0:0:0:
402,192,273208,128,0,273580:0:0:0:0:
475,192,273580,128,0,273828:0:0:0:0:
109,192,273704,128,0,274200:0:0:0:0:
402,192,273828,128,0,274076:0:0:0:0:
329,192,274076,128,0,274323:0:0:0:0:
256,192,274200,128,0,274695:0:0:0:0:
182,192,274323,128,0,274447:0:0:0:0:
109,192,274323,1,0,0:0:0:0:
36,192,274323,1,0,0:0:0:0:
402,192,274323,1,0,0:0:0:0:
475,192,274323,1,0,0:0:0:0:
329,192,274447,128,0,274571:0:0:0:0:
109,192,274571,128,0,274695:0:0:0:0:
182,192,274695,128,0,275191:0:0:0:0:
36,192,274695,128,0,275191:0:0:0:0:
329,192,274695,1,0,0:0:0:0:
402,192,274695,1,0,0:0:0:0:
475,192,274695,1,0,0:0:0:0:
329,192,274819,128,0,275191:0:0:0:0:
475,192,274943,128,0,275191:0:0:0:0:
109,192,275191,128,0,275687:0:0:0:0:
256,192,275191,128,0,275687:0:0:0:0:
402,192,275191,128,0,275687:0:0:0:0:
329,192,275563,128,0,275625:0:0:0:0:
475,192,275563,128,0,275625:0:0:0:0:
182,192,275563,1,0,0:0:0:0:
36,192,275563,1,0,0:0:0:0:
329,192,275687,128,0,276245:0:0:0:0:
475,192,275687,128,0,276245:0:0:0:0:
182,192,275811,128,0,276059:0:0:0:0:
36,192,275811,128,0,276059:0:0:0:0:
109,192,275811,1,0,0:0:0:0:
256,192,275811,1,0,0:0:0:0:
402,192,275935,1,0,0:0:0:0:
256,192,276059,128,0,276307:0:0:0:0:
109,192,276059,1,0,0:0:0:0:
402,192,276121,1,0,0:0:0:0:
109,192,276183,1,0,0:0:0:0:
329,192,276307,1,0,0:0:0:0:
475,192,276307,1,0,0:0:0:0:
402,192,276307,128,0,276617:0:0:0:0:
182,192,276307,128,0,276617:0:0:0:0:
36,192,276307,128,0,276617:0:0:0:0:
109,192,276307,1,0,0:0:0:0:
256,192,276431,128,0,276617:0:0:0:0:
109,192,276555,128,0,276617:0:0:0:0:
329,192,276555,128,0,276617:0:0:0:0:
475,192,276555,128,0,276617:0:0:0:0:
36,192,276679,128,0,276741:0:0:0:0:
109,192,276679,128,0,276803:0:0:0:0:
182,192,276679,128,0,276927:0:0:0:0:
256,192,276679,128,0,276865:0:0:0:0:
329,192,276679,128,0,277175:0:0:0:0:
402,192,276679,128,0,277299:0:0:0:0:
475,192,276679,128,0,278042:0:0:0:0:
36,192,276803,128,0,277051:0:0:0:0:
109,192,276927,128,0,277175:0:0:0:0:
256,192,276927,1,0,0:0:0:0:
182,192,277051,128,0,277299:0:0:0:0:
256,192,277175,1,0,0:0:0:0:
36,192,277175,1,0,0:0:0:0:
329,192,277299,128,0,277423:0:0:0:0:
182,192,277423,128,0,277671:0:0:0:0:
402,192,277423,1,0,0:0:0:0:
256,192,277547,128,0,277671:0:0:0:0:
109,192,277671,128,0,277919:0:0:0:0:
402,192,277671,128,0,278042:0:0:0:0:
329,192,277671,128,0,278166:0:0:0:0:
182,192,277795,128,0,278166:0:0:0:0:
36,192,277919,128,0,278166:0:0:0:0:
256,192,277919,1,0,0:0:0:0:
109,192,278042,128,0,278290:0:0:0:0:
256,192,278166,128,0,278290:0:0:0:0:
475,192,278166,1,0,0:0:0:0:
402,192,278166,1,0,0:0:0:0:
36,192,278290,1,0,0:0:0:0:
475,192,278290,1,0,0:0:0:0:
182,192,278290,128,0,278600:0:0:0:0:
402,192,278290,1,0,0:0:0:0:
329,192,278290,128,0,278600:0:0:0:0:
475,192,278414,128,0,278600:0:0:0:0:
402,192,278414,1,0,0:0:0:0:
256,192,278538,1,0,0:0:0:0:
402,192,278662,1,0,0:0:0:0:
329,192,278662,1,0,0:0:0:0:
182,192,278662,1,0,0:0:0:0:
109,192,278662,1,0,0:0:0:0:
475,192,278662,128,0,278724:0:0:0:0:
36,192,278662,128,0,278724:0:0:0:0:
256,192,278662,1,0,0:0:0:0:
475,192,278786,128,0,279034:0:0:0:0:
36,192,278786,128,0,279034:0:0:0:0:
402,192,278910,128,0,279530:0:0:0:0:
109,192,278910,128,0,279406:0:0:0:0:
256,192,278910,1,0,0:0:0:0:
182,192,279034,128,0,279220:0:0:0:0:
329,192,279034,128,0,279282:0:0:0:0:
256,192,279158,128,0,279654:0:0:0:0:
36,192,279158,1,0,0:0:0:0:
475,192,279158,1,0,0:0:0:0:
182,192,279282,128,0,279468:0:0:0:0:
36,192,279282,128,0,279530:0:0:0:0:
329,192,279406,128,0,279778:0:0:0:0:
475,192,279406,128,0,279592:0:0:0:0:
182,192,279530,128,0,279716:0:0:0:0:
109,192,279530,128,0,279902:0:0:0:0:
402,192,279654,128,0,279840:0:0:0:0:
475,192,279654,128,0,279840:0:0:0:0:
36,192,279654,1,0,0:0:0:0:
182,192,279778,128,0,280150:0:0:0:0:
256,192,279778,128,0,279964:0:0:0:0:
402,192,279902,1,0,0:0:0:0:
329,192,279985,1,0,0:0:0:0:
475,192,280026,128,0,280336:0:0:0:0:
256,192,280067,1,0,0:0:0:0:
109,192,280150,1,0,0:0:0:0:
402,192,280150,128,0,280336:0:0:0:0:
329,192,280212,128,0,280336:0:0:0:0:
182,192,280233,1,0,0:0:0:0:
36,192,280274,128,0,280522:0:0:0:0:
256,192,280315,1,0,0:0:0:0:
109,192,280336,128,0,280522:0:0:0:0:
475,192,280398,1,0,0:0:0:0:
329,192,280398,1,0,0:0:0:0:
182,192,280398,128,0,280522:0:0:0:0:
402,192,280481,1,0,0:0:0:0:
256,192,280481,1,0,0:0:0:0:
329,192,280563,1,0,0:0:0:0:
182,192,280563,1,0,0:0:0:0:
256,192,280646,128,0,281638:0:0:0:0:
402,192,280646,128,0,281885:0:0:0:0:
475,192,280646,128,0,282547:0:0:0:0:
109,192,280646,128,0,282133:0:0:0:0:
36,192,280646,128,0,282381:0:0:0:0:
182,192,280894,128,0,280935:0:0:0:0:
329,192,280894,128,0,280935:0:0:0:0:
182,192,281142,128,0,281183:0:0:0:0:
329,192,281142,128,0,281183:0:0:0:0:
182,192,281390,128,0,281431:0:0:0:0:
329,192,281390,128,0,281431:0:0:0:0:
182,192,281638,128,0,281679:0:0:0:0:
329,192,281638,128,0,281679:0:0:0:0:
182,192,281885,128,0,281927:0:0:0:0:
329,192,281885,128,0,281927:0:0:0:0:
329,192,282133,128,0,282175:0:0:0:0:
182,192,282133,128,0,282175:0:0:0:0:
182,192,282381,128,0,282423:0:0:0:0:
329,192,282381,128,0,282423:0:0:0:0:
182,192,282629,128,0,282671:0:0:0:0:
329,192,282629,128,0,282671:0:0:0:0:
475,192,282629,128,0,284365:0:0:0:0:
36,192,282629,128,0,284530:0:0:0:0:
256,192,282629,128,0,283621:0:0:0:0:
402,192,282629,128,0,284117:0:0:0:0:
109,192,282629,128,0,283869:0:0:0:0:
182,192,282877,128,0,282919:0:0:0:0:
329,192,282877,128,0,282919:0:0:0:0:
329,192,283125,128,0,283166:0:0:0:0:
182,192,283125,128,0,283166:0:0:0:0:
329,192,283373,128,0,283414:0:0:0:0:
182,192,283373,128,0,283414:0:0:0:0:
329,192,283621,128,0,283662:0:0:0:0:
182,192,283621,128,0,283662:0:0:0:0:
182,192,283869,128,0,283910:0:0:0:0:
329,192,283869,128,0,283910:0:0:0:0:
182,192,284117,128,0,284158:0:0:0:0:
329,192,284117,128,0,284158:0:0:0:0:
182,192,284365,128,0,284406:0:0:0:0:
329,192,284365,128,0,284406:0:0:0:0:
182,192,284613,128,0,284654:0:0:0:0:
329,192,284613,128,0,284654:0:0:0:0:
109,192,284613,128,0,286100:0:0:0:0:
402,192,284613,128,0,285852:0:0:0:0:
256,192,284613,128,0,285604:0:0:0:0:
36,192,284613,128,0,286348:0:0:0:0:
475,192,284613,128,0,286514:0:0:0:0:
329,192,284861,128,0,284902:0:0:0:0:
182,192,284861,128,0,284902:0:0:0:0:
329,192,285109,128,0,285150:0:0:0:0:
182,192,285109,128,0,285150:0:0:0:0:
182,192,285357,128,0,285398:0:0:0:0:
329,192,285357,128,0,285398:0:0:0:0:
182,192,285604,128,0,285646:0:0:0:0:
329,192,285604,128,0,285646:0:0:0:0:
182,192,285852,128,0,285894:0:0:0:0:
329,192,285852,128,0,285894:0:0:0:0:
329,192,286100,128,0,286142:0:0:0:0:
182,192,286100,128,0,286142:0:0:0:0:
329,192,286348,128,0,286390:0:0:0:0:
182,192,286348,128,0,286390:0:0:0:0:
329,192,286596,128,0,286638:0:0:0:0:
182,192,286596,128,0,286638:0:0:0:0:
475,192,286596,128,0,288332:0:0:0:0:
36,192,286596,128,0,288497:0:0:0:0:
256,192,286596,128,0,287588:0:0:0:0:
402,192,286596,128,0,288084:0:0:0:0:
109,192,286596,128,0,287836:0:0:0:0:
182,192,286844,128,0,286885:0:0:0:0:
329,192,286844,128,0,286885:0:0:0:0:
182,192,287092,128,0,287133:0:0:0:0:
329,192,287092,128,0,287133:0:0:0:0:
182,192,287340,128,0,287381:0:0:0:0:
329,192,287340,128,0,287381:0:0:0:0:
329,192,287588,128,0,287650:0:0:0:0:
256,192,287650,128,0,287712:0:0:0:0:
182,192,287712,128,0,287836:0:0:0:0:
329,192,287774,128,0,287836:0:0:0:0:
256,192,287836,128,0,287960:0:0:0:0:
109,192,287898,128,0,287960:0:0:0:0:
182,192,287960,128,0,288084:0:0:0:0:
329,192,288022,128,0,288084:0:0:0:0:
256,192,288084,128,0,288208:0:0:0:0:
109,192,288084,1,0,0:0:0:0:
402,192,288146,128,0,288208:0:0:0:0:
329,192,288208,128,0,288332:0:0:0:0:
182,192,288208,1,0,0:0:0:0:
256,192,288332,1,0,0:0:0:0:
402,192,288332,128,0,288394:0:0:0:0:
109,192,288332,1,0,0:0:0:0:
182,192,288332,1,0,0:0:0:0:
475,192,288394,128,0,288518:0:0:0:0:
182,192,288456,1,0,0:0:0:0:
256,192,288456,1,0,0:0:0:0:
329,192,288518,128,0,288580:0:0:0:0:
256,192,288580,128,0,289571:0:0:0:0:
109,192,288580,128,0,290067:0:0:0:0:
36,192,288580,128,0,290315:0:0:0:0:
402,192,288580,128,0,289819:0:0:0:0:
475,192,288580,128,0,290439:0:0:0:0:
182,192,288580,1,0,0:0:0:0:
329,192,288704,1,0,0:0:0:0:
182,192,288828,1,0,0:0:0:0:
329,192,288952,1,0,0:0:0:0:
182,192,289076,1,0,0:0:0:0:
329,192,289076,128,0,289138:0:0:0:0:
329,192,289200,1,0,0:0:0:0:
182,192,289323,1,0,0:0:0:0:
329,192,289447,1,0,0:0:0:0:
182,192,289571,1,0,0:0:0:0:
329,192,289695,1,0,0:0:0:0:
182,192,289819,1,0,0:0:0:0:
256,192,289819,1,0,0:0:0:0:
329,192,289943,1,0,0:0:0:0:
402,192,289943,1,0,0:0:0:0:
256,192,290067,1,0,0:0:0:0:
182,192,290067,1,0,0:0:0:0:
329,192,290067,128,0,290129:0:0:0:0:
402,192,290067,128,0,290129:0:0:0:0:
329,192,290191,1,0,0:0:0:0:
402,192,290191,1,0,0:0:0:0:
182,192,290315,1,0,0:0:0:0:
109,192,290315,1,0,0:0:0:0:
256,192,290315,1,0,0:0:0:0:
402,192,290439,1,0,0:0:0:0:
329,192,290439,1,0,0:0:0:0:
256,192,290563,1,0,0:0:0:0:
182,192,290563,1,0,0:0:0:0:
109,192,290563,1,0,0:0:0:0:
36,192,290563,1,0,0:0:0:0:
329,192,290687,1,0,0:0:0:0:
402,192,290687,1,0,0:0:0:0:
475,192,290687,1,0,0:0:0:0:
182,192,290811,1,0,0:0:0:0:
109,192,290811,1,0,0:0:0:0:
36,192,290811,1,0,0:0:0:0:
256,192,290935,1,0,0:0:0:0:
329,192,290935,1,0,0:0:0:0:
475,192,290935,1,0,0:0:0:0:
402,192,290935,1,0,0:0:0:0:
182,192,291059,1,0,0:0:0:0:
109,192,291059,1,0,0:0:0:0:
36,192,291059,1,0,0:0:0:0:
329,192,291059,128,0,291121:0:0:0:0:
402,192,291059,128,0,291121:0:0:0:0:
475,192,291059,128,0,291121:0:0:0:0:
329,192,291183,1,0,0:0:0:0:
402,192,291183,1,0,0:0:0:0:
475,192,291183,1,0,0:0:0:0:
256,192,291307,1,0,0:0:0:0:
182,192,291307,1,0,0:0:0:0:
109,192,291307,1,0,0:0:0:0:
36,192,291307,1,0,0:0:0:0:
329,192,291431,1,0,0:0:0:0:
402,192,291431,1,0,0:0:0:0:
475,192,291431,1,0,0:0:0:0:
182,192,291555,1,0,0:0:0:0:
109,192,291555,1,0,0:0:0:0:
36,192,291555,1,0,0:0:0:0:
256,192,291679,1,0,0:0:0:0:
329,192,291679,1,0,0:0:0:0:
402,192,291679,1,0,0:0:0:0:
475,192,291679,1,0,0:0:0:0:
182,192,291803,1,0,0:0:0:0:
109,192,291803,1,0,0:0:0:0:
36,192,291803,1,0,0:0:0:0:
329,192,291927,1,0,0:0:0:0:
475,192,291927,1,0,0:0:0:0:
402,192,291927,1,0,0:0:0:0:
256,192,292051,1,0,0:0:0:0:
182,192,292051,1,0,0:0:0:0:
109,192,292051,1,0,0:0:0:0:
36,192,292051,1,0,0:0:0:0:
329,192,292051,128,0,292113:0:0:0:0:
402,192,292051,128,0,292113:0:0:0:0:
475,192,292051,128,0,292113:0:0:0:0:
329,192,292175,1,0,0:0:0:0:
402,192,292175,1,0,0:0:0:0:
475,192,292175,1,0,0:0:0:0:
182,192,292299,1,0,0:0:0:0:
109,192,292299,1,0,0:0:0:0:
36,192,292299,1,0,0:0:0:0:
256,192,292423,1,0,0:0:0:0:
329,192,292423,1,0,0:0:0:0:
402,192,292423,1,0,0:0:0:0:
475,192,292423,1,0,0:0:0:0:
182,192,292547,128,0,292609:0:0:0:0:
329,192,292547,128,0,292609:0:0:0:0:
402,192,292547,128,0,292609:0:0:0:0:
256,192,292547,1,0,0:0:0:0:
109,192,292567,128,0,292629:0:0:0:0:
36,192,292588,128,0,292650:0:0:0:0:
475,192,292609,128,0,292671:0:0:0:0:
256,192,292671,128,0,292733:0:0:0:0:
329,192,292671,1,0,0:0:0:0:
402,192,292671,128,0,292733:0:0:0:0:
36,192,292671,128,0,293022:0:0:0:0:
182,192,292691,128,0,292753:0:0:0:0:
109,192,292712,128,0,292774:0:0:0:0:
475,192,292733,128,0,292795:0:0:0:0:
329,192,292795,128,0,292857:0:0:0:0:
402,192,292795,1,0,0:0:0:0:
109,192,292795,128,0,293001:0:0:0:0:
256,192,292815,128,0,292877:0:0:0:0:
182,192,292836,128,0,292898:0:0:0:0:
475,192,292857,128,0,292919:0:0:0:0:
402,192,292919,128,0,292981:0:0:0:0:
182,192,292919,128,0,292981:0:0:0:0:
329,192,292939,128,0,293001:0:0:0:0:
256,192,292960,128,0,293022:0:0:0:0:
475,192,292981,1,0,0:0:0:0:
329,192,293042,128,0,293104:0:0:0:0:
182,192,293042,128,0,293104:0:0:0:0:
109,192,293042,128,0,293104:0:0:0:0:
256,192,293042,1,0,0:0:0:0:
402,192,293063,128,0,293125:0:0:0:0:
475,192,293084,128,0,293146:0:0:0:0:
36,192,293104,128,0,293166:0:0:0:0:
256,192,293166,128,0,293228:0:0:0:0:
182,192,293166,1,0,0:0:0:0:
109,192,293166,128,0,293228:0:0:0:0:
475,192,293166,128,0,293518:0:0:0:0:
329,192,293187,128,0,293249:0:0:0:0:
402,192,293208,128,0,293270:0:0:0:0:
36,192,293228,128,0,293290:0:0:0:0:
182,192,293290,128,0,293352:0:0:0:0:
109,192,293290,1,0,0:0:0:0:
402,192,293290,128,0,293497:0:0:0:0:
256,192,293311,128,0,293373:0:0:0:0:
329,192,293332,128,0,293394:0:0:0:0:
36,192,293352,128,0,293414:0:0:0:0:
109,192,293414,128,0,293476:0:0:0:0:
329,192,293414,128,0,293476:0:0:0:0:
182,192,293435,128,0,293497:0:0:0:0:
256,192,293456,128,0,293518:0:0:0:0:
36,192,293476,1,0,0:0:0:0:
182,192,293538,128,0,293600:0:0:0:0:
329,192,293538,128,0,293600:0:0:0:0:
402,192,293538,128,0,293600:0:0:0:0:
256,192,293538,1,0,0:0:0:0:
109,192,293559,128,0,293621:0:0:0:0:
36,192,293580,128,0,293642:0:0:0:0:
475,192,293600,128,0,293662:0:0:0:0:
256,192,293662,128,0,293724:0:0:0:0:
329,192,293662,1,0,0:0:0:0:
402,192,293662,128,0,293724:0:0:0:0:
36,192,293662,128,0,294014:0:0:0:0:
182,192,293683,128,0,293745:0:0:0:0:
109,192,293704,128,0,293766:0:0:0:0:
475,192,293724,128,0,293786:0:0:0:0:
329,192,293786,128,0,293848:0:0:0:0:
402,192,293786,1,0,0:0:0:0:
109,192,293786,128,0,293993:0:0:0:0:
256,192,293807,128,0,293869:0:0:0:0:
182,192,293828,128,0,293890:0:0:0:0:
475,192,293848,128,0,293910:0:0:0:0:
402,192,293910,128,0,293972:0:0:0:0:
182,192,293910,128,0,293972:0:0:0:0:
329,192,293931,128,0,293993:0:0:0:0:
256,192,293952,128,0,294014:0:0:0:0:
475,192,293972,1,0,0:0:0:0:
329,192,294034,128,0,294096:0:0:0:0:
182,192,294034,128,0,294096:0:0:0:0:
109,192,294034,128,0,294096:0:0:0:0:
256,192,294034,1,0,0:0:0:0:
402,192,294055,128,0,294117:0:0:0:0:
475,192,294076,128,0,294138:0:0:0:0:
36,192,294096,128,0,294158:0:0:0:0:
256,192,294158,128,0,294220:0:0:0:0:
182,192,294158,1,0,0:0:0:0:
109,192,294158,128,0,294220:0:0:0:0:
475,192,294158,128,0,294509:0:0:0:0:
329,192,294179,128,0,294241:0:0:0:0:
402,192,294200,128,0,294262:0:0:0:0:
36,192,294220,128,0,294282:0:0:0:0:
182,192,294282,128,0,294344:0:0:0:0:
109,192,294282,1,0,0:0:0:0:
402,192,294282,128,0,294489:0:0:0:0:
256,192,294303,128,0,294365:0:0:0:0:
329,192,294323,128,0,294385:0:0:0:0:
36,192,294344,128,0,294406:0:0:0:0:
109,192,294406,128,0,294468:0:0:0:0:
329,192,294406,128,0,294468:0:0:0:0:
182,192,294427,128,0,294489:0:0:0:0:
256,192,294447,128,0,294509:0:0:0:0:
36,192,294468,1,0,0:0:0:0:
329,192,294530,1,0,0:0:0:0:
109,192,294530,128,0,294639:0:0:0:0:
402,192,294546,1,0,0:0:0:0:
182,192,294546,128,0,294654:0:0:0:0:
475,192,294561,1,0,0:0:0:0:
256,192,294561,128,0,294670:0:0:0:0:
109,192,294654,1,0,0:0:0:0:
329,192,294654,128,0,294763:0:0:0:0:
182,192,294670,1,0,0:0:0:0:
402,192,294670,128,0,294778:0:0:0:0:
256,192,294685,1,0,0:0:0:0:
475,192,294685,128,0,294794:0:0:0:0:
329,192,294778,1,0,0:0:0:0:
109,192,294778,128,0,295010:0:0:0:0:
402,192,294794,1,0,0:0:0:0:
182,192,294794,128,0,295010:0:0:0:0:
475,192,294809,1,0,0:0:0:0:
256,192,294809,128,0,295010:0:0:0:0:
256,192,295026,1,0,0:0:0:0:
182,192,295026,1,0,0:0:0:0:
109,192,295026,1,0,0:0:0:0:
36,192,295026,1,0,0:0:0:0:
329,192,295398,1,0,0:0:0:0:
256,192,295398,1,0,0:0:0:0:
182,192,295398,1,0,0:0:0:0:
109,192,295398,1,0,0:0:0:0:
402,192,295646,1,0,0:0:0:0:
329,192,295646,1,0,0:0:0:0:
256,192,295646,1,0,0:0:0:0:
182,192,295646,1,0,0:0:0:0:
329,192,295894,1,0,0:0:0:0:
402,192,295894,1,0,0:0:0:0:
475,192,295894,1,0,0:0:0:0:
256,192,295894,128,0,296266:0:0:0:0:
475,192,296018,128,0,296111:0:0:0:0:
402,192,296049,128,0,296142:0:0:0:0:
329,192,296080,128,0,296173:0:0:0:0:
182,192,296111,128,0,296204:0:0:0:0:
109,192,296142,128,0,296235:0:0:0:0:
36,192,296173,128,0,296266:0:0:0:0:
475,192,296173,128,0,296204:0:0:0:0:
402,192,296204,128,0,296235:0:0:0:0:
329,192,296235,128,0,296266:0:0:0:0:
182,192,296266,1,0,0:0:0:0:
109,192,296307,1,0,0:0:0:0:
36,192,296348,1,0,0:0:0:0:
475,192,296390,1,0,0:0:0:0:
256,192,296390,128,0,296431:0:0:0:0:
402,192,296431,1,0,0:0:0:0:
329,192,296472,1,0,0:0:0:0:
256,192,296514,1,0,0:0:0:0:
109,192,296514,128,0,296555:0:0:0:0:
182,192,296514,128,0,296555:0:0:0:0:
109,192,296762,128,0,296803:0:0:0:0:
256,192,296762,128,0,296803:0:0:0:0:
36,192,296885,1,0,0:0:0:0:
182,192,297009,128,0,297051:0:0:0:0:
329,192,297009,128,0,297051:0:0:0:0:
36,192,297133,1,0,0:0:0:0:
109,192,297257,128,0,297299:0:0:0:0:
256,192,297257,128,0,297299:0:0:0:0:
402,192,297257,128,0,297299:0:0:0:0:
36,192,297381,1,0,0:0:0:0:
329,192,297505,128,0,297547:0:0:0:0:
182,192,297505,128,0,297547:0:0:0:0:
475,192,297536,128,0,297567:0:0:0:0:
402,192,297536,1,0,0:0:0:0:
109,192,297629,1,0,0:0:0:0:
109,192,297753,1,0,0:0:0:0:
329,192,297877,128,0,297919:0:0:0:0:
182,192,297877,128,0,297919:0:0:0:0:
36,192,297877,128,0,298249:0:0:0:0:
475,192,297908,128,0,297939:0:0:0:0:
402,192,297908,1,0,0:0:0:0:
182,192,298249,128,0,298290:0:0:0:0:
329,192,298249,128,0,298290:0:0:0:0:
402,192,298280,1,0,0:0:0:0:
475,192,298280,128,0,298311:0:0:0:0:
256,192,298373,128,0,298414:0:0:0:0:
109,192,298373,128,0,298414:0:0:0:0:
36,192,298497,1,0,0:0:0:0:
182,192,298497,1,0,0:0:0:0:
475,192,298497,1,0,0:0:0:0:
36,192,298621,1,0,0:0:0:0:
182,192,298621,1,0,0:0:0:0:
402,192,298621,1,0,0:0:0:0:
256,192,298745,1,0,0:0:0:0:
109,192,298745,1,0,0:0:0:0:
329,192,298745,1,0,0:0:0:0:
329,192,298869,1,0,0:0:0:0:
182,192,298869,1,0,0:0:0:0:
109,192,298869,128,0,298910:0:0:0:0:
36,192,298869,128,0,298910:0:0:0:0:
402,192,298869,1,0,0:0:0:0:
402,192,298993,1,0,0:0:0:0:
256,192,298993,1,0,0:0:0:0:
475,192,298993,1,0,0:0:0:0:
109,192,298993,1,0,0:0:0:0:
256,192,299117,1,0,0:0:0:0:
109,192,299117,1,0,0:0:0:0:
329,192,299117,1,0,0:0:0:0:
109,192,299241,1,0,0:0:0:0:
36,192,299241,1,0,0:0:0:0:
329,192,299241,1,0,0:0:0:0:
402,192,299241,1,0,0:0:0:0:
475,192,299303,1,0,0:0:0:0:
109,192,299365,1,0,0:0:0:0:
182,192,299365,1,0,0:0:0:0:
402,192,299365,1,0,0:0:0:0:
329,192,299427,1,0,0:0:0:0:
475,192,299489,1,0,0:0:0:0:
182,192,299489,1,0,0:0:0:0:
36,192,299489,1,0,0:0:0:0:
256,192,299489,1,0,0:0:0:0:
329,192,299613,1,0,0:0:0:0:
475,192,299613,1,0,0:0:0:0:
109,192,299613,1,0,0:0:0:0:
182,192,299613,1,0,0:0:0:0:
109,192,299737,1,0,0:0:0:0:
402,192,299737,1,0,0:0:0:0:
36,192,299737,1,0,0:0:0:0:
256,192,299737,1,0,0:0:0:0:
182,192,299861,1,0,0:0:0:0:
329,192,299861,1,0,0:0:0:0:
36,192,299861,1,0,0:0:0:0:
475,192,299861,1,0,0:0:0:0:
256,192,299923,1,0,0:0:0:0:
109,192,299923,1,0,0:0:0:0:
402,192,299923,1,0,0:0:0:0:
182,192,299985,1,0,0:0:0:0:
329,192,299985,1,0,0:0:0:0:
109,192,300047,1,0,0:0:0:0:
402,192,300047,1,0,0:0:0:0:
329,192,300109,1,0,0:0:0:0:
182,192,300109,1,0,0:0:0:0:
256,192,300171,1,0,0:0:0:0:
182,192,300233,128,0,300264:0:0:0:0:
329,192,300233,128,0,300264:0:0:0:0:
109,192,300253,128,0,300295:0:0:0:0:
402,192,300253,128,0,300295:0:0:0:0:
36,192,300274,128,0,300336:0:0:0:0:
475,192,300274,128,0,300336:0:0:0:0:
256,192,300295,128,0,300419:0:0:0:0:
182,192,300326,128,0,300388:0:0:0:0:
329,192,300326,128,0,300388:0:0:0:0:
109,192,300357,1,0,0:0:0:0:
402,192,300357,1,0,0:0:0:0:
36,192,300372,128,0,300434:0:0:0:0:
475,192,300372,128,0,300434:0:0:0:0:
109,192,300419,128,0,300450:0:0:0:0:
402,192,300419,128,0,300450:0:0:0:0:
329,192,300439,128,0,300481:0:0:0:0:
182,192,300439,128,0,300481:0:0:0:0:
36,192,300481,128,0,300790:0:0:0:0:
256,192,300481,128,0,300542:0:0:0:0:
329,192,300512,1,0,0:0:0:0:
109,192,300522,128,0,300604:0:0:0:0:
402,192,300542,1,0,0:0:0:0:
182,192,300563,128,0,300646:0:0:0:0:
475,192,300573,1,0,0:0:0:0:
256,192,300604,128,0,300687:0:0:0:0:
329,192,300646,128,0,300728:0:0:0:0:
402,192,300687,128,0,300770:0:0:0:0:
475,192,300728,128,0,301038:0:0:0:0:
109,192,300728,1,0,0:0:0:0:
182,192,300759,1,0,0:0:0:0:
256,192,300790,1,0,0:0:0:0:
36,192,300852,128,0,300935:0:0:0:0:
402,192,300852,128,0,300914:0:0:0:0:
329,192,300852,128,0,300914:0:0:0:0:
109,192,300894,128,0,300976:0:0:0:0:
182,192,300935,128,0,301018:0:0:0:0:
36,192,300976,128,0,301286:0:0:0:0:
256,192,300976,128,0,301059:0:0:0:0:
329,192,301018,128,0,301100:0:0:0:0:
475,192,301100,1,0,0:0:0:0:
182,192,301100,128,0,301162:0:0:0:0:
109,192,301100,128,0,301162:0:0:0:0:
402,192,301131,1,0,0:0:0:0:
329,192,301162,1,0,0:0:0:0:
475,192,301224,128,0,301534:0:0:0:0:
109,192,301224,128,0,301307:0:0:0:0:
402,192,301224,128,0,301286:0:0:0:0:
182,192,301266,128,0,301348:0:0:0:0:
256,192,301307,128,0,301390:0:0:0:0:
329,192,301348,128,0,301431:0:0:0:0:
36,192,301348,1,0,0:0:0:0:
109,192,301379,1,0,0:0:0:0:
402,192,301390,128,0,301472:0:0:0:0:
182,192,301410,1,0,0:0:0:0:
109,192,301472,128,0,301813:0:0:0:0:
256,192,301472,128,0,301571:0:0:0:0:
36,192,301503,1,0,0:0:0:0:
329,192,301522,128,0,301621:0:0:0:0:
182,192,301534,1,0,0:0:0:0:
402,192,301571,128,0,301671:0:0:0:0:
475,192,301621,128,0,301720:0:0:0:0:
36,192,301658,128,0,301782:0:0:0:0:
182,192,301720,128,0,301819:0:0:0:0:
329,192,301720,1,0,0:0:0:0:
402,192,301720,128,0,301782:0:0:0:0:
256,192,301770,128,0,301869:0:0:0:0:
329,192,301819,128,0,301919:0:0:0:0:
109,192,301844,128,0,302185:0:0:0:0:
402,192,301869,128,0,301968:0:0:0:0:
36,192,301875,1,0,0:0:0:0:
182,192,301906,1,0,0:0:0:0:
475,192,301906,128,0,302030:0:0:0:0:
256,192,301968,128,0,302067:0:0:0:0:
329,192,301968,1,0,0:0:0:0:
36,192,301968,128,0,302030:0:0:0:0:
329,192,302018,128,0,302117:0:0:0:0:
402,192,302067,128,0,302166:0:0:0:0:
475,192,302117,128,0,302216:0:0:0:0:
36,192,302154,128,0,302278:0:0:0:0:
109,192,302216,1,0,0:0:0:0:
182,192,302216,128,0,302315:0:0:0:0:
329,192,302216,1,0,0:0:0:0:
402,192,302216,128,0,302278:0:0:0:0:
256,192,302266,128,0,302365:0:0:0:0:
329,192,302315,128,0,302414:0:0:0:0:
109,192,302340,128,0,302402:0:0:0:0:
402,192,302365,128,0,302464:0:0:0:0:
475,192,302402,128,0,302526:0:0:0:0:
329,192,302464,128,0,302774:0:0:0:0:
36,192,302464,1,0,0:0:0:0:
256,192,302464,128,0,302547:0:0:0:0:
109,192,302495,1,0,0:0:0:0:
182,192,302526,1,0,0:0:0:0:
402,192,302547,128,0,302629:0:0:0:0:
256,192,302588,128,0,302671:0:0:0:0:
109,192,302629,128,0,302712:0:0:0:0:
182,192,302712,128,0,303022:0:0:0:0:
475,192,302712,1,0,0:0:0:0:
36,192,302712,1,0,0:0:0:0:
402,192,302743,1,0,0:0:0:0:
256,192,302774,1,0,0:0:0:0:
36,192,302795,128,0,302877:0:0:0:0:
475,192,302836,1,0,0:0:0:0:
256,192,302877,128,0,302960:0:0:0:0:
475,192,302919,128,0,303001:0:0:0:0:
329,192,302960,128,0,303270:0:0:0:0:
36,192,302960,1,0,0:0:0:0:
402,192,302960,1,0,0:0:0:0:
109,192,302991,1,0,0:0:0:0:
256,192,303022,1,0,0:0:0:0:
402,192,303042,128,0,303125:0:0:0:0:
256,192,303084,128,0,303166:0:0:0:0:
109,192,303125,128,0,303208:0:0:0:0:
182,192,303208,128,0,303518:0:0:0:0:
475,192,303208,1,0,0:0:0:0:
36,192,303208,1,0,0:0:0:0:
402,192,303239,1,0,0:0:0:0:
256,192,303270,1,0,0:0:0:0:
36,192,303290,128,0,303373:0:0:0:0:
256,192,303332,128,0,303414:0:0:0:0:
475,192,303373,128,0,303456:0:0:0:0:
402,192,303456,128,0,303797:0:0:0:0:
329,192,303456,128,0,303555:0:0:0:0:
109,192,303456,128,0,303518:0:0:0:0:
36,192,303487,1,0,0:0:0:0:
256,192,303505,128,0,303604:0:0:0:0:
475,192,303518,1,0,0:0:0:0:
182,192,303555,128,0,303654:0:0:0:0:
109,192,303604,128,0,303704:0:0:0:0:
36,192,303642,128,0,303766:0:0:0:0:
256,192,303704,128,0,303803:0:0:0:0:
475,192,303704,1,0,0:0:0:0:
329,192,303704,1,0,0:0:0:0:
182,192,303753,128,0,303852:0:0:0:0:
109,192,303803,128,0,303902:0:0:0:0:
402,192,303828,128,0,304169:0:0:0:0:
475,192,303828,1,0,0:0:0:0:
256,192,303828,128,0,303890:0:0:0:0:
36,192,303852,128,0,303952:0:0:0:0:
329,192,303859,1,0,0:0:0:0:
329,192,303952,128,0,304051:0:0:0:0:
182,192,303952,1,0,0:0:0:0:
109,192,303952,1,0,0:0:0:0:
256,192,304001,128,0,304100:0:0:0:0:
182,192,304051,128,0,304150:0:0:0:0:
109,192,304100,128,0,304200:0:0:0:0:
36,192,304138,128,0,304262:0:0:0:0:
402,192,304200,1,0,0:0:0:0:
256,192,304200,128,0,304299:0:0:0:0:
475,192,304200,128,0,304262:0:0:0:0:
329,192,304200,1,0,0:0:0:0:
182,192,304249,128,0,304348:0:0:0:0:
109,192,304299,128,0,304398:0:0:0:0:
329,192,304323,1,0,0:0:0:0:
402,192,304323,128,0,304385:0:0:0:0:
36,192,304348,128,0,304447:0:0:0:0:
475,192,304447,128,0,304757:0:0:0:0:
256,192,304447,1,0,0:0:0:0:
182,192,304478,1,0,0:0:0:0:
402,192,304489,128,0,304571:0:0:0:0:
109,192,304509,1,0,0:0:0:0:
329,192,304530,128,0,304613:0:0:0:0:
36,192,304540,1,0,0:0:0:0:
256,192,304571,128,0,304654:0:0:0:0:
182,192,304613,128,0,304695:0:0:0:0:
109,192,304654,128,0,304737:0:0:0:0:
36,192,304695,128,0,305005:0:0:0:0:
402,192,304695,1,0,0:0:0:0:
329,192,304726,1,0,0:0:0:0:
256,192,304757,1,0,0:0:0:0:
475,192,304819,128,0,304902:0:0:0:0:
109,192,304819,128,0,304881:0:0:0:0:
182,192,304819,128,0,304881:0:0:0:0:
402,192,304861,128,0,304943:0:0:0:0:
329,192,304902,128,0,304985:0:0:0:0:
475,192,304943,128,0,305253:0:0:0:0:
256,192,304943,128,0,305026:0:0:0:0:
182,192,304985,128,0,305067:0:0:0:0:
36,192,305067,1,0,0:0:0:0:
329,192,305067,128,0,305129:0:0:0:0:
402,192,305067,128,0,305129:0:0:0:0:
109,192,305098,1,0,0:0:0:0:
182,192,305129,1,0,0:0:0:0:
36,192,305191,128,0,305501:0:0:0:0:
402,192,305191,128,0,305274:0:0:0:0:
109,192,305191,128,0,305253:0:0:0:0:
329,192,305233,128,0,305315:0:0:0:0:
256,192,305274,128,0,305357:0:0:0:0:
182,192,305315,128,0,305398:0:0:0:0:
475,192,305315,1,0,0:0:0:0:
402,192,305346,1,0,0:0:0:0:
109,192,305357,128,0,305439:0:0:0:0:
329,192,305377,1,0,0:0:0:0:
402,192,305439,128,0,305780:0:0:0:0:
256,192,305439,128,0,305537:0:0:0:0:
475,192,305470,1,0,0:0:0:0:
182,192,305488,128,0,305587:0:0:0:0:
329,192,305501,1,0,0:0:0:0:
109,192,305537,128,0,305637:0:0:0:0:
36,192,305587,128,0,305687:0:0:0:0:
475,192,305625,128,0,305749:0:0:0:0:
329,192,305687,128,0,305785:0:0:0:0:
109,192,305687,1,0,0:0:0:0:
182,192,305687,1,0,0:0:0:0:
256,192,305736,128,0,305835:0:0:0:0:
182,192,305785,128,0,305885:0:0:0:0:
402,192,305811,128,0,306152:0:0:0:0:
109,192,305835,128,0,305935:0:0:0:0:
475,192,305842,1,0,0:0:0:0:
329,192,305873,1,0,0:0:0:0:
36,192,305873,128,0,305997:0:0:0:0:
256,192,305935,128,0,306033:0:0:0:0:
182,192,305935,1,0,0:0:0:0:
182,192,305984,128,0,306083:0:0:0:0:
109,192,306033,128,0,306132:0:0:0:0:
36,192,306083,128,0,306183:0:0:0:0:
475,192,306121,128,0,306245:0:0:0:0:
402,192,306183,1,0,0:0:0:0:
329,192,306183,128,0,306281:0:0:0:0:
109,192,306183,1,0,0:0:0:0:
182,192,306183,1,0,0:0:0:0:
256,192,306232,128,0,306331:0:0:0:0:
182,192,306281,128,0,306380:0:0:0:0:
109,192,306331,128,0,306431:0:0:0:0:
36,192,306369,128,0,306493:0:0:0:0:
182,192,306431,128,0,306741:0:0:0:0:
475,192,306431,1,0,0:0:0:0:
256,192,306431,128,0,306514:0:0:0:0:
402,192,306462,1,0,0:0:0:0:
329,192,306493,1,0,0:0:0:0:
109,192,306514,128,0,306596:0:0:0:0:
256,192,306555,128,0,306638:0:0:0:0:
402,192,306596,128,0,306679:0:0:0:0:
329,192,306679,128,0,306989:0:0:0:0:
36,192,306679,1,0,0:0:0:0:
475,192,306679,1,0,0:0:0:0:
109,192,306710,1,0,0:0:0:0:
256,192,306741,1,0,0:0:0:0:
475,192,306762,128,0,306844:0:0:0:0:
36,192,306803,1,0,0:0:0:0:
256,192,306844,128,0,306927:0:0:0:0:
36,192,306885,128,0,306968:0:0:0:0:
182,192,306927,128,0,307237:0:0:0:0:
475,192,306927,1,0,0:0:0:0:
109,192,306927,1,0,0:0:0:0:
402,192,306958,1,0,0:0:0:0:
256,192,306989,1,0,0:0:0:0:
109,192,307009,128,0,307092:0:0:0:0:
256,192,307051,128,0,307133:0:0:0:0:
402,192,307092,128,0,307175:0:0:0:0:
329,192,307175,128,0,307485:0:0:0:0:
36,192,307175,1,0,0:0:0:0:
475,192,307175,1,0,0:0:0:0:
109,192,307206,1,0,0:0:0:0:
256,192,307237,1,0,0:0:0:0:
475,192,307257,128,0,307340:0:0:0:0:
256,192,307299,128,0,307381:0:0:0:0:
36,192,307340,128,0,307423:0:0:0:0:
109,192,307423,128,0,307764:0:0:0:0:
182,192,307423,128,0,307521:0:0:0:0:
402,192,307423,128,0,307485:0:0:0:0:
475,192,307454,1,0,0:0:0:0:
256,192,307471,128,0,307570:0:0:0:0:
36,192,307485,1,0,0:0:0:0:
329,192,307521,128,0,307620:0:0:0:0:
402,192,307570,128,0,307671:0:0:0:0:
475,192,307609,128,0,307733:0:0:0:0:
256,192,307671,128,0,307769:0:0:0:0:
36,192,307671,1,0,0:0:0:0:
182,192,307671,1,0,0:0:0:0:
329,192,307719,128,0,307818:0:0:0:0:
402,192,307769,128,0,307868:0:0:0:0:
109,192,307795,128,0,308135:0:0:0:0:
36,192,307795,1,0,0:0:0:0:
256,192,307795,128,0,307857:0:0:0:0:
475,192,307818,128,0,307919:0:0:0:0:
182,192,307826,1,0,0:0:0:0:
182,192,307919,128,0,308017:0:0:0:0:
329,192,307919,1,0,0:0:0:0:
402,192,307919,1,0,0:0:0:0:
256,192,307967,128,0,308066:0:0:0:0:
329,192,308017,128,0,308116:0:0:0:0:
402,192,308066,128,0,308166:0:0:0:0:
475,192,308104,128,0,308228:0:0:0:0:
109,192,308166,1,0,0:0:0:0:
256,192,308166,128,0,308265:0:0:0:0:
36,192,308166,128,0,308228:0:0:0:0:
182,192,308166,1,0,0:0:0:0:
329,192,308215,128,0,308314:0:0:0:0:
402,192,308265,128,0,308364:0:0:0:0:
182,192,308290,1,0,0:0:0:0:
109,192,308290,128,0,308352:0:0:0:0:
475,192,308314,128,0,308414:0:0:0:0:
36,192,308352,128,0,308476:0:0:0:0:
256,192,308414,1,0,0:0:0:0:
182,192,308414,128,0,308476:0:0:0:0:
329,192,308414,128,0,308476:0:0:0:0:
402,192,308414,128,0,308476:0:0:0:0:
109,192,308476,128,0,308600:0:0:0:0:
329,192,308538,1,0,0:0:0:0:
256,192,308538,128,0,308600:0:0:0:0:
402,192,308538,128,0,308600:0:0:0:0:
475,192,308538,128,0,308600:0:0:0:0:
36,192,308538,128,0,308724:0:0:0:0:
182,192,308538,1,0,0:0:0:0:
329,192,308600,128,0,308910:0:0:0:0:
182,192,308662,128,0,308724:0:0:0:0:
109,192,308662,1,0,0:0:0:0:
475,192,308662,128,0,308848:0:0:0:0:
402,192,308693,128,0,308879:0:0:0:0:
256,192,308724,128,0,308848:0:0:0:0:
109,192,308786,128,0,308848:0:0:0:0:
36,192,308786,1,0,0:0:0:0:
182,192,308848,128,0,308972:0:0:0:0:
475,192,308910,128,0,309034:0:0:0:0:
36,192,308910,128,0,309189:0:0:0:0:
109,192,308910,128,0,308972:0:0:0:0:
402,192,308941,128,0,309065:0:0:0:0:
329,192,308972,128,0,309096:0:0:0:0:
256,192,308972,128,0,309034:0:0:0:0:
182,192,309034,128,0,309096:0:0:0:0:
109,192,309096,128,0,309158:0:0:0:0:
475,192,309158,128,0,309220:0:0:0:0:
182,192,309158,128,0,309437:0:0:0:0:
329,192,309158,1,0,0:0:0:0:
256,192,309158,1,0,0:0:0:0:
402,192,309189,128,0,309251:0:0:0:0:
329,192,309220,128,0,309344:0:0:0:0:
109,192,309220,128,0,309282:0:0:0:0:
256,192,309251,128,0,309406:0:0:0:0:
36,192,309282,128,0,309344:0:0:0:0:
475,192,309282,128,0,309344:0:0:0:0:
402,192,309344,128,0,309406:0:0:0:0:
329,192,309406,128,0,309468:0:0:0:0:
109,192,309406,1,0,0:0:0:0:
36,192,309406,1,0,0:0:0:0:
182,192,309468,128,0,309530:0:0:0:0:
475,192,309468,1,0,0:0:0:0:
109,192,309499,128,0,309561:0:0:0:0:
36,192,309530,128,0,309561:0:0:0:0:
329,192,309530,128,0,309592:0:0:0:0:
402,192,309530,1,0,0:0:0:0:
475,192,309592,128,0,309654:0:0:0:0:
36,192,309654,128,0,309716:0:0:0:0:
182,192,309654,1,0,0:0:0:0:
256,192,309654,1,0,0:0:0:0:
329,192,309654,128,0,309933:0:0:0:0:
109,192,309685,128,0,309747:0:0:0:0:
182,192,309716,128,0,309778:0:0:0:0:
402,192,309716,128,0,309778:0:0:0:0:
256,192,309747,128,0,309778:0:0:0:0:
475,192,309778,128,0,309840:0:0:0:0:
36,192,309778,128,0,309840:0:0:0:0:
109,192,309840,128,0,309902:0:0:0:0:
402,192,309902,1,0,0:0:0:0:
475,192,309902,1,0,0:0:0:0:
182,192,309902,128,0,309964:0:0:0:0:
256,192,309902,128,0,310088:0:0:0:0:
329,192,309964,128,0,310026:0:0:0:0:
36,192,309964,1,0,0:0:0:0:
402,192,309995,128,0,310057:0:0:0:0:
475,192,310026,128,0,310057:0:0:0:0:
109,192,310026,1,0,0:0:0:0:
182,192,310026,128,0,310088:0:0:0:0:
36,192,310088,128,0,310150:0:0:0:0:
109,192,310150,1,0,0:0:0:0:
402,192,310150,1,0,0:0:0:0:
329,192,310150,128,0,310212:0:0:0:0:
256,192,310150,128,0,310336:0:0:0:0:
182,192,310212,128,0,310274:0:0:0:0:
475,192,310212,128,0,310274:0:0:0:0:
109,192,310243,128,0,310305:0:0:0:0:
36,192,310274,128,0,310305:0:0:0:0:
402,192,310274,1,0,0:0:0:0:
329,192,310336,128,0,310398:0:0:0:0:
402,192,310367,128,0,310429:0:0:0:0:
475,192,310398,128,0,310429:0:0:0:0:
109,192,310398,128,0,310460:0:0:0:0:
256,192,310398,1,0,0:0:0:0:
182,192,310398,128,0,310460:0:0:0:0:
256,192,310460,128,0,310584:0:0:0:0:
329,192,310522,1,0,0:0:0:0:
182,192,310522,1,0,0:0:0:0:
109,192,310522,128,0,310584:0:0:0:0:
36,192,310522,128,0,310584:0:0:0:0:
402,192,310522,128,0,310584:0:0:0:0:
475,192,310522,128,0,310584:0:0:0:0:
182,192,310584,128,0,310894:0:0:0:0:
329,192,310646,128,0,310708:0:0:0:0:
36,192,310646,128,0,310832:0:0:0:0:
402,192,310646,1,0,0:0:0:0:
109,192,310677,128,0,310863:0:0:0:0:
256,192,310708,128,0,310770:0:0:0:0:
402,192,310770,128,0,310832:0:0:0:0:
475,192,310770,1,0,0:0:0:0:
329,192,310832,128,0,310956:0:0:0:0:
36,192,310894,128,0,311018:0:0:0:0:
402,192,310894,128,0,310956:0:0:0:0:
475,192,310894,128,0,311173:0:0:0:0:
109,192,310925,128,0,311049:0:0:0:0:
182,192,310956,128,0,311080:0:0:0:0:
256,192,310956,128,0,311018:0:0:0:0:
329,192,311018,128,0,311328:0:0:0:0:
402,192,311080,128,0,311142:0:0:0:0:
256,192,311142,1,0,0:0:0:0:
36,192,311142,128,0,311204:0:0:0:0:
182,192,311142,1,0,0:0:0:0:
109,192,311173,128,0,311235:0:0:0:0:
402,192,311204,128,0,311266:0:0:0:0:
182,192,311204,128,0,311328:0:0:0:0:
475,192,311266,128,0,311328:0:0:0:0:
36,192,311266,128,0,311328:0:0:0:0:
256,192,311266,128,0,311328:0:0:0:0:
109,192,311328,128,0,311390:0:0:0:0:
256,192,311390,1,0,0:0:0:0:
475,192,311390,128,0,311452:0:0:0:0:
329,192,311390,1,0,0:0:0:0:
182,192,311390,128,0,311700:0:0:0:0:
402,192,311421,128,0,311483:0:0:0:0:
109,192,311452,128,0,311514:0:0:0:0:
329,192,311452,128,0,311576:0:0:0:0:
256,192,311483,128,0,311638:0:0:0:0:
475,192,311514,128,0,311576:0:0:0:0:
36,192,311514,128,0,311576:0:0:0:0:
402,192,311576,128,0,311638:0:0:0:0:
109,192,311576,128,0,311638:0:0:0:0:
329,192,311638,128,0,311700:0:0:0:0:
36,192,311638,1,0,0:0:0:0:
475,192,311638,1,0,0:0:0:0:
256,192,311700,128,0,311762:0:0:0:0:
109,192,311762,1,0,0:0:0:0:
36,192,311762,1,0,0:0:0:0:
402,192,311762,128,0,311823:0:0:0:0:
475,192,311762,128,0,311823:0:0:0:0:
256,192,311823,1,0,0:0:0:0:
109,192,311885,1,0,0:0:0:0:
329,192,311885,128,0,311947:0:0:0:0:
402,192,311885,128,0,312009:0:0:0:0:
182,192,311885,1,0,0:0:0:0:
475,192,311947,128,0,312071:0:0:0:0:
36,192,311947,1,0,0:0:0:0:
329,192,312009,128,0,312133:0:0:0:0:
182,192,312009,1,0,0:0:0:0:
109,192,312009,1,0,0:0:0:0:
402,192,312071,128,0,312195:0:0:0:0:
256,192,312071,1,0,0:0:0:0:
256,192,312133,128,0,312257:0:0:0:0:
109,192,312133,1,0,0:0:0:0:
36,192,312133,1,0,0:0:0:0:
475,192,312133,128,0,312319:0:0:0:0:
329,192,312195,128,0,312319:0:0:0:0:
182,192,312195,1,0,0:0:0:0:
182,192,312257,128,0,312381:0:0:0:0:
36,192,312257,1,0,0:0:0:0:
402,192,312257,128,0,312319:0:0:0:0:
256,192,312319,128,0,312381:0:0:0:0:
109,192,312319,1,0,0:0:0:0:
329,192,312381,1,0,0:0:0:0:
402,192,312381,1,0,0:0:0:0:
475,192,312381,1,0,0:0:0:0:
109,192,312381,1,0,0:0:0:0:
36,192,312381,1,0,0:0:0:0:
182,192,312443,1,0,0:0:0:0:
256,192,312443,1,0,0:0:0:0:
329,192,312505,1,0,0:0:0:0:
402,192,312505,1,0,0:0:0:0:
475,192,312505,1,0,0:0:0:0:
109,192,312505,1,0,0:0:0:0:
36,192,312505,1,0,0:0:0:0:
329,192,312629,1,0,0:0:0:0:
402,192,312629,1,0,0:0:0:0:
475,192,312629,1,0,0:0:0:0:
109,192,312629,1,0,0:0:0:0:
182,192,312629,1,0,0:0:0:0:
402,192,312753,1,0,0:0:0:0:
475,192,312753,1,0,0:0:0:0:
182,192,312753,1,0,0:0:0:0:
109,192,312753,1,0,0:0:0:0:
329,192,312815,1,0,0:0:0:0:
256,192,312815,1,0,0:0:0:0:
402,192,312877,1,0,0:0:0:0:
475,192,312877,1,0,0:0:0:0:
109,192,312877,1,0,0:0:0:0:
36,192,312877,1,0,0:0:0:0:
182,192,313001,1,0,0:0:0:0:
109,192,313001,1,0,0:0:0:0:
36,192,313001,1,0,0:0:0:0:
402,192,313001,1,0,0:0:0:0:
475,192,313001,1,0,0:0:0:0:
182,192,313125,1,0,0:0:0:0:
109,192,313125,1,0,0:0:0:0:
36,192,313125,1,0,0:0:0:0:
402,192,313125,1,0,0:0:0:0:
475,192,313125,1,0,0:0:0:0:
36,192,313249,1,0,0:0:0:0:
109,192,313249,1,0,0:0:0:0:
329,192,313249,1,0,0:0:0:0:
402,192,313249,1,0,0:0:0:0:
256,192,313249,1,0,0:0:0:0:
182,192,313311,1,0,0:0:0:0:
36,192,313373,1,0,0:0:0:0:
402,192,313373,1,0,0:0:0:0:
329,192,313373,1,0,0:0:0:0:
109,192,313373,1,0,0:0:0:0:
475,192,313497,1,0,0:0:0:0:
402,192,313497,1,0,0:0:0:0:
329,192,313497,1,0,0:0:0:0:
182,192,313497,1,0,0:0:0:0:
109,192,313497,1,0,0:0:0:0:
475,192,313621,1,0,0:0:0:0:
402,192,313621,1,0,0:0:0:0:
329,192,313621,1,0,0:0:0:0:
182,192,313621,1,0,0:0:0:0:
256,192,313621,1,0,0:0:0:0:
475,192,313745,1,0,0:0:0:0:
402,192,313745,1,0,0:0:0:0:
329,192,313745,1,0,0:0:0:0:
182,192,313807,1,0,0:0:0:0:
256,192,313807,1,0,0:0:0:0:
109,192,313869,1,0,0:0:0:0:
36,192,313869,1,0,0:0:0:0:
475,192,313869,1,0,0:0:0:0:
402,192,313869,1,0,0:0:0:0:
329,192,313931,1,0,0:0:0:0:
256,192,313931,1,0,0:0:0:0:
36,192,313993,1,0,0:0:0:0:
109,192,313993,1,0,0:0:0:0:
182,192,313993,1,0,0:0:0:0:
329,192,314055,1,0,0:0:0:0:
402,192,314055,1,0,0:0:0:0:
36,192,314117,1,0,0:0:0:0:
109,192,314117,1,0,0:0:0:0:
182,192,314117,1,0,0:0:0:0:
475,192,314117,1,0,0:0:0:0:
256,192,314179,1,0,0:0:0:0:
329,192,314179,1,0,0:0:0:0:
182,192,314241,1,0,0:0:0:0:
109,192,314241,1,0,0:0:0:0:
36,192,314241,1,0,0:0:0:0:
402,192,314241,1,0,0:0:0:0:
475,192,314241,1,0,0:0:0:0:
256,192,314303,1,0,0:0:0:0:
402,192,314365,1,0,0:0:0:0:
475,192,314365,1,0,0:0:0:0:
109,192,314365,1,0,0:0:0:0:
36,192,314365,1,0,0:0:0:0:
182,192,314365,128,0,314489:0:0:0:0:
329,192,314365,1,0,0:0:0:0:
256,192,314385,128,0,314447:0:0:0:0:
36,192,314427,128,0,314489:0:0:0:0:
109,192,314427,128,0,314489:0:0:0:0:
402,192,314489,1,0,0:0:0:0:
475,192,314489,1,0,0:0:0:0:
256,192,314489,128,0,314613:0:0:0:0:
329,192,314509,128,0,314571:0:0:0:0:
109,192,314551,128,0,314613:0:0:0:0:
182,192,314551,128,0,314613:0:0:0:0:
475,192,314613,1,0,0:0:0:0:
329,192,314613,128,0,314737:0:0:0:0:
36,192,314613,128,0,314675:0:0:0:0:
402,192,314633,128,0,314695:0:0:0:0:
182,192,314675,128,0,314737:0:0:0:0:
256,192,314675,128,0,314737:0:0:0:0:
402,192,314737,128,0,314799:0:0:0:0:
475,192,314737,128,0,314799:0:0:0:0:
109,192,314737,128,0,314799:0:0:0:0:
36,192,314737,128,0,314799:0:0:0:0:
256,192,314799,128,0,314861:0:0:0:0:
182,192,314799,128,0,314861:0:0:0:0:
109,192,314861,1,0,0:0:0:0:
36,192,314861,1,0,0:0:0:0:
402,192,314861,1,0,0:0:0:0:
475,192,314861,1,0,0:0:0:0:
329,192,314861,128,0,314985:0:0:0:0:
256,192,314881,128,0,314943:0:0:0:0:
475,192,314923,128,0,314985:0:0:0:0:
402,192,314923,128,0,314985:0:0:0:0:
109,192,314985,1,0,0:0:0:0:
36,192,314985,1,0,0:0:0:0:
256,192,314985,128,0,315109:0:0:0:0:
182,192,315005,128,0,315067:0:0:0:0:
402,192,315047,128,0,315109:0:0:0:0:
329,192,315047,128,0,315109:0:0:0:0:
36,192,315109,1,0,0:0:0:0:
182,192,315109,128,0,315233:0:0:0:0:
475,192,315109,128,0,315171:0:0:0:0:
109,192,315129,128,0,315191:0:0:0:0:
329,192,315171,128,0,315233:0:0:0:0:
256,192,315171,128,0,315233:0:0:0:0:
109,192,315233,1,0,0:0:0:0:
36,192,315233,1,0,0:0:0:0:
475,192,315233,1,0,0:0:0:0:
402,192,315233,1,0,0:0:0:0:
182,192,315264,1,0,0:0:0:0:
329,192,315264,1,0,0:0:0:0:
256,192,315295,1,0,0:0:0:0:
182,192,315326,1,0,0:0:0:0:
329,192,315326,1,0,0:0:0:0:
109,192,315357,128,0,315419:0:0:0:0:
36,192,315357,128,0,315419:0:0:0:0:
402,192,315357,128,0,315419:0:0:0:0:
475,192,315357,128,0,315419:0:0:0:0:
109,192,315481,1,0,0:0:0:0:
36,192,315481,1,0,0:0:0:0:
402,192,315481,1,0,0:0:0:0:
475,192,315481,1,0,0:0:0:0:
256,192,315496,1,0,0:0:0:0:
182,192,315527,1,0,0:0:0:0:
329,192,315527,1,0,0:0:0:0:
256,192,315558,1,0,0:0:0:0:
36,192,315604,128,0,315666:0:0:0:0:
109,192,315604,128,0,315666:0:0:0:0:
402,192,315604,128,0,315666:0:0:0:0:
475,192,315604,128,0,315666:0:0:0:0:
109,192,315728,128,0,315945:0:0:0:0:
36,192,315728,128,0,315945:0:0:0:0:
402,192,315728,128,0,315945:0:0:0:0:
475,192,315728,128,0,315945:0:0:0:0:
329,192,315728,1,0,0:0:0:0:
256,192,315728,1,0,0:0:0:0:
182,192,315728,1,0,0:0:0:0:
36,192,315976,128,0,316038:0:0:0:0:
109,192,315976,128,0,316007:0:0:0:0:
402,192,315976,128,0,316007:0:0:0:0:
475,192,315976,128,0,316038:0:0:0:0:
182,192,316100,128,0,316131:0:0:0:0:
109,192,316100,128,0,316162:0:0:0:0:
329,192,316100,128,0,316131:0:0:0:0:
402,192,316100,128,0,316162:0:0:0:0:
256,192,316224,128,0,316286:0:0:0:0:
182,192,316240,128,0,316271:0:0:0:0:
329,192,316240,128,0,316271:0:0:0:0:
36,192,316348,1,0,0:0:0:0:
182,192,316348,1,0,0:0:0:0:
329,192,316348,1,0,0:0:0:0:
475,192,316348,1,0,0:0:0:0:
402,192,316348,1,0,0:0:0:0:
256,192,316348,1,0,0:0:0:0:
109,192,316348,1,0,0:0:0:0:
182,192,316472,1,0,0:0:0:0:
475,192,316472,1,0,0:0:0:0:
256,192,316472,1,0,0:0:0:0:
109,192,316472,1,0,0:0:0:0:
402,192,316472,1,0,0:0:0:0:
329,192,316472,1,0,0:0:0:0:
36,192,316472,1,0,0:0:0:0:
402,192,316596,128,0,316627:0:0:0:0:
256,192,316596,128,0,316813:0:0:0:0:
475,192,316596,1,0,0:0:0:0:
329,192,316596,128,0,316658:0:0:0:0:
182,192,316596,1,0,0:0:0:0:
109,192,316658,1,0,0:0:0:0:
475,192,316720,128,0,316813:0:0:0:0:
36,192,316720,1,0,0:0:0:0:
402,192,316751,128,0,316813:0:0:0:0:
329,192,316782,128,0,316813:0:0:0:0:
109,192,316782,1,0,0:0:0:0:
256,192,316844,128,0,317051:0:0:0:0:
475,192,316844,1,0,0:0:0:0:
182,192,316875,128,0,317030:0:0:0:0:
109,192,316906,128,0,316999:0:0:0:0:
402,192,316906,1,0,0:0:0:0:
36,192,316937,128,0,316968:0:0:0:0:
329,192,316968,1,0,0:0:0:0:
402,192,317030,1,0,0:0:0:0:
36,192,317092,128,0,317299:0:0:0:0:
475,192,317092,1,0,0:0:0:0:
109,192,317092,1,0,0:0:0:0:
182,192,317092,1,0,0:0:0:0:
256,192,317154,1,0,0:0:0:0:
329,192,317154,1,0,0:0:0:0:
402,192,317216,1,0,0:0:0:0:
475,192,317216,1,0,0:0:0:0:
182,192,317278,1,0,0:0:0:0:
109,192,317278,1,0,0:0:0:0:
256,192,317340,1,0,0:0:0:0:
329,192,317340,1,0,0:0:0:0:
402,192,317340,1,0,0:0:0:0:
475,192,317340,1,0,0:0:0:0:
36,192,317340,1,0,0:0:0:0:
109,192,317402,128,0,317433:0:0:0:0:
182,192,317402,128,0,317433:0:0:0:0:
329,192,317464,128,0,317495:0:0:0:0:
402,192,317464,128,0,317495:0:0:0:0:
36,192,317464,1,0,0:0:0:0:
109,192,317526,128,0,317557:0:0:0:0:
182,192,317526,128,0,317557:0:0:0:0:
256,192,317526,1,0,0:0:0:0:
402,192,317588,128,0,317619:0:0:0:0:
475,192,317588,128,0,317619:0:0:0:0:
329,192,317588,1,0,0:0:0:0:
109,192,317650,128,0,317681:0:0:0:0:
36,192,317650,128,0,317681:0:0:0:0:
256,192,317650,1,0,0:0:0:0:
402,192,317712,128,0,317743:0:0:0:0:
475,192,317712,128,0,317743:0:0:0:0:
329,192,317712,1,0,0:0:0:0:
109,192,317774,128,0,317805:0:0:0:0:
182,192,317774,128,0,317805:0:0:0:0:
256,192,317774,1,0,0:0:0:0:
329,192,317836,128,0,317867:0:0:0:0:
402,192,317836,128,0,317867:0:0:0:0:
475,192,317836,1,0,0:0:0:0:
36,192,317836,1,0,0:0:0:0:
182,192,317898,128,0,317929:0:0:0:0:
109,192,317898,128,0,317929:0:0:0:0:
256,192,317898,1,0,0:0:0:0:
402,192,317960,128,0,317991:0:0:0:0:
475,192,317960,128,0,317991:0:0:0:0:
329,192,317960,1,0,0:0:0:0:
109,192,318022,128,0,318053:0:0:0:0:
36,192,318022,128,0,318053:0:0:0:0:
182,192,318022,1,0,0:0:0:0:
402,192,318084,128,0,318115:0:0:0:0:
475,192,318084,128,0,318115:0:0:0:0:
329,192,318084,1,0,0:0:0:0:
182,192,318146,128,0,318177:0:0:0:0:
109,192,318146,128,0,318177:0:0:0:0:
256,192,318146,1,0,0:0:0:0:
329,192,318208,128,0,318239:0:0:0:0:
402,192,318208,128,0,318239:0:0:0:0:
475,192,318208,1,0,0:0:0:0:
256,192,318270,128,0,318301:0:0:0:0:
182,192,318270,1,0,0:0:0:0:
109,192,318332,128,0,318363:0:0:0:0:
256,192,318332,128,0,318549:0:0:0:0:
36,192,318332,1,0,0:0:0:0:
182,192,318332,128,0,318394:0:0:0:0:
329,192,318332,1,0,0:0:0:0:
402,192,318394,1,0,0:0:0:0:
36,192,318456,128,0,318549:0:0:0:0:
475,192,318456,1,0,0:0:0:0:
109,192,318487,128,0,318549:0:0:0:0:
182,192,318518,128,0,318549:0:0:0:0:
402,192,318518,1,0,0:0:0:0:
256,192,318580,128,0,318786:0:0:0:0:
36,192,318580,1,0,0:0:0:0:
329,192,318611,128,0,318766:0:0:0:0:
402,192,318642,128,0,318735:0:0:0:0:
109,192,318642,1,0,0:0:0:0:
475,192,318673,128,0,318704:0:0:0:0:
182,192,318704,1,0,0:0:0:0:
109,192,318766,1,0,0:0:0:0:
475,192,318828,128,0,319034:0:0:0:0:
36,192,318828,1,0,0:0:0:0:
402,192,318828,1,0,0:0:0:0:
329,192,318828,1,0,0:0:0:0:
256,192,318890,1,0,0:0:0:0:
182,192,318890,1,0,0:0:0:0:
109,192,318952,1,0,0:0:0:0:
36,192,318952,1,0,0:0:0:0:
329,192,319014,1,0,0:0:0:0:
402,192,319014,1,0,0:0:0:0:
256,192,319076,1,0,0:0:0:0:
182,192,319076,1,0,0:0:0:0:
475,192,319076,128,0,319138:0:0:0:0:
109,192,319138,1,0,0:0:0:0:
36,192,319138,1,0,0:0:0:0:
402,192,319138,128,0,319200:0:0:0:0:
475,192,319200,1,0,0:0:0:0:
329,192,319200,128,0,319262:0:0:0:0:
182,192,319262,1,0,0:0:0:0:
256,192,319262,128,0,319323:0:0:0:0:
109,192,319323,1,0,0:0:0:0:
475,192,319323,1,0,0:0:0:0:
402,192,319323,1,0,0:0:0:0:
36,192,319323,128,0,319385:0:0:0:0:
109,192,319385,128,0,319447:0:0:0:0:
256,192,319385,1,0,0:0:0:0:
182,192,319447,128,0,319509:0:0:0:0:
329,192,319447,1,0,0:0:0:0:
256,192,319509,128,0,319571:0:0:0:0:
402,192,319509,1,0,0:0:0:0:
475,192,319571,128,0,319633:0:0:0:0:
329,192,319571,1,0,0:0:0:0:
109,192,319571,1,0,0:0:0:0:
36,192,319571,1,0,0:0:0:0:
402,192,319633,128,0,319695:0:0:0:0:
256,192,319633,1,0,0:0:0:0:
329,192,319695,128,0,319757:0:0:0:0:
182,192,319695,1,0,0:0:0:0:
256,192,319757,128,0,319819:0:0:0:0:
109,192,319757,1,0,0:0:0:0:
36,192,319819,1,0,0:0:0:0:
475,192,319819,1,0,0:0:0:0:
402,192,319819,128,0,319943:0:0:0:0:
182,192,319819,128,0,319881:0:0:0:0:
329,192,319881,128,0,320005:0:0:0:0:
109,192,319881,128,0,320067:0:0:0:0:
475,192,319943,1,0,0:0:0:0:
36,192,319943,1,0,0:0:0:0:
256,192,319943,1,0,0:0:0:0:
182,192,319943,128,0,320129:0:0:0:0:
402,192,320005,128,0,320129:0:0:0:0:
36,192,320067,1,0,0:0:0:0:
475,192,320067,1,0,0:0:0:0:
256,192,320067,1,0,0:0:0:0:
329,192,320067,128,0,320191:0:0:0:0:
109,192,320129,128,0,320253:0:0:0:0:
36,192,320191,1,0,0:0:0:0:
475,192,320191,1,0,0:0:0:0:
256,192,320191,1,0,0:0:0:0:
182,192,320191,128,0,320315:0:0:0:0:
402,192,320191,128,0,320253:0:0:0:0:
329,192,320253,128,0,320315:0:0:0:0:
475,192,320315,128,0,320331:0:0:0:0:
36,192,320315,128,0,320346:0:0:0:0:
109,192,320346,128,0,320377:0:0:0:0:
402,192,320346,128,0,320362:0:0:0:0:
182,192,320377,128,0,320408:0:0:0:0:
329,192,320377,128,0,320393:0:0:0:0:
256,192,320408,128,0,320424:0:0:0:0:
36,192,320439,128,0,320470:0:0:0:0:
475,192,320439,128,0,320455:0:0:0:0:
109,192,320470,128,0,320501:0:0:0:0:
402,192,320470,128,0,320486:0:0:0:0:
182,192,320501,128,0,320532:0:0:0:0:
329,192,320501,128,0,320517:0:0:0:0:
256,192,320532,128,0,320548:0:0:0:0:
36,192,320563,128,0,320734:0:0:0:0:
475,192,320563,128,0,320734:0:0:0:0:
109,192,320579,128,0,320718:0:0:0:0:
402,192,320579,128,0,320718:0:0:0:0:
182,192,320594,128,0,320703:0:0:0:0:
329,192,320594,128,0,320703:0:0:0:0:
256,192,320610,128,0,320687:0:0:0:0:
256,192,320811,128,0,320827:0:0:0:0:
329,192,320827,128,0,320858:0:0:0:0:
182,192,320842,128,0,320858:0:0:0:0:
402,192,320858,128,0,320889:0:0:0:0:
109,192,320873,128,0,320889:0:0:0:0:
475,192,320889,128,0,320920:0:0:0:0:
36,192,320904,128,0,320920:0:0:0:0:
256,192,320935,128,0,320951:0:0:0:0:
329,192,320951,128,0,320982:0:0:0:0:
182,192,320966,128,0,320982:0:0:0:0:
402,192,320982,128,0,321013:0:0:0:0:
109,192,320997,128,0,321013:0:0:0:0:
475,192,321013,128,0,321044:0:0:0:0:
36,192,321028,128,0,321044:0:0:0:0:
256,192,321059,128,0,321276:0:0:0:0:
182,192,321090,128,0,321245:0:0:0:0:
329,192,321090,128,0,321245:0:0:0:0:
109,192,321121,128,0,321214:0:0:0:0:
402,192,321121,128,0,321214:0:0:0:0:
36,192,321152,128,0,321183:0:0:0:0:
475,192,321152,128,0,321183:0:0:0:0:
475,192,321307,128,0,321322:0:0:0:0:
36,192,321307,128,0,321338:0:0:0:0:
109,192,321338,128,0,321369:0:0:0:0:
402,192,321338,128,0,321353:0:0:0:0:
182,192,321369,128,0,321400:0:0:0:0:
329,192,321369,128,0,321384:0:0:0:0:
256,192,321400,128,0,321415:0:0:0:0:
36,192,321431,128,0,321462:0:0:0:0:
475,192,321431,128,0,321446:0:0:0:0:
109,192,321462,128,0,321493:0:0:0:0:
402,192,321462,128,0,321477:0:0:0:0:
182,192,321493,128,0,321524:0:0:0:0:
329,192,321493,128,0,321508:0:0:0:0:
256,192,321524,128,0,321539:0:0:0:0:
36,192,321555,128,0,321725:0:0:0:0:
475,192,321555,128,0,321725:0:0:0:0:
109,192,321570,128,0,321710:0:0:0:0:
402,192,321570,128,0,321710:0:0:0:0:
182,192,321586,128,0,321694:0:0:0:0:
329,192,321586,128,0,321694:0:0:0:0:
256,192,321601,128,0,321679:0:0:0:0:
256,192,321803,128,0,321818:0:0:0:0:
329,192,321818,128,0,321849:0:0:0:0:
182,192,321834,128,0,321849:0:0:0:0:
402,192,321849,128,0,321880:0:0:0:0:
109,192,321865,128,0,321880:0:0:0:0:
475,192,321880,128,0,321911:0:0:0:0:
36,192,321896,128,0,321911:0:0:0:0:
256,192,321927,128,0,321942:0:0:0:0:
329,192,321942,128,0,321973:0:0:0:0:
182,192,321958,128,0,321973:0:0:0:0:
402,192,321973,128,0,322004:0:0:0:0:
109,192,321989,128,0,322004:0:0:0:0:
475,192,322004,128,0,322035:0:0:0:0:
36,192,322020,128,0,322035:0:0:0:0:
256,192,322051,128,0,322268:0:0:0:0:
182,192,322082,128,0,322237:0:0:0:0:
329,192,322082,128,0,322237:0:0:0:0:
109,192,322113,128,0,322206:0:0:0:0:
402,192,322113,128,0,322206:0:0:0:0:
36,192,322144,128,0,322175:0:0:0:0:
475,192,322144,128,0,322175:0:0:0:0:
36,192,322299,128,0,322330:0:0:0:0:
475,192,322299,128,0,322314:0:0:0:0:
402,192,322330,128,0,322345:0:0:0:0:
109,192,322330,128,0,322361:0:0:0:0:
329,192,322361,128,0,322376:0:0:0:0:
182,192,322361,128,0,322392:0:0:0:0:
256,192,322392,128,0,322407:0:0:0:0:
475,192,322423,128,0,322438:0:0:0:0:
36,192,322423,128,0,322454:0:0:0:0:
402,192,322454,128,0,322469:0:0:0:0:
109,192,322454,128,0,322485:0:0:0:0:
329,192,322485,128,0,322500:0:0:0:0:
182,192,322485,128,0,322516:0:0:0:0:
256,192,322516,128,0,322531:0:0:0:0:
475,192,322547,128,0,322717:0:0:0:0:
36,192,322547,128,0,322717:0:0:0:0:
402,192,322562,128,0,322702:0:0:0:0:
109,192,322562,128,0,322702:0:0:0:0:
329,192,322578,128,0,322686:0:0:0:0:
182,192,322578,128,0,322686:0:0:0:0:
256,192,322593,128,0,322671:0:0:0:0:
256,192,322795,128,0,322810:0:0:0:0:
329,192,322810,128,0,322841:0:0:0:0:
182,192,322826,128,0,322841:0:0:0:0:
402,192,322841,128,0,322872:0:0:0:0:
109,192,322857,128,0,322872:0:0:0:0:
475,192,322872,128,0,322903:0:0:0:0:
36,192,322888,128,0,322903:0:0:0:0:
256,192,322919,128,0,322934:0:0:0:0:
329,192,322934,128,0,322965:0:0:0:0:
182,192,322950,128,0,322965:0:0:0:0:
402,192,322965,128,0,322996:0:0:0:0:
109,192,322981,128,0,322996:0:0:0:0:
475,192,322996,128,0,323027:0:0:0:0:
36,192,323012,128,0,323027:0:0:0:0:
256,192,323042,1,0,0:0:0:0:
182,192,323058,1,0,0:0:0:0:
329,192,323058,1,0,0:0:0:0:
109,192,323073,1,0,0:0:0:0:
402,192,323073,1,0,0:0:0:0:
36,192,323089,1,0,0:0:0:0:
475,192,323089,1,0,0:0:0:0:
256,192,323166,128,0,323197:0:0:0:0:
182,192,323166,128,0,323228:0:0:0:0:
109,192,323166,128,0,323259:0:0:0:0:
36,192,323166,128,0,323290:0:0:0:0:
329,192,323166,128,0,323228:0:0:0:0:
402,192,323166,128,0,323259:0:0:0:0:
475,192,323166,128,0,323290:0:0:0:0:
256,192,323290,1,0,0:0:0:0:
256,192,323414,128,0,323445:0:0:0:0:
182,192,323414,128,0,323476:0:0:0:0:
109,192,323414,128,0,323507:0:0:0:0:
36,192,323414,128,0,323538:0:0:0:0:
329,192,323414,128,0,323476:0:0:0:0:
402,192,323414,128,0,323507:0:0:0:0:
475,192,323414,128,0,323538:0:0:0:0:
256,192,323538,1,0,0:0:0:0:
182,192,323662,128,0,323693:0:0:0:0:
109,192,323662,128,0,323724:0:0:0:0:
36,192,323662,128,0,323755:0:0:0:0:
329,192,323662,128,0,323693:0:0:0:0:
402,192,323662,128,0,323724:0:0:0:0:
475,192,323662,128,0,323755:0:0:0:0:
256,192,323662,128,0,323678:0:0:0:0:
402,192,323786,1,0,0:0:0:0:
329,192,323786,1,0,0:0:0:0:
256,192,323786,1,0,0:0:0:0:
182,192,323786,1,0,0:0:0:0:
109,192,323786,1,0,0:0:0:0:
182,192,323910,1,0,0:0:0:0:
256,192,323910,1,0,0:0:0:0:
329,192,323910,1,0,0:0:0:0:
256,192,324034,1,0,0:0:0:0:
256,192,324158,128,0,324174:0:0:0:0:
329,192,324282,128,0,324303:0:0:0:0:
402,192,324303,128,0,324323:0:0:0:0:
475,192,324323,128,0,324344:0:0:0:0:
36,192,324344,128,0,324365:0:0:0:0:
109,192,324365,128,0,324385:0:0:0:0:
182,192,324385,128,0,324406:0:0:0:0:
329,192,324406,128,0,324427:0:0:0:0:
402,192,324427,128,0,324447:0:0:0:0:
475,192,324447,128,0,324468:0:0:0:0:
36,192,324468,128,0,324489:0:0:0:0:
109,192,324489,128,0,324509:0:0:0:0:
182,192,324509,128,0,324530:0:0:0:0:
329,192,324530,1,0,0:0:0:0:
402,192,324530,1,0,0:0:0:0:
475,192,324530,1,0,0:0:0:0:
256,192,324592,1,0,0:0:0:0:
475,192,324592,1,0,0:0:0:0:
182,192,324654,1,0,0:0:0:0:
402,192,324654,1,0,0:0:0:0:
109,192,324716,1,0,0:0:0:0:
329,192,324716,1,0,0:0:0:0:
475,192,324778,1,0,0:0:0:0:
402,192,324778,1,0,0:0:0:0:
36,192,324778,1,0,0:0:0:0:
256,192,324840,1,0,0:0:0:0:
182,192,324840,1,0,0:0:0:0:
329,192,324902,1,0,0:0:0:0:
475,192,324902,1,0,0:0:0:0:
109,192,324902,1,0,0:0:0:0:
36,192,324964,1,0,0:0:0:0:
256,192,324964,1,0,0:0:0:0:
402,192,325026,1,0,0:0:0:0:
475,192,325026,1,0,0:0:0:0:
182,192,325026,1,0,0:0:0:0:
109,192,325088,1,0,0:0:0:0:
329,192,325088,1,0,0:0:0:0:
256,192,325150,1,0,0:0:0:0:
36,192,325150,1,0,0:0:0:0:
182,192,325212,1,0,0:0:0:0:
109,192,325274,128,0,325336:0:0:0:0:
475,192,325274,1,0,0:0:0:0:
402,192,325274,128,0,325336:0:0:0:0:
36,192,325336,128,0,325398:0:0:0:0:
329,192,325336,128,0,325398:0:0:0:0:
475,192,325398,128,0,325522:0:0:0:0:
182,192,325398,128,0,325522:0:0:0:0:
256,192,325398,128,0,325460:0:0:0:0:
402,192,325460,128,0,325584:0:0:0:0:
109,192,325460,128,0,325584:0:0:0:0:
329,192,325522,128,0,325646:0:0:0:0:
36,192,325522,128,0,325646:0:0:0:0:
256,192,325584,128,0,325708:0:0:0:0:
475,192,325584,128,0,325646:0:0:0:0:
182,192,325646,128,0,325770:0:0:0:0:
402,192,325646,128,0,325708:0:0:0:0:
329,192,325708,128,0,325770:0:0:0:0:
109,192,325708,128,0,325832:0:0:0:0:
36,192,325770,128,0,325894:0:0:0:0:
256,192,325770,128,0,325832:0:0:0:0:
475,192,325770,128,0,325832:0:0:0:0:
182,192,325832,128,0,325894:0:0:0:0:
402,192,325832,128,0,325956:0:0:0:0:
109,192,325894,128,0,325956:0:0:0:0:
329,192,325894,128,0,326018:0:0:0:0:
475,192,325894,128,0,325956:0:0:0:0:
36,192,325956,128,0,326018:0:0:0:0:
256,192,325956,128,0,326080:0:0:0:0:
475,192,326018,128,0,326080:0:0:0:0:
402,192,326018,128,0,326080:0:0:0:0:
182,192,326018,128,0,326142:0:0:0:0:
109,192,326080,128,0,326204:0:0:0:0:
36,192,326142,128,0,326204:0:0:0:0:
402,192,326142,128,0,326204:0:0:0:0:
475,192,326142,128,0,326204:0:0:0:0:
256,192,326142,128,0,326204:0:0:0:0:
329,192,326142,128,0,326204:0:0:0:0:
36,192,326266,1,0,0:0:0:0:
109,192,326266,1,0,0:0:0:0:
182,192,326266,1,0,0:0:0:0:
475,192,326266,1,0,0:0:0:0:
402,192,326266,1,0,0:0:0:0:
256,192,326328,1,0,0:0:0:0:
109,192,326390,1,0,0:0:0:0:
329,192,326390,1,0,0:0:0:0:
36,192,326390,1,0,0:0:0:0:
402,192,326452,1,0,0:0:0:0:
475,192,326514,1,0,0:0:0:0:
109,192,326514,1,0,0:0:0:0:
36,192,326514,1,0,0:0:0:0:
329,192,326514,1,0,0:0:0:0:
256,192,326576,1,0,0:0:0:0:
36,192,326638,1,0,0:0:0:0:
182,192,326638,1,0,0:0:0:0:
329,192,326638,1,0,0:0:0:0:
402,192,326700,1,0,0:0:0:0:
256,192,326762,1,0,0:0:0:0:
36,192,326762,1,0,0:0:0:0:
109,192,326762,1,0,0:0:0:0:
475,192,326762,1,0,0:0:0:0:
402,192,326823,1,0,0:0:0:0:
329,192,326823,1,0,0:0:0:0:
109,192,326885,1,0,0:0:0:0:
182,192,326885,1,0,0:0:0:0:
402,192,326947,1,0,0:0:0:0:
329,192,326947,1,0,0:0:0:0:
109,192,327009,1,0,0:0:0:0:
36,192,327009,1,0,0:0:0:0:
475,192,327009,128,0,327071:0:0:0:0:
402,192,327071,128,0,327133:0:0:0:0:
182,192,327071,1,0,0:0:0:0:
36,192,327133,128,0,327257:0:0:0:0:
256,192,327133,1,0,0:0:0:0:
329,192,327133,128,0,327195:0:0:0:0:
109,192,327195,128,0,327319:0:0:0:0:
182,192,327257,128,0,327381:0:0:0:0:
402,192,327257,1,0,0:0:0:0:
475,192,327257,1,0,0:0:0:0:
329,192,327257,128,0,327319:0:0:0:0:
36,192,327319,128,0,327381:0:0:0:0:
256,192,327319,128,0,327443:0:0:0:0:
109,192,327381,128,0,327443:0:0:0:0:
329,192,327381,128,0,327505:0:0:0:0:
402,192,327443,128,0,327567:0:0:0:0:
182,192,327443,128,0,327505:0:0:0:0:
36,192,327505,128,0,327567:0:0:0:0:
256,192,327505,128,0,327567:0:0:0:0:
475,192,327505,128,0,327629:0:0:0:0:
109,192,327505,1,0,0:0:0:0:
329,192,327567,128,0,327629:0:0:0:0:
36,192,327629,128,0,327691:0:0:0:0:
402,192,327629,128,0,327691:0:0:0:0:
109,192,327629,128,0,327691:0:0:0:0:
475,192,327691,128,0,327753:0:0:0:0:
256,192,327691,128,0,327815:0:0:0:0:
182,192,327691,128,0,327815:0:0:0:0:
109,192,327753,128,0,327815:0:0:0:0:
36,192,327753,128,0,327815:0:0:0:0:
329,192,327753,1,0,0:0:0:0:
402,192,327753,1,0,0:0:0:0:
402,192,327815,128,0,327877:0:0:0:0:
475,192,327815,128,0,327877:0:0:0:0:
36,192,327877,128,0,327939:0:0:0:0:
109,192,327877,128,0,327939:0:0:0:0:
182,192,327877,1,0,0:0:0:0:
329,192,327877,128,0,327939:0:0:0:0:
256,192,327877,128,0,327939:0:0:0:0:
109,192,328001,128,0,328063:0:0:0:0:
36,192,328001,128,0,328063:0:0:0:0:
402,192,328001,128,0,328063:0:0:0:0:
475,192,328001,128,0,328063:0:0:0:0:
182,192,328125,128,0,328187:0:0:0:0:
109,192,328125,128,0,328187:0:0:0:0:
36,192,328125,128,0,328187:0:0:0:0:
329,192,328125,128,0,328187:0:0:0:0:
475,192,328125,128,0,328187:0:0:0:0:
402,192,328125,128,0,328187:0:0:0:0:
329,192,328249,128,0,328280:0:0:0:0:
256,192,328249,128,0,328280:0:0:0:0:
182,192,328249,128,0,328280:0:0:0:0:
109,192,328249,128,0,328280:0:0:0:0:
36,192,328249,128,0,328683:0:0:0:0:
475,192,328311,1,0,0:0:0:0:
182,192,328373,128,0,328404:0:0:0:0:
109,192,328373,128,0,328404:0:0:0:0:
256,192,328373,128,0,328404:0:0:0:0:
402,192,328435,1,0,0:0:0:0:
109,192,328497,128,0,328683:0:0:0:0:
182,192,328497,128,0,328683:0:0:0:0:
475,192,328497,1,0,0:0:0:0:
329,192,328559,1,0,0:0:0:0:
256,192,328621,1,0,0:0:0:0:
402,192,328683,1,0,0:0:0:0:
36,192,328745,1,0,0:0:0:0:
109,192,328745,1,0,0:0:0:0:
329,192,328745,1,0,0:0:0:0:
475,192,328745,1,0,0:0:0:0:
182,192,328807,1,0,0:0:0:0:
256,192,328869,128,0,328900:0:0:0:0:
329,192,328869,128,0,328900:0:0:0:0:
402,192,328869,1,0,0:0:0:0:
109,192,328931,1,0,0:0:0:0:
256,192,328993,128,0,329024:0:0:0:0:
182,192,328993,128,0,329024:0:0:0:0:
329,192,328993,1,0,0:0:0:0:
36,192,329055,1,0,0:0:0:0:
182,192,329117,128,0,329148:0:0:0:0:
109,192,329117,128,0,329148:0:0:0:0:
475,192,329117,128,0,329272:0:0:0:0:
256,192,329117,1,0,0:0:0:0:
402,192,329148,128,0,329272:0:0:0:0:
329,192,329179,128,0,329272:0:0:0:0:
256,192,329210,128,0,329272:0:0:0:0:
109,192,329241,1,0,0:0:0:0:
36,192,329241,1,0,0:0:0:0:
182,192,329303,1,0,0:0:0:0:
329,192,329365,128,0,329396:0:0:0:0:
36,192,329365,128,0,329520:0:0:0:0:
402,192,329365,128,0,329396:0:0:0:0:
256,192,329365,1,0,0:0:0:0:
109,192,329396,128,0,329520:0:0:0:0:
182,192,329427,128,0,329520:0:0:0:0:
475,192,329427,1,0,0:0:0:0:
256,192,329458,128,0,329520:0:0:0:0:
329,192,329489,1,0,0:0:0:0:
402,192,329551,1,0,0:0:0:0:
109,192,329613,128,0,329768:0:0:0:0:
475,192,329613,1,0,0:0:0:0:
182,192,329644,128,0,329799:0:0:0:0:
256,192,329675,128,0,329830:0:0:0:0:
329,192,329706,128,0,329861:0:0:0:0:
402,192,329737,128,0,329892:0:0:0:0:
36,192,329737,1,0,0:0:0:0:
109,192,329861,128,0,329892:0:0:0:0:
475,192,329861,128,0,329892:0:0:0:0:
36,192,329861,128,0,329892:0:0:0:0:
182,192,329892,1,0,0:0:0:0:
256,192,329923,1,0,0:0:0:0:
109,192,329985,128,0,330016:0:0:0:0:
182,192,329985,128,0,330016:0:0:0:0:
475,192,329985,128,0,330016:0:0:0:0:
256,192,330016,1,0,0:0:0:0:
329,192,330047,1,0,0:0:0:0:
182,192,330109,128,0,330140:0:0:0:0:
256,192,330109,128,0,330140:0:0:0:0:
475,192,330109,128,0,330140:0:0:0:0:
329,192,330140,1,0,0:0:0:0:
402,192,330171,1,0,0:0:0:0:
256,192,330233,128,0,330274:0:0:0:0:
109,192,330233,128,0,330274:0:0:0:0:
475,192,330233,1,0,0:0:0:0:
36,192,330264,1,0,0:0:0:0:
329,192,330295,1,0,0:0:0:0:
329,192,330357,128,0,330398:0:0:0:0:
182,192,330357,128,0,330398:0:0:0:0:
475,192,330357,1,0,0:0:0:0:
109,192,330388,1,0,0:0:0:0:
402,192,330419,1,0,0:0:0:0:
256,192,330481,128,0,330522:0:0:0:0:
402,192,330481,128,0,330522:0:0:0:0:
475,192,330481,128,0,330976:0:0:0:0:
182,192,330512,1,0,0:0:0:0:
109,192,330542,1,0,0:0:0:0:
36,192,330604,1,0,0:0:0:0:
329,192,330604,128,0,330635:0:0:0:0:
109,192,330666,1,0,0:0:0:0:
329,192,330728,128,0,330976:0:0:0:0:
402,192,330728,128,0,330976:0:0:0:0:
182,192,330728,128,0,330759:0:0:0:0:
256,192,330759,1,0,0:0:0:0:
36,192,330790,1,0,0:0:0:0:
109,192,330852,128,0,330883:0:0:0:0:
182,192,330883,1,0,0:0:0:0:
256,192,330914,1,0,0:0:0:0:
109,192,330976,128,0,331007:0:0:0:0:
36,192,330976,128,0,331007:0:0:0:0:
256,192,331038,1,0,0:0:0:0:
182,192,331100,1,0,0:0:0:0:
256,192,331100,128,0,331255:0:0:0:0:
329,192,331131,128,0,331286:0:0:0:0:
402,192,331162,128,0,331255:0:0:0:0:
109,192,331162,1,0,0:0:0:0:
475,192,331193,128,0,331224:0:0:0:0:
182,192,331224,1,0,0:0:0:0:
256,192,331286,1,0,0:0:0:0:
256,192,331348,128,0,331503:0:0:0:0:
329,192,331348,1,0,0:0:0:0:
182,192,331379,128,0,331534:0:0:0:0:
109,192,331410,128,0,331503:0:0:0:0:
402,192,331410,1,0,0:0:0:0:
36,192,331441,128,0,331472:0:0:0:0:
329,192,331472,1,0,0:0:0:0:
475,192,331472,1,0,0:0:0:0:
256,192,331534,1,0,0:0:0:0:
402,192,331596,128,0,331751:0:0:0:0:
182,192,331596,1,0,0:0:0:0:
329,192,331627,128,0,331782:0:0:0:0:
256,192,331658,128,0,331751:0:0:0:0:
109,192,331658,1,0,0:0:0:0:
182,192,331689,128,0,331720:0:0:0:0:
475,192,331720,1,0,0:0:0:0:
36,192,331720,1,0,0:0:0:0:
475,192,331844,1,0,0:0:0:0:
36,192,331844,1,0,0:0:0:0:
109,192,331844,1,0,0:0:0:0:
402,192,331844,1,0,0:0:0:0:
475,192,331968,1,0,0:0:0:0:
36,192,331968,1,0,0:0:0:0:
109,192,331968,1,0,0:0:0:0:
182,192,331968,1,0,0:0:0:0:
402,192,331968,1,0,0:0:0:0:
329,192,331968,1,0,0:0:0:0:
475,192,332092,1,0,0:0:0:0:
256,192,332092,1,0,0:0:0:0:
36,192,332092,1,0,0:0:0:0:
182,192,332092,1,0,0:0:0:0:
109,192,332092,1,0,0:0:0:0:
329,192,332092,1,0,0:0:0:0:
402,192,332092,1,0,0:0:0:0:
256,192,332216,1,0,0:0:0:0:
109,192,332216,1,0,0:0:0:0:
36,192,332216,128,0,332247:0:0:0:0:
182,192,332216,128,0,332247:0:0:0:0:
329,192,332216,128,0,332247:0:0:0:0:
475,192,332216,1,0,0:0:0:0:
402,192,332237,1,0,0:0:0:0:
109,192,332278,128,0,332433:0:0:0:0:
256,192,332278,128,0,332433:0:0:0:0:
182,192,332340,128,0,332371:0:0:0:0:
36,192,332340,128,0,332371:0:0:0:0:
329,192,332340,128,0,332371:0:0:0:0:
475,192,332340,1,0,0:0:0:0:
402,192,332361,1,0,0:0:0:0:
109,192,332464,128,0,332495:0:0:0:0:
256,192,332464,128,0,332495:0:0:0:0:
182,192,332464,1,0,0:0:0:0:
402,192,332464,128,0,332495:0:0:0:0:
329,192,332464,1,0,0:0:0:0:
36,192,332485,1,0,0:0:0:0:
475,192,332485,1,0,0:0:0:0:
182,192,332526,128,0,332681:0:0:0:0:
329,192,332526,128,0,332681:0:0:0:0:
402,192,332588,128,0,332619:0:0:0:0:
109,192,332588,128,0,332619:0:0:0:0:
256,192,332588,128,0,332619:0:0:0:0:
36,192,332609,1,0,0:0:0:0:
475,192,332609,1,0,0:0:0:0:
182,192,332712,128,0,332743:0:0:0:0:
329,192,332712,128,0,332743:0:0:0:0:
402,192,332712,1,0,0:0:0:0:
256,192,332712,1,0,0:0:0:0:
475,192,332712,128,0,332743:0:0:0:0:
36,192,332712,1,0,0:0:0:0:
109,192,332733,1,0,0:0:0:0:
256,192,332774,128,0,332929:0:0:0:0:
402,192,332774,128,0,332929:0:0:0:0:
475,192,332836,128,0,332867:0:0:0:0:
182,192,332836,128,0,332867:0:0:0:0:
329,192,332836,128,0,332867:0:0:0:0:
36,192,332836,1,0,0:0:0:0:
109,192,332857,1,0,0:0:0:0:
402,192,332960,128,0,332991:0:0:0:0:
182,192,332960,1,0,0:0:0:0:
256,192,332960,128,0,332991:0:0:0:0:
329,192,332960,1,0,0:0:0:0:
109,192,332960,128,0,332991:0:0:0:0:
36,192,332981,1,0,0:0:0:0:
475,192,332981,1,0,0:0:0:0:
329,192,333022,128,0,333177:0:0:0:0:
182,192,333022,128,0,333177:0:0:0:0:
256,192,333084,128,0,333115:0:0:0:0:
109,192,333084,128,0,333115:0:0:0:0:
402,192,333084,128,0,333115:0:0:0:0:
36,192,333104,1,0,0:0:0:0:
475,192,333104,1,0,0:0:0:0:
109,192,333208,1,0,0:0:0:0:
402,192,333208,1,0,0:0:0:0:
36,192,333208,1,0,0:0:0:0:
256,192,333208,1,0,0:0:0:0:
475,192,333208,1,0,0:0:0:0:
329,192,333270,1,0,0:0:0:0:
182,192,333270,1,0,0:0:0:0:
256,192,333332,1,0,0:0:0:0:
475,192,333332,1,0,0:0:0:0:
36,192,333332,1,0,0:0:0:0:
109,192,333332,1,0,0:0:0:0:
402,192,333332,1,0,0:0:0:0:
182,192,333394,1,0,0:0:0:0:
329,192,333394,1,0,0:0:0:0:
475,192,333456,1,0,0:0:0:0:
36,192,333456,1,0,0:0:0:0:
402,192,333456,1,0,0:0:0:0:
109,192,333456,1,0,0:0:0:0:
256,192,333456,1,0,0:0:0:0:
329,192,333518,1,0,0:0:0:0:
182,192,333518,1,0,0:0:0:0:
475,192,333580,1,0,0:0:0:0:
402,192,333580,1,0,0:0:0:0:
109,192,333580,1,0,0:0:0:0:
256,192,333580,1,0,0:0:0:0:
36,192,333580,1,0,0:0:0:0:
182,192,333642,1,0,0:0:0:0:
329,192,333642,1,0,0:0:0:0:
109,192,333704,1,0,0:0:0:0:
256,192,333704,1,0,0:0:0:0:
402,192,333704,1,0,0:0:0:0:
475,192,333704,1,0,0:0:0:0:
36,192,333704,1,0,0:0:0:0:
182,192,333766,1,0,0:0:0:0:
329,192,333766,1,0,0:0:0:0:
256,192,333828,1,0,0:0:0:0:
36,192,333828,1,0,0:0:0:0:
109,192,333828,1,0,0:0:0:0:
475,192,333828,1,0,0:0:0:0:
402,192,333828,1,0,0:0:0:0:
329,192,333890,1,0,0:0:0:0:
182,192,333890,1,0,0:0:0:0:
475,192,333952,1,0,0:0:0:0:
36,192,333952,1,0,0:0:0:0:
402,192,333952,1,0,0:0:0:0:
109,192,333952,1,0,0:0:0:0:
256,192,333952,1,0,0:0:0:0:
329,192,334014,1,0,0:0:0:0:
182,192,334014,1,0,0:0:0:0:
475,192,334076,1,0,0:0:0:0:
402,192,334076,1,0,0:0:0:0:
109,192,334076,1,0,0:0:0:0:
256,192,334076,1,0,0:0:0:0:
36,192,334076,1,0,0:0:0:0:
182,192,334138,1,0,0:0:0:0:
329,192,334138,1,0,0:0:0:0:
256,192,334200,1,0,0:0:0:0:
109,192,334200,1,0,0:0:0:0:
36,192,334200,1,0,0:0:0:0:
182,192,334200,1,0,0:0:0:0:
402,192,334200,1,0,0:0:0:0:
475,192,334200,1,0,0:0:0:0:
329,192,334200,1,0,0:0:0:0:
182,192,334323,1,0,0:0:0:0:
329,192,334323,1,0,0:0:0:0:
182,192,334447,1,0,0:0:0:0:
329,192,334447,1,0,0:0:0:0:
329,192,334695,1,0,0:0:0:0:
182,192,334695,1,0,0:0:0:0:
182,192,335067,1,0,0:0:0:0:
329,192,335067,1,0,0:0:0:0:
109,192,335315,1,0,0:0:0:0:
402,192,335315,1,0,0:0:0:0:
182,192,335424,128,0,335455:0:0:0:0:
329,192,335424,128,0,335455:0:0:0:0:
256,192,335439,1,0,0:0:0:0:
36,192,335563,1,0,0:0:0:0:
475,192,335563,1,0,0:0:0:0:
256,192,335672,128,0,335703:0:0:0:0:
109,192,335672,128,0,335703:0:0:0:0:
402,192,335672,128,0,335703:0:0:0:0:
182,192,335687,1,0,0:0:0:0:
329,192,335687,1,0,0:0:0:0:
36,192,335811,1,0,0:0:0:0:
475,192,335811,1,0,0:0:0:0:
402,192,335935,1,0,0:0:0:0:
329,192,335935,1,0,0:0:0:0:
256,192,335935,1,0,0:0:0:0:
182,192,335935,1,0,0:0:0:0:
109,192,335935,1,0,0:0:0:0:
182,192,336059,1,0,0:0:0:0:
36,192,336059,1,0,0:0:0:0:
329,192,336059,1,0,0:0:0:0:
475,192,336059,1,0,0:0:0:0:
36,192,336183,128,0,336266:0:0:0:0:
182,192,336183,1,0,0:0:0:0:
329,192,336183,128,0,336214:0:0:0:0:
475,192,336183,128,0,336400:0:0:0:0:
109,192,336214,128,0,336245:0:0:0:0:
256,192,336245,1,0,0:0:0:0:
402,192,336245,1,0,0:0:0:0:
329,192,336307,1,0,0:0:0:0:
109,192,336307,128,0,336400:0:0:0:0:
36,192,336338,128,0,336369:0:0:0:0:
256,192,336369,1,0,0:0:0:0:
402,192,336369,1,0,0:0:0:0:
329,192,336431,1,0,0:0:0:0:
475,192,336431,128,0,336514:0:0:0:0:
182,192,336431,128,0,336462:0:0:0:0:
36,192,336431,128,0,336648:0:0:0:0:
402,192,336462,128,0,336493:0:0:0:0:
256,192,336493,1,0,0:0:0:0:
109,192,336493,1,0,0:0:0:0:
182,192,336555,1,0,0:0:0:0:
402,192,336555,128,0,336648:0:0:0:0:
475,192,336586,128,0,336617:0:0:0:0:
256,192,336617,1,0,0:0:0:0:
109,192,336617,1,0,0:0:0:0:
36,192,336679,128,0,336762:0:0:0:0:
182,192,336679,1,0,0:0:0:0:
329,192,336679,128,0,336710:0:0:0:0:
475,192,336679,128,0,336896:0:0:0:0:
109,192,336710,128,0,336741:0:0:0:0:
256,192,336741,1,0,0:0:0:0:
402,192,336741,1,0,0:0:0:0:
329,192,336803,1,0,0:0:0:0:
109,192,336803,128,0,336896:0:0:0:0:
36,192,336834,128,0,336865:0:0:0:0:
256,192,336865,1,0,0:0:0:0:
402,192,336865,1,0,0:0:0:0:
329,192,336927,1,0,0:0:0:0:
475,192,336927,128,0,337009:0:0:0:0:
182,192,336927,128,0,336958:0:0:0:0:
36,192,336927,128,0,337144:0:0:0:0:
402,192,336958,128,0,336989:0:0:0:0:
256,192,336989,1,0,0:0:0:0:
109,192,336989,1,0,0:0:0:0:
182,192,337051,1,0,0:0:0:0:
402,192,337051,128,0,337144:0:0:0:0:
475,192,337082,128,0,337113:0:0:0:0:
256,192,337113,1,0,0:0:0:0:
109,192,337113,1,0,0:0:0:0:
329,192,337175,128,0,337206:0:0:0:0:
36,192,337175,128,0,337257:0:0:0:0:
182,192,337175,1,0,0:0:0:0:
475,192,337175,128,0,337392:0:0:0:0:
109,192,337206,128,0,337237:0:0:0:0:
402,192,337237,1,0,0:0:0:0:
256,192,337237,1,0,0:0:0:0:
109,192,337299,128,0,337392:0:0:0:0:
329,192,337299,1,0,0:0:0:0:
36,192,337330,128,0,337361:0:0:0:0:
402,192,337361,1,0,0:0:0:0:
256,192,337361,1,0,0:0:0:0:
182,192,337423,128,0,337454:0:0:0:0:
329,192,337423,1,0,0:0:0:0:
475,192,337423,128,0,337505:0:0:0:0:
36,192,337423,128,0,337640:0:0:0:0:
402,192,337454,128,0,337485:0:0:0:0:
109,192,337485,1,0,0:0:0:0:
256,192,337485,1,0,0:0:0:0:
402,192,337547,128,0,337640:0:0:0:0:
182,192,337547,1,0,0:0:0:0:
475,192,337578,128,0,337609:0:0:0:0:
109,192,337609,1,0,0:0:0:0:
256,192,337609,1,0,0:0:0:0:
182,192,337671,1,0,0:0:0:0:
475,192,337671,128,0,337795:0:0:0:0:
36,192,337671,128,0,337733:0:0:0:0:
109,192,337686,1,0,0:0:0:0:
329,192,337686,1,0,0:0:0:0:
402,192,337733,128,0,337795:0:0:0:0:
256,192,337748,1,0,0:0:0:0:
329,192,337795,128,0,337919:0:0:0:0:
36,192,337795,128,0,337857:0:0:0:0:
182,192,337810,1,0,0:0:0:0:
256,192,337857,128,0,337919:0:0:0:0:
475,192,337857,128,0,337877:0:0:0:0:
109,192,337872,1,0,0:0:0:0:
402,192,337877,128,0,337898:0:0:0:0:
182,192,337919,128,0,338042:0:0:0:0:
36,192,337934,1,0,0:0:0:0:
109,192,337981,128,0,338042:0:0:0:0:
329,192,337981,128,0,338001:0:0:0:0:
475,192,337981,1,0,0:0:0:0:
256,192,338001,128,0,338022:0:0:0:0:
36,192,338042,128,0,338135:0:0:0:0:
402,192,338042,1,0,0:0:0:0:
182,192,338104,128,0,338125:0:0:0:0:
329,192,338104,1,0,0:0:0:0:
109,192,338125,128,0,338146:0:0:0:0:
475,192,338166,128,0,338383:0:0:0:0:
256,192,338166,128,0,338197:0:0:0:0:
36,192,338166,128,0,338249:0:0:0:0:
109,192,338197,128,0,338228:0:0:0:0:
182,192,338228,128,0,338259:0:0:0:0:
402,192,338228,128,0,338290:0:0:0:0:
109,192,338290,128,0,338383:0:0:0:0:
329,192,338290,128,0,338352:0:0:0:0:
36,192,338321,128,0,338352:0:0:0:0:
402,192,338352,1,0,0:0:0:0:
256,192,338352,128,0,338414:0:0:0:0:
36,192,338414,128,0,338631:0:0:0:0:
182,192,338414,128,0,338445:0:0:0:0:
475,192,338414,128,0,338497:0:0:0:0:
329,192,338414,1,0,0:0:0:0:
402,192,338445,128,0,338476:0:0:0:0:
109,192,338476,128,0,338538:0:0:0:0:
256,192,338476,128,0,338507:0:0:0:0:
402,192,338538,128,0,338631:0:0:0:0:
182,192,338538,128,0,338600:0:0:0:0:
329,192,338538,128,0,338569:0:0:0:0:
475,192,338569,128,0,338600:0:0:0:0:
109,192,338600,1,0,0:0:0:0:
256,192,338600,128,0,338662:0:0:0:0:
36,192,338662,128,0,338879:0:0:0:0:
182,192,338662,128,0,338693:0:0:0:0:
475,192,338662,128,0,338745:0:0:0:0:
402,192,338693,128,0,338724:0:0:0:0:
256,192,338724,128,0,338755:0:0:0:0:
109,192,338724,128,0,338786:0:0:0:0:
402,192,338786,128,0,338879:0:0:0:0:
182,192,338786,128,0,338848:0:0:0:0:
329,192,338786,128,0,338817:0:0:0:0:
475,192,338817,128,0,338848:0:0:0:0:
109,192,338848,1,0,0:0:0:0:
256,192,338848,128,0,338910:0:0:0:0:
475,192,338910,128,0,339127:0:0:0:0:
329,192,338910,128,0,338941:0:0:0:0:
36,192,338910,128,0,338993:0:0:0:0:
182,192,338910,1,0,0:0:0:0:
109,192,338941,128,0,338972:0:0:0:0:
402,192,338972,128,0,339034:0:0:0:0:
256,192,338972,128,0,339003:0:0:0:0:
109,192,339034,128,0,339127:0:0:0:0:
329,192,339034,128,0,339096:0:0:0:0:
182,192,339034,128,0,339065:0:0:0:0:
36,192,339065,128,0,339096:0:0:0:0:
402,192,339096,1,0,0:0:0:0:
256,192,339096,128,0,339158:0:0:0:0:
182,192,339158,1,0,0:0:0:0:
402,192,339158,128,0,339220:0:0:0:0:
36,192,339158,1,0,0:0:0:0:
109,192,339158,1,0,0:0:0:0:
329,192,339220,128,0,339282:0:0:0:0:
475,192,339220,128,0,339592:0:0:0:0:
256,192,339282,128,0,339344:0:0:0:0:
182,192,339282,128,0,339344:0:0:0:0:
109,192,339282,128,0,339344:0:0:0:0:
36,192,339282,128,0,339344:0:0:0:0:
402,192,339282,128,0,339468:0:0:0:0:
329,192,339344,128,0,339406:0:0:0:0:
109,192,339406,128,0,339468:0:0:0:0:
256,192,339406,1,0,0:0:0:0:
182,192,339468,128,0,339530:0:0:0:0:
329,192,339468,1,0,0:0:0:0:
36,192,339468,128,0,339778:0:0:0:0:
402,192,339530,1,0,0:0:0:0:
256,192,339530,128,0,339592:0:0:0:0:
109,192,339530,128,0,339716:0:0:0:0:
329,192,339592,1,0,0:0:0:0:
182,192,339592,128,0,339654:0:0:0:0:
256,192,339654,128,0,339716:0:0:0:0:
329,192,339654,128,0,339716:0:0:0:0:
402,192,339654,128,0,339716:0:0:0:0:
475,192,339654,128,0,339716:0:0:0:0:
182,192,339716,1,0,0:0:0:0:
109,192,339778,1,0,0:0:0:0:
402,192,339778,1,0,0:0:0:0:
329,192,339778,1,0,0:0:0:0:
256,192,339778,1,0,0:0:0:0:
475,192,339778,1,0,0:0:0:0:
182,192,339840,128,0,339902:0:0:0:0:
36,192,339840,1,0,0:0:0:0:
109,192,339902,128,0,339964:0:0:0:0:
256,192,339902,1,0,0:0:0:0:
329,192,339902,128,0,340026:0:0:0:0:
475,192,339902,1,0,0:0:0:0:
402,192,339902,1,0,0:0:0:0:
36,192,339964,128,0,340026:0:0:0:0:
182,192,339964,1,0,0:0:0:0:
402,192,339964,128,0,340088:0:0:0:0:
256,192,340026,1,0,0:0:0:0:
109,192,340026,128,0,340088:0:0:0:0:
475,192,340026,128,0,340088:0:0:0:0:
329,192,340088,1,0,0:0:0:0:
182,192,340088,128,0,340150:0:0:0:0:
36,192,340150,1,0,0:0:0:0:
109,192,340150,1,0,0:0:0:0:
475,192,340150,1,0,0:0:0:0:
402,192,340150,1,0,0:0:0:0:
256,192,340212,1,0,0:0:0:0:
329,192,340274,1,0,0:0:0:0:
109,192,340274,1,0,0:0:0:0:
182,192,340274,1,0,0:0:0:0:
36,192,340274,1,0,0:0:0:0:
256,192,340336,1,0,0:0:0:0:
402,192,340336,1,0,0:0:0:0:
182,192,340398,1,0,0:0:0:0:
475,192,340398,1,0,0:0:0:0:
109,192,340398,128,0,340460:0:0:0:0:
329,192,340398,128,0,340460:0:0:0:0:
36,192,340398,128,0,340522:0:0:0:0:
256,192,340460,128,0,340522:0:0:0:0:
182,192,340522,128,0,340584:0:0:0:0:
475,192,340522,1,0,0:0:0:0:
402,192,340522,1,0,0:0:0:0:
329,192,340522,1,0,0:0:0:0:
109,192,340584,128,0,340646:0:0:0:0:
256,192,340584,1,0,0:0:0:0:
329,192,340646,1,0,0:0:0:0:
36,192,340646,1,0,0:0:0:0:
182,192,340646,1,0,0:0:0:0:
402,192,340646,1,0,0:0:0:0:
475,192,340646,1,0,0:0:0:0:
109,192,340708,1,0,0:0:0:0:
256,192,340708,1,0,0:0:0:0:
182,192,340770,1,0,0:0:0:0:
402,192,340770,1,0,0:0:0:0:
475,192,340770,1,0,0:0:0:0:
329,192,340770,1,0,0:0:0:0:
109,192,340832,1,0,0:0:0:0:
256,192,340832,1,0,0:0:0:0:
36,192,340894,1,0,0:0:0:0:
182,192,340894,128,0,340956:0:0:0:0:
329,192,340894,1,0,0:0:0:0:
402,192,340894,128,0,340956:0:0:0:0:
475,192,340894,128,0,341018:0:0:0:0:
256,192,340956,128,0,341018:0:0:0:0:
109,192,340956,1,0,0:0:0:0:
329,192,341018,128,0,341080:0:0:0:0:
182,192,341018,1,0,0:0:0:0:
402,192,341080,128,0,341142:0:0:0:0:
256,192,341080,1,0,0:0:0:0:
475,192,341142,128,0,341328:0:0:0:0:
36,192,341142,1,0,0:0:0:0:
329,192,341142,1,0,0:0:0:0:
402,192,341204,128,0,341328:0:0:0:0:
109,192,341204,1,0,0:0:0:0:
329,192,341266,128,0,341328:0:0:0:0:
36,192,341266,128,0,341452:0:0:0:0:
182,192,341266,1,0,0:0:0:0:
256,192,341328,1,0,0:0:0:0:
109,192,341328,128,0,341452:0:0:0:0:
182,192,341390,128,0,341452:0:0:0:0:
475,192,341390,128,0,341576:0:0:0:0:
256,192,341452,1,0,0:0:0:0:
402,192,341452,128,0,341576:0:0:0:0:
329,192,341514,128,0,341576:0:0:0:0:
36,192,341514,128,0,341700:0:0:0:0:
256,192,341576,1,0,0:0:0:0:
109,192,341576,128,0,341700:0:0:0:0:
182,192,341638,128,0,341700:0:0:0:0:
475,192,341638,128,0,341823:0:0:0:0:
256,192,341700,1,0,0:0:0:0:
402,192,341700,128,0,341823:0:0:0:0:
329,192,341762,128,0,341823:0:0:0:0:
36,192,341762,128,0,341947:0:0:0:0:
256,192,341823,1,0,0:0:0:0:
109,192,341823,128,0,341947:0:0:0:0:
182,192,341885,128,0,341947:0:0:0:0:
475,192,341885,128,0,341978:0:0:0:0:
402,192,341916,128,0,341978:0:0:0:0:
329,192,341947,128,0,341978:0:0:0:0:
256,192,341947,1,0,0:0:0:0:
36,192,342009,128,0,342102:0:0:0:0:
109,192,342040,128,0,342102:0:0:0:0:
256,192,342071,1,0,0:0:0:0:
182,192,342071,128,0,342102:0:0:0:0:
329,192,342133,128,0,342195:0:0:0:0:
402,192,342133,128,0,342195:0:0:0:0:
36,192,342133,1,0,0:0:0:0:
109,192,342133,1,0,0:0:0:0:
475,192,342195,1,0,0:0:0:0:
256,192,342195,1,0,0:0:0:0:
402,192,342257,1,0,0:0:0:0:
182,192,342257,1,0,0:0:0:0:
109,192,342257,1,0,0:0:0:0:
329,192,342319,1,0,0:0:0:0:
256,192,342381,1,0,0:0:0:0:
402,192,342381,128,0,342443:0:0:0:0:
475,192,342381,128,0,342443:0:0:0:0:
109,192,342381,1,0,0:0:0:0:
36,192,342381,1,0,0:0:0:0:
329,192,342443,1,0,0:0:0:0:
402,192,342505,1,0,0:0:0:0:
182,192,342505,128,0,342567:0:0:0:0:
256,192,342505,128,0,342567:0:0:0:0:
475,192,342567,1,0,0:0:0:0:
182,192,342629,128,0,342691:0:0:0:0:
109,192,342629,128,0,342691:0:0:0:0:
329,192,342629,1,0,0:0:0:0:
402,192,342629,1,0,0:0:0:0:
36,192,342691,1,0,0:0:0:0:
109,192,342753,1,0,0:0:0:0:
475,192,342753,128,0,342815:0:0:0:0:
402,192,342753,128,0,342815:0:0:0:0:
329,192,342753,1,0,0:0:0:0:
182,192,342815,1,0,0:0:0:0:
402,192,342877,1,0,0:0:0:0:
109,192,342877,128,0,342939:0:0:0:0:
36,192,342877,128,0,342939:0:0:0:0:
256,192,342877,1,0,0:0:0:0:
475,192,342877,1,0,0:0:0:0:
182,192,342939,1,0,0:0:0:0:
109,192,343001,1,0,0:0:0:0:
329,192,343001,128,0,343063:0:0:0:0:
402,192,343001,128,0,343063:0:0:0:0:
36,192,343001,1,0,0:0:0:0:
475,192,343125,1,0,0:0:0:0:
402,192,343125,1,0,0:0:0:0:
182,192,343125,1,0,0:0:0:0:
256,192,343125,1,0,0:0:0:0:
109,192,343125,128,0,343187:0:0:0:0:
36,192,343125,128,0,343187:0:0:0:0:
256,192,343249,128,0,343311:0:0:0:0:
182,192,343249,128,0,343311:0:0:0:0:
475,192,343249,128,0,343311:0:0:0:0:
402,192,343249,128,0,343311:0:0:0:0:
402,192,343373,1,0,0:0:0:0:
329,192,343373,1,0,0:0:0:0:
182,192,343373,1,0,0:0:0:0:
109,192,343373,1,0,0:0:0:0:
182,192,343497,128,0,343559:0:0:0:0:
109,192,343497,128,0,343559:0:0:0:0:
402,192,343497,128,0,343559:0:0:0:0:
475,192,343497,128,0,343559:0:0:0:0:
109,192,343621,1,0,0:0:0:0:
36,192,343621,1,0,0:0:0:0:
256,192,343621,1,0,0:0:0:0:
329,192,343621,1,0,0:0:0:0:
182,192,343662,128,0,343704:0:0:0:0:
402,192,343662,128,0,343704:0:0:0:0:
475,192,343704,128,0,343745:0:0:0:0:
256,192,343704,128,0,343745:0:0:0:0:
329,192,343745,128,0,343786:0:0:0:0:
109,192,343745,128,0,343786:0:0:0:0:
402,192,343786,128,0,343828:0:0:0:0:
182,192,343786,128,0,343828:0:0:0:0:
256,192,343828,128,0,343869:0:0:0:0:
36,192,343828,128,0,343869:0:0:0:0:
329,192,343869,128,0,343890:0:0:0:0:
402,192,343890,128,0,343910:0:0:0:0:
475,192,343910,128,0,343931:0:0:0:0:
36,192,343931,128,0,343952:0:0:0:0:
109,192,343952,128,0,343972:0:0:0:0:
182,192,343972,128,0,343993:0:0:0:0:
329,192,343993,128,0,344014:0:0:0:0:
402,192,344014,128,0,344034:0:0:0:0:
475,192,344034,128,0,344055:0:0:0:0:
36,192,344055,128,0,344076:0:0:0:0:
109,192,344076,128,0,344096:0:0:0:0:
182,192,344096,128,0,344117:0:0:0:0:
329,192,344117,1,0,0:0:0:0:
475,192,344117,1,0,0:0:0:0:
402,192,344117,1,0,0:0:0:0:
256,192,344179,1,0,0:0:0:0:
109,192,344179,1,0,0:0:0:0:
329,192,344241,1,0,0:0:0:0:
402,192,344241,1,0,0:0:0:0:
475,192,344241,1,0,0:0:0:0:
182,192,344303,1,0,0:0:0:0:
36,192,344303,1,0,0:0:0:0:
402,192,344365,1,0,0:0:0:0:
475,192,344365,1,0,0:0:0:0:
329,192,344365,1,0,0:0:0:0:
109,192,344427,1,0,0:0:0:0:
182,192,344427,1,0,0:0:0:0:
329,192,344489,1,0,0:0:0:0:
402,192,344489,1,0,0:0:0:0:
475,192,344489,1,0,0:0:0:0:
256,192,344489,128,0,344551:0:0:0:0:
36,192,344551,1,0,0:0:0:0:
109,192,344551,1,0,0:0:0:0:
475,192,344613,1,0,0:0:0:0:
402,192,344613,1,0,0:0:0:0:
256,192,344613,128,0,344675:0:0:0:0:
182,192,344613,128,0,344675:0:0:0:0:
329,192,344613,1,0,0:0:0:0:
475,192,344737,1,0,0:0:0:0:
402,192,344737,1,0,0:0:0:0:
329,192,344737,1,0,0:0:0:0:
182,192,344737,128,0,344799:0:0:0:0:
109,192,344737,128,0,344799:0:0:0:0:
109,192,344861,128,0,344923:0:0:0:0:
36,192,344861,128,0,344923:0:0:0:0:
329,192,344861,1,0,0:0:0:0:
256,192,344861,1,0,0:0:0:0:
182,192,344861,1,0,0:0:0:0:
256,192,344985,128,0,345047:0:0:0:0:
182,192,344985,128,0,345047:0:0:0:0:
329,192,344985,1,0,0:0:0:0:
402,192,344985,1,0,0:0:0:0:
475,192,344985,1,0,0:0:0:0:
182,192,345109,1,0,0:0:0:0:
109,192,345129,1,0,0:0:0:0:
36,192,345150,1,0,0:0:0:0:
475,192,345171,1,0,0:0:0:0:
402,192,345191,1,0,0:0:0:0:
329,192,345212,1,0,0:0:0:0:
182,192,345233,1,0,0:0:0:0:
109,192,345253,1,0,0:0:0:0:
36,192,345274,1,0,0:0:0:0:
475,192,345295,1,0,0:0:0:0:
402,192,345315,1,0,0:0:0:0:
329,192,345336,1,0,0:0:0:0:
256,192,345357,128,0,345377:0:0:0:0:
182,192,345357,128,0,345398:0:0:0:0:
109,192,345357,128,0,345419:0:0:0:0:
36,192,345357,128,0,345439:0:0:0:0:
475,192,345388,128,0,345573:0:0:0:0:
402,192,345419,128,0,345573:0:0:0:0:
329,192,345450,128,0,345573:0:0:0:0:
256,192,345481,128,0,345573:0:0:0:0:
182,192,345512,128,0,345573:0:0:0:0:
109,192,345542,128,0,345573:0:0:0:0:
36,192,345573,1,0,0:0:0:0:
36,192,345604,128,0,345635:0:0:0:0:
109,192,345604,128,0,345666:0:0:0:0:
182,192,345604,128,0,345697:0:0:0:0:
256,192,345604,128,0,345728:0:0:0:0:
329,192,345604,128,0,345759:0:0:0:0:
402,192,345604,128,0,345790:0:0:0:0:
475,192,345604,128,0,345821:0:0:0:0:
36,192,345728,128,0,345790:0:0:0:0:
109,192,345759,128,0,345790:0:0:0:0:
182,192,345790,1,0,0:0:0:0:
182,192,345852,128,0,345914:0:0:0:0:
36,192,345852,1,0,0:0:0:0:
109,192,345852,128,0,345883:0:0:0:0:
256,192,345852,128,0,346069:0:0:0:0:
329,192,345914,128,0,346007:0:0:0:0:
402,192,345945,128,0,345992:0:0:0:0:
475,192,345961,128,0,345976:0:0:0:0:
36,192,345976,128,0,346069:0:0:0:0:
109,192,346007,128,0,346069:0:0:0:0:
475,192,346038,128,0,346131:0:0:0:0:
182,192,346038,128,0,346069:0:0:0:0:
402,192,346069,128,0,346116:0:0:0:0:
329,192,346085,128,0,346100:0:0:0:0:
109,192,346100,1,0,0:0:0:0:
36,192,346100,1,0,0:0:0:0:
182,192,346100,1,0,0:0:0:0:
402,192,346162,1,0,0:0:0:0:
36,192,346224,1,0,0:0:0:0:
109,192,346224,1,0,0:0:0:0:
182,192,346224,1,0,0:0:0:0:
256,192,346224,1,0,0:0:0:0:
475,192,346286,1,0,0:0:0:0:
402,192,346286,1,0,0:0:0:0:
182,192,346348,1,0,0:0:0:0:
36,192,346348,1,0,0:0:0:0:
109,192,346348,1,0,0:0:0:0:
402,192,346410,1,0,0:0:0:0:
329,192,346410,1,0,0:0:0:0:
36,192,346472,1,0,0:0:0:0:
256,192,346472,128,0,346534:0:0:0:0:
182,192,346472,1,0,0:0:0:0:
109,192,346472,1,0,0:0:0:0:
475,192,346534,1,0,0:0:0:0:
402,192,346534,1,0,0:0:0:0:
329,192,346596,128,0,346658:0:0:0:0:
182,192,346596,1,0,0:0:0:0:
256,192,346596,128,0,346658:0:0:0:0:
36,192,346596,1,0,0:0:0:0:
109,192,346596,1,0,0:0:0:0:
329,192,346720,128,0,346782:0:0:0:0:
402,192,346720,128,0,346782:0:0:0:0:
182,192,346720,1,0,0:0:0:0:
36,192,346720,1,0,0:0:0:0:
109,192,346720,1,0,0:0:0:0:
256,192,346844,1,0,0:0:0:0:
329,192,346844,1,0,0:0:0:0:
182,192,346844,1,0,0:0:0:0:
402,192,346844,128,0,346906:0:0:0:0:
475,192,346844,128,0,346906:0:0:0:0:
109,192,346968,1,0,0:0:0:0:
36,192,346968,1,0,0:0:0:0:
182,192,346968,1,0,0:0:0:0:
256,192,346968,128,0,347030:0:0:0:0:
329,192,346968,128,0,347030:0:0:0:0:
329,192,347092,1,0,0:0:0:0:
402,192,347113,1,0,0:0:0:0:
475,192,347133,1,0,0:0:0:0:
36,192,347154,1,0,0:0:0:0:
109,192,347175,1,0,0:0:0:0:
182,192,347195,1,0,0:0:0:0:
329,192,347216,1,0,0:0:0:0:
402,192,347237,1,0,0:0:0:0:
475,192,347257,1,0,0:0:0:0:
36,192,347278,1,0,0:0:0:0:
109,192,347299,1,0,0:0:0:0:
182,192,347319,1,0,0:0:0:0:
402,192,347340,128,0,347402:0:0:0:0:
475,192,347340,128,0,347423:0:0:0:0:
256,192,347340,128,0,347361:0:0:0:0:
329,192,347340,128,0,347381:0:0:0:0:
36,192,347371,128,0,347557:0:0:0:0:
109,192,347402,128,0,347557:0:0:0:0:
182,192,347433,128,0,347557:0:0:0:0:
256,192,347464,128,0,347557:0:0:0:0:
329,192,347495,128,0,347557:0:0:0:0:
402,192,347526,128,0,347557:0:0:0:0:
475,192,347557,1,0,0:0:0:0:
182,192,347588,128,0,347743:0:0:0:0:
109,192,347588,128,0,347774:0:0:0:0:
36,192,347588,128,0,347805:0:0:0:0:
256,192,347588,128,0,347712:0:0:0:0:
475,192,347588,128,0,347619:0:0:0:0:
402,192,347588,128,0,347650:0:0:0:0:
329,192,347588,128,0,347681:0:0:0:0:
475,192,347712,128,0,347929:0:0:0:0:
402,192,347743,128,0,347929:0:0:0:0:
329,192,347774,128,0,347929:0:0:0:0:
256,192,347805,128,0,347929:0:0:0:0:
182,192,347836,128,0,347929:0:0:0:0:
109,192,347867,128,0,347929:0:0:0:0:
36,192,347898,128,0,347929:0:0:0:0:
475,192,347960,1,0,0:0:0:0:
402,192,347960,1,0,0:0:0:0:
329,192,347960,1,0,0:0:0:0:
256,192,347960,1,0,0:0:0:0:
182,192,347960,1,0,0:0:0:0:
109,192,347960,1,0,0:0:0:0:
36,192,347960,1,0,0:0:0:0:
475,192,348084,128,0,348208:0:0:0:0:
36,192,348084,128,0,348177:0:0:0:0:
109,192,348115,128,0,348177:0:0:0:0:
182,192,348146,128,0,348177:0:0:0:0:
256,192,348177,1,0,0:0:0:0:
402,192,348208,128,0,348239:0:0:0:0:
109,192,348208,1,0,0:0:0:0:
182,192,348208,1,0,0:0:0:0:
36,192,348208,1,0,0:0:0:0:
329,192,348239,128,0,348270:0:0:0:0:
256,192,348270,128,0,348301:0:0:0:0:
182,192,348301,128,0,348332:0:0:0:0:
109,192,348332,128,0,348363:0:0:0:0:
329,192,348332,1,0,0:0:0:0:
402,192,348332,1,0,0:0:0:0:
475,192,348332,1,0,0:0:0:0:
182,192,348394,1,0,0:0:0:0:
256,192,348425,1,0,0:0:0:0:
36,192,348456,128,0,348518:0:0:0:0:
109,192,348456,1,0,0:0:0:0:
329,192,348456,1,0,0:0:0:0:
402,192,348487,1,0,0:0:0:0:
475,192,348518,1,0,0:0:0:0:
475,192,348580,128,0,348704:0:0:0:0:
36,192,348580,128,0,348673:0:0:0:0:
109,192,348611,128,0,348673:0:0:0:0:
182,192,348642,128,0,348673:0:0:0:0:
256,192,348673,1,0,0:0:0:0:
109,192,348704,1,0,0:0:0:0:
402,192,348704,128,0,348735:0:0:0:0:
182,192,348704,1,0,0:0:0:0:
36,192,348704,1,0,0:0:0:0:
329,192,348735,128,0,348766:0:0:0:0:
256,192,348766,128,0,348797:0:0:0:0:
182,192,348797,128,0,348828:0:0:0:0:
329,192,348828,128,0,348859:0:0:0:0:
109,192,348828,128,0,348859:0:0:0:0:
475,192,348828,128,0,348921:0:0:0:0:
402,192,348828,128,0,348890:0:0:0:0:
182,192,348890,1,0,0:0:0:0:
256,192,348921,1,0,0:0:0:0:
329,192,348952,1,0,0:0:0:0:
36,192,348952,128,0,349014:0:0:0:0:
109,192,348952,1,0,0:0:0:0:
402,192,348983,1,0,0:0:0:0:
475,192,349014,1,0,0:0:0:0:
36,192,349076,128,0,349200:0:0:0:0:
475,192,349076,128,0,349169:0:0:0:0:
402,192,349107,128,0,349169:0:0:0:0:
329,192,349138,128,0,349169:0:0:0:0:
256,192,349169,1,0,0:0:0:0:
109,192,349200,128,0,349231:0:0:0:0:
402,192,349200,1,0,0:0:0:0:
329,192,349200,1,0,0:0:0:0:
475,192,349200,1,0,0:0:0:0:
182,192,349231,128,0,349262:0:0:0:0:
256,192,349262,128,0,349292:0:0:0:0:
329,192,349292,128,0,349323:0:0:0:0:
402,192,349323,128,0,349354:0:0:0:0:
36,192,349323,128,0,349416:0:0:0:0:
109,192,349323,128,0,349385:0:0:0:0:
182,192,349323,128,0,349354:0:0:0:0:
329,192,349385,1,0,0:0:0:0:
256,192,349416,1,0,0:0:0:0:
475,192,349447,128,0,349509:0:0:0:0:
402,192,349447,1,0,0:0:0:0:
182,192,349447,1,0,0:0:0:0:
109,192,349478,1,0,0:0:0:0:
36,192,349509,1,0,0:0:0:0:
36,192,349571,128,0,349695:0:0:0:0:
475,192,349571,128,0,349664:0:0:0:0:
402,192,349602,128,0,349664:0:0:0:0:
329,192,349633,128,0,349664:0:0:0:0:
256,192,349664,1,0,0:0:0:0:
402,192,349695,1,0,0:0:0:0:
109,192,349695,128,0,349726:0:0:0:0:
329,192,349695,1,0,0:0:0:0:
475,192,349695,1,0,0:0:0:0:
182,192,349726,128,0,349757:0:0:0:0:
256,192,349757,128,0,349788:0:0:0:0:
329,192,349788,128,0,349819:0:0:0:0:
182,192,349819,128,0,349850:0:0:0:0:
402,192,349819,128,0,349850:0:0:0:0:
36,192,349819,128,0,349912:0:0:0:0:
109,192,349819,128,0,349881:0:0:0:0:
329,192,349881,1,0,0:0:0:0:
256,192,349912,1,0,0:0:0:0:
182,192,349943,1,0,0:0:0:0:
475,192,349943,128,0,350005:0:0:0:0:
402,192,349943,1,0,0:0:0:0:
109,192,349974,1,0,0:0:0:0:
36,192,350005,1,0,0:0:0:0:
475,192,350067,1,0,0:0:0:0:
36,192,350067,128,0,350284:0:0:0:0:
402,192,350098,1,0,0:0:0:0:
109,192,350098,128,0,350253:0:0:0:0:
329,192,350129,1,0,0:0:0:0:
182,192,350129,128,0,350222:0:0:0:0:
256,192,350160,128,0,350191:0:0:0:0:
475,192,350160,128,0,350439:0:0:0:0:
402,192,350191,128,0,350408:0:0:0:0:
329,192,350222,128,0,350377:0:0:0:0:
256,192,350253,128,0,350346:0:0:0:0:
182,192,350284,128,0,350315:0:0:0:0:
109,192,350315,128,0,350346:0:0:0:0:
36,192,350346,128,0,350532:0:0:0:0:
182,192,350377,1,0,0:0:0:0:
256,192,350408,1,0,0:0:0:0:
329,192,350439,1,0,0:0:0:0:
109,192,350439,128,0,350532:0:0:0:0:
402,192,350470,1,0,0:0:0:0:
182,192,350470,128,0,350532:0:0:0:0:
475,192,350501,1,0,0:0:0:0:
256,192,350501,128,0,350532:0:0:0:0:
36,192,350563,1,0,0:0:0:0:
475,192,350563,128,0,350780:0:0:0:0:
109,192,350594,1,0,0:0:0:0:
402,192,350594,128,0,350749:0:0:0:0:
182,192,350625,1,0,0:0:0:0:
329,192,350625,128,0,350718:0:0:0:0:
256,192,350656,128,0,350687:0:0:0:0:
36,192,350656,128,0,350935:0:0:0:0:
109,192,350687,128,0,350904:0:0:0:0:
182,192,350718,128,0,350873:0:0:0:0:
256,192,350749,128,0,350842:0:0:0:0:
329,192,350780,128,0,350811:0:0:0:0:
402,192,350811,128,0,350842:0:0:0:0:
475,192,350842,128,0,351028:0:0:0:0:
329,192,350873,1,0,0:0:0:0:
256,192,350904,1,0,0:0:0:0:
182,192,350935,1,0,0:0:0:0:
402,192,350935,128,0,351028:0:0:0:0:
109,192,350966,1,0,0:0:0:0:
329,192,350966,128,0,351028:0:0:0:0:
36,192,350997,1,0,0:0:0:0:
256,192,350997,128,0,351028:0:0:0:0:
329,192,351059,128,0,351162:0:0:0:0:
402,192,351059,128,0,351162:0:0:0:0:
475,192,351059,128,0,351162:0:0:0:0:
182,192,351059,128,0,351162:0:0:0:0:
36,192,351059,128,0,351162:0:0:0:0:
109,192,351059,1,0,0:0:0:0:
256,192,351059,1,0,0:0:0:0:
109,192,351183,128,0,351286:0:0:0:0:
475,192,351183,128,0,351286:0:0:0:0:
402,192,351183,128,0,351286:0:0:0:0:
329,192,351183,128,0,351286:0:0:0:0:
256,192,351183,1,0,0:0:0:0:
182,192,351183,1,0,0:0:0:0:
36,192,351183,1,0,0:0:0:0:
182,192,351307,128,0,351410:0:0:0:0:
329,192,351307,128,0,351410:0:0:0:0:
475,192,351307,128,0,351410:0:0:0:0:
402,192,351307,128,0,351410:0:0:0:0:
36,192,351307,128,0,351410:0:0:0:0:
109,192,351307,1,0,0:0:0:0:
256,192,351307,1,0,0:0:0:0:
109,192,351431,128,0,351534:0:0:0:0:
329,192,351431,128,0,351534:0:0:0:0:
402,192,351431,128,0,351534:0:0:0:0:
475,192,351431,128,0,351534:0:0:0:0:
36,192,351431,1,0,0:0:0:0:
182,192,351431,1,0,0:0:0:0:
256,192,351431,1,0,0:0:0:0:
182,192,351555,128,0,351658:0:0:0:0:
109,192,351555,128,0,351658:0:0:0:0:
36,192,351555,128,0,351658:0:0:0:0:
329,192,351555,128,0,351658:0:0:0:0:
475,192,351555,128,0,351658:0:0:0:0:
256,192,351555,1,0,0:0:0:0:
402,192,351555,1,0,0:0:0:0:
402,192,351679,128,0,351782:0:0:0:0:
36,192,351679,128,0,351782:0:0:0:0:
109,192,351679,128,0,351782:0:0:0:0:
182,192,351679,128,0,351782:0:0:0:0:
329,192,351679,1,0,0:0:0:0:
256,192,351679,1,0,0:0:0:0:
475,192,351679,1,0,0:0:0:0:
329,192,351803,128,0,351906:0:0:0:0:
182,192,351803,128,0,351906:0:0:0:0:
36,192,351803,128,0,351906:0:0:0:0:
109,192,351803,128,0,351906:0:0:0:0:
475,192,351803,128,0,351906:0:0:0:0:
256,192,351803,1,0,0:0:0:0:
402,192,351803,1,0,0:0:0:0:
402,192,351927,128,0,352030:0:0:0:0:
182,192,351927,128,0,352030:0:0:0:0:
109,192,351927,128,0,352030:0:0:0:0:
36,192,351927,128,0,352030:0:0:0:0:
329,192,351927,1,0,0:0:0:0:
256,192,351927,1,0,0:0:0:0:
475,192,351927,1,0,0:0:0:0:
182,192,352051,1,0,0:0:0:0:
109,192,352051,1,0,0:0:0:0:
36,192,352051,1,0,0:0:0:0:
402,192,352051,1,0,0:0:0:0:
329,192,352051,1,0,0:0:0:0:
475,192,352051,1,0,0:0:0:0:
256,192,352051,1,0,0:0:0:0:
109,192,352175,128,0,352237:0:0:0:0:
36,192,352175,128,0,352237:0:0:0:0:
256,192,352175,1,0,0:0:0:0:
402,192,352175,1,0,0:0:0:0:
36,192,352299,1,0,0:0:0:0:
109,192,352299,1,0,0:0:0:0:
182,192,352299,1,0,0:0:0:0:
329,192,352299,1,0,0:0:0:0:
402,192,352299,1,0,0:0:0:0:
475,192,352299,1,0,0:0:0:0:
256,192,352299,1,0,0:0:0:0:
109,192,352423,128,0,352485:0:0:0:0:
402,192,352423,128,0,352485:0:0:0:0:
256,192,352423,1,0,0:0:0:0:
402,192,352547,1,0,0:0:0:0:
329,192,352547,1,0,0:0:0:0:
256,192,352547,1,0,0:0:0:0:
182,192,352547,1,0,0:0:0:0:
109,192,352547,1,0,0:0:0:0:
475,192,352547,1,0,0:0:0:0:
36,192,352547,1,0,0:0:0:0:
402,192,352671,128,0,352733:0:0:0:0:
475,192,352671,128,0,352733:0:0:0:0:
256,192,352671,1,0,0:0:0:0:
109,192,352671,1,0,0:0:0:0:
475,192,352795,1,0,0:0:0:0:
402,192,352795,1,0,0:0:0:0:
329,192,352795,1,0,0:0:0:0:
182,192,352795,1,0,0:0:0:0:
109,192,352795,1,0,0:0:0:0:
36,192,352795,1,0,0:0:0:0:
256,192,352919,1,0,0:0:0:0:
109,192,352919,128,0,352981:0:0:0:0:
402,192,352919,128,0,352981:0:0:0:0:
475,192,353042,1,0,0:0:0:0:
402,192,353042,1,0,0:0:0:0:
329,192,353042,1,0,0:0:0:0:
36,192,353042,1,0,0:0:0:0:
182,192,353042,1,0,0:0:0:0:
256,192,353042,1,0,0:0:0:0:
109,192,353104,1,0,0:0:0:0:
329,192,353166,128,0,353228:0:0:0:0:
36,192,353166,128,0,353228:0:0:0:0:
182,192,353166,1,0,0:0:0:0:
256,192,353228,1,0,0:0:0:0:
36,192,353290,1,0,0:0:0:0:
109,192,353290,1,0,0:0:0:0:
402,192,353290,1,0,0:0:0:0:
475,192,353290,1,0,0:0:0:0:
329,192,353290,1,0,0:0:0:0:
256,192,353352,1,0,0:0:0:0:
182,192,353414,128,0,353476:0:0:0:0:
475,192,353414,128,0,353476:0:0:0:0:
109,192,353476,1,0,0:0:0:0:
36,192,353538,1,0,0:0:0:0:
402,192,353538,1,0,0:0:0:0:
475,192,353538,1,0,0:0:0:0:
256,192,353538,1,0,0:0:0:0:
182,192,353538,1,0,0:0:0:0:
329,192,353600,1,0,0:0:0:0:
256,192,353662,128,0,353724:0:0:0:0:
109,192,353662,128,0,353724:0:0:0:0:
402,192,353662,128,0,353724:0:0:0:0:
182,192,353724,1,0,0:0:0:0:
329,192,353724,1,0,0:0:0:0:
256,192,353786,1,0,0:0:0:0:
109,192,353786,1,0,0:0:0:0:
36,192,353786,1,0,0:0:0:0:
402,192,353786,1,0,0:0:0:0:
475,192,353786,1,0,0:0:0:0:
182,192,353848,1,0,0:0:0:0:
329,192,353848,1,0,0:0:0:0:
36,192,353910,128,0,353972:0:0:0:0:
256,192,353910,128,0,353972:0:0:0:0:
475,192,353910,128,0,353972:0:0:0:0:
109,192,353972,1,0,0:0:0:0:
402,192,353972,1,0,0:0:0:0:
329,192,354034,1,0,0:0:0:0:
256,192,354034,1,0,0:0:0:0:
36,192,354034,1,0,0:0:0:0:
475,192,354034,1,0,0:0:0:0:
182,192,354096,1,0,0:0:0:0:
109,192,354158,128,0,354220:0:0:0:0:
256,192,354158,128,0,354220:0:0:0:0:
402,192,354158,128,0,354220:0:0:0:0:
36,192,354220,1,0,0:0:0:0:
402,192,354282,1,0,0:0:0:0:
109,192,354282,1,0,0:0:0:0:
256,192,354282,1,0,0:0:0:0:
475,192,354282,1,0,0:0:0:0:
182,192,354344,1,0,0:0:0:0:
256,192,354406,128,0,354468:0:0:0:0:
36,192,354406,128,0,354468:0:0:0:0:
475,192,354406,128,0,354468:0:0:0:0:
329,192,354468,1,0,0:0:0:0:
182,192,354530,1,0,0:0:0:0:
36,192,354530,1,0,0:0:0:0:
475,192,354530,1,0,0:0:0:0:
402,192,354530,1,0,0:0:0:0:
256,192,354530,1,0,0:0:0:0:
329,192,354592,1,0,0:0:0:0:
256,192,354654,128,0,354716:0:0:0:0:
109,192,354654,128,0,354716:0:0:0:0:
402,192,354654,128,0,354716:0:0:0:0:
182,192,354716,1,0,0:0:0:0:
109,192,354778,1,0,0:0:0:0:
36,192,354778,1,0,0:0:0:0:
329,192,354778,1,0,0:0:0:0:
402,192,354840,1,0,0:0:0:0:
329,192,354902,128,0,354964:0:0:0:0:
256,192,354902,128,0,354964:0:0:0:0:
182,192,354902,128,0,354964:0:0:0:0:
475,192,354902,1,0,0:0:0:0:
402,192,354964,1,0,0:0:0:0:
329,192,355026,1,0,0:0:0:0:
475,192,355026,1,0,0:0:0:0:
109,192,355026,1,0,0:0:0:0:
36,192,355026,1,0,0:0:0:0:
256,192,355026,1,0,0:0:0:0:
182,192,355088,1,0,0:0:0:0:
402,192,355150,128,0,355212:0:0:0:0:
475,192,355150,128,0,355212:0:0:0:0:
256,192,355150,1,0,0:0:0:0:
36,192,355150,128,0,355212:0:0:0:0:
109,192,355150,128,0,355212:0:0:0:0:
182,192,355212,1,0,0:0:0:0:
475,192,355274,1,0,0:0:0:0:
402,192,355274,1,0,0:0:0:0:
109,192,355274,1,0,0:0:0:0:
36,192,355274,1,0,0:0:0:0:
329,192,355336,1,0,0:0:0:0:
402,192,355398,128,0,355460:0:0:0:0:
109,192,355398,128,0,355460:0:0:0:0:
256,192,355398,1,0,0:0:0:0:
329,192,355460,1,0,0:0:0:0:
109,192,355522,1,0,0:0:0:0:
182,192,355522,1,0,0:0:0:0:
402,192,355522,1,0,0:0:0:0:
36,192,355522,1,0,0:0:0:0:
475,192,355522,1,0,0:0:0:0:
256,192,355584,1,0,0:0:0:0:
182,192,355646,128,0,355708:0:0:0:0:
36,192,355646,128,0,355708:0:0:0:0:
329,192,355646,128,0,355708:0:0:0:0:
475,192,355646,128,0,355708:0:0:0:0:
256,192,355708,1,0,0:0:0:0:
36,192,355770,1,0,0:0:0:0:
109,192,355770,1,0,0:0:0:0:
182,192,355770,1,0,0:0:0:0:
329,192,355770,1,0,0:0:0:0:
402,192,355770,1,0,0:0:0:0:
475,192,355770,1,0,0:0:0:0:
402,192,355894,128,0,355956:0:0:0:0:
109,192,355894,128,0,355956:0:0:0:0:
182,192,355894,128,0,355956:0:0:0:0:
329,192,355894,128,0,355956:0:0:0:0:
475,192,355894,128,0,355956:0:0:0:0:
36,192,355894,128,0,355956:0:0:0:0:
36,192,356018,1,0,0:0:0:0:
109,192,356018,1,0,0:0:0:0:
182,192,356018,1,0,0:0:0:0:
329,192,356018,1,0,0:0:0:0:
402,192,356018,1,0,0:0:0:0:
256,192,356018,1,0,0:0:0:0:
475,192,356018,1,0,0:0:0:0:
36,192,356142,128,0,356204:0:0:0:0:
109,192,356142,128,0,356204:0:0:0:0:
182,192,356142,128,0,356204:0:0:0:0:
256,192,356142,128,0,356204:0:0:0:0:
329,192,356142,128,0,356204:0:0:0:0:
402,192,356142,128,0,356204:0:0:0:0:
475,192,356142,128,0,356204:0:0:0:0:
475,192,356266,128,0,356328:0:0:0:0:
402,192,356266,128,0,356328:0:0:0:0:
329,192,356266,128,0,356328:0:0:0:0:
256,192,356266,128,0,356328:0:0:0:0:
182,192,356266,128,0,356328:0:0:0:0:
109,192,356266,128,0,356328:0:0:0:0:
36,192,356266,128,0,356328:0:0:0:0:
182,192,356390,1,0,0:0:0:0:
36,192,356390,1,0,0:0:0:0:
329,192,356390,1,0,0:0:0:0:
475,192,356390,1,0,0:0:0:0:
109,192,356390,1,0,0:0:0:0:
256,192,356390,1,0,0:0:0:0:
402,192,356390,1,0,0:0:0:0:
36,192,356514,128,0,356746:0:0:0:0:
109,192,356514,128,0,356731:0:0:0:0:
182,192,356514,128,0,356700:0:0:0:0:
256,192,356514,128,0,356669:0:0:0:0:
329,192,356514,128,0,356607:0:0:0:0:
402,192,356514,128,0,356576:0:0:0:0:
475,192,356514,128,0,356545:0:0:0:0:
329,192,356638,128,0,356731:0:0:0:0:
402,192,356638,128,0,356700:0:0:0:0:
475,192,356638,128,0,356669:0:0:0:0:
256,192,356762,128,0,356792:0:0:0:0:
182,192,356762,128,0,356823:0:0:0:0:
109,192,356762,128,0,356854:0:0:0:0:
329,192,356762,128,0,356865:0:0:0:0:
402,192,356762,128,0,356844:0:0:0:0:
475,192,356762,128,0,356823:0:0:0:0:
36,192,356762,128,0,356777:0:0:0:0:
256,192,356885,128,0,356989:0:0:0:0:
475,192,356885,128,0,356978:0:0:0:0:
182,192,356906,128,0,356989:0:0:0:0:
402,192,356916,128,0,356978:0:0:0:0:
109,192,356927,128,0,356989:0:0:0:0:
36,192,356947,128,0,356989:0:0:0:0:
329,192,356947,128,0,356978:0:0:0:0:
475,192,357009,1,0,0:0:0:0:
402,192,357009,1,0,0:0:0:0:
329,192,357009,1,0,0:0:0:0:
256,192,357009,1,0,0:0:0:0:
182,192,357009,1,0,0:0:0:0:
109,192,357009,1,0,0:0:0:0:
36,192,357009,1,0,0:0:0:0:
256,192,357133,128,0,357237:0:0:0:0:
36,192,357133,128,0,357226:0:0:0:0:
329,192,357154,128,0,357237:0:0:0:0:
109,192,357164,128,0,357226:0:0:0:0:
402,192,357175,128,0,357237:0:0:0:0:
182,192,357195,128,0,357226:0:0:0:0:
475,192,357195,128,0,357237:0:0:0:0:
109,192,357257,1,0,0:0:0:0:
329,192,357257,1,0,0:0:0:0:
475,192,357257,1,0,0:0:0:0:
402,192,357257,1,0,0:0:0:0:
182,192,357257,1,0,0:0:0:0:
36,192,357257,1,0,0:0:0:0:
256,192,357257,1,0,0:0:0:0:
36,192,357381,128,0,357423:0:0:0:0:
475,192,357381,128,0,357423:0:0:0:0:
109,192,357423,128,0,357464:0:0:0:0:
402,192,357423,128,0,357464:0:0:0:0:
182,192,357464,128,0,357505:0:0:0:0:
329,192,357464,128,0,357505:0:0:0:0:
256,192,357505,128,0,357547:0:0:0:0:
182,192,357547,128,0,357588:0:0:0:0:
329,192,357547,128,0,357588:0:0:0:0:
109,192,357588,128,0,357629:0:0:0:0:
402,192,357588,128,0,357629:0:0:0:0:
36,192,357629,128,0,357671:0:0:0:0:
475,192,357629,128,0,357671:0:0:0:0:
256,192,357629,1,0,0:0:0:0:
109,192,357691,128,0,357733:0:0:0:0:
402,192,357691,128,0,357733:0:0:0:0:
182,192,357753,128,0,357795:0:0:0:0:
329,192,357753,128,0,357795:0:0:0:0:
256,192,357753,1,0,0:0:0:0:
109,192,357815,128,0,357857:0:0:0:0:
402,192,357815,128,0,357857:0:0:0:0:
36,192,357877,128,0,357919:0:0:0:0:
475,192,357877,128,0,357919:0:0:0:0:
256,192,357877,1,0,0:0:0:0:
109,192,357939,128,0,357981:0:0:0:0:
402,192,357939,128,0,357981:0:0:0:0:
256,192,358001,1,0,0:0:0:0:
182,192,358001,128,0,358094:0:0:0:0:
329,192,358001,128,0,358094:0:0:0:0:
109,192,358125,128,0,358218:0:0:0:0:
402,192,358125,128,0,358218:0:0:0:0:
182,192,358125,1,0,0:0:0:0:
329,192,358125,1,0,0:0:0:0:
109,192,358249,1,0,0:0:0:0:
402,192,358249,1,0,0:0:0:0:
36,192,358373,1,0,0:0:0:0:
475,192,358373,1,0,0:0:0:0:
109,192,358435,1,0,0:0:0:0:
402,192,358435,1,0,0:0:0:0:
182,192,358497,128,0,358590:0:0:0:0:
256,192,358497,128,0,358590:0:0:0:0:
329,192,358497,128,0,358590:0:0:0:0:
109,192,358621,128,0,358714:0:0:0:0:
256,192,358621,128,0,358714:0:0:0:0:
402,192,358621,128,0,358714:0:0:0:0:
36,192,358745,128,0,358838:0:0:0:0:
256,192,358745,128,0,358838:0:0:0:0:
475,192,358745,128,0,358838:0:0:0:0:
36,192,358869,1,0,0:0:0:0:
109,192,358869,1,0,0:0:0:0:
182,192,358869,1,0,0:0:0:0:
256,192,358869,1,0,0:0:0:0:
402,192,358869,1,0,0:0:0:0:
475,192,358869,1,0,0:0:0:0:
329,192,358869,1,0,0:0:0:0:
109,192,359117,1,0,0:0:0:0:
256,192,359117,1,0,0:0:0:0:
475,192,359117,1,0,0:0:0:0:
329,192,359117,1,0,0:0:0:0:
402,192,359117,1,0,0:0:0:0:
182,192,359117,1,0,0:0:0:0:
36,192,359117,1,0,0:0:0:0:
402,192,359365,1,0,0:0:0:0:
182,192,359365,1,0,0:0:0:0:
36,192,359365,1,0,0:0:0:0:
329,192,359365,1,0,0:0:0:0:
109,192,359365,1,0,0:0:0:0:
256,192,359365,1,0,0:0:0:0:
475,192,359365,1,0,0:0:0:0:
36,192,359613,128,0,359644:0:0:0:0:
109,192,359613,128,0,359644:0:0:0:0:
182,192,359613,128,0,359644:0:0:0:0:
256,192,359613,128,0,359644:0:0:0:0:
329,192,359613,128,0,359644:0:0:0:0:
402,192,359613,128,0,359644:0:0:0:0:
475,192,359613,128,0,359644:0:0:0:0:
36,192,359737,128,0,359757:0:0:0:0:
109,192,359737,128,0,359757:0:0:0:0:
182,192,359737,128,0,359757:0:0:0:0:
256,192,359737,128,0,359757:0:0:0:0:
329,192,359737,128,0,359757:0:0:0:0:
402,192,359737,128,0,359757:0:0:0:0:
475,192,359737,128,0,359757:0:0:0:0:
36,192,359861,128,0,359876:0:0:0:0:
109,192,359861,128,0,359876:0:0:0:0:
182,192,359861,128,0,359876:0:0:0:0:
256,192,359861,128,0,359876:0:0:0:0:
329,192,359861,128,0,359876:0:0:0:0:
402,192,359861,128,0,359876:0:0:0:0:
475,192,359861,128,0,359876:0:0:0:0:
