osu file format v14

[General]
AudioFilename: audio.mp3
AudioLeadIn: 0
PreviewTime: 27468
Countdown: 0
SampleSet: Normal
StackLeniency: 0.7
Mode: 1
LetterboxInBreaks: 0
WidescreenStoryboard: 1

[Editor]
Bookmarks: 40,6897,13754,20611,27468,34325,41040
DistanceSpacing: 1.5
BeatDivisor: 4
GridSize: 32
TimelineZoom: 1.4

[Metadata]
Title:dogcheck
TitleUnicode:dogcheck
Artist:Toby Fox
ArtistUnicode:Toby Fox
Creator:Vasyadogs
Version:kantan
Source:DELTARUNE
Tags:video game electronic instrumental yenmaster undertale annoying dog delta rune papyrus sans bone joke undertale
BeatmapID:2802399
BeatmapSetID:1350798

[Difficulty]
HPDrainRate:9
CircleSize:2
OverallDifficulty:2
ApproachRate:10
SliderMultiplier:1.4
SliderTickRate:1

[Events]
//Background and Video events
0,0,"where's the dog.jpg",0,0
//Break Periods
//Storyboard Layer 0 (Background)
//Storyboard Layer 1 (Fail)
//Storyboard Layer 2 (Pass)
//Storyboard Layer 3 (Foreground)
//Storyboard Layer 4 (Overlay)
//Storyboard Sound Samples

[TimingPoints]
40,428.571428571429,4,1,0,35,1,0
40,-125,4,1,0,35,0,0
13754,-100,4,1,0,45,0,0
27468,-100,4,1,0,45,0,1
37754,-100,4,1,0,45,0,0

[HitObjects]
256,191,40,5,8,0:0:0:0:
256,191,1754,1,8,0:0:0:0:
255,191,3468,1,0,0:0:0:0:
255,192,5182,1,0,0:0:0:0:
256,192,6897,1,8,0:0:0:0:
256,192,8611,1,8,0:0:0:0:
256,191,10325,1,0,0:0:0:0:
256,191,12040,1,8,0:0:0:0:
256,191,13754,1,0,0:0:0:0:
256,191,14182,1,8,0:0:0:0:
256,191,14897,1,0,0:0:0:0:
256,191,15468,1,8,0:0:0:0:
256,191,15897,1,8,0:0:0:0:
256,191,16182,1,0,0:0:0:0:
256,191,17182,1,8,0:0:0:0:
256,191,17611,1,0,0:0:0:0:
256,191,18325,1,8,0:0:0:0:
256,191,18897,1,8,0:0:0:0:
256,191,19325,1,0,0:0:0:0:
256,191,20182,1,8,0:0:0:0:
256,191,20611,1,0,0:0:0:0:
256,191,21040,1,0,0:0:0:0:
256,191,21754,1,8,0:0:0:0:
256,191,22325,1,8,0:0:0:0:
256,191,22754,1,0,0:0:0:0:
256,191,23182,1,8,0:0:0:0:
256,191,23468,1,8,0:0:0:0:
256,191,23897,1,0,0:0:0:0:
255,194,25182,1,8,0:0:0:0:
255,194,25754,1,0,0:0:0:0:
255,194,26182,1,8,0:0:0:0:
255,194,26611,1,8,0:0:0:0:
255,194,27040,1,0,0:0:0:0:
255,194,27468,1,4,0:0:0:0:
255,194,28325,1,8,0:0:0:0:
255,194,28754,1,8,0:0:0:0:
255,194,29182,1,0,0:0:0:0:
255,194,30040,1,0,0:0:0:0:
255,194,30325,1,8,0:0:0:0:
255,194,30754,1,0,0:0:0:0:
255,194,31754,1,8,0:0:0:0:
255,194,32182,1,8,0:0:0:0:
255,194,32468,1,0,0:0:0:0:
255,194,33468,1,0,0:0:0:0:
255,194,33897,1,8,0:0:0:0:
255,194,34325,1,0,0:0:0:0:
255,194,34754,1,0,0:0:0:0:
255,194,35611,1,0,0:0:0:0:
255,194,36040,1,8,0:0:0:0:
255,194,36468,1,8,0:0:0:0:
255,194,36897,1,0,0:0:0:0:
255,194,37754,1,0,0:0:0:0:
255,194,38182,1,8,0:0:0:0:
255,194,39040,1,8,0:0:0:0:
255,194,39468,1,0,0:0:0:0:
255,194,39897,1,8,0:0:0:0:
255,194,40325,1,8,0:0:0:0:
255,194,40754,1,8,0:0:0:0:
255,194,41040,1,0,0:0:0:0:
